  0
SECTION
  2
HEADER
  9
$ACADVER
  1
AC1014
  9
$ACADMAINTVER
 70
     8
  9
$DWGCODEPAGE
  3
ANSI_1252
  9
$INSBASE
 10
0.0
 20
0.0
 30
0.0
  9
$EXTMIN
 10
-0.545129
 20
-3.153069
 30
0.0
  9
$EXTMAX
 10
1.829065
 20
1.567024
 30
3.330275
  9
$LIMMIN
 10
0.0
 20
0.0
  9
$LIMMAX
 10
12.0
 20
9.0
  9
$ORTHOMODE
 70
     0
  9
$REGENMODE
 70
     1
  9
$FILLMODE
 70
     1
  9
$QTEXTMODE
 70
     0
  9
$MIRRTEXT
 70
     1
  9
$DRAGMODE
 70
     2
  9
$LTSCALE
 40
1.0
  9
$OSMODE
 70
    37
  9
$ATTMODE
 70
     1
  9
$TEXTSIZE
 40
0.12
  9
$TRACEWID
 40
0.05
  9
$TEXTSTYLE
  7
STANDARD
  9
$CLAYER
  8
0
  9
$CELTYPE
  6
BYLAYER
  9
$CECOLOR
 62
   256
  9
$CELTSCALE
 40
1.0
  9
$DELOBJ
 70
     1
  9
$DISPSILH
 70
     0
  9
$DIMSCALE
 40
1.0
  9
$DIMASZ
 40
0.125
  9
$DIMEXO
 40
0.0625
  9
$DIMDLI
 40
0.375
  9
$DIMRND
 40
0.0
  9
$DIMDLE
 40
0.0
  9
$DIMEXE
 40
0.1
  9
$DIMTP
 40
0.0
  9
$DIMTM
 40
0.0
  9
$DIMTXT
 40
0.125
  9
$DIMCEN
 40
0.09
  9
$DIMTSZ
 40
0.0
  9
$DIMTOL
 70
     0
  9
$DIMLIM
 70
     0
  9
$DIMTIH
 70
     0
  9
$DIMTOH
 70
     1
  9
$DIMSE1
 70
     0
  9
$DIMSE2
 70
     0
  9
$DIMTAD
 70
     0
  9
$DIMZIN
 70
     4
  9
$DIMBLK
  1

  9
$DIMASO
 70
     1
  9
$DIMSHO
 70
     1
  9
$DIMPOST
  1

  9
$DIMAPOST
  1

  9
$DIMALT
 70
     1
  9
$DIMALTD
 70
     2
  9
$DIMALTF
 40
25.4
  9
$DIMLFAC
 40
1.0
  9
$DIMTOFL
 70
     0
  9
$DIMTVP
 40
0.0
  9
$DIMTIX
 70
     0
  9
$DIMSOXD
 70
     0
  9
$DIMSAH
 70
     0
  9
$DIMBLK1
  1

  9
$DIMBLK2
  1

  9
$DIMSTYLE
  2
ABECAD_3D
  9
$DIMCLRD
 70
     0
  9
$DIMCLRE
 70
     0
  9
$DIMCLRT
 70
     0
  9
$DIMTFAC
 40
1.5
  9
$DIMGAP
 40
0.09
  9
$DIMJUST
 70
     0
  9
$DIMSD1
 70
     0
  9
$DIMSD2
 70
     0
  9
$DIMTOLJ
 70
     1
  9
$DIMTZIN
 70
     4
  9
$DIMALTZ
 70
     4
  9
$DIMALTTZ
 70
     4
  9
$DIMFIT
 70
     5
  9
$DIMUPT
 70
     1
  9
$DIMUNIT
 70
     7
  9
$DIMDEC
 70
     6
  9
$DIMTDEC
 70
     6
  9
$DIMALTU
 70
     2
  9
$DIMALTTD
 70
     2
  9
$DIMTXSTY
  7
STANDARD
  9
$DIMAUNIT
 70
     0
  9
$LUNITS
 70
     2
  9
$LUPREC
 70
     4
  9
$SKETCHINC
 40
0.1
  9
$FILLETRAD
 40
0.0
  9
$AUNITS
 70
     0
  9
$AUPREC
 70
     0
  9
$MENU
  1
ACAD
  9
$ELEVATION
 40
0.0
  9
$PELEVATION
 40
0.0
  9
$THICKNESS
 40
0.0
  9
$LIMCHECK
 70
     0
  9
$BLIPMODE
 70
     0
  9
$CHAMFERA
 40
0.0
  9
$CHAMFERB
 40
0.0
  9
$CHAMFERC
 40
0.0
  9
$CHAMFERD
 40
0.0
  9
$SKPOLY
 70
     0
  9
$TDCREATE
 40
2451726.438389120
  9
$TDUPDATE
 40
2452010.490269675
  9
$TDINDWG
 40
0.8633334491
  9
$TDUSRTIMER
 40
0.8633334491
  9
$USRTIMER
 70
     1
  9
$ANGBASE
 50
0.0
  9
$ANGDIR
 70
     0
  9
$PDMODE
 70
     3
  9
$PDSIZE
 40
0.09
  9
$PLINEWID
 40
0.0
  9
$COORDS
 70
     1
  9
$SPLFRAME
 70
     1
  9
$SPLINETYPE
 70
     6
  9
$SPLINESEGS
 70
     8
  9
$ATTDIA
 70
     0
  9
$ATTREQ
 70
     1
  9
$HANDLING
 70
     1
  9
$HANDSEED
  5
6C8A8
  9
$SURFTAB1
 70
     6
  9
$SURFTAB2
 70
     6
  9
$SURFTYPE
 70
     6
  9
$SURFU
 70
     6
  9
$SURFV
 70
     6
  9
$UCSNAME
  2

  9
$UCSORG
 10
0.0
 20
0.0
 30
0.0
  9
$UCSXDIR
 10
1.0
 20
0.0
 30
0.0
  9
$UCSYDIR
 10
0.0
 20
1.0
 30
0.0
  9
$PUCSNAME
  2

  9
$PUCSORG
 10
0.0
 20
0.0
 30
0.0
  9
$PUCSXDIR
 10
1.0
 20
0.0
 30
0.0
  9
$PUCSYDIR
 10
0.0
 20
1.0
 30
0.0
  9
$USERI1
 70
     0
  9
$USERI2
 70
     0
  9
$USERI3
 70
     0
  9
$USERI4
 70
     0
  9
$USERI5
 70
     0
  9
$USERR1
 40
0.0
  9
$USERR2
 40
0.0
  9
$USERR3
 40
0.0
  9
$USERR4
 40
0.0
  9
$USERR5
 40
0.0
  9
$WORLDVIEW
 70
     1
  9
$SHADEDGE
 70
     3
  9
$SHADEDIF
 70
    70
  9
$TILEMODE
 70
     1
  9
$MAXACTVP
 70
    16
  9
$PINSBASE
 10
0.0
 20
0.0
 30
0.0
  9
$PLIMCHECK
 70
     0
  9
$PEXTMIN
 10
1.05
 20
0.8
 30
0.0
  9
$PEXTMAX
 10
9.45
 20
7.2
 30
0.0
  9
$PLIMMIN
 10
-0.25
 20
-0.25
  9
$PLIMMAX
 10
10.75
 20
8.25
  9
$UNITMODE
 70
     0
  9
$VISRETAIN
 70
     0
  9
$PLINEGEN
 70
     0
  9
$PSLTSCALE
 70
     1
  9
$TREEDEPTH
 70
  3020
  9
$PICKSTYLE
 70
     1
  9
$CMLSTYLE
  2
STANDARD
  9
$CMLJUST
 70
     0
  9
$CMLSCALE
 40
1.0
  9
$PROXYGRAPHICS
 70
     1
  9
$MEASUREMENT
 70
     0
  0
ENDSEC
  0
SECTION
  2
CLASSES
  0
CLASS
  1
DICTIONARYVAR
  2
AcDbDictionaryVar
  3
"AutoCAD"
 90
        0
280
     0
281
     0
  0
CLASS
  1
ACDBDICTIONARYWDFLT
  2
AcDbDictionaryWithDefault
  3
AutoCAD 2000
 90
        0
280
     0
281
     0
  0
CLASS
  1
ACDBPLACEHOLDER
  2
AcDbPlaceHolder
  3
AutoCAD 2000
 90
        0
280
     0
281
     0
  0
CLASS
  1
LAYOUT
  2
AcDbLayout
  3
AutoCAD 2000
 90
        0
280
     0
281
     0
  0
CLASS
  1
LONG_TRANSACTION
  2
AcDbLongTransaction
  3
AutoCAD 2000
 90
        0
280
     0
281
     0
  0
CLASS
  1
LWPOLYLINE
  2
AcDbPolyline
  3
"AutoCAD"
 90
        0
280
     0
281
     1
  0
CLASS
  1
HATCH
  2
AcDbHatch
  3
"ACAD_SEDONA"
 90
        0
280
     0
281
     1
  0
CLASS
  1
XRECORD
  2
AcDbXrecord
  3
"<Built In>"
 90
        0
280
     0
281
     0
  0
CLASS
  1
LONG_TRANSACTION
  2
AcDbLongTransaction
  3
AutoCAD 2000
 90
        0
280
     0
281
     0
  0
CLASS
  1
LWPOLYLINE
  2
AcDbPolyline
  3
"AutoCAD"
 90
        0
280
     0
281
     1
  0
CLASS
  1
HATCH
  2
AcDbHatch
  3
"ACAD_SEDONA"
 90
        0
280
     0
281
     1
  0
CLASS
  1
XRECORD
  2
AcDbXrecord
  3
"<Built In>"
 90
        0
280
     0
281
     0
  0
CLASS
  1
LONG_TRANSACTION
  2
AcDbLongTransaction
  3
AutoCAD 2000
 90
        0
280
     0
281
     0
  0
CLASS
  1
LWPOLYLINE
  2
AcDbPolyline
  3
"AutoCAD"
 90
        0
280
     0
281
     1
  0
CLASS
  1
HATCH
  2
AcDbHatch
  3
"ACAD_SEDONA"
 90
        0
280
     0
281
     1
  0
CLASS
  1
XRECORD
  2
AcDbXrecord
  3
"<Built In>"
 90
        0
280
     0
281
     0
  0
CLASS
  1
LONG_TRANSACTION
  2
AcDbLongTransaction
  3
AutoCAD 2000
 90
        0
280
     0
281
     0
  0
CLASS
  1
LWPOLYLINE
  2
AcDbPolyline
  3
"AutoCAD"
 90
        0
280
     0
281
     1
  0
CLASS
  1
HATCH
  2
AcDbHatch
  3
"ACAD_SEDONA"
 90
        0
280
     0
281
     1
  0
CLASS
  1
XRECORD
  2
AcDbXrecord
  3
"<Built In>"
 90
        0
280
     0
281
     0
  0
CLASS
  1
LONG_TRANSACTION
  2
AcDbLongTransaction
  3
AutoCAD 2000
 90
        0
280
     0
281
     0
  0
CLASS
  1
LWPOLYLINE
  2
AcDbPolyline
  3
"AutoCAD"
 90
        0
280
     0
281
     1
  0
CLASS
  1
HATCH
  2
AcDbHatch
  3
"ACAD_SEDONA"
 90
        0
280
     0
281
     1
  0
CLASS
  1
XRECORD
  2
AcDbXrecord
  3
"<Built In>"
 90
        0
280
     0
281
     0
  0
CLASS
  1
LONG_TRANSACTION
  2
AcDbLongTransaction
  3
AutoCAD 2000
 90
        0
280
     0
281
     0
  0
CLASS
  1
LWPOLYLINE
  2
AcDbPolyline
  3
"AutoCAD"
 90
        0
280
     0
281
     1
  0
CLASS
  1
HATCH
  2
AcDbHatch
  3
"ACAD_SEDONA"
 90
        0
280
     0
281
     1
  0
CLASS
  1
XRECORD
  2
AcDbXrecord
  3
"<Built In>"
 90
        0
280
     0
281
     0
  0
CLASS
  1
LONG_TRANSACTION
  2
AcDbLongTransaction
  3
AutoCAD 2000
 90
        0
280
     0
281
     0
  0
CLASS
  1
LWPOLYLINE
  2
AcDbPolyline
  3
"AutoCAD"
 90
        0
280
     0
281
     1
  0
CLASS
  1
HATCH
  2
AcDbHatch
  3
"ACAD_SEDONA"
 90
        0
280
     0
281
     1
  0
CLASS
  1
XRECORD
  2
AcDbXrecord
  3
"<Built In>"
 90
        0
280
     0
281
     0
  0
CLASS
  1
LONG_TRANSACTION
  2
AcDbLongTransaction
  3
AutoCAD 2000
 90
        0
280
     0
281
     0
  0
CLASS
  1
LWPOLYLINE
  2
AcDbPolyline
  3
"AutoCAD"
 90
        0
280
     0
281
     1
  0
CLASS
  1
HATCH
  2
AcDbHatch
  3
"ACAD_SEDONA"
 90
        0
280
     0
281
     1
  0
CLASS
  1
XRECORD
  2
AcDbXrecord
  3
"<Built In>"
 90
        0
280
     0
281
     0
  0
CLASS
  1
LONG_TRANSACTION
  2
AcDbLongTransaction
  3
AutoCAD 2000
 90
        0
280
     0
281
     0
  0
CLASS
  1
LWPOLYLINE
  2
AcDbPolyline
  3
"AutoCAD"
 90
        0
280
     0
281
     1
  0
CLASS
  1
HATCH
  2
AcDbHatch
  3
"ACAD_SEDONA"
 90
        0
280
     0
281
     1
  0
CLASS
  1
XRECORD
  2
AcDbXrecord
  3
"<Built In>"
 90
        0
280
     0
281
     0
  0
CLASS
  1
LONG_TRANSACTION
  2
AcDbLongTransaction
  3
AutoCAD 2000
 90
        0
280
     0
281
     0
  0
CLASS
  1
LWPOLYLINE
  2
AcDbPolyline
  3
"AutoCAD"
 90
        0
280
     0
281
     1
  0
CLASS
  1
HATCH
  2
AcDbHatch
  3
"ACAD_SEDONA"
 90
        0
280
     0
281
     1
  0
CLASS
  1
XRECORD
  2
AcDbXrecord
  3
"<Built In>"
 90
        0
280
     0
281
     0
  0
CLASS
  1
LONG_TRANSACTION
  2
AcDbLongTransaction
  3
AutoCAD 2000
 90
        0
280
     0
281
     0
  0
CLASS
  1
LWPOLYLINE
  2
AcDbPolyline
  3
"AutoCAD"
 90
        0
280
     0
281
     1
  0
CLASS
  1
HATCH
  2
AcDbHatch
  3
"ACAD_SEDONA"
 90
        0
280
     0
281
     1
  0
CLASS
  1
XRECORD
  2
AcDbXrecord
  3
"<Built In>"
 90
        0
280
     0
281
     0
  0
CLASS
  1
LONG_TRANSACTION
  2
AcDbLongTransaction
  3
AutoCAD 2000
 90
        0
280
     0
281
     0
  0
CLASS
  1
LWPOLYLINE
  2
AcDbPolyline
  3
"AutoCAD"
 90
        0
280
     0
281
     1
  0
CLASS
  1
HATCH
  2
AcDbHatch
  3
"ACAD_SEDONA"
 90
        0
280
     0
281
     1
  0
CLASS
  1
XRECORD
  2
AcDbXrecord
  3
"<Built In>"
 90
        0
280
     0
281
     0
  0
CLASS
  1
LONG_TRANSACTION
  2
AcDbLongTransaction
  3
AutoCAD 2000
 90
        0
280
     0
281
     0
  0
CLASS
  1
LWPOLYLINE
  2
AcDbPolyline
  3
"AutoCAD"
 90
        0
280
     0
281
     1
  0
CLASS
  1
HATCH
  2
AcDbHatch
  3
"ACAD_SEDONA"
 90
        0
280
     0
281
     1
  0
CLASS
  1
XRECORD
  2
AcDbXrecord
  3
"<Built In>"
 90
        0
280
     0
281
     0
  0
CLASS
  1
LONG_TRANSACTION
  2
AcDbLongTransaction
  3
AutoCAD 2000
 90
        0
280
     0
281
     0
  0
CLASS
  1
LWPOLYLINE
  2
AcDbPolyline
  3
"AutoCAD"
 90
        0
280
     0
281
     1
  0
CLASS
  1
HATCH
  2
AcDbHatch
  3
"ACAD_SEDONA"
 90
        0
280
     0
281
     1
  0
CLASS
  1
XRECORD
  2
AcDbXrecord
  3
"<Built In>"
 90
        0
280
     0
281
     0
  0
CLASS
  1
LONG_TRANSACTION
  2
AcDbLongTransaction
  3
AutoCAD 2000
 90
        0
280
     0
281
     0
  0
CLASS
  1
LWPOLYLINE
  2
AcDbPolyline
  3
"AutoCAD"
 90
        0
280
     0
281
     1
  0
CLASS
  1
HATCH
  2
AcDbHatch
  3
"ACAD_SEDONA"
 90
        0
280
     0
281
     1
  0
CLASS
  1
XRECORD
  2
AcDbXrecord
  3
"<Built In>"
 90
        0
280
     0
281
     0
  0
CLASS
  1
LONG_TRANSACTION
  2
AcDbLongTransaction
  3
AutoCAD 2000
 90
        0
280
     0
281
     0
  0
CLASS
  1
LWPOLYLINE
  2
AcDbPolyline
  3
"AutoCAD"
 90
        0
280
     0
281
     1
  0
CLASS
  1
HATCH
  2
AcDbHatch
  3
"ACAD_SEDONA"
 90
        0
280
     0
281
     1
  0
CLASS
  1
XRECORD
  2
AcDbXrecord
  3
"<Built In>"
 90
        0
280
     0
281
     0
  0
CLASS
  1
LONG_TRANSACTION
  2
AcDbLongTransaction
  3
AutoCAD 2000
 90
        0
280
     0
281
     0
  0
CLASS
  1
LWPOLYLINE
  2
AcDbPolyline
  3
"AutoCAD"
 90
        0
280
     0
281
     1
  0
CLASS
  1
HATCH
  2
AcDbHatch
  3
"ACAD_SEDONA"
 90
        0
280
     0
281
     1
  0
CLASS
  1
XRECORD
  2
AcDbXrecord
  3
"<Built In>"
 90
        0
280
     0
281
     0
  0
CLASS
  1
LONG_TRANSACTION
  2
AcDbLongTransaction
  3
AutoCAD 2000
 90
        0
280
     0
281
     0
  0
CLASS
  1
LWPOLYLINE
  2
AcDbPolyline
  3
"AutoCAD"
 90
        0
280
     0
281
     1
  0
CLASS
  1
HATCH
  2
AcDbHatch
  3
"ACAD_SEDONA"
 90
        0
280
     0
281
     1
  0
CLASS
  1
XRECORD
  2
AcDbXrecord
  3
"<Built In>"
 90
        0
280
     0
281
     0
  0
CLASS
  1
LONG_TRANSACTION
  2
AcDbLongTransaction
  3
AutoCAD 2000
 90
        0
280
     0
281
     0
  0
CLASS
  1
LWPOLYLINE
  2
AcDbPolyline
  3
"AutoCAD"
 90
        0
280
     0
281
     1
  0
CLASS
  1
HATCH
  2
AcDbHatch
  3
"ACAD_SEDONA"
 90
        0
280
     0
281
     1
  0
CLASS
  1
XRECORD
  2
AcDbXrecord
  3
"<Built In>"
 90
        0
280
     0
281
     0
  0
CLASS
  1
LONG_TRANSACTION
  2
AcDbLongTransaction
  3
AutoCAD 2000
 90
        0
280
     0
281
     0
  0
CLASS
  1
LWPOLYLINE
  2
AcDbPolyline
  3
"AutoCAD"
 90
        0
280
     0
281
     1
  0
CLASS
  1
HATCH
  2
AcDbHatch
  3
"ACAD_SEDONA"
 90
        0
280
     0
281
     1
  0
CLASS
  1
XRECORD
  2
AcDbXrecord
  3
"<Built In>"
 90
        0
280
     0
281
     0
  0
CLASS
  1
LONG_TRANSACTION
  2
AcDbLongTransaction
  3
AutoCAD 2000
 90
        0
280
     0
281
     0
  0
CLASS
  1
LWPOLYLINE
  2
AcDbPolyline
  3
"AutoCAD"
 90
        0
280
     0
281
     1
  0
CLASS
  1
HATCH
  2
AcDbHatch
  3
"ACAD_SEDONA"
 90
        0
280
     0
281
     1
  0
CLASS
  1
XRECORD
  2
AcDbXrecord
  3
"<Built In>"
 90
        0
280
     0
281
     0
  0
CLASS
  1
LONG_TRANSACTION
  2
AcDbLongTransaction
  3
AutoCAD 2000
 90
        0
280
     0
281
     0
  0
CLASS
  1
LWPOLYLINE
  2
AcDbPolyline
  3
"AutoCAD"
 90
        0
280
     0
281
     1
  0
CLASS
  1
HATCH
  2
AcDbHatch
  3
"ACAD_SEDONA"
 90
        0
280
     0
281
     1
  0
CLASS
  1
XRECORD
  2
AcDbXrecord
  3
"<Built In>"
 90
        0
280
     0
281
     0
  0
CLASS
  1
LONG_TRANSACTION
  2
AcDbLongTransaction
  3
AutoCAD 2000
 90
        0
280
     0
281
     0
  0
CLASS
  1
LWPOLYLINE
  2
AcDbPolyline
  3
"AutoCAD"
 90
        0
280
     0
281
     1
  0
CLASS
  1
HATCH
  2
AcDbHatch
  3
"ACAD_SEDONA"
 90
        0
280
     0
281
     1
  0
CLASS
  1
XRECORD
  2
AcDbXrecord
  3
"<Built In>"
 90
        0
280
     0
281
     0
  0
CLASS
  1
LONG_TRANSACTION
  2
AcDbLongTransaction
  3
AutoCAD 2000
 90
        0
280
     0
281
     0
  0
CLASS
  1
LWPOLYLINE
  2
AcDbPolyline
  3
"AutoCAD"
 90
        0
280
     0
281
     1
  0
CLASS
  1
HATCH
  2
AcDbHatch
  3
"ACAD_SEDONA"
 90
        0
280
     0
281
     1
  0
CLASS
  1
XRECORD
  2
AcDbXrecord
  3
"<Built In>"
 90
        0
280
     0
281
     0
  0
CLASS
  1
LONG_TRANSACTION
  2
AcDbLongTransaction
  3
AutoCAD 2000
 90
        0
280
     0
281
     0
  0
CLASS
  1
LWPOLYLINE
  2
AcDbPolyline
  3
"AutoCAD"
 90
        0
280
     0
281
     1
  0
CLASS
  1
HATCH
  2
AcDbHatch
  3
"ACAD_SEDONA"
 90
        0
280
     0
281
     1
  0
CLASS
  1
XRECORD
  2
AcDbXrecord
  3
"<Built In>"
 90
        0
280
     0
281
     0
  0
CLASS
  1
LONG_TRANSACTION
  2
AcDbLongTransaction
  3
AutoCAD 2000
 90
        0
280
     0
281
     0
  0
CLASS
  1
LWPOLYLINE
  2
AcDbPolyline
  3
"AutoCAD"
 90
        0
280
     0
281
     1
  0
CLASS
  1
HATCH
  2
AcDbHatch
  3
"ACAD_SEDONA"
 90
        0
280
     0
281
     1
  0
CLASS
  1
XRECORD
  2
AcDbXrecord
  3
"<Built In>"
 90
        0
280
     0
281
     0
  0
ENDSEC
  0
SECTION
  2
TABLES
  0
TABLE
  2
VPORT
  5
458C7
100
AcDbSymbolTable
 70
     1
  0
VPORT
  5
6C873
102
{ACAD_XDICTIONARY
360
6C876
102
}
100
AcDbSymbolTableRecord
100
AcDbViewportTableRecord
  2
*ACTIVE
 70
     0
 10
0.0
 20
0.0
 11
1.0
 21
1.0
 12
0.078348
 22
0.087363
 13
0.0
 23
0.0
 14
0.25
 24
0.25
 15
0.25
 25
0.25
 16
0.0
 26
0.0
 36
1.0
 17
0.563444
 27
-0.880137
 37
1.686493
 40
4.800681
 41
1.960674
 42
50.0
 43
0.0
 44
0.0
 50
0.0
 51
0.0
 71
     0
 72
 20000
 73
     1
 74
     1
 75
     0
 76
     0
 77
     0
 78
     0
  0
ENDTAB
  0
TABLE
  2
LTYPE
  5
458C4
100
AcDbSymbolTable
 70
     1
  0
LTYPE
  5
458D0
100
AcDbSymbolTableRecord
100
AcDbLinetypeTableRecord
  2
BYBLOCK
 70
     0
  3

 72
    65
 73
     0
 40
0.0
  0
LTYPE
  5
458D1
100
AcDbSymbolTableRecord
100
AcDbLinetypeTableRecord
  2
BYLAYER
 70
     0
  3

 72
    65
 73
     0
 40
0.0
  0
LTYPE
  5
458D2
100
AcDbSymbolTableRecord
100
AcDbLinetypeTableRecord
  2
CONTINUOUS
 70
     0
  3
Solid line
 72
    65
 73
     0
 40
0.0
  0
ENDTAB
  0
TABLE
  2
LAYER
  5
458C1
100
AcDbSymbolTable
 70
     7
  0
LAYER
  5
458CD
100
AcDbSymbolTableRecord
100
AcDbLayerTableRecord
  2
0
 70
     0
 62
     7
  6
CONTINUOUS
  0
LAYER
  5
458EA
100
AcDbSymbolTableRecord
100
AcDbLayerTableRecord
  2
DIMS-MTG-HOLES
 70
     0
 62
     1
  6
CONTINUOUS
  0
LAYER
  5
458EB
100
AcDbSymbolTableRecord
100
AcDbLayerTableRecord
  2
ATTRIBUTES
 70
     0
 62
     7
  6
CONTINUOUS
  0
LAYER
  5
4593B
102
{ACAD_XDICTIONARY
360
6C89F
102
}
100
AcDbSymbolTableRecord
100
AcDbLayerTableRecord
  2
AREA1
 70
     0
 62
    -7
  6
CONTINUOUS
  0
LAYER
  5
45940
102
{ACAD_XDICTIONARY
360
6C874
102
}
100
AcDbSymbolTableRecord
100
AcDbLayerTableRecord
  2
DEFPOINTS
 70
     0
 62
    -7
  6
CONTINUOUS
  0
LAYER
  5
45954
100
AcDbSymbolTableRecord
100
AcDbLayerTableRecord
  2
SCALE
 70
     0
 62
    -7
  6
CONTINUOUS
  0
LAYER
  5
4D59A
100
AcDbSymbolTableRecord
100
AcDbLayerTableRecord
  2
SNAP_POINTS
 70
     0
 62
    -1
  6
CONTINUOUS
  0
ENDTAB
  0
TABLE
  2
STYLE
  5
458C2
100
AcDbSymbolTable
 70
     1
  0
STYLE
  5
458CE
100
AcDbSymbolTableRecord
100
AcDbTextStyleTableRecord
  2
STANDARD
 70
     0
 40
0.0
 41
1.0
 50
0.0
 71
     0
 42
0.12
  3
txt
  4

  0
ENDTAB
  0
TABLE
  2
VIEW
  5
458C5
100
AcDbSymbolTable
 70
     0
  0
ENDTAB
  0
TABLE
  2
UCS
  5
458C6
100
AcDbSymbolTable
 70
     0
  0
ENDTAB
  0
TABLE
  2
APPID
  5
458C8
100
AcDbSymbolTable
 70
     2
  0
APPID
  5
458CF
100
AcDbSymbolTableRecord
100
AcDbRegAppTableRecord
  2
ACAD
 70
     0
  0
APPID
  5
5FD5B
100
AcDbSymbolTableRecord
100
AcDbRegAppTableRecord
  2
AVE_RENDER
 70
     0
  0
ENDTAB
  0
TABLE
  2
DIMSTYLE
  5
458C9
100
AcDbSymbolTable
 70
     1
  0
DIMSTYLE
105
458F6
102
{ACAD_XDICTIONARY
360
6C89B
102
}
102
{ACAD_REACTORS
330
6C7CB
330
6C7D9
102
}
100
AcDbSymbolTableRecord
100
AcDbDimStyleTableRecord
  2
ABECAD_3D
 70
     0
  3

  4

  5

  6

  7

 40
1.0
 41
0.125
 42
0.0625
 43
0.375
 44
0.1
 45
0.0
 46
0.0
 47
0.0
 48
0.0
140
0.125
141
0.09
142
0.0
143
25.4
144
1.0
145
0.0
146
1.5
147
0.09
 71
     0
 72
     0
 73
     0
 74
     1
 75
     0
 76
     0
 77
     0
 78
     4
170
     1
171
     2
172
     0
173
     0
174
     0
175
     0
176
     0
177
     0
178
     0
270
     7
271
     6
272
     6
273
     2
274
     2
340
458CE
275
     0
280
     0
281
     0
282
     0
283
     1
284
     4
285
     4
286
     4
287
     5
288
     1
  0
ENDTAB
  0
TABLE
  2
BLOCK_RECORD
  5
458C0
100
AcDbSymbolTable
 70
     3
  0
BLOCK_RECORD
  5
458D6
102
{ACAD_XDICTIONARY
360
4592C
102
}
100
AcDbSymbolTableRecord
100
AcDbBlockTableRecord
  2
*MODEL_SPACE
  0
BLOCK_RECORD
  5
458D3
102
{ACAD_XDICTIONARY
360
4592A
102
}
100
AcDbSymbolTableRecord
100
AcDbBlockTableRecord
  2
*PAPER_SPACE
  0
BLOCK_RECORD
  5
6B85B
100
AcDbSymbolTableRecord
100
AcDbBlockTableRecord
  2
AVE_RENDER
  0
BLOCK_RECORD
  5
6C7CC
100
AcDbSymbolTableRecord
100
AcDbBlockTableRecord
  2
*D1
  0
BLOCK_RECORD
  5
6C7DA
100
AcDbSymbolTableRecord
100
AcDbBlockTableRecord
  2
*D2
  0
ENDTAB
  0
ENDSEC
  0
SECTION
  2
BLOCKS
  0
BLOCK
  5
458DF
100
AcDbEntity
  8
0
100
AcDbBlockBegin
  2
*MODEL_SPACE
 70
     0
 10
0.0
 20
0.0
 30
0.0
  3
*MODEL_SPACE
  1

  0
ENDBLK
  5
458E0
100
AcDbEntity
  8
0
100
AcDbBlockEnd
  0
BLOCK
  5
458DD
100
AcDbEntity
 67
     1
  8
0
100
AcDbBlockBegin
  2
*PAPER_SPACE
 70
     0
 10
0.0
 20
0.0
 30
0.0
  3
*PAPER_SPACE
  1

  0
ENDBLK
  5
458DE
100
AcDbEntity
 67
     1
  8
0
100
AcDbBlockEnd
  0
BLOCK
  5
6B85C
100
AcDbEntity
  8
0
100
AcDbBlockBegin
  2
AVE_RENDER
 70
     0
 10
0.0
 20
0.0
 30
0.0
  3
AVE_RENDER
  1
AVE_RENDER
  0
ENDBLK
  5
6B85D
100
AcDbEntity
  8
0
100
AcDbBlockEnd
  0
BLOCK
  5
6C7D7
100
AcDbEntity
  8
0
100
AcDbBlockBegin
  2
*D1
 70
     1
 10
0.0
 20
0.0
 30
0.0
  3
*D1
  1

  0
LINE
  5
6C7CD
100
AcDbEntity
  8
AREA1
 62
     0
100
AcDbLine
 10
0.27021
 20
0.9585
 30
0.0
 11
-0.545129
 21
0.9585
 31
0.0
1001
ACAD
1000
RTLwPs
1070
   158
  0
LINE
  5
6C7CE
100
AcDbEntity
  8
AREA1
 62
     0
100
AcDbLine
 10
0.63721
 20
-2.2215
 30
0.0
 11
-0.545129
 21
-2.2215
 31
0.0
1001
ACAD
1000
RTLwPs
1070
   158
  0
LINE
  5
6C7CF
100
AcDbEntity
  8
AREA1
 62
     0
100
AcDbLine
 10
-0.445129
 20
0.8335
 30
0.0
 11
-0.445129
 21
0.211394
 31
0.0
1001
ACAD
1000
RTLwPs
1070
   158
  0
LINE
  5
6C7D0
100
AcDbEntity
  8
AREA1
 62
     0
100
AcDbLine
 10
-0.445129
 20
-2.0965
 30
0.0
 11
-0.445129
 21
-1.447773
 31
0.0
1001
ACAD
1000
RTLwPs
1070
   158
  0
MTEXT
  5
6C7D1
100
AcDbEntity
  8
AREA1
 62
     0
100
AcDbMText
 10
-0.445129
 20
-0.61819
 30
0.0
 40
0.125
 41
0.0
 71
     5
 72
     1
  1
\A1;3 3/16 [80.77]
 11
0.0
 21
1.0
 31
0.0
1001
ACAD
1000
MTEXTBEGIN
1070
    73
1070
     1
1070
    44
1040
1.0
1070
    74
1070
     0
1000
MTEXTEND
1000
MTEXTBEGIN
1070
    73
1070
     1
1070
    44
1040
1.0
1070
    74
1070
     0
1000
MTEXTEND
1000
MTEXTBEGIN
1070
    73
1070
     1
1070
    44
1040
1.0
1070
    74
1070
     0
1000
MTEXTEND
  0
SOLID
  5
6C7D2
100
AcDbEntity
  8
AREA1
 62
     0
100
AcDbTrace
 10
-0.465962
 20
0.8335
 30
0.0
 11
-0.424296
 21
0.8335
 31
0.0
 12
-0.445129
 22
0.9585
 32
0.0
 13
-0.445129
 23
0.9585
 33
0.0
  0
SOLID
  5
6C7D3
100
AcDbEntity
  8
AREA1
 62
     0
100
AcDbTrace
 10
-0.465962
 20
-2.0965
 30
0.0
 11
-0.424296
 21
-2.0965
 31
0.0
 12
-0.445129
 22
-2.2215
 32
0.0
 13
-0.445129
 23
-2.2215
 33
0.0
  0
POINT
  5
6C7D4
100
AcDbEntity
  8
DEFPOINTS
 62
     0
100
AcDbPoint
 10
0.33271
 20
0.9585
 30
1.384275
  0
POINT
  5
6C7D5
100
AcDbEntity
  8
DEFPOINTS
 62
     0
100
AcDbPoint
 10
0.69971
 20
-2.2215
 30
1.384275
  0
POINT
  5
6C7D6
100
AcDbEntity
  8
DEFPOINTS
 62
     0
100
AcDbPoint
 10
-0.445129
 20
-2.2215
 30
0.0
  0
ENDBLK
  5
6C7D8
100
AcDbEntity
  8
0
100
AcDbBlockEnd
  0
BLOCK
  5
6C7E4
100
AcDbEntity
  8
0
100
AcDbBlockBegin
  2
*D2
 70
     1
 10
0.0
 20
0.0
 30
0.0
  3
*D2
  1

  0
LINE
  5
6C7E6
100
AcDbEntity
  8
AREA1
 62
     0
100
AcDbLine
 10
0.00021
 20
0.601
 30
0.0
 11
0.00021
 21
1.394721
 31
0.0
1001
ACAD
1000
RTLwPs
1070
   158
  0
LINE
  5
6C7E7
100
AcDbEntity
  8
AREA1
 62
     0
100
AcDbLine
 10
1.76521
 20
0.637
 30
0.0
 11
1.76521
 21
1.394721
 31
0.0
1001
ACAD
1000
RTLwPs
1070
   158
  0
LINE
  5
6C7E8
100
AcDbEntity
  8
AREA1
 62
     0
100
AcDbLine
 10
0.12521
 20
1.294721
 30
0.0
 11
1.64021
 21
1.294721
 31
0.0
1001
ACAD
1000
RTLwPs
1070
   158
  0
MTEXT
  5
6C7E9
100
AcDbEntity
  8
AREA1
 62
     0
100
AcDbMText
 10
0.876534
 20
1.504524
 30
0.0
 40
0.125
 41
0.0
 71
     5
 72
     1
  1
\A1;1 49/64 [44.83]
1001
ACAD
1000
MTEXTBEGIN
1070
    73
1070
     1
1070
    44
1040
1.0
1070
    74
1070
     0
1000
MTEXTEND
1000
MTEXTBEGIN
1070
    73
1070
     1
1070
    44
1040
1.0
1070
    74
1070
     0
1000
MTEXTEND
1000
MTEXTBEGIN
1070
    73
1070
     1
1070
    44
1040
1.0
1070
    74
1070
     0
1000
MTEXTEND
  0
SOLID
  5
6C7EA
100
AcDbEntity
  8
AREA1
 62
     0
100
AcDbTrace
 10
0.12521
 20
1.315554
 30
0.0
 11
0.12521
 21
1.273887
 31
0.0
 12
0.00021
 22
1.294721
 32
0.0
 13
0.00021
 23
1.294721
 33
0.0
  0
SOLID
  5
6C7EB
100
AcDbEntity
  8
AREA1
 62
     0
100
AcDbTrace
 10
1.64021
 20
1.315554
 30
0.0
 11
1.64021
 21
1.273887
 31
0.0
 12
1.76521
 22
1.294721
 32
0.0
 13
1.76521
 23
1.294721
 33
0.0
  0
POINT
  5
6C7EC
100
AcDbEntity
  8
DEFPOINTS
 62
     0
100
AcDbPoint
 10
0.00021
 20
0.5385
 30
2.058275
  0
POINT
  5
6C7ED
100
AcDbEntity
  8
DEFPOINTS
 62
     0
100
AcDbPoint
 10
1.76521
 20
0.5745
 30
0.0
  0
POINT
  5
6C7EE
100
AcDbEntity
  8
DEFPOINTS
 62
     0
100
AcDbPoint
 10
1.76521
 20
1.294721
 30
0.0
  0
ENDBLK
  5
6C7E5
100
AcDbEntity
  8
0
100
AcDbBlockEnd
  0
ENDSEC
  0
SECTION
  2
ENTITIES
  0
ATTDEF
  5
6C3F1
100
AcDbEntity
  8
ATTRIBUTES
100
AcDbText
 10
0.100105
 20
-0.134243
 30
0.0
 40
0.08052
  1
ALLEN-BRADLEY
100
AcDbAttributeDefinition
  3
MANUFACTURER NAME?
  2
AC_VND_LABEL
 70
     1
  0
ATTDEF
  5
6C3F2
100
AcDbEntity
  8
ATTRIBUTES
100
AcDbText
 10
0.100105
 20
-0.301994
 30
0.0
 40
0.08052
  1
700-CF220,310,Z1330,Z2440,Z0330,Z0440
100
AcDbAttributeDefinition
  3
CATALOG NUMBER?
  2
AC_PART_NO
 70
     1
  0
ATTDEF
  5
6C3F3
100
AcDbEntity
  8
ATTRIBUTES
100
AcDbText
 10
0.100105
 20
-0.469745
 30
0.0
 40
0.08052
  1
MCS IEC CONTROL RELAY
100
AcDbAttributeDefinition
  3
PART DESCRIPTION?
  2
AC_DESCRIPTION
 70
     1
  0
ATTDEF
  5
6C3F4
100
AcDbEntity
  8
ATTRIBUTES
100
AcDbText
 10
0.100105
 20
-0.637495
 30
0.0
 40
0.08052
  1

100
AcDbAttributeDefinition
  3
DEVICE ID?
  2
DEVICE_ID
 70
     1
  0
ATTDEF
  5
6C3F5
100
AcDbEntity
  8
ATTRIBUTES
100
AcDbText
 10
0.100105
 20
-0.805246
 30
0.0
 40
0.08052
  1

100
AcDbAttributeDefinition
  3
CUSTOMER PART NUMBER?
  2
AC_CPART_NO
 70
     1
  0
ATTDEF
  5
6C3F6
100
AcDbEntity
  8
ATTRIBUTES
100
AcDbText
 10
0.100105
 20
-0.972997
 30
0.0
 40
0.08052
  1

100
AcDbAttributeDefinition
  3
CUSTOMER NOTE?
  2
AC_NOTE
 70
     1
  0
ATTDEF
  5
6C3F7
100
AcDbEntity
  8
ATTRIBUTES
100
AcDbText
 10
0.100105
 20
-1.140748
 30
0.0
 40
0.08052
  1

100
AcDbAttributeDefinition
  3
FASTENER DATA?
  2
FASTENER
 70
     1
  0
ATTDEF
  5
6C3F8
100
AcDbEntity
  8
ATTRIBUTES
100
AcDbText
 10
0.100105
 20
-1.308498
 30
0.0
 40
0.08052
  1
INCH
100
AcDbAttributeDefinition
  3
UNIT OF SCALE?
  2
AC_SCALE_UNIT
 70
     1
  0
ATTDEF
  5
6C3F9
100
AcDbEntity
  8
ATTRIBUTES
100
AcDbText
 10
0.100105
 20
-1.476249
 30
0.0
 40
0.08052
  1
0
100
AcDbAttributeDefinition
  3
VIEW CODE?
  2
AC_VIEW_CODE
 70
     1
  0
POLYLINE
  5
6C3FA
100
AcDbEntity
  8
0
100
AcDbPolygonMesh
 66
     1
 10
0.0
 20
0.0
 30
0.0
 70
    16
 71
     6
 72
     3
  0
VERTEX
  5
6C3FB
100
AcDbEntity
  8
0
100
AcDbVertex
100
AcDbPolygonMeshVertex
 10
1.76521
 20
0.2385
 30
0.316
 70
    64
  0
VERTEX
  5
6C3FC
100
AcDbEntity
  8
0
100
AcDbVertex
100
AcDbPolygonMeshVertex
 10
1.76521
 20
0.2385
 30
0.0
 70
    64
  0
VERTEX
  5
6C3FD
100
AcDbEntity
  8
0
100
AcDbVertex
100
AcDbPolygonMeshVertex
 10
1.76521
 20
0.2385
 30
0.0
 70
    64
  0
VERTEX
  5
6C3FE
100
AcDbEntity
  8
0
100
AcDbVertex
100
AcDbPolygonMeshVertex
 10
1.37421
 20
0.2385
 30
0.316
 70
    64
  0
VERTEX
  5
6C3FF
100
AcDbEntity
  8
0
100
AcDbVertex
100
AcDbPolygonMeshVertex
 10
1.37421
 20
0.2385
 30
0.0
 70
    64
  0
VERTEX
  5
6C400
100
AcDbEntity
  8
0
100
AcDbVertex
100
AcDbPolygonMeshVertex
 10
1.37421
 20
0.2385
 30
0.0
 70
    64
  0
VERTEX
  5
6C401
100
AcDbEntity
  8
0
100
AcDbVertex
100
AcDbPolygonMeshVertex
 10
1.37421
 20
0.5745
 30
0.316
 70
    64
  0
VERTEX
  5
6C402
100
AcDbEntity
  8
0
100
AcDbVertex
100
AcDbPolygonMeshVertex
 10
1.37421
 20
0.5745
 30
0.0
 70
    64
  0
VERTEX
  5
6C403
100
AcDbEntity
  8
0
100
AcDbVertex
100
AcDbPolygonMeshVertex
 10
1.37421
 20
0.2385
 30
0.0
 70
    64
  0
VERTEX
  5
6C404
100
AcDbEntity
  8
0
100
AcDbVertex
100
AcDbPolygonMeshVertex
 10
1.76521
 20
0.5745
 30
0.316
 70
    64
  0
VERTEX
  5
6C405
100
AcDbEntity
  8
0
100
AcDbVertex
100
AcDbPolygonMeshVertex
 10
1.76521
 20
0.5745
 30
0.0
 70
    64
  0
VERTEX
  5
6C406
100
AcDbEntity
  8
0
100
AcDbVertex
100
AcDbPolygonMeshVertex
 10
1.76521
 20
0.2385
 30
0.0
 70
    64
  0
VERTEX
  5
6C407
100
AcDbEntity
  8
0
100
AcDbVertex
100
AcDbPolygonMeshVertex
 10
1.76521
 20
0.5745
 30
0.316
 70
    64
  0
VERTEX
  5
6C408
100
AcDbEntity
  8
0
100
AcDbVertex
100
AcDbPolygonMeshVertex
 10
1.76521
 20
0.5745
 30
0.316
 70
    64
  0
VERTEX
  5
6C409
100
AcDbEntity
  8
0
100
AcDbVertex
100
AcDbPolygonMeshVertex
 10
1.76521
 20
0.2385
 30
0.316
 70
    64
  0
VERTEX
  5
6C40A
100
AcDbEntity
  8
0
100
AcDbVertex
100
AcDbPolygonMeshVertex
 10
1.37421
 20
0.5745
 30
0.316
 70
    64
  0
VERTEX
  5
6C40B
100
AcDbEntity
  8
0
100
AcDbVertex
100
AcDbPolygonMeshVertex
 10
1.37421
 20
0.5745
 30
0.316
 70
    64
  0
VERTEX
  5
6C40C
100
AcDbEntity
  8
0
100
AcDbVertex
100
AcDbPolygonMeshVertex
 10
1.37421
 20
0.2385
 30
0.316
 70
    64
  0
SEQEND
  5
6C40D
100
AcDbEntity
  8
0
  0
POLYLINE
  5
6C40E
100
AcDbEntity
  8
0
100
AcDbPolygonMesh
 66
     1
 10
0.0
 20
0.0
 30
0.0
 70
    16
 71
     6
 72
     3
  0
VERTEX
  5
6C40F
100
AcDbEntity
  8
0
100
AcDbVertex
100
AcDbPolygonMeshVertex
 10
0.39621
 20
-1.6855
 30
1.407875
 70
    64
  0
VERTEX
  5
6C410
100
AcDbEntity
  8
0
100
AcDbVertex
100
AcDbPolygonMeshVertex
 10
0.39621
 20
-1.6855
 30
0.187
 70
    64
  0
VERTEX
  5
6C411
100
AcDbEntity
  8
0
100
AcDbVertex
100
AcDbPolygonMeshVertex
 10
0.39621
 20
-1.6855
 30
0.187
 70
    64
  0
VERTEX
  5
6C412
100
AcDbEntity
  8
0
100
AcDbVertex
100
AcDbPolygonMeshVertex
 10
0.00521
 20
-1.6855
 30
1.407875
 70
    64
  0
VERTEX
  5
6C413
100
AcDbEntity
  8
0
100
AcDbVertex
100
AcDbPolygonMeshVertex
 10
0.00521
 20
-1.6855
 30
0.187
 70
    64
  0
VERTEX
  5
6C414
100
AcDbEntity
  8
0
100
AcDbVertex
100
AcDbPolygonMeshVertex
 10
0.00521
 20
-1.6855
 30
0.187
 70
    64
  0
VERTEX
  5
6C415
100
AcDbEntity
  8
0
100
AcDbVertex
100
AcDbPolygonMeshVertex
 10
0.00521
 20
0.5215
 30
1.407875
 70
    64
  0
VERTEX
  5
6C416
100
AcDbEntity
  8
0
100
AcDbVertex
100
AcDbPolygonMeshVertex
 10
0.00521
 20
0.5215
 30
0.187
 70
    64
  0
VERTEX
  5
6C417
100
AcDbEntity
  8
0
100
AcDbVertex
100
AcDbPolygonMeshVertex
 10
0.00521
 20
-1.6855
 30
0.187
 70
    64
  0
VERTEX
  5
6C418
100
AcDbEntity
  8
0
100
AcDbVertex
100
AcDbPolygonMeshVertex
 10
0.39621
 20
0.5215
 30
1.407875
 70
    64
  0
VERTEX
  5
6C419
100
AcDbEntity
  8
0
100
AcDbVertex
100
AcDbPolygonMeshVertex
 10
0.39621
 20
0.5215
 30
0.187
 70
    64
  0
VERTEX
  5
6C41A
100
AcDbEntity
  8
0
100
AcDbVertex
100
AcDbPolygonMeshVertex
 10
0.39621
 20
-1.6855
 30
0.187
 70
    64
  0
VERTEX
  5
6C41B
100
AcDbEntity
  8
0
100
AcDbVertex
100
AcDbPolygonMeshVertex
 10
0.39621
 20
0.5215
 30
1.407875
 70
    64
  0
VERTEX
  5
6C41C
100
AcDbEntity
  8
0
100
AcDbVertex
100
AcDbPolygonMeshVertex
 10
0.39621
 20
0.5215
 30
1.407875
 70
    64
  0
VERTEX
  5
6C41D
100
AcDbEntity
  8
0
100
AcDbVertex
100
AcDbPolygonMeshVertex
 10
0.39621
 20
-1.6855
 30
1.407875
 70
    64
  0
VERTEX
  5
6C41E
100
AcDbEntity
  8
0
100
AcDbVertex
100
AcDbPolygonMeshVertex
 10
0.00521
 20
0.5215
 30
1.407875
 70
    64
  0
VERTEX
  5
6C41F
100
AcDbEntity
  8
0
100
AcDbVertex
100
AcDbPolygonMeshVertex
 10
0.00521
 20
0.5215
 30
1.407875
 70
    64
  0
VERTEX
  5
6C420
100
AcDbEntity
  8
0
100
AcDbVertex
100
AcDbPolygonMeshVertex
 10
0.00521
 20
-1.6855
 30
1.407875
 70
    64
  0
SEQEND
  5
6C421
100
AcDbEntity
  8
0
  0
POLYLINE
  5
6C422
100
AcDbEntity
  8
0
100
AcDbPolygonMesh
 66
     1
 10
0.0
 20
0.0
 30
0.0
 70
    16
 71
     6
 72
     3
  0
VERTEX
  5
6C423
100
AcDbEntity
  8
0
100
AcDbVertex
100
AcDbPolygonMeshVertex
 10
1.76521
 20
-1.9685
 30
1.407875
 70
    64
  0
VERTEX
  5
6C424
100
AcDbEntity
  8
0
100
AcDbVertex
100
AcDbPolygonMeshVertex
 10
1.76521
 20
-1.9685
 30
0.187
 70
    64
  0
VERTEX
  5
6C425
100
AcDbEntity
  8
0
100
AcDbVertex
100
AcDbPolygonMeshVertex
 10
1.76521
 20
-1.9685
 30
0.187
 70
    64
  0
VERTEX
  5
6C426
100
AcDbEntity
  8
0
100
AcDbVertex
100
AcDbPolygonMeshVertex
 10
1.37421
 20
-1.9685
 30
1.407875
 70
    64
  0
VERTEX
  5
6C427
100
AcDbEntity
  8
0
100
AcDbVertex
100
AcDbPolygonMeshVertex
 10
1.37421
 20
-1.9685
 30
0.187
 70
    64
  0
VERTEX
  5
6C428
100
AcDbEntity
  8
0
100
AcDbVertex
100
AcDbPolygonMeshVertex
 10
1.37421
 20
-1.9685
 30
0.187
 70
    64
  0
VERTEX
  5
6C429
100
AcDbEntity
  8
0
100
AcDbVertex
100
AcDbPolygonMeshVertex
 10
1.37421
 20
0.2385
 30
1.407875
 70
    64
  0
VERTEX
  5
6C42A
100
AcDbEntity
  8
0
100
AcDbVertex
100
AcDbPolygonMeshVertex
 10
1.37421
 20
0.2385
 30
0.187
 70
    64
  0
VERTEX
  5
6C42B
100
AcDbEntity
  8
0
100
AcDbVertex
100
AcDbPolygonMeshVertex
 10
1.37421
 20
-1.9685
 30
0.187
 70
    64
  0
VERTEX
  5
6C42C
100
AcDbEntity
  8
0
100
AcDbVertex
100
AcDbPolygonMeshVertex
 10
1.76521
 20
0.2385
 30
1.407875
 70
    64
  0
VERTEX
  5
6C42D
100
AcDbEntity
  8
0
100
AcDbVertex
100
AcDbPolygonMeshVertex
 10
1.76521
 20
0.2385
 30
0.187
 70
    64
  0
VERTEX
  5
6C42E
100
AcDbEntity
  8
0
100
AcDbVertex
100
AcDbPolygonMeshVertex
 10
1.76521
 20
-1.9685
 30
0.187
 70
    64
  0
VERTEX
  5
6C42F
100
AcDbEntity
  8
0
100
AcDbVertex
100
AcDbPolygonMeshVertex
 10
1.76521
 20
0.2385
 30
1.407875
 70
    64
  0
VERTEX
  5
6C430
100
AcDbEntity
  8
0
100
AcDbVertex
100
AcDbPolygonMeshVertex
 10
1.76521
 20
0.2385
 30
1.407875
 70
    64
  0
VERTEX
  5
6C431
100
AcDbEntity
  8
0
100
AcDbVertex
100
AcDbPolygonMeshVertex
 10
1.76521
 20
-1.9685
 30
1.407875
 70
    64
  0
VERTEX
  5
6C432
100
AcDbEntity
  8
0
100
AcDbVertex
100
AcDbPolygonMeshVertex
 10
1.37421
 20
0.2385
 30
1.407875
 70
    64
  0
VERTEX
  5
6C433
100
AcDbEntity
  8
0
100
AcDbVertex
100
AcDbPolygonMeshVertex
 10
1.37421
 20
0.2385
 30
1.407875
 70
    64
  0
VERTEX
  5
6C434
100
AcDbEntity
  8
0
100
AcDbVertex
100
AcDbPolygonMeshVertex
 10
1.37421
 20
-1.9685
 30
1.407875
 70
    64
  0
SEQEND
  5
6C435
100
AcDbEntity
  8
0
  0
POLYLINE
  5
6C436
100
AcDbEntity
  8
0
100
AcDbPolygonMesh
 66
     1
 10
0.0
 20
0.0
 30
0.0
 70
    16
 71
     6
 72
     3
  0
VERTEX
  5
6C437
100
AcDbEntity
  8
0
100
AcDbVertex
100
AcDbPolygonMeshVertex
 10
1.37421
 20
-1.9685
 30
1.407875
 70
    64
  0
VERTEX
  5
6C438
100
AcDbEntity
  8
0
100
AcDbVertex
100
AcDbPolygonMeshVertex
 10
1.37421
 20
-1.9685
 30
0.187
 70
    64
  0
VERTEX
  5
6C439
100
AcDbEntity
  8
0
100
AcDbVertex
100
AcDbPolygonMeshVertex
 10
1.37421
 20
-1.9685
 30
0.187
 70
    64
  0
VERTEX
  5
6C43A
100
AcDbEntity
  8
0
100
AcDbVertex
100
AcDbPolygonMeshVertex
 10
0.39621
 20
-1.9685
 30
1.407875
 70
    64
  0
VERTEX
  5
6C43B
100
AcDbEntity
  8
0
100
AcDbVertex
100
AcDbPolygonMeshVertex
 10
0.39621
 20
-1.9685
 30
0.187
 70
    64
  0
VERTEX
  5
6C43C
100
AcDbEntity
  8
0
100
AcDbVertex
100
AcDbPolygonMeshVertex
 10
0.39621
 20
-1.9685
 30
0.187
 70
    64
  0
VERTEX
  5
6C43D
100
AcDbEntity
  8
0
100
AcDbVertex
100
AcDbPolygonMeshVertex
 10
0.39621
 20
0.5215
 30
1.407875
 70
    64
  0
VERTEX
  5
6C43E
100
AcDbEntity
  8
0
100
AcDbVertex
100
AcDbPolygonMeshVertex
 10
0.39621
 20
0.5215
 30
0.187
 70
    64
  0
VERTEX
  5
6C43F
100
AcDbEntity
  8
0
100
AcDbVertex
100
AcDbPolygonMeshVertex
 10
0.39621
 20
-1.9685
 30
0.187
 70
    64
  0
VERTEX
  5
6C440
100
AcDbEntity
  8
0
100
AcDbVertex
100
AcDbPolygonMeshVertex
 10
1.37421
 20
0.5215
 30
1.407875
 70
    64
  0
VERTEX
  5
6C441
100
AcDbEntity
  8
0
100
AcDbVertex
100
AcDbPolygonMeshVertex
 10
1.37421
 20
0.5215
 30
0.187
 70
    64
  0
VERTEX
  5
6C442
100
AcDbEntity
  8
0
100
AcDbVertex
100
AcDbPolygonMeshVertex
 10
1.37421
 20
-1.9685
 30
0.187
 70
    64
  0
VERTEX
  5
6C443
100
AcDbEntity
  8
0
100
AcDbVertex
100
AcDbPolygonMeshVertex
 10
1.37421
 20
0.5215
 30
1.407875
 70
    64
  0
VERTEX
  5
6C444
100
AcDbEntity
  8
0
100
AcDbVertex
100
AcDbPolygonMeshVertex
 10
1.37421
 20
0.5215
 30
1.407875
 70
    64
  0
VERTEX
  5
6C445
100
AcDbEntity
  8
0
100
AcDbVertex
100
AcDbPolygonMeshVertex
 10
1.37421
 20
-1.9685
 30
1.407875
 70
    64
  0
VERTEX
  5
6C446
100
AcDbEntity
  8
0
100
AcDbVertex
100
AcDbPolygonMeshVertex
 10
0.39621
 20
0.5215
 30
1.407875
 70
    64
  0
VERTEX
  5
6C447
100
AcDbEntity
  8
0
100
AcDbVertex
100
AcDbPolygonMeshVertex
 10
0.39621
 20
0.5215
 30
1.407875
 70
    64
  0
VERTEX
  5
6C448
100
AcDbEntity
  8
0
100
AcDbVertex
100
AcDbPolygonMeshVertex
 10
0.39621
 20
-1.9685
 30
1.407875
 70
    64
  0
SEQEND
  5
6C449
100
AcDbEntity
  8
0
  0
POLYLINE
  5
6C44A
100
AcDbEntity
  8
0
100
AcDbPolygonMesh
 66
     1
 10
0.0
 20
0.0
 30
0.0
 70
    16
 71
     6
 72
     3
  0
VERTEX
  5
6C44B
100
AcDbEntity
  8
0
100
AcDbVertex
100
AcDbPolygonMeshVertex
 10
1.07071
 20
-2.2215
 30
2.058275
 70
    64
  0
VERTEX
  5
6C44C
100
AcDbEntity
  8
0
100
AcDbVertex
100
AcDbPolygonMeshVertex
 10
1.07071
 20
-2.2215
 30
1.384275
 70
    64
  0
VERTEX
  5
6C44D
100
AcDbEntity
  8
0
100
AcDbVertex
100
AcDbPolygonMeshVertex
 10
1.07071
 20
-2.2215
 30
1.384275
 70
    64
  0
VERTEX
  5
6C44E
100
AcDbEntity
  8
0
100
AcDbVertex
100
AcDbPolygonMeshVertex
 10
0.69971
 20
-2.2215
 30
2.058275
 70
    64
  0
VERTEX
  5
6C44F
100
AcDbEntity
  8
0
100
AcDbVertex
100
AcDbPolygonMeshVertex
 10
0.69971
 20
-2.2215
 30
1.384275
 70
    64
  0
VERTEX
  5
6C450
100
AcDbEntity
  8
0
100
AcDbVertex
100
AcDbPolygonMeshVertex
 10
0.69971
 20
-2.2215
 30
1.384275
 70
    64
  0
VERTEX
  5
6C451
100
AcDbEntity
  8
0
100
AcDbVertex
100
AcDbPolygonMeshVertex
 10
0.69971
 20
-1.9685
 30
2.058275
 70
    64
  0
VERTEX
  5
6C452
100
AcDbEntity
  8
0
100
AcDbVertex
100
AcDbPolygonMeshVertex
 10
0.69971
 20
-1.9685
 30
1.384275
 70
    64
  0
VERTEX
  5
6C453
100
AcDbEntity
  8
0
100
AcDbVertex
100
AcDbPolygonMeshVertex
 10
0.69971
 20
-2.2215
 30
1.384275
 70
    64
  0
VERTEX
  5
6C454
100
AcDbEntity
  8
0
100
AcDbVertex
100
AcDbPolygonMeshVertex
 10
1.07071
 20
-1.9685
 30
2.058275
 70
    64
  0
VERTEX
  5
6C455
100
AcDbEntity
  8
0
100
AcDbVertex
100
AcDbPolygonMeshVertex
 10
1.07071
 20
-1.9685
 30
1.384275
 70
    64
  0
VERTEX
  5
6C456
100
AcDbEntity
  8
0
100
AcDbVertex
100
AcDbPolygonMeshVertex
 10
1.07071
 20
-2.2215
 30
1.384275
 70
    64
  0
VERTEX
  5
6C457
100
AcDbEntity
  8
0
100
AcDbVertex
100
AcDbPolygonMeshVertex
 10
1.07071
 20
-1.9685
 30
2.058275
 70
    64
  0
VERTEX
  5
6C458
100
AcDbEntity
  8
0
100
AcDbVertex
100
AcDbPolygonMeshVertex
 10
1.07071
 20
-1.9685
 30
2.058275
 70
    64
  0
VERTEX
  5
6C459
100
AcDbEntity
  8
0
100
AcDbVertex
100
AcDbPolygonMeshVertex
 10
1.07071
 20
-2.2215
 30
2.058275
 70
    64
  0
VERTEX
  5
6C45A
100
AcDbEntity
  8
0
100
AcDbVertex
100
AcDbPolygonMeshVertex
 10
0.69971
 20
-1.9685
 30
2.058275
 70
    64
  0
VERTEX
  5
6C45B
100
AcDbEntity
  8
0
100
AcDbVertex
100
AcDbPolygonMeshVertex
 10
0.69971
 20
-1.9685
 30
2.058275
 70
    64
  0
VERTEX
  5
6C45C
100
AcDbEntity
  8
0
100
AcDbVertex
100
AcDbPolygonMeshVertex
 10
0.69971
 20
-2.2215
 30
2.058275
 70
    64
  0
SEQEND
  5
6C45D
100
AcDbEntity
  8
0
  0
LWPOLYLINE
  5
6C45E
100
AcDbEntity
  8
0
100
AcDbPolyline
 90
        4
 70
     1
 43
0.0
 38
2.060275
 10
0.75171
 20
-2.0205
 10
1.01871
 20
-2.0205
 10
1.01871
 20
-2.1695
 10
0.75171
 20
-2.1695
  0
LWPOLYLINE
  5
6C45F
100
AcDbEntity
  8
0
100
AcDbPolyline
 90
        4
 70
     1
 43
0.0
 38
1.386275
 10
0.75171
 20
-2.0205
 10
1.01871
 20
-2.0205
 10
1.01871
 20
-2.1695
 10
0.75171
 20
-2.1695
  0
POLYLINE
  5
6C460
100
AcDbEntity
  8
0
100
AcDbPolygonMesh
 66
     1
 10
0.0
 20
0.0
 30
0.0
 70
    16
 71
     6
 72
     3
  0
VERTEX
  5
6C461
100
AcDbEntity
  8
0
100
AcDbVertex
100
AcDbPolygonMeshVertex
 10
0.33271
 20
0.9585
 30
2.058275
 70
    64
  0
VERTEX
  5
6C462
100
AcDbEntity
  8
0
100
AcDbVertex
100
AcDbPolygonMeshVertex
 10
0.33271
 20
0.9585
 30
1.384275
 70
    64
  0
VERTEX
  5
6C463
100
AcDbEntity
  8
0
100
AcDbVertex
100
AcDbPolygonMeshVertex
 10
0.33271
 20
0.9585
 30
1.384275
 70
    64
  0
VERTEX
  5
6C464
100
AcDbEntity
  8
0
100
AcDbVertex
100
AcDbPolygonMeshVertex
 10
1.43771
 20
0.9585
 30
2.058275
 70
    64
  0
VERTEX
  5
6C465
100
AcDbEntity
  8
0
100
AcDbVertex
100
AcDbPolygonMeshVertex
 10
1.43771
 20
0.9585
 30
1.384275
 70
    64
  0
VERTEX
  5
6C466
100
AcDbEntity
  8
0
100
AcDbVertex
100
AcDbPolygonMeshVertex
 10
1.43771
 20
0.9585
 30
1.384275
 70
    64
  0
VERTEX
  5
6C467
100
AcDbEntity
  8
0
100
AcDbVertex
100
AcDbPolygonMeshVertex
 10
1.43771
 20
0.5215
 30
2.058275
 70
    64
  0
VERTEX
  5
6C468
100
AcDbEntity
  8
0
100
AcDbVertex
100
AcDbPolygonMeshVertex
 10
1.43771
 20
0.5215
 30
1.384275
 70
    64
  0
VERTEX
  5
6C469
100
AcDbEntity
  8
0
100
AcDbVertex
100
AcDbPolygonMeshVertex
 10
1.43771
 20
0.9585
 30
1.384275
 70
    64
  0
VERTEX
  5
6C46A
100
AcDbEntity
  8
0
100
AcDbVertex
100
AcDbPolygonMeshVertex
 10
0.33271
 20
0.5215
 30
2.058275
 70
    64
  0
VERTEX
  5
6C46B
100
AcDbEntity
  8
0
100
AcDbVertex
100
AcDbPolygonMeshVertex
 10
0.33271
 20
0.5215
 30
1.384275
 70
    64
  0
VERTEX
  5
6C46C
100
AcDbEntity
  8
0
100
AcDbVertex
100
AcDbPolygonMeshVertex
 10
0.33271
 20
0.9585
 30
1.384275
 70
    64
  0
VERTEX
  5
6C46D
100
AcDbEntity
  8
0
100
AcDbVertex
100
AcDbPolygonMeshVertex
 10
0.33271
 20
0.5215
 30
2.058275
 70
    64
  0
VERTEX
  5
6C46E
100
AcDbEntity
  8
0
100
AcDbVertex
100
AcDbPolygonMeshVertex
 10
0.33271
 20
0.5215
 30
2.058275
 70
    64
  0
VERTEX
  5
6C46F
100
AcDbEntity
  8
0
100
AcDbVertex
100
AcDbPolygonMeshVertex
 10
0.33271
 20
0.9585
 30
2.058275
 70
    64
  0
VERTEX
  5
6C470
100
AcDbEntity
  8
0
100
AcDbVertex
100
AcDbPolygonMeshVertex
 10
1.43771
 20
0.5215
 30
2.058275
 70
    64
  0
VERTEX
  5
6C471
100
AcDbEntity
  8
0
100
AcDbVertex
100
AcDbPolygonMeshVertex
 10
1.43771
 20
0.5215
 30
2.058275
 70
    64
  0
VERTEX
  5
6C472
100
AcDbEntity
  8
0
100
AcDbVertex
100
AcDbPolygonMeshVertex
 10
1.43771
 20
0.9585
 30
2.058275
 70
    64
  0
SEQEND
  5
6C473
100
AcDbEntity
  8
0
  0
LINE
  5
6C474
100
AcDbEntity
  8
0
100
AcDbLine
 10
0.74521
 20
0.5215
 30
2.058275
 11
0.74521
 21
0.7565
 31
2.058275
  0
LINE
  5
6C475
100
AcDbEntity
  8
0
100
AcDbLine
 10
1.02521
 20
0.5215
 30
2.058275
 11
1.02521
 21
0.7565
 31
2.058275
  0
LINE
  5
6C476
100
AcDbEntity
  8
0
100
AcDbLine
 10
1.02521
 20
0.7565
 30
2.058275
 11
0.74521
 21
0.7565
 31
2.058275
  0
CIRCLE
  5
6C477
100
AcDbEntity
  8
0
100
AcDbCircle
 10
0.54621
 20
0.74
 30
2.058275
 40
0.12
  0
CIRCLE
  5
6C478
100
AcDbEntity
  8
0
100
AcDbCircle
 10
1.22421
 20
0.74
 30
2.058275
 40
0.12
  0
POLYLINE
  5
6C479
100
AcDbEntity
  8
0
100
AcDb3dPolyline
 66
     1
 10
0.0
 20
0.0
 30
0.0
 70
     8
  0
VERTEX
  5
6C47A
100
AcDbEntity
  8
0
100
AcDbVertex
100
AcDb3dPolylineVertex
 10
1.76521
 20
-1.3525
 30
0.187
 70
    32
  0
VERTEX
  5
6C47B
100
AcDbEntity
  8
0
100
AcDbVertex
100
AcDb3dPolylineVertex
 10
1.76521
 20
-1.3525
 30
1.146875
 70
    32
  0
VERTEX
  5
6C47C
100
AcDbEntity
  8
0
100
AcDbVertex
100
AcDb3dPolylineVertex
 10
1.76521
 20
-1.5075
 30
1.146875
 70
    32
  0
VERTEX
  5
6C47D
100
AcDbEntity
  8
0
100
AcDbVertex
100
AcDb3dPolylineVertex
 10
1.76521
 20
-1.5075
 30
0.187
 70
    32
  0
SEQEND
  5
6C47E
100
AcDbEntity
  8
0
  0
POLYLINE
  5
6C47F
100
AcDbEntity
  8
0
100
AcDb3dPolyline
 66
     1
 10
0.0
 20
0.0
 30
0.0
 70
     8
  0
VERTEX
  5
6C480
100
AcDbEntity
  8
0
100
AcDbVertex
100
AcDb3dPolylineVertex
 10
1.76521
 20
0.0265
 30
0.187
 70
    32
  0
VERTEX
  5
6C481
100
AcDbEntity
  8
0
100
AcDbVertex
100
AcDb3dPolylineVertex
 10
1.76521
 20
0.0265
 30
1.146875
 70
    32
  0
VERTEX
  5
6C482
100
AcDbEntity
  8
0
100
AcDbVertex
100
AcDb3dPolylineVertex
 10
1.76521
 20
-0.1285
 30
1.146875
 70
    32
  0
VERTEX
  5
6C483
100
AcDbEntity
  8
0
100
AcDbVertex
100
AcDb3dPolylineVertex
 10
1.76521
 20
-0.1285
 30
0.187
 70
    32
  0
SEQEND
  5
6C484
100
AcDbEntity
  8
0
  0
LINE
  5
6C485
100
AcDbEntity
  8
0
100
AcDbLine
 10
1.76521
 20
-0.6295
 30
0.517
 11
1.76521
 21
-0.8515
 31
0.517
  0
LINE
  5
6C486
100
AcDbEntity
  8
0
100
AcDbLine
 10
1.76521
 20
-0.8515
 30
0.517
 11
1.76521
 21
-0.8515
 31
0.187
  0
LINE
  5
6C487
100
AcDbEntity
  8
0
100
AcDbLine
 10
1.76521
 20
-0.6295
 30
0.517
 11
1.76521
 21
-0.6295
 31
0.187
  0
POLYLINE
  5
6C488
100
AcDbEntity
  8
0
100
AcDb3dPolyline
 66
     1
 10
0.0
 20
0.0
 30
0.0
 70
     8
  0
VERTEX
  5
6C489
100
AcDbEntity
  8
0
100
AcDbVertex
100
AcDb3dPolylineVertex
 10
0.00521
 20
0.0265
 30
0.187
 70
    32
  0
VERTEX
  5
6C48A
100
AcDbEntity
  8
0
100
AcDbVertex
100
AcDb3dPolylineVertex
 10
0.00521
 20
0.0265
 30
1.146875
 70
    32
  0
VERTEX
  5
6C48B
100
AcDbEntity
  8
0
100
AcDbVertex
100
AcDb3dPolylineVertex
 10
0.00521
 20
-0.1285
 30
1.146875
 70
    32
  0
VERTEX
  5
6C48C
100
AcDbEntity
  8
0
100
AcDbVertex
100
AcDb3dPolylineVertex
 10
0.00521
 20
-0.1285
 30
0.187
 70
    32
  0
SEQEND
  5
6C48D
100
AcDbEntity
  8
0
  0
POLYLINE
  5
6C48E
100
AcDbEntity
  8
0
100
AcDb3dPolyline
 66
     1
 10
0.0
 20
0.0
 30
0.0
 70
     8
  0
VERTEX
  5
6C48F
100
AcDbEntity
  8
0
100
AcDbVertex
100
AcDb3dPolylineVertex
 10
0.00521
 20
-1.3525
 30
0.187
 70
    32
  0
VERTEX
  5
6C490
100
AcDbEntity
  8
0
100
AcDbVertex
100
AcDb3dPolylineVertex
 10
0.00521
 20
-1.3525
 30
1.146875
 70
    32
  0
VERTEX
  5
6C491
100
AcDbEntity
  8
0
100
AcDbVertex
100
AcDb3dPolylineVertex
 10
0.00521
 20
-1.5075
 30
1.146875
 70
    32
  0
VERTEX
  5
6C492
100
AcDbEntity
  8
0
100
AcDbVertex
100
AcDb3dPolylineVertex
 10
0.00521
 20
-1.5075
 30
0.187
 70
    32
  0
SEQEND
  5
6C493
100
AcDbEntity
  8
0
  0
LINE
  5
6C494
100
AcDbEntity
  8
0
100
AcDbLine
 10
1.76521
 20
-1.5675
 30
0.187
 11
1.76521
 21
-1.5675
 31
0.0
  0
LINE
  5
6C495
100
AcDbEntity
  8
0
100
AcDbLine
 10
1.76521
 20
-1.5675
 30
0.0
 11
0.88521
 21
-1.5675
 31
0.0
  0
POLYLINE
  5
6C496
100
AcDbEntity
  8
0
100
AcDbPolygonMesh
 66
     1
 10
0.0
 20
0.0
 30
0.0
 70
    16
 71
     6
 72
     3
  0
VERTEX
  5
6C497
100
AcDbEntity
  8
0
100
AcDbVertex
100
AcDbPolygonMeshVertex
 10
0.88521
 20
-1.5675
 30
0.187
 70
    64
  0
VERTEX
  5
6C498
100
AcDbEntity
  8
0
100
AcDbVertex
100
AcDbPolygonMeshVertex
 10
0.88521
 20
-1.5675
 30
0.0
 70
    64
  0
VERTEX
  5
6C499
100
AcDbEntity
  8
0
100
AcDbVertex
100
AcDbPolygonMeshVertex
 10
0.88521
 20
-1.5675
 30
0.0
 70
    64
  0
VERTEX
  5
6C49A
100
AcDbEntity
  8
0
100
AcDbVertex
100
AcDbPolygonMeshVertex
 10
1.76521
 20
-1.5675
 30
0.187
 70
    64
  0
VERTEX
  5
6C49B
100
AcDbEntity
  8
0
100
AcDbVertex
100
AcDbPolygonMeshVertex
 10
1.76521
 20
-1.5675
 30
0.0
 70
    64
  0
VERTEX
  5
6C49C
100
AcDbEntity
  8
0
100
AcDbVertex
100
AcDbPolygonMeshVertex
 10
1.76521
 20
-1.5675
 30
0.0
 70
    64
  0
VERTEX
  5
6C49D
100
AcDbEntity
  8
0
100
AcDbVertex
100
AcDbPolygonMeshVertex
 10
1.76521
 20
-2.1655
 30
0.187
 70
    64
  0
VERTEX
  5
6C49E
100
AcDbEntity
  8
0
100
AcDbVertex
100
AcDbPolygonMeshVertex
 10
1.76521
 20
-2.1655
 30
0.0
 70
    64
  0
VERTEX
  5
6C49F
100
AcDbEntity
  8
0
100
AcDbVertex
100
AcDbPolygonMeshVertex
 10
1.76521
 20
-1.5675
 30
0.0
 70
    64
  0
VERTEX
  5
6C4A0
100
AcDbEntity
  8
0
100
AcDbVertex
100
AcDbPolygonMeshVertex
 10
0.88521
 20
-2.1655
 30
0.187
 70
    64
  0
VERTEX
  5
6C4A1
100
AcDbEntity
  8
0
100
AcDbVertex
100
AcDbPolygonMeshVertex
 10
0.88521
 20
-2.1655
 30
0.0
 70
    64
  0
VERTEX
  5
6C4A2
100
AcDbEntity
  8
0
100
AcDbVertex
100
AcDbPolygonMeshVertex
 10
0.88521
 20
-1.5675
 30
0.0
 70
    64
  0
VERTEX
  5
6C4A3
100
AcDbEntity
  8
0
100
AcDbVertex
100
AcDbPolygonMeshVertex
 10
0.88521
 20
-2.1655
 30
0.187
 70
    64
  0
VERTEX
  5
6C4A4
100
AcDbEntity
  8
0
100
AcDbVertex
100
AcDbPolygonMeshVertex
 10
0.88521
 20
-2.1655
 30
0.187
 70
    64
  0
VERTEX
  5
6C4A5
100
AcDbEntity
  8
0
100
AcDbVertex
100
AcDbPolygonMeshVertex
 10
0.88521
 20
-1.5675
 30
0.187
 70
    64
  0
VERTEX
  5
6C4A6
100
AcDbEntity
  8
0
100
AcDbVertex
100
AcDbPolygonMeshVertex
 10
1.76521
 20
-2.1655
 30
0.187
 70
    64
  0
VERTEX
  5
6C4A7
100
AcDbEntity
  8
0
100
AcDbVertex
100
AcDbPolygonMeshVertex
 10
1.76521
 20
-2.1655
 30
0.187
 70
    64
  0
VERTEX
  5
6C4A8
100
AcDbEntity
  8
0
100
AcDbVertex
100
AcDbPolygonMeshVertex
 10
1.76521
 20
-1.5675
 30
0.187
 70
    64
  0
SEQEND
  5
6C4A9
100
AcDbEntity
  8
0
  0
POLYLINE
  5
6C4AA
100
AcDbEntity
  8
0
100
AcDbPolygonMesh
 66
     1
 10
0.0
 20
0.0
 30
0.0
 70
    16
 71
     6
 72
     3
  0
VERTEX
  5
6C4AB
100
AcDbEntity
  8
0
100
AcDbVertex
100
AcDbPolygonMeshVertex
 10
0.00521
 20
0.7185
 30
0.187
 70
    64
  0
VERTEX
  5
6C4AC
100
AcDbEntity
  8
0
100
AcDbVertex
100
AcDbPolygonMeshVertex
 10
0.00521
 20
0.7185
 30
0.0
 70
    64
  0
VERTEX
  5
6C4AD
100
AcDbEntity
  8
0
100
AcDbVertex
100
AcDbPolygonMeshVertex
 10
0.00521
 20
0.7185
 30
0.0
 70
    64
  0
VERTEX
  5
6C4AE
100
AcDbEntity
  8
0
100
AcDbVertex
100
AcDbPolygonMeshVertex
 10
0.88521
 20
0.7185
 30
0.187
 70
    64
  0
VERTEX
  5
6C4AF
100
AcDbEntity
  8
0
100
AcDbVertex
100
AcDbPolygonMeshVertex
 10
0.88521
 20
0.7185
 30
0.0
 70
    64
  0
VERTEX
  5
6C4B0
100
AcDbEntity
  8
0
100
AcDbVertex
100
AcDbPolygonMeshVertex
 10
0.88521
 20
0.7185
 30
0.0
 70
    64
  0
VERTEX
  5
6C4B1
100
AcDbEntity
  8
0
100
AcDbVertex
100
AcDbPolygonMeshVertex
 10
0.88521
 20
0.1205
 30
0.187
 70
    64
  0
VERTEX
  5
6C4B2
100
AcDbEntity
  8
0
100
AcDbVertex
100
AcDbPolygonMeshVertex
 10
0.88521
 20
0.1205
 30
0.0
 70
    64
  0
VERTEX
  5
6C4B3
100
AcDbEntity
  8
0
100
AcDbVertex
100
AcDbPolygonMeshVertex
 10
0.88521
 20
0.7185
 30
0.0
 70
    64
  0
VERTEX
  5
6C4B4
100
AcDbEntity
  8
0
100
AcDbVertex
100
AcDbPolygonMeshVertex
 10
0.00521
 20
0.1205
 30
0.187
 70
    64
  0
VERTEX
  5
6C4B5
100
AcDbEntity
  8
0
100
AcDbVertex
100
AcDbPolygonMeshVertex
 10
0.00521
 20
0.1205
 30
0.0
 70
    64
  0
VERTEX
  5
6C4B6
100
AcDbEntity
  8
0
100
AcDbVertex
100
AcDbPolygonMeshVertex
 10
0.00521
 20
0.7185
 30
0.0
 70
    64
  0
VERTEX
  5
6C4B7
100
AcDbEntity
  8
0
100
AcDbVertex
100
AcDbPolygonMeshVertex
 10
0.00521
 20
0.1205
 30
0.187
 70
    64
  0
VERTEX
  5
6C4B8
100
AcDbEntity
  8
0
100
AcDbVertex
100
AcDbPolygonMeshVertex
 10
0.00521
 20
0.1205
 30
0.187
 70
    64
  0
VERTEX
  5
6C4B9
100
AcDbEntity
  8
0
100
AcDbVertex
100
AcDbPolygonMeshVertex
 10
0.00521
 20
0.7185
 30
0.187
 70
    64
  0
VERTEX
  5
6C4BA
100
AcDbEntity
  8
0
100
AcDbVertex
100
AcDbPolygonMeshVertex
 10
0.88521
 20
0.1205
 30
0.187
 70
    64
  0
VERTEX
  5
6C4BB
100
AcDbEntity
  8
0
100
AcDbVertex
100
AcDbPolygonMeshVertex
 10
0.88521
 20
0.1205
 30
0.187
 70
    64
  0
VERTEX
  5
6C4BC
100
AcDbEntity
  8
0
100
AcDbVertex
100
AcDbPolygonMeshVertex
 10
0.88521
 20
0.7185
 30
0.187
 70
    64
  0
SEQEND
  5
6C4BD
100
AcDbEntity
  8
0
  0
LINE
  5
6C4BE
100
AcDbEntity
  8
0
100
AcDbLine
 10
1.76521
 20
-0.8065
 30
1.876775
 11
1.76521
 21
-0.6405
 31
1.876775
  0
POLYLINE
  5
6C4BF
100
AcDbEntity
  8
0
100
AcDb3dPolyline
 66
     1
 10
0.0
 20
0.0
 30
0.0
 70
     8
  0
VERTEX
  5
6C4C0
100
AcDbEntity
  8
0
100
AcDbVertex
100
AcDb3dPolylineVertex
 10
0.0
 20
-0.6405
 30
1.590275
 70
    32
  0
VERTEX
  5
6C4C1
100
AcDbEntity
  8
0
100
AcDbVertex
100
AcDb3dPolylineVertex
 10
0.0
 20
-0.6405
 30
2.163275
 70
    32
  0
VERTEX
  5
6C4C2
100
AcDbEntity
  8
0
100
AcDbVertex
100
AcDb3dPolylineVertex
 10
0.0
 20
-0.8065
 30
2.163275
 70
    32
  0
VERTEX
  5
6C4C3
100
AcDbEntity
  8
0
100
AcDbVertex
100
AcDb3dPolylineVertex
 10
0.0
 20
-0.8065
 30
1.590275
 70
    32
  0
VERTEX
  5
6C4C4
100
AcDbEntity
  8
0
100
AcDbVertex
100
AcDb3dPolylineVertex
 10
0.0
 20
-0.6405
 30
1.590275
 70
    32
  0
SEQEND
  5
6C4C5
100
AcDbEntity
  8
0
  0
LINE
  5
6C4C6
100
AcDbEntity
  8
0
100
AcDbLine
 10
0.0
 20
-0.8065
 30
1.876775
 11
0.0
 21
-0.6405
 31
1.876775
  0
LINE
  5
6C4C7
100
AcDbEntity
  8
0
100
AcDbLine
 10
0.0
 20
-0.8065
 30
2.066775
 11
0.0
 21
-0.6405
 31
2.066775
  0
CIRCLE
  5
6C4C8
100
AcDbEntity
  8
0
100
AcDbCircle
 10
1.57121
 20
0.4255
 30
0.316
 40
0.086
  0
POLYLINE
  5
6C4C9
100
AcDbEntity
  8
0
100
AcDb3dPolyline
 66
     1
 10
0.0
 20
0.0
 30
0.0
 70
     8
  0
VERTEX
  5
6C4CA
100
AcDbEntity
  8
0
100
AcDbVertex
100
AcDb3dPolylineVertex
 10
0.550544
 20
0.5215
 30
0.187
 70
    32
  0
VERTEX
  5
6C4CB
100
AcDbEntity
  8
0
100
AcDbVertex
100
AcDb3dPolylineVertex
 10
0.550544
 20
0.6565
 30
0.187
 70
    32
  0
VERTEX
  5
6C4CC
100
AcDbEntity
  8
0
100
AcDbVertex
100
AcDb3dPolylineVertex
 10
0.339877
 20
0.6565
 30
0.187
 70
    32
  0
VERTEX
  5
6C4CD
100
AcDbEntity
  8
0
100
AcDbVertex
100
AcDb3dPolylineVertex
 10
0.339877
 20
0.5215
 30
0.187
 70
    32
  0
SEQEND
  5
6C4CE
100
AcDbEntity
  8
0
  0
POLYLINE
  5
6C4CF
100
AcDbEntity
  8
0
100
AcDb3dPolyline
 66
     1
 10
0.0
 20
0.0
 30
0.0
 70
     8
  0
VERTEX
  5
6C4D0
100
AcDbEntity
  8
0
100
AcDbVertex
100
AcDb3dPolylineVertex
 10
0.277877
 20
0.5215
 30
0.187
 70
    32
  0
VERTEX
  5
6C4D1
100
AcDbEntity
  8
0
100
AcDbVertex
100
AcDb3dPolylineVertex
 10
0.277877
 20
0.6565
 30
0.187
 70
    32
  0
VERTEX
  5
6C4D2
100
AcDbEntity
  8
0
100
AcDbVertex
100
AcDb3dPolylineVertex
 10
0.06721
 20
0.6565
 30
0.187
 70
    32
  0
VERTEX
  5
6C4D3
100
AcDbEntity
  8
0
100
AcDbVertex
100
AcDb3dPolylineVertex
 10
0.06721
 20
0.5215
 30
0.187
 70
    32
  0
SEQEND
  5
6C4D4
100
AcDbEntity
  8
0
  0
POLYLINE
  5
6C4D5
100
AcDbEntity
  8
0
100
AcDb3dPolyline
 66
     1
 10
0.0
 20
0.0
 30
0.0
 70
     8
  0
VERTEX
  5
6C4D6
100
AcDbEntity
  8
0
100
AcDbVertex
100
AcDb3dPolylineVertex
 10
0.82321
 20
0.5215
 30
0.187
 70
    32
  0
VERTEX
  5
6C4D7
100
AcDbEntity
  8
0
100
AcDbVertex
100
AcDb3dPolylineVertex
 10
0.82321
 20
0.6565
 30
0.187
 70
    32
  0
VERTEX
  5
6C4D8
100
AcDbEntity
  8
0
100
AcDbVertex
100
AcDb3dPolylineVertex
 10
0.612544
 20
0.6565
 30
0.187
 70
    32
  0
VERTEX
  5
6C4D9
100
AcDbEntity
  8
0
100
AcDbVertex
100
AcDb3dPolylineVertex
 10
0.612544
 20
0.5215
 30
0.187
 70
    32
  0
SEQEND
  5
6C4DA
100
AcDbEntity
  8
0
  0
POLYLINE
  5
6C4DB
100
AcDbEntity
  8
0
100
AcDb3dPolyline
 66
     1
 10
0.0
 20
0.0
 30
0.0
 70
     8
  0
VERTEX
  5
6C4DC
100
AcDbEntity
  8
0
100
AcDbVertex
100
AcDb3dPolylineVertex
 10
1.492544
 20
-1.9685
 30
0.187
 70
    32
  0
VERTEX
  5
6C4DD
100
AcDbEntity
  8
0
100
AcDbVertex
100
AcDb3dPolylineVertex
 10
1.492544
 20
-2.1035
 30
0.187
 70
    32
  0
VERTEX
  5
6C4DE
100
AcDbEntity
  8
0
100
AcDbVertex
100
AcDb3dPolylineVertex
 10
1.70321
 20
-2.1035
 30
0.187
 70
    32
  0
VERTEX
  5
6C4DF
100
AcDbEntity
  8
0
100
AcDbVertex
100
AcDb3dPolylineVertex
 10
1.70321
 20
-1.9685
 30
0.187
 70
    32
  0
SEQEND
  5
6C4E0
100
AcDbEntity
  8
0
  0
POLYLINE
  5
6C4E1
100
AcDbEntity
  8
0
100
AcDb3dPolyline
 66
     1
 10
0.0
 20
0.0
 30
0.0
 70
     8
  0
VERTEX
  5
6C4E2
100
AcDbEntity
  8
0
100
AcDbVertex
100
AcDb3dPolylineVertex
 10
1.219877
 20
-1.9685
 30
0.187
 70
    32
  0
VERTEX
  5
6C4E3
100
AcDbEntity
  8
0
100
AcDbVertex
100
AcDb3dPolylineVertex
 10
1.219877
 20
-2.1035
 30
0.187
 70
    32
  0
VERTEX
  5
6C4E4
100
AcDbEntity
  8
0
100
AcDbVertex
100
AcDb3dPolylineVertex
 10
1.430544
 20
-2.1035
 30
0.187
 70
    32
  0
VERTEX
  5
6C4E5
100
AcDbEntity
  8
0
100
AcDbVertex
100
AcDb3dPolylineVertex
 10
1.430544
 20
-1.9685
 30
0.187
 70
    32
  0
SEQEND
  5
6C4E6
100
AcDbEntity
  8
0
  0
POLYLINE
  5
6C4E7
100
AcDbEntity
  8
0
100
AcDb3dPolyline
 66
     1
 10
0.0
 20
0.0
 30
0.0
 70
     8
  0
VERTEX
  5
6C4E8
100
AcDbEntity
  8
0
100
AcDbVertex
100
AcDb3dPolylineVertex
 10
0.94721
 20
-1.9685
 30
0.187
 70
    32
  0
VERTEX
  5
6C4E9
100
AcDbEntity
  8
0
100
AcDbVertex
100
AcDb3dPolylineVertex
 10
0.94721
 20
-2.1035
 30
0.187
 70
    32
  0
VERTEX
  5
6C4EA
100
AcDbEntity
  8
0
100
AcDbVertex
100
AcDb3dPolylineVertex
 10
1.157877
 20
-2.1035
 30
0.187
 70
    32
  0
VERTEX
  5
6C4EB
100
AcDbEntity
  8
0
100
AcDbVertex
100
AcDb3dPolylineVertex
 10
1.157877
 20
-1.9685
 30
0.187
 70
    32
  0
SEQEND
  5
6C4EC
100
AcDbEntity
  8
0
  0
CIRCLE
  5
6C4ED
100
AcDbEntity
  8
0
100
AcDbCircle
 10
0.19121
 20
-1.9345
 30
0.316
 40
0.086
  0
INSERT
  5
6C4EE
100
AcDbEntity
  8
0
 62
     1
100
AcDbBlockReference
  2
AVE_RENDER
 10
-6.627499
 20
-2.735105
 30
0.0
1001
AVE_RENDER
1002
{
1070
     2
1000
Pref
1070
    30
1070
    20
1070
     0
1070
     0
1000

1070
    10
1070
     0
1070
    30
1040
1.0
1070
     1
1040
0.3
1040
0.4
1040
0.76
1040
1.538462
1010
-1.0
1020
-1.0
1030
-1.0
1040
0.3
1070
    49
1002
}
  0
INSERT
  5
6C4EF
100
AcDbEntity
  8
0
 62
     3
100
AcDbBlockReference
  2
AVE_RENDER
 10
-6.627499
 20
-2.735105
 30
0.0
1001
AVE_RENDER
1002
{
1070
     0
1000
Full Opt
1070
     0
1070
     1
1070
     1
1070
     1
1070
     0
1070
     0
1070
     0
1070
     1
1070
     1
1040
0.0001
1040
0.0001
1002
}
  0
INSERT
  5
6C4F0
100
AcDbEntity
  8
0
 62
     4
100
AcDbBlockReference
  2
AVE_RENDER
 10
-6.627499
 20
-2.735105
 30
0.0
1001
AVE_RENDER
1002
{
1070
     0
1000
Quick Opt
1070
     0
1070
     1
1070
     1
1070
     1
1070
     0
1070
     0
1070
     1
1002
}
  0
CIRCLE
  5
6C4F1
100
AcDbEntity
  8
0
100
AcDbCircle
 10
0.19121
 20
-1.9345
 30
0.0
 40
0.086
  0
CIRCLE
  5
6C4F2
100
AcDbEntity
  8
0
100
AcDbCircle
 10
1.57121
 20
0.4255
 30
0.0
 40
0.086
  0
POLYLINE
  5
6C4F3
100
AcDbEntity
  8
0
100
AcDb3dPolyline
 66
     1
 10
0.0
 20
0.0
 30
0.0
 70
     8
  0
VERTEX
  5
6C4F4
100
AcDbEntity
  8
0
100
AcDbVertex
100
AcDb3dPolylineVertex
 10
0.94721
 20
-1.9685
 30
0.0
 70
    32
  0
VERTEX
  5
6C4F5
100
AcDbEntity
  8
0
100
AcDbVertex
100
AcDb3dPolylineVertex
 10
0.94721
 20
-2.1035
 30
0.0
 70
    32
  0
VERTEX
  5
6C4F6
100
AcDbEntity
  8
0
100
AcDbVertex
100
AcDb3dPolylineVertex
 10
1.157877
 20
-2.1035
 30
0.0
 70
    32
  0
VERTEX
  5
6C4F7
100
AcDbEntity
  8
0
100
AcDbVertex
100
AcDb3dPolylineVertex
 10
1.157877
 20
-1.9685
 30
0.0
 70
    32
  0
SEQEND
  5
6C4F8
100
AcDbEntity
  8
0
  0
POLYLINE
  5
6C4F9
100
AcDbEntity
  8
0
100
AcDb3dPolyline
 66
     1
 10
0.0
 20
0.0
 30
0.0
 70
     8
  0
VERTEX
  5
6C4FA
100
AcDbEntity
  8
0
100
AcDbVertex
100
AcDb3dPolylineVertex
 10
1.219877
 20
-1.9685
 30
0.0
 70
    32
  0
VERTEX
  5
6C4FB
100
AcDbEntity
  8
0
100
AcDbVertex
100
AcDb3dPolylineVertex
 10
1.219877
 20
-2.1035
 30
0.0
 70
    32
  0
VERTEX
  5
6C4FC
100
AcDbEntity
  8
0
100
AcDbVertex
100
AcDb3dPolylineVertex
 10
1.430544
 20
-2.1035
 30
0.0
 70
    32
  0
VERTEX
  5
6C4FD
100
AcDbEntity
  8
0
100
AcDbVertex
100
AcDb3dPolylineVertex
 10
1.430544
 20
-1.9685
 30
0.0
 70
    32
  0
SEQEND
  5
6C4FE
100
AcDbEntity
  8
0
  0
POLYLINE
  5
6C4FF
100
AcDbEntity
  8
0
100
AcDb3dPolyline
 66
     1
 10
0.0
 20
0.0
 30
0.0
 70
     8
  0
VERTEX
  5
6C500
100
AcDbEntity
  8
0
100
AcDbVertex
100
AcDb3dPolylineVertex
 10
1.492544
 20
-1.9685
 30
0.0
 70
    32
  0
VERTEX
  5
6C501
100
AcDbEntity
  8
0
100
AcDbVertex
100
AcDb3dPolylineVertex
 10
1.492544
 20
-2.1035
 30
0.0
 70
    32
  0
VERTEX
  5
6C502
100
AcDbEntity
  8
0
100
AcDbVertex
100
AcDb3dPolylineVertex
 10
1.70321
 20
-2.1035
 30
0.0
 70
    32
  0
VERTEX
  5
6C503
100
AcDbEntity
  8
0
100
AcDbVertex
100
AcDb3dPolylineVertex
 10
1.70321
 20
-1.9685
 30
0.0
 70
    32
  0
SEQEND
  5
6C504
100
AcDbEntity
  8
0
  0
POLYLINE
  5
6C505
100
AcDbEntity
  8
0
100
AcDb3dPolyline
 66
     1
 10
0.0
 20
0.0
 30
0.0
 70
     8
  0
VERTEX
  5
6C506
100
AcDbEntity
  8
0
100
AcDbVertex
100
AcDb3dPolylineVertex
 10
0.82321
 20
0.5215
 30
0.0
 70
    32
  0
VERTEX
  5
6C507
100
AcDbEntity
  8
0
100
AcDbVertex
100
AcDb3dPolylineVertex
 10
0.82321
 20
0.6565
 30
0.0
 70
    32
  0
VERTEX
  5
6C508
100
AcDbEntity
  8
0
100
AcDbVertex
100
AcDb3dPolylineVertex
 10
0.612544
 20
0.6565
 30
0.0
 70
    32
  0
VERTEX
  5
6C509
100
AcDbEntity
  8
0
100
AcDbVertex
100
AcDb3dPolylineVertex
 10
0.612544
 20
0.5215
 30
0.0
 70
    32
  0
SEQEND
  5
6C50A
100
AcDbEntity
  8
0
  0
POLYLINE
  5
6C50B
100
AcDbEntity
  8
0
100
AcDb3dPolyline
 66
     1
 10
0.0
 20
0.0
 30
0.0
 70
     8
  0
VERTEX
  5
6C50C
100
AcDbEntity
  8
0
100
AcDbVertex
100
AcDb3dPolylineVertex
 10
0.550544
 20
0.5215
 30
0.0
 70
    32
  0
VERTEX
  5
6C50D
100
AcDbEntity
  8
0
100
AcDbVertex
100
AcDb3dPolylineVertex
 10
0.550544
 20
0.6565
 30
0.0
 70
    32
  0
VERTEX
  5
6C50E
100
AcDbEntity
  8
0
100
AcDbVertex
100
AcDb3dPolylineVertex
 10
0.339877
 20
0.6565
 30
0.0
 70
    32
  0
VERTEX
  5
6C50F
100
AcDbEntity
  8
0
100
AcDbVertex
100
AcDb3dPolylineVertex
 10
0.339877
 20
0.5215
 30
0.0
 70
    32
  0
SEQEND
  5
6C510
100
AcDbEntity
  8
0
  0
POLYLINE
  5
6C511
100
AcDbEntity
  8
0
100
AcDb3dPolyline
 66
     1
 10
0.0
 20
0.0
 30
0.0
 70
     8
  0
VERTEX
  5
6C512
100
AcDbEntity
  8
0
100
AcDbVertex
100
AcDb3dPolylineVertex
 10
0.277877
 20
0.5215
 30
0.0
 70
    32
  0
VERTEX
  5
6C513
100
AcDbEntity
  8
0
100
AcDbVertex
100
AcDb3dPolylineVertex
 10
0.277877
 20
0.6565
 30
0.0
 70
    32
  0
VERTEX
  5
6C514
100
AcDbEntity
  8
0
100
AcDbVertex
100
AcDb3dPolylineVertex
 10
0.06721
 20
0.6565
 30
0.0
 70
    32
  0
VERTEX
  5
6C515
100
AcDbEntity
  8
0
100
AcDbVertex
100
AcDb3dPolylineVertex
 10
0.06721
 20
0.5215
 30
0.0
 70
    32
  0
SEQEND
  5
6C516
100
AcDbEntity
  8
0
  0
LINE
  5
6C517
100
AcDbEntity
  8
0
100
AcDbLine
 10
1.70321
 20
-1.9685
 30
0.0
 11
1.492544
 21
-1.9685
 31
0.0
  0
LINE
  5
6C518
100
AcDbEntity
  8
0
100
AcDbLine
 10
1.430544
 20
-1.9685
 30
0.0
 11
1.219877
 21
-1.9685
 31
0.0
  0
LINE
  5
6C519
100
AcDbEntity
  8
0
100
AcDbLine
 10
1.157877
 20
-1.9685
 30
0.0
 11
0.94721
 21
-1.9685
 31
0.0
  0
LINE
  5
6C51A
100
AcDbEntity
  8
0
100
AcDbLine
 10
0.82321
 20
0.5215
 30
0.0
 11
0.612544
 21
0.5215
 31
0.0
  0
LINE
  5
6C51B
100
AcDbEntity
  8
0
100
AcDbLine
 10
0.550544
 20
0.5215
 30
0.0
 11
0.339877
 21
0.5215
 31
0.0
  0
LINE
  5
6C51C
100
AcDbEntity
  8
0
100
AcDbLine
 10
0.277877
 20
0.5215
 30
0.0
 11
0.06721
 21
0.5215
 31
0.0
  0
POLYLINE
  5
6C51D
100
AcDbEntity
  8
0
100
AcDbPolygonMesh
 66
     1
 10
0.0
 20
0.0
 30
0.0
 70
    16
 71
     6
 72
     3
  0
VERTEX
  5
6C51E
100
AcDbEntity
  8
0
100
AcDbVertex
100
AcDbPolygonMeshVertex
 10
0.90571
 20
-1.9855
 30
2.927275
 70
    64
  0
VERTEX
  5
6C51F
100
AcDbEntity
  8
0
100
AcDbVertex
100
AcDbPolygonMeshVertex
 10
0.90571
 20
-1.9855
 30
2.317275
 70
    64
  0
VERTEX
  5
6C520
100
AcDbEntity
  8
0
100
AcDbVertex
100
AcDbPolygonMeshVertex
 10
0.90571
 20
-1.9855
 30
2.317275
 70
    64
  0
VERTEX
  5
6C521
100
AcDbEntity
  8
0
100
AcDbVertex
100
AcDbPolygonMeshVertex
 10
0.85971
 20
-1.9855
 30
2.927275
 70
    64
  0
VERTEX
  5
6C522
100
AcDbEntity
  8
0
100
AcDbVertex
100
AcDbPolygonMeshVertex
 10
0.85971
 20
-1.9855
 30
2.317275
 70
    64
  0
VERTEX
  5
6C523
100
AcDbEntity
  8
0
100
AcDbVertex
100
AcDbPolygonMeshVertex
 10
0.85971
 20
-1.9855
 30
2.317275
 70
    64
  0
VERTEX
  5
6C524
100
AcDbEntity
  8
0
100
AcDbVertex
100
AcDbPolygonMeshVertex
 10
0.85971
 20
-1.8455
 30
2.927275
 70
    64
  0
VERTEX
  5
6C525
100
AcDbEntity
  8
0
100
AcDbVertex
100
AcDbPolygonMeshVertex
 10
0.85971
 20
-1.8455
 30
2.317275
 70
    64
  0
VERTEX
  5
6C526
100
AcDbEntity
  8
0
100
AcDbVertex
100
AcDbPolygonMeshVertex
 10
0.85971
 20
-1.9855
 30
2.317275
 70
    64
  0
VERTEX
  5
6C527
100
AcDbEntity
  8
0
100
AcDbVertex
100
AcDbPolygonMeshVertex
 10
0.90571
 20
-1.8455
 30
2.927275
 70
    64
  0
VERTEX
  5
6C528
100
AcDbEntity
  8
0
100
AcDbVertex
100
AcDbPolygonMeshVertex
 10
0.90571
 20
-1.8455
 30
2.317275
 70
    64
  0
VERTEX
  5
6C529
100
AcDbEntity
  8
0
100
AcDbVertex
100
AcDbPolygonMeshVertex
 10
0.90571
 20
-1.9855
 30
2.317275
 70
    64
  0
VERTEX
  5
6C52A
100
AcDbEntity
  8
0
100
AcDbVertex
100
AcDbPolygonMeshVertex
 10
0.90571
 20
-1.8455
 30
2.927275
 70
    64
  0
VERTEX
  5
6C52B
100
AcDbEntity
  8
0
100
AcDbVertex
100
AcDbPolygonMeshVertex
 10
0.90571
 20
-1.8455
 30
2.927275
 70
    64
  0
VERTEX
  5
6C52C
100
AcDbEntity
  8
0
100
AcDbVertex
100
AcDbPolygonMeshVertex
 10
0.90571
 20
-1.9855
 30
2.927275
 70
    64
  0
VERTEX
  5
6C52D
100
AcDbEntity
  8
0
100
AcDbVertex
100
AcDbPolygonMeshVertex
 10
0.85971
 20
-1.8455
 30
2.927275
 70
    64
  0
VERTEX
  5
6C52E
100
AcDbEntity
  8
0
100
AcDbVertex
100
AcDbPolygonMeshVertex
 10
0.85971
 20
-1.8455
 30
2.927275
 70
    64
  0
VERTEX
  5
6C52F
100
AcDbEntity
  8
0
100
AcDbVertex
100
AcDbPolygonMeshVertex
 10
0.85971
 20
-1.9855
 30
2.927275
 70
    64
  0
SEQEND
  5
6C530
100
AcDbEntity
  8
0
  0
POLYLINE
  5
6C531
100
AcDbEntity
  8
0
100
AcDbPolygonMesh
 66
     1
 10
0.0
 20
0.0
 30
0.0
 70
    16
 71
     6
 72
     3
  0
VERTEX
  5
6C532
100
AcDbEntity
  8
0
100
AcDbVertex
100
AcDbPolygonMeshVertex
 10
1.33546
 20
-1.9855
 30
2.927275
 70
    64
  0
VERTEX
  5
6C533
100
AcDbEntity
  8
0
100
AcDbVertex
100
AcDbPolygonMeshVertex
 10
1.33546
 20
-1.9855
 30
2.317275
 70
    64
  0
VERTEX
  5
6C534
100
AcDbEntity
  8
0
100
AcDbVertex
100
AcDbPolygonMeshVertex
 10
1.33546
 20
-1.9855
 30
2.317275
 70
    64
  0
VERTEX
  5
6C535
100
AcDbEntity
  8
0
100
AcDbVertex
100
AcDbPolygonMeshVertex
 10
1.28946
 20
-1.9855
 30
2.927275
 70
    64
  0
VERTEX
  5
6C536
100
AcDbEntity
  8
0
100
AcDbVertex
100
AcDbPolygonMeshVertex
 10
1.28946
 20
-1.9855
 30
2.317275
 70
    64
  0
VERTEX
  5
6C537
100
AcDbEntity
  8
0
100
AcDbVertex
100
AcDbPolygonMeshVertex
 10
1.28946
 20
-1.9855
 30
2.317275
 70
    64
  0
VERTEX
  5
6C538
100
AcDbEntity
  8
0
100
AcDbVertex
100
AcDbPolygonMeshVertex
 10
1.28946
 20
-1.8455
 30
2.927275
 70
    64
  0
VERTEX
  5
6C539
100
AcDbEntity
  8
0
100
AcDbVertex
100
AcDbPolygonMeshVertex
 10
1.28946
 20
-1.8455
 30
2.317275
 70
    64
  0
VERTEX
  5
6C53A
100
AcDbEntity
  8
0
100
AcDbVertex
100
AcDbPolygonMeshVertex
 10
1.28946
 20
-1.9855
 30
2.317275
 70
    64
  0
VERTEX
  5
6C53B
100
AcDbEntity
  8
0
100
AcDbVertex
100
AcDbPolygonMeshVertex
 10
1.33546
 20
-1.8455
 30
2.927275
 70
    64
  0
VERTEX
  5
6C53C
100
AcDbEntity
  8
0
100
AcDbVertex
100
AcDbPolygonMeshVertex
 10
1.33546
 20
-1.8455
 30
2.317275
 70
    64
  0
VERTEX
  5
6C53D
100
AcDbEntity
  8
0
100
AcDbVertex
100
AcDbPolygonMeshVertex
 10
1.33546
 20
-1.9855
 30
2.317275
 70
    64
  0
VERTEX
  5
6C53E
100
AcDbEntity
  8
0
100
AcDbVertex
100
AcDbPolygonMeshVertex
 10
1.33546
 20
-1.8455
 30
2.927275
 70
    64
  0
VERTEX
  5
6C53F
100
AcDbEntity
  8
0
100
AcDbVertex
100
AcDbPolygonMeshVertex
 10
1.33546
 20
-1.8455
 30
2.927275
 70
    64
  0
VERTEX
  5
6C540
100
AcDbEntity
  8
0
100
AcDbVertex
100
AcDbPolygonMeshVertex
 10
1.33546
 20
-1.9855
 30
2.927275
 70
    64
  0
VERTEX
  5
6C541
100
AcDbEntity
  8
0
100
AcDbVertex
100
AcDbPolygonMeshVertex
 10
1.28946
 20
-1.8455
 30
2.927275
 70
    64
  0
VERTEX
  5
6C542
100
AcDbEntity
  8
0
100
AcDbVertex
100
AcDbPolygonMeshVertex
 10
1.28946
 20
-1.8455
 30
2.927275
 70
    64
  0
VERTEX
  5
6C543
100
AcDbEntity
  8
0
100
AcDbVertex
100
AcDbPolygonMeshVertex
 10
1.28946
 20
-1.9855
 30
2.927275
 70
    64
  0
SEQEND
  5
6C544
100
AcDbEntity
  8
0
  0
POLYLINE
  5
6C545
100
AcDbEntity
  8
0
100
AcDbPolygonMesh
 66
     1
 10
0.0
 20
0.0
 30
0.0
 70
    16
 71
     6
 72
     3
  0
VERTEX
  5
6C546
100
AcDbEntity
  8
0
100
AcDbVertex
100
AcDbPolygonMeshVertex
 10
1.71921
 20
-2.0575
 30
2.317275
 70
    64
  0
VERTEX
  5
6C547
100
AcDbEntity
  8
0
100
AcDbVertex
100
AcDbPolygonMeshVertex
 10
1.71921
 20
-2.0575
 30
2.058275
 70
    64
  0
VERTEX
  5
6C548
100
AcDbEntity
  8
0
100
AcDbVertex
100
AcDbPolygonMeshVertex
 10
1.71921
 20
-2.0575
 30
2.058275
 70
    64
  0
VERTEX
  5
6C549
100
AcDbEntity
  8
0
100
AcDbVertex
100
AcDbPolygonMeshVertex
 10
0.04621
 20
-2.0575
 30
2.317275
 70
    64
  0
VERTEX
  5
6C54A
100
AcDbEntity
  8
0
100
AcDbVertex
100
AcDbPolygonMeshVertex
 10
0.04621
 20
-2.0575
 30
2.058275
 70
    64
  0
VERTEX
  5
6C54B
100
AcDbEntity
  8
0
100
AcDbVertex
100
AcDbPolygonMeshVertex
 10
0.04621
 20
-2.0575
 30
2.058275
 70
    64
  0
VERTEX
  5
6C54C
100
AcDbEntity
  8
0
100
AcDbVertex
100
AcDbPolygonMeshVertex
 10
0.04621
 20
-1.8455
 30
2.317275
 70
    64
  0
VERTEX
  5
6C54D
100
AcDbEntity
  8
0
100
AcDbVertex
100
AcDbPolygonMeshVertex
 10
0.04621
 20
-1.8455
 30
2.058275
 70
    64
  0
VERTEX
  5
6C54E
100
AcDbEntity
  8
0
100
AcDbVertex
100
AcDbPolygonMeshVertex
 10
0.04621
 20
-2.0575
 30
2.058275
 70
    64
  0
VERTEX
  5
6C54F
100
AcDbEntity
  8
0
100
AcDbVertex
100
AcDbPolygonMeshVertex
 10
1.71921
 20
-1.8455
 30
2.317275
 70
    64
  0
VERTEX
  5
6C550
100
AcDbEntity
  8
0
100
AcDbVertex
100
AcDbPolygonMeshVertex
 10
1.71921
 20
-1.8455
 30
2.058275
 70
    64
  0
VERTEX
  5
6C551
100
AcDbEntity
  8
0
100
AcDbVertex
100
AcDbPolygonMeshVertex
 10
1.71921
 20
-2.0575
 30
2.058275
 70
    64
  0
VERTEX
  5
6C552
100
AcDbEntity
  8
0
100
AcDbVertex
100
AcDbPolygonMeshVertex
 10
1.71921
 20
-1.8455
 30
2.317275
 70
    64
  0
VERTEX
  5
6C553
100
AcDbEntity
  8
0
100
AcDbVertex
100
AcDbPolygonMeshVertex
 10
1.71921
 20
-1.8455
 30
2.317275
 70
    64
  0
VERTEX
  5
6C554
100
AcDbEntity
  8
0
100
AcDbVertex
100
AcDbPolygonMeshVertex
 10
1.71921
 20
-2.0575
 30
2.317275
 70
    64
  0
VERTEX
  5
6C555
100
AcDbEntity
  8
0
100
AcDbVertex
100
AcDbPolygonMeshVertex
 10
0.04621
 20
-1.8455
 30
2.317275
 70
    64
  0
VERTEX
  5
6C556
100
AcDbEntity
  8
0
100
AcDbVertex
100
AcDbPolygonMeshVertex
 10
0.04621
 20
-1.8455
 30
2.317275
 70
    64
  0
VERTEX
  5
6C557
100
AcDbEntity
  8
0
100
AcDbVertex
100
AcDbPolygonMeshVertex
 10
0.04621
 20
-2.0575
 30
2.317275
 70
    64
  0
SEQEND
  5
6C558
100
AcDbEntity
  8
0
  0
POLYLINE
  5
6C559
100
AcDbEntity
  8
0
100
AcDbPolygonMesh
 66
     1
 10
0.0
 20
0.0
 30
0.0
 70
    16
 71
     6
 72
     3
  0
VERTEX
  5
6C55A
100
AcDbEntity
  8
0
100
AcDbVertex
100
AcDbPolygonMeshVertex
 10
1.76521
 20
-1.9685
 30
2.058275
 70
    64
  0
VERTEX
  5
6C55B
100
AcDbEntity
  8
0
100
AcDbVertex
100
AcDbPolygonMeshVertex
 10
1.76521
 20
-1.9685
 30
1.316275
 70
    64
  0
VERTEX
  5
6C55C
100
AcDbEntity
  8
0
100
AcDbVertex
100
AcDbPolygonMeshVertex
 10
1.76521
 20
-1.9685
 30
1.316275
 70
    64
  0
VERTEX
  5
6C55D
100
AcDbEntity
  8
0
100
AcDbVertex
100
AcDbPolygonMeshVertex
 10
0.00021
 20
-1.9685
 30
2.058275
 70
    64
  0
VERTEX
  5
6C55E
100
AcDbEntity
  8
0
100
AcDbVertex
100
AcDbPolygonMeshVertex
 10
0.00021
 20
-1.9685
 30
1.316275
 70
    64
  0
VERTEX
  5
6C55F
100
AcDbEntity
  8
0
100
AcDbVertex
100
AcDbPolygonMeshVertex
 10
0.00021
 20
-1.9685
 30
1.316275
 70
    64
  0
VERTEX
  5
6C560
100
AcDbEntity
  8
0
100
AcDbVertex
100
AcDbPolygonMeshVertex
 10
0.00021
 20
0.5215
 30
2.058275
 70
    64
  0
VERTEX
  5
6C561
100
AcDbEntity
  8
0
100
AcDbVertex
100
AcDbPolygonMeshVertex
 10
0.00021
 20
0.5215
 30
1.316275
 70
    64
  0
VERTEX
  5
6C562
100
AcDbEntity
  8
0
100
AcDbVertex
100
AcDbPolygonMeshVertex
 10
0.00021
 20
-1.9685
 30
1.316275
 70
    64
  0
VERTEX
  5
6C563
100
AcDbEntity
  8
0
100
AcDbVertex
100
AcDbPolygonMeshVertex
 10
1.76521
 20
0.5215
 30
2.058275
 70
    64
  0
VERTEX
  5
6C564
100
AcDbEntity
  8
0
100
AcDbVertex
100
AcDbPolygonMeshVertex
 10
1.76521
 20
0.5215
 30
1.316275
 70
    64
  0
VERTEX
  5
6C565
100
AcDbEntity
  8
0
100
AcDbVertex
100
AcDbPolygonMeshVertex
 10
1.76521
 20
-1.9685
 30
1.316275
 70
    64
  0
VERTEX
  5
6C566
100
AcDbEntity
  8
0
100
AcDbVertex
100
AcDbPolygonMeshVertex
 10
1.76521
 20
0.5215
 30
2.058275
 70
    64
  0
VERTEX
  5
6C567
100
AcDbEntity
  8
0
100
AcDbVertex
100
AcDbPolygonMeshVertex
 10
1.76521
 20
0.5215
 30
2.058275
 70
    64
  0
VERTEX
  5
6C568
100
AcDbEntity
  8
0
100
AcDbVertex
100
AcDbPolygonMeshVertex
 10
1.76521
 20
-1.9685
 30
2.058275
 70
    64
  0
VERTEX
  5
6C569
100
AcDbEntity
  8
0
100
AcDbVertex
100
AcDbPolygonMeshVertex
 10
0.00021
 20
0.5215
 30
2.058275
 70
    64
  0
VERTEX
  5
6C56A
100
AcDbEntity
  8
0
100
AcDbVertex
100
AcDbPolygonMeshVertex
 10
0.00021
 20
0.5215
 30
2.058275
 70
    64
  0
VERTEX
  5
6C56B
100
AcDbEntity
  8
0
100
AcDbVertex
100
AcDbPolygonMeshVertex
 10
0.00021
 20
-1.9685
 30
2.058275
 70
    64
  0
SEQEND
  5
6C56C
100
AcDbEntity
  8
0
  0
POLYLINE
  5
6C56D
100
AcDbEntity
  8
0
100
AcDbPolygonMesh
 66
     1
 10
0.0
 20
0.0
 30
0.0
 70
    16
 71
     6
 72
     3
  0
VERTEX
  5
6C56E
100
AcDbEntity
  8
0
100
AcDbVertex
100
AcDbPolygonMeshVertex
 10
0.42996
 20
-1.9855
 30
2.927275
 70
    64
  0
VERTEX
  5
6C56F
100
AcDbEntity
  8
0
100
AcDbVertex
100
AcDbPolygonMeshVertex
 10
0.42996
 20
-1.9855
 30
2.317275
 70
    64
  0
VERTEX
  5
6C570
100
AcDbEntity
  8
0
100
AcDbVertex
100
AcDbPolygonMeshVertex
 10
0.42996
 20
-1.9855
 30
2.317275
 70
    64
  0
VERTEX
  5
6C571
100
AcDbEntity
  8
0
100
AcDbVertex
100
AcDbPolygonMeshVertex
 10
0.47596
 20
-1.9855
 30
2.927275
 70
    64
  0
VERTEX
  5
6C572
100
AcDbEntity
  8
0
100
AcDbVertex
100
AcDbPolygonMeshVertex
 10
0.47596
 20
-1.9855
 30
2.317275
 70
    64
  0
VERTEX
  5
6C573
100
AcDbEntity
  8
0
100
AcDbVertex
100
AcDbPolygonMeshVertex
 10
0.47596
 20
-1.9855
 30
2.317275
 70
    64
  0
VERTEX
  5
6C574
100
AcDbEntity
  8
0
100
AcDbVertex
100
AcDbPolygonMeshVertex
 10
0.47596
 20
-1.8455
 30
2.927275
 70
    64
  0
VERTEX
  5
6C575
100
AcDbEntity
  8
0
100
AcDbVertex
100
AcDbPolygonMeshVertex
 10
0.47596
 20
-1.8455
 30
2.317275
 70
    64
  0
VERTEX
  5
6C576
100
AcDbEntity
  8
0
100
AcDbVertex
100
AcDbPolygonMeshVertex
 10
0.47596
 20
-1.9855
 30
2.317275
 70
    64
  0
VERTEX
  5
6C577
100
AcDbEntity
  8
0
100
AcDbVertex
100
AcDbPolygonMeshVertex
 10
0.42996
 20
-1.8455
 30
2.927275
 70
    64
  0
VERTEX
  5
6C578
100
AcDbEntity
  8
0
100
AcDbVertex
100
AcDbPolygonMeshVertex
 10
0.42996
 20
-1.8455
 30
2.317275
 70
    64
  0
VERTEX
  5
6C579
100
AcDbEntity
  8
0
100
AcDbVertex
100
AcDbPolygonMeshVertex
 10
0.42996
 20
-1.9855
 30
2.317275
 70
    64
  0
VERTEX
  5
6C57A
100
AcDbEntity
  8
0
100
AcDbVertex
100
AcDbPolygonMeshVertex
 10
0.42996
 20
-1.8455
 30
2.927275
 70
    64
  0
VERTEX
  5
6C57B
100
AcDbEntity
  8
0
100
AcDbVertex
100
AcDbPolygonMeshVertex
 10
0.42996
 20
-1.8455
 30
2.927275
 70
    64
  0
VERTEX
  5
6C57C
100
AcDbEntity
  8
0
100
AcDbVertex
100
AcDbPolygonMeshVertex
 10
0.42996
 20
-1.9855
 30
2.927275
 70
    64
  0
VERTEX
  5
6C57D
100
AcDbEntity
  8
0
100
AcDbVertex
100
AcDbPolygonMeshVertex
 10
0.47596
 20
-1.8455
 30
2.927275
 70
    64
  0
VERTEX
  5
6C57E
100
AcDbEntity
  8
0
100
AcDbVertex
100
AcDbPolygonMeshVertex
 10
0.47596
 20
-1.8455
 30
2.927275
 70
    64
  0
VERTEX
  5
6C57F
100
AcDbEntity
  8
0
100
AcDbVertex
100
AcDbPolygonMeshVertex
 10
0.47596
 20
-1.9855
 30
2.927275
 70
    64
  0
SEQEND
  5
6C580
100
AcDbEntity
  8
0
  0
LINE
  5
6C581
100
AcDbEntity
  8
0
100
AcDbLine
 10
0.90571
 20
-1.8455
 30
2.644275
 11
1.28946
 21
-1.8455
 31
2.644275
  0
LINE
  5
6C582
100
AcDbEntity
  8
0
100
AcDbLine
 10
1.33546
 20
-1.8455
 30
2.644275
 11
1.71921
 21
-1.8455
 31
2.644275
  0
LINE
  5
6C583
100
AcDbEntity
  8
0
100
AcDbLine
 10
0.47596
 20
-1.8455
 30
2.644275
 11
0.85971
 21
-1.8455
 31
2.644275
  0
LINE
  5
6C584
100
AcDbEntity
  8
0
100
AcDbLine
 10
0.04621
 20
-1.8455
 30
2.644275
 11
0.42996
 21
-1.8455
 31
2.644275
  0
POLYLINE
  5
6C585
100
AcDbEntity
  8
0
100
AcDbPolygonMesh
 66
     1
 10
0.0
 20
0.0
 30
0.0
 70
    16
 71
     6
 72
     3
  0
VERTEX
  5
6C586
100
AcDbEntity
  8
0
100
AcDbVertex
100
AcDbPolygonMeshVertex
 10
0.04621
 20
-1.9855
 30
2.927275
 70
    64
  0
VERTEX
  5
6C587
100
AcDbEntity
  8
0
100
AcDbVertex
100
AcDbPolygonMeshVertex
 10
0.04621
 20
-1.9855
 30
2.058275
 70
    64
  0
VERTEX
  5
6C588
100
AcDbEntity
  8
0
100
AcDbVertex
100
AcDbPolygonMeshVertex
 10
0.04621
 20
-1.9855
 30
2.058275
 70
    64
  0
VERTEX
  5
6C589
100
AcDbEntity
  8
0
100
AcDbVertex
100
AcDbPolygonMeshVertex
 10
0.00021
 20
-1.9855
 30
2.927275
 70
    64
  0
VERTEX
  5
6C58A
100
AcDbEntity
  8
0
100
AcDbVertex
100
AcDbPolygonMeshVertex
 10
0.00021
 20
-1.9855
 30
2.058275
 70
    64
  0
VERTEX
  5
6C58B
100
AcDbEntity
  8
0
100
AcDbVertex
100
AcDbPolygonMeshVertex
 10
0.00021
 20
-1.9855
 30
2.058275
 70
    64
  0
VERTEX
  5
6C58C
100
AcDbEntity
  8
0
100
AcDbVertex
100
AcDbPolygonMeshVertex
 10
0.00021
 20
-1.8455
 30
2.927275
 70
    64
  0
VERTEX
  5
6C58D
100
AcDbEntity
  8
0
100
AcDbVertex
100
AcDbPolygonMeshVertex
 10
0.00021
 20
-1.8455
 30
2.058275
 70
    64
  0
VERTEX
  5
6C58E
100
AcDbEntity
  8
0
100
AcDbVertex
100
AcDbPolygonMeshVertex
 10
0.00021
 20
-1.9855
 30
2.058275
 70
    64
  0
VERTEX
  5
6C58F
100
AcDbEntity
  8
0
100
AcDbVertex
100
AcDbPolygonMeshVertex
 10
0.04621
 20
-1.8455
 30
2.927275
 70
    64
  0
VERTEX
  5
6C590
100
AcDbEntity
  8
0
100
AcDbVertex
100
AcDbPolygonMeshVertex
 10
0.04621
 20
-1.8455
 30
2.058275
 70
    64
  0
VERTEX
  5
6C591
100
AcDbEntity
  8
0
100
AcDbVertex
100
AcDbPolygonMeshVertex
 10
0.04621
 20
-1.9855
 30
2.058275
 70
    64
  0
VERTEX
  5
6C592
100
AcDbEntity
  8
0
100
AcDbVertex
100
AcDbPolygonMeshVertex
 10
0.04621
 20
-1.8455
 30
2.927275
 70
    64
  0
VERTEX
  5
6C593
100
AcDbEntity
  8
0
100
AcDbVertex
100
AcDbPolygonMeshVertex
 10
0.04621
 20
-1.8455
 30
2.927275
 70
    64
  0
VERTEX
  5
6C594
100
AcDbEntity
  8
0
100
AcDbVertex
100
AcDbPolygonMeshVertex
 10
0.04621
 20
-1.9855
 30
2.927275
 70
    64
  0
VERTEX
  5
6C595
100
AcDbEntity
  8
0
100
AcDbVertex
100
AcDbPolygonMeshVertex
 10
0.00021
 20
-1.8455
 30
2.927275
 70
    64
  0
VERTEX
  5
6C596
100
AcDbEntity
  8
0
100
AcDbVertex
100
AcDbPolygonMeshVertex
 10
0.00021
 20
-1.8455
 30
2.927275
 70
    64
  0
VERTEX
  5
6C597
100
AcDbEntity
  8
0
100
AcDbVertex
100
AcDbPolygonMeshVertex
 10
0.00021
 20
-1.9855
 30
2.927275
 70
    64
  0
SEQEND
  5
6C598
100
AcDbEntity
  8
0
  0
POLYLINE
  5
6C599
100
AcDbEntity
  8
0
100
AcDbPolygonMesh
 66
     1
 10
0.0
 20
0.0
 30
0.0
 70
    16
 71
     6
 72
     3
  0
VERTEX
  5
6C59A
100
AcDbEntity
  8
0
100
AcDbVertex
100
AcDbPolygonMeshVertex
 10
1.76521
 20
-1.9855
 30
2.927275
 70
    64
  0
VERTEX
  5
6C59B
100
AcDbEntity
  8
0
100
AcDbVertex
100
AcDbPolygonMeshVertex
 10
1.76521
 20
-1.9855
 30
2.058275
 70
    64
  0
VERTEX
  5
6C59C
100
AcDbEntity
  8
0
100
AcDbVertex
100
AcDbPolygonMeshVertex
 10
1.76521
 20
-1.9855
 30
2.058275
 70
    64
  0
VERTEX
  5
6C59D
100
AcDbEntity
  8
0
100
AcDbVertex
100
AcDbPolygonMeshVertex
 10
1.71921
 20
-1.9855
 30
2.927275
 70
    64
  0
VERTEX
  5
6C59E
100
AcDbEntity
  8
0
100
AcDbVertex
100
AcDbPolygonMeshVertex
 10
1.71921
 20
-1.9855
 30
2.058275
 70
    64
  0
VERTEX
  5
6C59F
100
AcDbEntity
  8
0
100
AcDbVertex
100
AcDbPolygonMeshVertex
 10
1.71921
 20
-1.9855
 30
2.058275
 70
    64
  0
VERTEX
  5
6C5A0
100
AcDbEntity
  8
0
100
AcDbVertex
100
AcDbPolygonMeshVertex
 10
1.71921
 20
-1.8455
 30
2.927275
 70
    64
  0
VERTEX
  5
6C5A1
100
AcDbEntity
  8
0
100
AcDbVertex
100
AcDbPolygonMeshVertex
 10
1.71921
 20
-1.8455
 30
2.058275
 70
    64
  0
VERTEX
  5
6C5A2
100
AcDbEntity
  8
0
100
AcDbVertex
100
AcDbPolygonMeshVertex
 10
1.71921
 20
-1.9855
 30
2.058275
 70
    64
  0
VERTEX
  5
6C5A3
100
AcDbEntity
  8
0
100
AcDbVertex
100
AcDbPolygonMeshVertex
 10
1.76521
 20
-1.8455
 30
2.927275
 70
    64
  0
VERTEX
  5
6C5A4
100
AcDbEntity
  8
0
100
AcDbVertex
100
AcDbPolygonMeshVertex
 10
1.76521
 20
-1.8455
 30
2.058275
 70
    64
  0
VERTEX
  5
6C5A5
100
AcDbEntity
  8
0
100
AcDbVertex
100
AcDbPolygonMeshVertex
 10
1.76521
 20
-1.9855
 30
2.058275
 70
    64
  0
VERTEX
  5
6C5A6
100
AcDbEntity
  8
0
100
AcDbVertex
100
AcDbPolygonMeshVertex
 10
1.76521
 20
-1.8455
 30
2.927275
 70
    64
  0
VERTEX
  5
6C5A7
100
AcDbEntity
  8
0
100
AcDbVertex
100
AcDbPolygonMeshVertex
 10
1.76521
 20
-1.8455
 30
2.927275
 70
    64
  0
VERTEX
  5
6C5A8
100
AcDbEntity
  8
0
100
AcDbVertex
100
AcDbPolygonMeshVertex
 10
1.76521
 20
-1.9855
 30
2.927275
 70
    64
  0
VERTEX
  5
6C5A9
100
AcDbEntity
  8
0
100
AcDbVertex
100
AcDbPolygonMeshVertex
 10
1.71921
 20
-1.8455
 30
2.927275
 70
    64
  0
VERTEX
  5
6C5AA
100
AcDbEntity
  8
0
100
AcDbVertex
100
AcDbPolygonMeshVertex
 10
1.71921
 20
-1.8455
 30
2.927275
 70
    64
  0
VERTEX
  5
6C5AB
100
AcDbEntity
  8
0
100
AcDbVertex
100
AcDbPolygonMeshVertex
 10
1.71921
 20
-1.9855
 30
2.927275
 70
    64
  0
SEQEND
  5
6C5AC
100
AcDbEntity
  8
0
  0
POLYLINE
  5
6C5AD
100
AcDbEntity
  8
0
100
AcDbPolygonMesh
 66
     1
 10
0.0
 20
0.0
 30
0.0
 70
    16
 71
     6
 72
     3
  0
VERTEX
  5
6C5AE
100
AcDbEntity
  8
0
100
AcDbVertex
100
AcDbPolygonMeshVertex
 10
1.76521
 20
0.5385
 30
2.927275
 70
    64
  0
VERTEX
  5
6C5AF
100
AcDbEntity
  8
0
100
AcDbVertex
100
AcDbPolygonMeshVertex
 10
1.76521
 20
0.5385
 30
2.058275
 70
    64
  0
VERTEX
  5
6C5B0
100
AcDbEntity
  8
0
100
AcDbVertex
100
AcDbPolygonMeshVertex
 10
1.76521
 20
0.5385
 30
2.058275
 70
    64
  0
VERTEX
  5
6C5B1
100
AcDbEntity
  8
0
100
AcDbVertex
100
AcDbPolygonMeshVertex
 10
1.71921
 20
0.5385
 30
2.927275
 70
    64
  0
VERTEX
  5
6C5B2
100
AcDbEntity
  8
0
100
AcDbVertex
100
AcDbPolygonMeshVertex
 10
1.71921
 20
0.5385
 30
2.058275
 70
    64
  0
VERTEX
  5
6C5B3
100
AcDbEntity
  8
0
100
AcDbVertex
100
AcDbPolygonMeshVertex
 10
1.71921
 20
0.5385
 30
2.058275
 70
    64
  0
VERTEX
  5
6C5B4
100
AcDbEntity
  8
0
100
AcDbVertex
100
AcDbPolygonMeshVertex
 10
1.71921
 20
0.3985
 30
2.927275
 70
    64
  0
VERTEX
  5
6C5B5
100
AcDbEntity
  8
0
100
AcDbVertex
100
AcDbPolygonMeshVertex
 10
1.71921
 20
0.3985
 30
2.058275
 70
    64
  0
VERTEX
  5
6C5B6
100
AcDbEntity
  8
0
100
AcDbVertex
100
AcDbPolygonMeshVertex
 10
1.71921
 20
0.5385
 30
2.058275
 70
    64
  0
VERTEX
  5
6C5B7
100
AcDbEntity
  8
0
100
AcDbVertex
100
AcDbPolygonMeshVertex
 10
1.76521
 20
0.3985
 30
2.927275
 70
    64
  0
VERTEX
  5
6C5B8
100
AcDbEntity
  8
0
100
AcDbVertex
100
AcDbPolygonMeshVertex
 10
1.76521
 20
0.3985
 30
2.058275
 70
    64
  0
VERTEX
  5
6C5B9
100
AcDbEntity
  8
0
100
AcDbVertex
100
AcDbPolygonMeshVertex
 10
1.76521
 20
0.5385
 30
2.058275
 70
    64
  0
VERTEX
  5
6C5BA
100
AcDbEntity
  8
0
100
AcDbVertex
100
AcDbPolygonMeshVertex
 10
1.76521
 20
0.3985
 30
2.927275
 70
    64
  0
VERTEX
  5
6C5BB
100
AcDbEntity
  8
0
100
AcDbVertex
100
AcDbPolygonMeshVertex
 10
1.76521
 20
0.3985
 30
2.927275
 70
    64
  0
VERTEX
  5
6C5BC
100
AcDbEntity
  8
0
100
AcDbVertex
100
AcDbPolygonMeshVertex
 10
1.76521
 20
0.5385
 30
2.927275
 70
    64
  0
VERTEX
  5
6C5BD
100
AcDbEntity
  8
0
100
AcDbVertex
100
AcDbPolygonMeshVertex
 10
1.71921
 20
0.3985
 30
2.927275
 70
    64
  0
VERTEX
  5
6C5BE
100
AcDbEntity
  8
0
100
AcDbVertex
100
AcDbPolygonMeshVertex
 10
1.71921
 20
0.3985
 30
2.927275
 70
    64
  0
VERTEX
  5
6C5BF
100
AcDbEntity
  8
0
100
AcDbVertex
100
AcDbPolygonMeshVertex
 10
1.71921
 20
0.5385
 30
2.927275
 70
    64
  0
SEQEND
  5
6C5C0
100
AcDbEntity
  8
0
  0
LINE
  5
6C5C1
100
AcDbEntity
  8
0
100
AcDbLine
 10
1.33546
 20
0.3985
 30
2.644275
 11
1.71921
 21
0.3985
 31
2.644275
  0
POLYLINE
  5
6C5C2
100
AcDbEntity
  8
0
100
AcDbPolygonMesh
 66
     1
 10
0.0
 20
0.0
 30
0.0
 70
    16
 71
     6
 72
     3
  0
VERTEX
  5
6C5C3
100
AcDbEntity
  8
0
100
AcDbVertex
100
AcDbPolygonMeshVertex
 10
1.33546
 20
0.5385
 30
2.927275
 70
    64
  0
VERTEX
  5
6C5C4
100
AcDbEntity
  8
0
100
AcDbVertex
100
AcDbPolygonMeshVertex
 10
1.33546
 20
0.5385
 30
2.317275
 70
    64
  0
VERTEX
  5
6C5C5
100
AcDbEntity
  8
0
100
AcDbVertex
100
AcDbPolygonMeshVertex
 10
1.33546
 20
0.5385
 30
2.317275
 70
    64
  0
VERTEX
  5
6C5C6
100
AcDbEntity
  8
0
100
AcDbVertex
100
AcDbPolygonMeshVertex
 10
1.28946
 20
0.5385
 30
2.927275
 70
    64
  0
VERTEX
  5
6C5C7
100
AcDbEntity
  8
0
100
AcDbVertex
100
AcDbPolygonMeshVertex
 10
1.28946
 20
0.5385
 30
2.317275
 70
    64
  0
VERTEX
  5
6C5C8
100
AcDbEntity
  8
0
100
AcDbVertex
100
AcDbPolygonMeshVertex
 10
1.28946
 20
0.5385
 30
2.317275
 70
    64
  0
VERTEX
  5
6C5C9
100
AcDbEntity
  8
0
100
AcDbVertex
100
AcDbPolygonMeshVertex
 10
1.28946
 20
0.3985
 30
2.927275
 70
    64
  0
VERTEX
  5
6C5CA
100
AcDbEntity
  8
0
100
AcDbVertex
100
AcDbPolygonMeshVertex
 10
1.28946
 20
0.3985
 30
2.317275
 70
    64
  0
VERTEX
  5
6C5CB
100
AcDbEntity
  8
0
100
AcDbVertex
100
AcDbPolygonMeshVertex
 10
1.28946
 20
0.5385
 30
2.317275
 70
    64
  0
VERTEX
  5
6C5CC
100
AcDbEntity
  8
0
100
AcDbVertex
100
AcDbPolygonMeshVertex
 10
1.33546
 20
0.3985
 30
2.927275
 70
    64
  0
VERTEX
  5
6C5CD
100
AcDbEntity
  8
0
100
AcDbVertex
100
AcDbPolygonMeshVertex
 10
1.33546
 20
0.3985
 30
2.317275
 70
    64
  0
VERTEX
  5
6C5CE
100
AcDbEntity
  8
0
100
AcDbVertex
100
AcDbPolygonMeshVertex
 10
1.33546
 20
0.5385
 30
2.317275
 70
    64
  0
VERTEX
  5
6C5CF
100
AcDbEntity
  8
0
100
AcDbVertex
100
AcDbPolygonMeshVertex
 10
1.33546
 20
0.3985
 30
2.927275
 70
    64
  0
VERTEX
  5
6C5D0
100
AcDbEntity
  8
0
100
AcDbVertex
100
AcDbPolygonMeshVertex
 10
1.33546
 20
0.3985
 30
2.927275
 70
    64
  0
VERTEX
  5
6C5D1
100
AcDbEntity
  8
0
100
AcDbVertex
100
AcDbPolygonMeshVertex
 10
1.33546
 20
0.5385
 30
2.927275
 70
    64
  0
VERTEX
  5
6C5D2
100
AcDbEntity
  8
0
100
AcDbVertex
100
AcDbPolygonMeshVertex
 10
1.28946
 20
0.3985
 30
2.927275
 70
    64
  0
VERTEX
  5
6C5D3
100
AcDbEntity
  8
0
100
AcDbVertex
100
AcDbPolygonMeshVertex
 10
1.28946
 20
0.3985
 30
2.927275
 70
    64
  0
VERTEX
  5
6C5D4
100
AcDbEntity
  8
0
100
AcDbVertex
100
AcDbPolygonMeshVertex
 10
1.28946
 20
0.5385
 30
2.927275
 70
    64
  0
SEQEND
  5
6C5D5
100
AcDbEntity
  8
0
  0
LINE
  5
6C5D6
100
AcDbEntity
  8
0
100
AcDbLine
 10
0.90571
 20
0.3985
 30
2.644275
 11
1.28946
 21
0.3985
 31
2.644275
  0
POLYLINE
  5
6C5D7
100
AcDbEntity
  8
0
100
AcDbPolygonMesh
 66
     1
 10
0.0
 20
0.0
 30
0.0
 70
    16
 71
     6
 72
     3
  0
VERTEX
  5
6C5D8
100
AcDbEntity
  8
0
100
AcDbVertex
100
AcDbPolygonMeshVertex
 10
0.90571
 20
0.5385
 30
2.927275
 70
    64
  0
VERTEX
  5
6C5D9
100
AcDbEntity
  8
0
100
AcDbVertex
100
AcDbPolygonMeshVertex
 10
0.90571
 20
0.5385
 30
2.317275
 70
    64
  0
VERTEX
  5
6C5DA
100
AcDbEntity
  8
0
100
AcDbVertex
100
AcDbPolygonMeshVertex
 10
0.90571
 20
0.5385
 30
2.317275
 70
    64
  0
VERTEX
  5
6C5DB
100
AcDbEntity
  8
0
100
AcDbVertex
100
AcDbPolygonMeshVertex
 10
0.85971
 20
0.5385
 30
2.927275
 70
    64
  0
VERTEX
  5
6C5DC
100
AcDbEntity
  8
0
100
AcDbVertex
100
AcDbPolygonMeshVertex
 10
0.85971
 20
0.5385
 30
2.317275
 70
    64
  0
VERTEX
  5
6C5DD
100
AcDbEntity
  8
0
100
AcDbVertex
100
AcDbPolygonMeshVertex
 10
0.85971
 20
0.5385
 30
2.317275
 70
    64
  0
VERTEX
  5
6C5DE
100
AcDbEntity
  8
0
100
AcDbVertex
100
AcDbPolygonMeshVertex
 10
0.85971
 20
0.3985
 30
2.927275
 70
    64
  0
VERTEX
  5
6C5DF
100
AcDbEntity
  8
0
100
AcDbVertex
100
AcDbPolygonMeshVertex
 10
0.85971
 20
0.3985
 30
2.317275
 70
    64
  0
VERTEX
  5
6C5E0
100
AcDbEntity
  8
0
100
AcDbVertex
100
AcDbPolygonMeshVertex
 10
0.85971
 20
0.5385
 30
2.317275
 70
    64
  0
VERTEX
  5
6C5E1
100
AcDbEntity
  8
0
100
AcDbVertex
100
AcDbPolygonMeshVertex
 10
0.90571
 20
0.3985
 30
2.927275
 70
    64
  0
VERTEX
  5
6C5E2
100
AcDbEntity
  8
0
100
AcDbVertex
100
AcDbPolygonMeshVertex
 10
0.90571
 20
0.3985
 30
2.317275
 70
    64
  0
VERTEX
  5
6C5E3
100
AcDbEntity
  8
0
100
AcDbVertex
100
AcDbPolygonMeshVertex
 10
0.90571
 20
0.5385
 30
2.317275
 70
    64
  0
VERTEX
  5
6C5E4
100
AcDbEntity
  8
0
100
AcDbVertex
100
AcDbPolygonMeshVertex
 10
0.90571
 20
0.3985
 30
2.927275
 70
    64
  0
VERTEX
  5
6C5E5
100
AcDbEntity
  8
0
100
AcDbVertex
100
AcDbPolygonMeshVertex
 10
0.90571
 20
0.3985
 30
2.927275
 70
    64
  0
VERTEX
  5
6C5E6
100
AcDbEntity
  8
0
100
AcDbVertex
100
AcDbPolygonMeshVertex
 10
0.90571
 20
0.5385
 30
2.927275
 70
    64
  0
VERTEX
  5
6C5E7
100
AcDbEntity
  8
0
100
AcDbVertex
100
AcDbPolygonMeshVertex
 10
0.85971
 20
0.3985
 30
2.927275
 70
    64
  0
VERTEX
  5
6C5E8
100
AcDbEntity
  8
0
100
AcDbVertex
100
AcDbPolygonMeshVertex
 10
0.85971
 20
0.3985
 30
2.927275
 70
    64
  0
VERTEX
  5
6C5E9
100
AcDbEntity
  8
0
100
AcDbVertex
100
AcDbPolygonMeshVertex
 10
0.85971
 20
0.5385
 30
2.927275
 70
    64
  0
SEQEND
  5
6C5EA
100
AcDbEntity
  8
0
  0
POLYLINE
  5
6C5EB
100
AcDbEntity
  8
0
100
AcDbPolygonMesh
 66
     1
 10
0.0
 20
0.0
 30
0.0
 70
    16
 71
     6
 72
     3
  0
VERTEX
  5
6C5EC
100
AcDbEntity
  8
0
100
AcDbVertex
100
AcDbPolygonMeshVertex
 10
0.42996
 20
0.5385
 30
2.927275
 70
    64
  0
VERTEX
  5
6C5ED
100
AcDbEntity
  8
0
100
AcDbVertex
100
AcDbPolygonMeshVertex
 10
0.42996
 20
0.5385
 30
2.317275
 70
    64
  0
VERTEX
  5
6C5EE
100
AcDbEntity
  8
0
100
AcDbVertex
100
AcDbPolygonMeshVertex
 10
0.42996
 20
0.5385
 30
2.317275
 70
    64
  0
VERTEX
  5
6C5EF
100
AcDbEntity
  8
0
100
AcDbVertex
100
AcDbPolygonMeshVertex
 10
0.47596
 20
0.5385
 30
2.927275
 70
    64
  0
VERTEX
  5
6C5F0
100
AcDbEntity
  8
0
100
AcDbVertex
100
AcDbPolygonMeshVertex
 10
0.47596
 20
0.5385
 30
2.317275
 70
    64
  0
VERTEX
  5
6C5F1
100
AcDbEntity
  8
0
100
AcDbVertex
100
AcDbPolygonMeshVertex
 10
0.47596
 20
0.5385
 30
2.317275
 70
    64
  0
VERTEX
  5
6C5F2
100
AcDbEntity
  8
0
100
AcDbVertex
100
AcDbPolygonMeshVertex
 10
0.47596
 20
0.3985
 30
2.927275
 70
    64
  0
VERTEX
  5
6C5F3
100
AcDbEntity
  8
0
100
AcDbVertex
100
AcDbPolygonMeshVertex
 10
0.47596
 20
0.3985
 30
2.317275
 70
    64
  0
VERTEX
  5
6C5F4
100
AcDbEntity
  8
0
100
AcDbVertex
100
AcDbPolygonMeshVertex
 10
0.47596
 20
0.5385
 30
2.317275
 70
    64
  0
VERTEX
  5
6C5F5
100
AcDbEntity
  8
0
100
AcDbVertex
100
AcDbPolygonMeshVertex
 10
0.42996
 20
0.3985
 30
2.927275
 70
    64
  0
VERTEX
  5
6C5F6
100
AcDbEntity
  8
0
100
AcDbVertex
100
AcDbPolygonMeshVertex
 10
0.42996
 20
0.3985
 30
2.317275
 70
    64
  0
VERTEX
  5
6C5F7
100
AcDbEntity
  8
0
100
AcDbVertex
100
AcDbPolygonMeshVertex
 10
0.42996
 20
0.5385
 30
2.317275
 70
    64
  0
VERTEX
  5
6C5F8
100
AcDbEntity
  8
0
100
AcDbVertex
100
AcDbPolygonMeshVertex
 10
0.42996
 20
0.3985
 30
2.927275
 70
    64
  0
VERTEX
  5
6C5F9
100
AcDbEntity
  8
0
100
AcDbVertex
100
AcDbPolygonMeshVertex
 10
0.42996
 20
0.3985
 30
2.927275
 70
    64
  0
VERTEX
  5
6C5FA
100
AcDbEntity
  8
0
100
AcDbVertex
100
AcDbPolygonMeshVertex
 10
0.42996
 20
0.5385
 30
2.927275
 70
    64
  0
VERTEX
  5
6C5FB
100
AcDbEntity
  8
0
100
AcDbVertex
100
AcDbPolygonMeshVertex
 10
0.47596
 20
0.3985
 30
2.927275
 70
    64
  0
VERTEX
  5
6C5FC
100
AcDbEntity
  8
0
100
AcDbVertex
100
AcDbPolygonMeshVertex
 10
0.47596
 20
0.3985
 30
2.927275
 70
    64
  0
VERTEX
  5
6C5FD
100
AcDbEntity
  8
0
100
AcDbVertex
100
AcDbPolygonMeshVertex
 10
0.47596
 20
0.5385
 30
2.927275
 70
    64
  0
SEQEND
  5
6C5FE
100
AcDbEntity
  8
0
  0
LINE
  5
6C5FF
100
AcDbEntity
  8
0
100
AcDbLine
 10
0.04621
 20
0.3985
 30
2.644275
 11
0.42996
 21
0.3985
 31
2.644275
  0
LINE
  5
6C600
100
AcDbEntity
  8
0
100
AcDbLine
 10
0.47596
 20
0.3985
 30
2.644275
 11
0.85971
 21
0.3985
 31
2.644275
  0
POLYLINE
  5
6C601
100
AcDbEntity
  8
0
100
AcDbPolygonMesh
 66
     1
 10
0.0
 20
0.0
 30
0.0
 70
    16
 71
     6
 72
     3
  0
VERTEX
  5
6C602
100
AcDbEntity
  8
0
100
AcDbVertex
100
AcDbPolygonMeshVertex
 10
0.04621
 20
0.5385
 30
2.927275
 70
    64
  0
VERTEX
  5
6C603
100
AcDbEntity
  8
0
100
AcDbVertex
100
AcDbPolygonMeshVertex
 10
0.04621
 20
0.5385
 30
2.058275
 70
    64
  0
VERTEX
  5
6C604
100
AcDbEntity
  8
0
100
AcDbVertex
100
AcDbPolygonMeshVertex
 10
0.04621
 20
0.5385
 30
2.058275
 70
    64
  0
VERTEX
  5
6C605
100
AcDbEntity
  8
0
100
AcDbVertex
100
AcDbPolygonMeshVertex
 10
0.00021
 20
0.5385
 30
2.927275
 70
    64
  0
VERTEX
  5
6C606
100
AcDbEntity
  8
0
100
AcDbVertex
100
AcDbPolygonMeshVertex
 10
0.00021
 20
0.5385
 30
2.058275
 70
    64
  0
VERTEX
  5
6C607
100
AcDbEntity
  8
0
100
AcDbVertex
100
AcDbPolygonMeshVertex
 10
0.00021
 20
0.5385
 30
2.058275
 70
    64
  0
VERTEX
  5
6C608
100
AcDbEntity
  8
0
100
AcDbVertex
100
AcDbPolygonMeshVertex
 10
0.00021
 20
0.3985
 30
2.927275
 70
    64
  0
VERTEX
  5
6C609
100
AcDbEntity
  8
0
100
AcDbVertex
100
AcDbPolygonMeshVertex
 10
0.00021
 20
0.3985
 30
2.058275
 70
    64
  0
VERTEX
  5
6C60A
100
AcDbEntity
  8
0
100
AcDbVertex
100
AcDbPolygonMeshVertex
 10
0.00021
 20
0.5385
 30
2.058275
 70
    64
  0
VERTEX
  5
6C60B
100
AcDbEntity
  8
0
100
AcDbVertex
100
AcDbPolygonMeshVertex
 10
0.04621
 20
0.3985
 30
2.927275
 70
    64
  0
VERTEX
  5
6C60C
100
AcDbEntity
  8
0
100
AcDbVertex
100
AcDbPolygonMeshVertex
 10
0.04621
 20
0.3985
 30
2.058275
 70
    64
  0
VERTEX
  5
6C60D
100
AcDbEntity
  8
0
100
AcDbVertex
100
AcDbPolygonMeshVertex
 10
0.04621
 20
0.5385
 30
2.058275
 70
    64
  0
VERTEX
  5
6C60E
100
AcDbEntity
  8
0
100
AcDbVertex
100
AcDbPolygonMeshVertex
 10
0.04621
 20
0.3985
 30
2.927275
 70
    64
  0
VERTEX
  5
6C60F
100
AcDbEntity
  8
0
100
AcDbVertex
100
AcDbPolygonMeshVertex
 10
0.04621
 20
0.3985
 30
2.927275
 70
    64
  0
VERTEX
  5
6C610
100
AcDbEntity
  8
0
100
AcDbVertex
100
AcDbPolygonMeshVertex
 10
0.04621
 20
0.5385
 30
2.927275
 70
    64
  0
VERTEX
  5
6C611
100
AcDbEntity
  8
0
100
AcDbVertex
100
AcDbPolygonMeshVertex
 10
0.00021
 20
0.3985
 30
2.927275
 70
    64
  0
VERTEX
  5
6C612
100
AcDbEntity
  8
0
100
AcDbVertex
100
AcDbPolygonMeshVertex
 10
0.00021
 20
0.3985
 30
2.927275
 70
    64
  0
VERTEX
  5
6C613
100
AcDbEntity
  8
0
100
AcDbVertex
100
AcDbPolygonMeshVertex
 10
0.00021
 20
0.5385
 30
2.927275
 70
    64
  0
SEQEND
  5
6C614
100
AcDbEntity
  8
0
  0
POLYLINE
  5
6C615
100
AcDbEntity
  8
0
100
AcDbPolygonMesh
 66
     1
 10
0.0
 20
0.0
 30
0.0
 70
    16
 71
     6
 72
     3
  0
VERTEX
  5
6C616
100
AcDbEntity
  8
0
100
AcDbVertex
100
AcDbPolygonMeshVertex
 10
1.71921
 20
0.6105
 30
2.317275
 70
    64
  0
VERTEX
  5
6C617
100
AcDbEntity
  8
0
100
AcDbVertex
100
AcDbPolygonMeshVertex
 10
1.71921
 20
0.6105
 30
2.058275
 70
    64
  0
VERTEX
  5
6C618
100
AcDbEntity
  8
0
100
AcDbVertex
100
AcDbPolygonMeshVertex
 10
1.71921
 20
0.6105
 30
2.058275
 70
    64
  0
VERTEX
  5
6C619
100
AcDbEntity
  8
0
100
AcDbVertex
100
AcDbPolygonMeshVertex
 10
0.04621
 20
0.6105
 30
2.317275
 70
    64
  0
VERTEX
  5
6C61A
100
AcDbEntity
  8
0
100
AcDbVertex
100
AcDbPolygonMeshVertex
 10
0.04621
 20
0.6105
 30
2.058275
 70
    64
  0
VERTEX
  5
6C61B
100
AcDbEntity
  8
0
100
AcDbVertex
100
AcDbPolygonMeshVertex
 10
0.04621
 20
0.6105
 30
2.058275
 70
    64
  0
VERTEX
  5
6C61C
100
AcDbEntity
  8
0
100
AcDbVertex
100
AcDbPolygonMeshVertex
 10
0.04621
 20
0.3985
 30
2.317275
 70
    64
  0
VERTEX
  5
6C61D
100
AcDbEntity
  8
0
100
AcDbVertex
100
AcDbPolygonMeshVertex
 10
0.04621
 20
0.3985
 30
2.058275
 70
    64
  0
VERTEX
  5
6C61E
100
AcDbEntity
  8
0
100
AcDbVertex
100
AcDbPolygonMeshVertex
 10
0.04621
 20
0.6105
 30
2.058275
 70
    64
  0
VERTEX
  5
6C61F
100
AcDbEntity
  8
0
100
AcDbVertex
100
AcDbPolygonMeshVertex
 10
1.71921
 20
0.3985
 30
2.317275
 70
    64
  0
VERTEX
  5
6C620
100
AcDbEntity
  8
0
100
AcDbVertex
100
AcDbPolygonMeshVertex
 10
1.71921
 20
0.3985
 30
2.058275
 70
    64
  0
VERTEX
  5
6C621
100
AcDbEntity
  8
0
100
AcDbVertex
100
AcDbPolygonMeshVertex
 10
1.71921
 20
0.6105
 30
2.058275
 70
    64
  0
VERTEX
  5
6C622
100
AcDbEntity
  8
0
100
AcDbVertex
100
AcDbPolygonMeshVertex
 10
1.71921
 20
0.3985
 30
2.317275
 70
    64
  0
VERTEX
  5
6C623
100
AcDbEntity
  8
0
100
AcDbVertex
100
AcDbPolygonMeshVertex
 10
1.71921
 20
0.3985
 30
2.317275
 70
    64
  0
VERTEX
  5
6C624
100
AcDbEntity
  8
0
100
AcDbVertex
100
AcDbPolygonMeshVertex
 10
1.71921
 20
0.6105
 30
2.317275
 70
    64
  0
VERTEX
  5
6C625
100
AcDbEntity
  8
0
100
AcDbVertex
100
AcDbPolygonMeshVertex
 10
0.04621
 20
0.3985
 30
2.317275
 70
    64
  0
VERTEX
  5
6C626
100
AcDbEntity
  8
0
100
AcDbVertex
100
AcDbPolygonMeshVertex
 10
0.04621
 20
0.3985
 30
2.317275
 70
    64
  0
VERTEX
  5
6C627
100
AcDbEntity
  8
0
100
AcDbVertex
100
AcDbPolygonMeshVertex
 10
0.04621
 20
0.6105
 30
2.317275
 70
    64
  0
SEQEND
  5
6C628
100
AcDbEntity
  8
0
  0
TEXT
  5
6C629
100
AcDbEntity
  8
0
100
AcDbText
 39
0.0
 10
0.364847
 20
0.854582
 30
2.058275
 40
0.083465
  1
A1
100
AcDbText
  0
TEXT
  5
6C62A
100
AcDbEntity
  8
0
100
AcDbText
 39
0.0
 10
1.285828
 20
0.853741
 30
2.058275
 40
0.083465
  1
A2
100
AcDbText
  0
LINE
  5
6C62B
100
AcDbEntity
  8
0
100
AcDbLine
 10
0.652934
 20
-1.9685
 30
0.0
 11
0.8636
 21
-1.9685
 31
0.0
  0
POLYLINE
  5
6C62C
100
AcDbEntity
  8
0
100
AcDb3dPolyline
 66
     1
 10
0.0
 20
0.0
 30
0.0
 70
     8
  0
VERTEX
  5
6C62D
100
AcDbEntity
  8
0
100
AcDbVertex
100
AcDb3dPolylineVertex
 10
0.652934
 20
-1.9685
 30
0.0
 70
    32
  0
VERTEX
  5
6C62E
100
AcDbEntity
  8
0
100
AcDbVertex
100
AcDb3dPolylineVertex
 10
0.652934
 20
-2.1035
 30
0.0
 70
    32
  0
VERTEX
  5
6C62F
100
AcDbEntity
  8
0
100
AcDbVertex
100
AcDb3dPolylineVertex
 10
0.8636
 20
-2.1035
 30
0.0
 70
    32
  0
VERTEX
  5
6C630
100
AcDbEntity
  8
0
100
AcDbVertex
100
AcDb3dPolylineVertex
 10
0.8636
 20
-1.9685
 30
0.0
 70
    32
  0
SEQEND
  5
6C631
100
AcDbEntity
  8
0
  0
POLYLINE
  5
6C632
100
AcDbEntity
  8
0
100
AcDb3dPolyline
 66
     1
 10
0.0
 20
0.0
 30
0.0
 70
     8
  0
VERTEX
  5
6C633
100
AcDbEntity
  8
0
100
AcDbVertex
100
AcDb3dPolylineVertex
 10
0.581143
 20
-1.9685
 30
0.187
 70
    32
  0
VERTEX
  5
6C634
100
AcDbEntity
  8
0
100
AcDbVertex
100
AcDb3dPolylineVertex
 10
0.581143
 20
-2.1035
 30
0.187
 70
    32
  0
VERTEX
  5
6C635
100
AcDbEntity
  8
0
100
AcDbVertex
100
AcDb3dPolylineVertex
 10
0.79181
 20
-2.1035
 30
0.187
 70
    32
  0
VERTEX
  5
6C636
100
AcDbEntity
  8
0
100
AcDbVertex
100
AcDb3dPolylineVertex
 10
0.79181
 20
-1.9685
 30
0.187
 70
    32
  0
SEQEND
  5
6C637
100
AcDbEntity
  8
0
  0
POLYLINE
  5
6C638
100
AcDbEntity
  8
0
100
AcDbPolygonMesh
 66
     1
 10
0.0
 20
0.0
 30
0.0
 70
    16
 71
     6
 72
     3
  0
VERTEX
  5
6C639
100
AcDbEntity
  8
0
100
AcDbVertex
100
AcDbPolygonMeshVertex
 10
0.85381
 20
-2.1655
 30
0.187
 70
    64
  0
VERTEX
  5
6C63A
100
AcDbEntity
  8
0
100
AcDbVertex
100
AcDbPolygonMeshVertex
 10
0.85381
 20
-2.1655
 30
0.0
 70
    64
  0
VERTEX
  5
6C63B
100
AcDbEntity
  8
0
100
AcDbVertex
100
AcDbPolygonMeshVertex
 10
0.85381
 20
-2.1655
 30
0.0
 70
    64
  0
VERTEX
  5
6C63C
100
AcDbEntity
  8
0
100
AcDbVertex
100
AcDbPolygonMeshVertex
 10
0.246476
 20
-2.1655
 30
0.187
 70
    64
  0
VERTEX
  5
6C63D
100
AcDbEntity
  8
0
100
AcDbVertex
100
AcDbPolygonMeshVertex
 10
0.246476
 20
-2.1655
 30
0.0
 70
    64
  0
VERTEX
  5
6C63E
100
AcDbEntity
  8
0
100
AcDbVertex
100
AcDbPolygonMeshVertex
 10
0.246476
 20
-2.1655
 30
0.0
 70
    64
  0
VERTEX
  5
6C63F
100
AcDbEntity
  8
0
100
AcDbVertex
100
AcDbPolygonMeshVertex
 10
0.246476
 20
-2.1035
 30
0.187
 70
    64
  0
VERTEX
  5
6C640
100
AcDbEntity
  8
0
100
AcDbVertex
100
AcDbPolygonMeshVertex
 10
0.246476
 20
-2.1035
 30
0.0
 70
    64
  0
VERTEX
  5
6C641
100
AcDbEntity
  8
0
100
AcDbVertex
100
AcDbPolygonMeshVertex
 10
0.246476
 20
-2.1655
 30
0.0
 70
    64
  0
VERTEX
  5
6C642
100
AcDbEntity
  8
0
100
AcDbVertex
100
AcDbPolygonMeshVertex
 10
0.85381
 20
-2.1035
 30
0.187
 70
    64
  0
VERTEX
  5
6C643
100
AcDbEntity
  8
0
100
AcDbVertex
100
AcDbPolygonMeshVertex
 10
0.85381
 20
-2.1035
 30
0.0
 70
    64
  0
VERTEX
  5
6C644
100
AcDbEntity
  8
0
100
AcDbVertex
100
AcDbPolygonMeshVertex
 10
0.85381
 20
-2.1655
 30
0.0
 70
    64
  0
VERTEX
  5
6C645
100
AcDbEntity
  8
0
100
AcDbVertex
100
AcDbPolygonMeshVertex
 10
0.85381
 20
-2.1035
 30
0.187
 70
    64
  0
VERTEX
  5
6C646
100
AcDbEntity
  8
0
100
AcDbVertex
100
AcDbPolygonMeshVertex
 10
0.85381
 20
-2.1035
 30
0.187
 70
    64
  0
VERTEX
  5
6C647
100
AcDbEntity
  8
0
100
AcDbVertex
100
AcDbPolygonMeshVertex
 10
0.85381
 20
-2.1655
 30
0.187
 70
    64
  0
VERTEX
  5
6C648
100
AcDbEntity
  8
0
100
AcDbVertex
100
AcDbPolygonMeshVertex
 10
0.246476
 20
-2.1035
 30
0.187
 70
    64
  0
VERTEX
  5
6C649
100
AcDbEntity
  8
0
100
AcDbVertex
100
AcDbPolygonMeshVertex
 10
0.246476
 20
-2.1035
 30
0.187
 70
    64
  0
VERTEX
  5
6C64A
100
AcDbEntity
  8
0
100
AcDbVertex
100
AcDbPolygonMeshVertex
 10
0.246476
 20
-2.1655
 30
0.187
 70
    64
  0
SEQEND
  5
6C64B
100
AcDbEntity
  8
0
  0
POLYLINE
  5
6C64C
100
AcDbEntity
  8
0
100
AcDbPolygonMesh
 66
     1
 10
0.0
 20
0.0
 30
0.0
 70
    16
 71
     6
 72
     3
  0
VERTEX
  5
6C64D
100
AcDbEntity
  8
0
100
AcDbVertex
100
AcDbPolygonMeshVertex
 10
0.85381
 20
-2.1035
 30
0.187
 70
    64
  0
VERTEX
  5
6C64E
100
AcDbEntity
  8
0
100
AcDbVertex
100
AcDbPolygonMeshVertex
 10
0.85381
 20
-2.1035
 30
0.0
 70
    64
  0
VERTEX
  5
6C64F
100
AcDbEntity
  8
0
100
AcDbVertex
100
AcDbPolygonMeshVertex
 10
0.85381
 20
-2.1035
 30
0.0
 70
    64
  0
VERTEX
  5
6C650
100
AcDbEntity
  8
0
100
AcDbVertex
100
AcDbPolygonMeshVertex
 10
0.519143
 20
-2.1035
 30
0.187
 70
    64
  0
VERTEX
  5
6C651
100
AcDbEntity
  8
0
100
AcDbVertex
100
AcDbPolygonMeshVertex
 10
0.519143
 20
-2.1035
 30
0.0
 70
    64
  0
VERTEX
  5
6C652
100
AcDbEntity
  8
0
100
AcDbVertex
100
AcDbPolygonMeshVertex
 10
0.519143
 20
-2.1035
 30
0.0
 70
    64
  0
VERTEX
  5
6C653
100
AcDbEntity
  8
0
100
AcDbVertex
100
AcDbPolygonMeshVertex
 10
0.519143
 20
-1.9065
 30
0.187
 70
    64
  0
VERTEX
  5
6C654
100
AcDbEntity
  8
0
100
AcDbVertex
100
AcDbPolygonMeshVertex
 10
0.519143
 20
-1.9065
 30
0.0
 70
    64
  0
VERTEX
  5
6C655
100
AcDbEntity
  8
0
100
AcDbVertex
100
AcDbPolygonMeshVertex
 10
0.519143
 20
-2.1035
 30
0.0
 70
    64
  0
VERTEX
  5
6C656
100
AcDbEntity
  8
0
100
AcDbVertex
100
AcDbPolygonMeshVertex
 10
0.85381
 20
-1.9065
 30
0.187
 70
    64
  0
VERTEX
  5
6C657
100
AcDbEntity
  8
0
100
AcDbVertex
100
AcDbPolygonMeshVertex
 10
0.85381
 20
-1.9065
 30
0.0
 70
    64
  0
VERTEX
  5
6C658
100
AcDbEntity
  8
0
100
AcDbVertex
100
AcDbPolygonMeshVertex
 10
0.85381
 20
-2.1035
 30
0.0
 70
    64
  0
VERTEX
  5
6C659
100
AcDbEntity
  8
0
100
AcDbVertex
100
AcDbPolygonMeshVertex
 10
0.85381
 20
-1.9065
 30
0.187
 70
    64
  0
VERTEX
  5
6C65A
100
AcDbEntity
  8
0
100
AcDbVertex
100
AcDbPolygonMeshVertex
 10
0.85381
 20
-1.9065
 30
0.187
 70
    64
  0
VERTEX
  5
6C65B
100
AcDbEntity
  8
0
100
AcDbVertex
100
AcDbPolygonMeshVertex
 10
0.85381
 20
-2.1035
 30
0.187
 70
    64
  0
VERTEX
  5
6C65C
100
AcDbEntity
  8
0
100
AcDbVertex
100
AcDbPolygonMeshVertex
 10
0.519143
 20
-1.9065
 30
0.187
 70
    64
  0
VERTEX
  5
6C65D
100
AcDbEntity
  8
0
100
AcDbVertex
100
AcDbPolygonMeshVertex
 10
0.519143
 20
-1.9065
 30
0.187
 70
    64
  0
VERTEX
  5
6C65E
100
AcDbEntity
  8
0
100
AcDbVertex
100
AcDbPolygonMeshVertex
 10
0.519143
 20
-2.1035
 30
0.187
 70
    64
  0
SEQEND
  5
6C65F
100
AcDbEntity
  8
0
  0
LINE
  5
6C660
100
AcDbEntity
  8
0
100
AcDbLine
 10
0.652934
 20
-1.9685
 30
0.187
 11
0.8636
 21
-1.9685
 31
0.187
  0
POLYLINE
  5
6C661
100
AcDbEntity
  8
0
100
AcDbPolygonMesh
 66
     1
 10
0.0
 20
0.0
 30
0.0
 70
    16
 71
     6
 72
     3
  0
VERTEX
  5
6C662
100
AcDbEntity
  8
0
100
AcDbVertex
100
AcDbPolygonMeshVertex
 10
1.76521
 20
-1.6855
 30
0.187
 70
    64
  0
VERTEX
  5
6C663
100
AcDbEntity
  8
0
100
AcDbVertex
100
AcDbPolygonMeshVertex
 10
1.76521
 20
-1.6855
 30
0.0
 70
    64
  0
VERTEX
  5
6C664
100
AcDbEntity
  8
0
100
AcDbVertex
100
AcDbPolygonMeshVertex
 10
1.76521
 20
-1.6855
 30
0.0
 70
    64
  0
VERTEX
  5
6C665
100
AcDbEntity
  8
0
100
AcDbVertex
100
AcDbPolygonMeshVertex
 10
0.00521
 20
-1.6855
 30
0.187
 70
    64
  0
VERTEX
  5
6C666
100
AcDbEntity
  8
0
100
AcDbVertex
100
AcDbPolygonMeshVertex
 10
0.00521
 20
-1.6855
 30
0.0
 70
    64
  0
VERTEX
  5
6C667
100
AcDbEntity
  8
0
100
AcDbVertex
100
AcDbPolygonMeshVertex
 10
0.00521
 20
-1.6855
 30
0.0
 70
    64
  0
VERTEX
  5
6C668
100
AcDbEntity
  8
0
100
AcDbVertex
100
AcDbPolygonMeshVertex
 10
0.00521
 20
-1.481
 30
0.187
 70
    64
  0
VERTEX
  5
6C669
100
AcDbEntity
  8
0
100
AcDbVertex
100
AcDbPolygonMeshVertex
 10
0.00521
 20
-1.481
 30
0.0
 70
    64
  0
VERTEX
  5
6C66A
100
AcDbEntity
  8
0
100
AcDbVertex
100
AcDbPolygonMeshVertex
 10
0.00521
 20
-1.6855
 30
0.0
 70
    64
  0
VERTEX
  5
6C66B
100
AcDbEntity
  8
0
100
AcDbVertex
100
AcDbPolygonMeshVertex
 10
1.76521
 20
-1.481
 30
0.187
 70
    64
  0
VERTEX
  5
6C66C
100
AcDbEntity
  8
0
100
AcDbVertex
100
AcDbPolygonMeshVertex
 10
1.76521
 20
-1.481
 30
0.0
 70
    64
  0
VERTEX
  5
6C66D
100
AcDbEntity
  8
0
100
AcDbVertex
100
AcDbPolygonMeshVertex
 10
1.76521
 20
-1.6855
 30
0.0
 70
    64
  0
VERTEX
  5
6C66E
100
AcDbEntity
  8
0
100
AcDbVertex
100
AcDbPolygonMeshVertex
 10
1.76521
 20
-1.481
 30
0.187
 70
    64
  0
VERTEX
  5
6C66F
100
AcDbEntity
  8
0
100
AcDbVertex
100
AcDbPolygonMeshVertex
 10
1.76521
 20
-1.481
 30
0.187
 70
    64
  0
VERTEX
  5
6C670
100
AcDbEntity
  8
0
100
AcDbVertex
100
AcDbPolygonMeshVertex
 10
1.76521
 20
-1.6855
 30
0.187
 70
    64
  0
VERTEX
  5
6C671
100
AcDbEntity
  8
0
100
AcDbVertex
100
AcDbPolygonMeshVertex
 10
0.00521
 20
-1.481
 30
0.187
 70
    64
  0
VERTEX
  5
6C672
100
AcDbEntity
  8
0
100
AcDbVertex
100
AcDbPolygonMeshVertex
 10
0.00521
 20
-1.481
 30
0.187
 70
    64
  0
VERTEX
  5
6C673
100
AcDbEntity
  8
0
100
AcDbVertex
100
AcDbPolygonMeshVertex
 10
0.00521
 20
-1.6855
 30
0.187
 70
    64
  0
SEQEND
  5
6C674
100
AcDbEntity
  8
0
  0
POLYLINE
  5
6C675
100
AcDbEntity
  8
0
100
AcDbPolygonMesh
 66
     1
 10
0.0
 20
0.0
 30
0.0
 70
    16
 71
     6
 72
     3
  0
VERTEX
  5
6C676
100
AcDbEntity
  8
0
100
AcDbVertex
100
AcDbPolygonMeshVertex
 10
1.76521
 20
0.2045
 30
0.187
 70
    64
  0
VERTEX
  5
6C677
100
AcDbEntity
  8
0
100
AcDbVertex
100
AcDbPolygonMeshVertex
 10
1.76521
 20
0.2045
 30
0.0
 70
    64
  0
VERTEX
  5
6C678
100
AcDbEntity
  8
0
100
AcDbVertex
100
AcDbPolygonMeshVertex
 10
1.76521
 20
0.2045
 30
0.0
 70
    64
  0
VERTEX
  5
6C679
100
AcDbEntity
  8
0
100
AcDbVertex
100
AcDbPolygonMeshVertex
 10
0.00521
 20
0.2045
 30
0.187
 70
    64
  0
VERTEX
  5
6C67A
100
AcDbEntity
  8
0
100
AcDbVertex
100
AcDbPolygonMeshVertex
 10
0.00521
 20
0.2045
 30
0.0
 70
    64
  0
VERTEX
  5
6C67B
100
AcDbEntity
  8
0
100
AcDbVertex
100
AcDbPolygonMeshVertex
 10
0.00521
 20
0.2045
 30
0.0
 70
    64
  0
VERTEX
  5
6C67C
100
AcDbEntity
  8
0
100
AcDbVertex
100
AcDbPolygonMeshVertex
 10
0.00521
 20
0.0
 30
0.187
 70
    64
  0
VERTEX
  5
6C67D
100
AcDbEntity
  8
0
100
AcDbVertex
100
AcDbPolygonMeshVertex
 10
0.00521
 20
0.0
 30
0.0
 70
    64
  0
VERTEX
  5
6C67E
100
AcDbEntity
  8
0
100
AcDbVertex
100
AcDbPolygonMeshVertex
 10
0.00521
 20
0.2045
 30
0.0
 70
    64
  0
VERTEX
  5
6C67F
100
AcDbEntity
  8
0
100
AcDbVertex
100
AcDbPolygonMeshVertex
 10
1.76521
 20
0.0
 30
0.187
 70
    64
  0
VERTEX
  5
6C680
100
AcDbEntity
  8
0
100
AcDbVertex
100
AcDbPolygonMeshVertex
 10
1.76521
 20
0.0
 30
0.0
 70
    64
  0
VERTEX
  5
6C681
100
AcDbEntity
  8
0
100
AcDbVertex
100
AcDbPolygonMeshVertex
 10
1.76521
 20
0.2045
 30
0.0
 70
    64
  0
VERTEX
  5
6C682
100
AcDbEntity
  8
0
100
AcDbVertex
100
AcDbPolygonMeshVertex
 10
1.76521
 20
0.0
 30
0.187
 70
    64
  0
VERTEX
  5
6C683
100
AcDbEntity
  8
0
100
AcDbVertex
100
AcDbPolygonMeshVertex
 10
1.76521
 20
0.0
 30
0.187
 70
    64
  0
VERTEX
  5
6C684
100
AcDbEntity
  8
0
100
AcDbVertex
100
AcDbPolygonMeshVertex
 10
1.76521
 20
0.2045
 30
0.187
 70
    64
  0
VERTEX
  5
6C685
100
AcDbEntity
  8
0
100
AcDbVertex
100
AcDbPolygonMeshVertex
 10
0.00521
 20
0.0
 30
0.187
 70
    64
  0
VERTEX
  5
6C686
100
AcDbEntity
  8
0
100
AcDbVertex
100
AcDbPolygonMeshVertex
 10
0.00521
 20
0.0
 30
0.187
 70
    64
  0
VERTEX
  5
6C687
100
AcDbEntity
  8
0
100
AcDbVertex
100
AcDbPolygonMeshVertex
 10
0.00521
 20
0.2045
 30
0.187
 70
    64
  0
SEQEND
  5
6C688
100
AcDbEntity
  8
0
  0
POLYLINE
  5
6C689
100
AcDbEntity
  8
0
100
AcDbPolygonMesh
 66
     1
 10
0.0
 20
0.0
 30
0.0
 70
    16
 71
     6
 72
     3
  0
VERTEX
  5
6C68A
100
AcDbEntity
  8
0
100
AcDbVertex
100
AcDbPolygonMeshVertex
 10
0.39621
 20
-2.0815
 30
0.316
 70
    64
  0
VERTEX
  5
6C68B
100
AcDbEntity
  8
0
100
AcDbVertex
100
AcDbPolygonMeshVertex
 10
0.39621
 20
-2.0815
 30
0.0
 70
    64
  0
VERTEX
  5
6C68C
100
AcDbEntity
  8
0
100
AcDbVertex
100
AcDbPolygonMeshVertex
 10
0.39621
 20
-2.0815
 30
0.0
 70
    64
  0
VERTEX
  5
6C68D
100
AcDbEntity
  8
0
100
AcDbVertex
100
AcDbPolygonMeshVertex
 10
0.00521
 20
-2.0815
 30
0.316
 70
    64
  0
VERTEX
  5
6C68E
100
AcDbEntity
  8
0
100
AcDbVertex
100
AcDbPolygonMeshVertex
 10
0.00521
 20
-2.0815
 30
0.0
 70
    64
  0
VERTEX
  5
6C68F
100
AcDbEntity
  8
0
100
AcDbVertex
100
AcDbPolygonMeshVertex
 10
0.00521
 20
-2.0815
 30
0.0
 70
    64
  0
VERTEX
  5
6C690
100
AcDbEntity
  8
0
100
AcDbVertex
100
AcDbPolygonMeshVertex
 10
0.00521
 20
-1.6855
 30
0.316
 70
    64
  0
VERTEX
  5
6C691
100
AcDbEntity
  8
0
100
AcDbVertex
100
AcDbPolygonMeshVertex
 10
0.00521
 20
-1.6855
 30
0.0
 70
    64
  0
VERTEX
  5
6C692
100
AcDbEntity
  8
0
100
AcDbVertex
100
AcDbPolygonMeshVertex
 10
0.00521
 20
-2.0815
 30
0.0
 70
    64
  0
VERTEX
  5
6C693
100
AcDbEntity
  8
0
100
AcDbVertex
100
AcDbPolygonMeshVertex
 10
0.39621
 20
-1.6855
 30
0.316
 70
    64
  0
VERTEX
  5
6C694
100
AcDbEntity
  8
0
100
AcDbVertex
100
AcDbPolygonMeshVertex
 10
0.39621
 20
-1.6855
 30
0.0
 70
    64
  0
VERTEX
  5
6C695
100
AcDbEntity
  8
0
100
AcDbVertex
100
AcDbPolygonMeshVertex
 10
0.39621
 20
-2.0815
 30
0.0
 70
    64
  0
VERTEX
  5
6C696
100
AcDbEntity
  8
0
100
AcDbVertex
100
AcDbPolygonMeshVertex
 10
0.39621
 20
-1.6855
 30
0.316
 70
    64
  0
VERTEX
  5
6C697
100
AcDbEntity
  8
0
100
AcDbVertex
100
AcDbPolygonMeshVertex
 10
0.39621
 20
-1.6855
 30
0.316
 70
    64
  0
VERTEX
  5
6C698
100
AcDbEntity
  8
0
100
AcDbVertex
100
AcDbPolygonMeshVertex
 10
0.39621
 20
-2.0815
 30
0.316
 70
    64
  0
VERTEX
  5
6C699
100
AcDbEntity
  8
0
100
AcDbVertex
100
AcDbPolygonMeshVertex
 10
0.00521
 20
-1.6855
 30
0.316
 70
    64
  0
VERTEX
  5
6C69A
100
AcDbEntity
  8
0
100
AcDbVertex
100
AcDbPolygonMeshVertex
 10
0.00521
 20
-1.6855
 30
0.316
 70
    64
  0
VERTEX
  5
6C69B
100
AcDbEntity
  8
0
100
AcDbVertex
100
AcDbPolygonMeshVertex
 10
0.00521
 20
-2.0815
 30
0.316
 70
    64
  0
SEQEND
  5
6C69C
100
AcDbEntity
  8
0
  0
POINT
  5
6C69D
100
AcDbEntity
  8
SNAP_POINTS
100
AcDbPoint
 10
0.0
 20
0.0
 30
0.0
  0
3DFACE
  5
6C69E
100
AcDbEntity
  8
0
100
AcDbFace
 10
1.76521
 20
-1.8455
 30
2.058275
 11
1.76521
 21
-1.8455
 31
2.058275
 12
0.00021
 22
-1.8455
 32
2.058275
 13
0.00021
 23
-1.8455
 33
2.058275
  0
3DFACE
  5
6C69F
100
AcDbEntity
  8
0
100
AcDbFace
 10
0.00021
 20
-1.8455
 30
2.058275
 11
0.00021
 21
-1.8455
 31
2.058275
 12
0.00021
 22
-1.8455
 32
2.058275
 13
0.00021
 23
0.3985
 33
2.058275
  0
3DFACE
  5
6C6A0
100
AcDbEntity
  8
0
100
AcDbFace
 10
0.00021
 20
0.3985
 30
2.058275
 11
0.00021
 21
-1.8455
 31
2.058275
 12
1.76521
 22
-1.8455
 32
2.058275
 13
1.76521
 23
0.3985
 33
2.058275
  0
POLYLINE
  5
6C6A1
100
AcDbEntity
  8
0
  6
CONTINUOUS
100
AcDb3dPolyline
 66
     1
 10
0.0
 20
0.0
 30
0.0
 70
     8
  0
VERTEX
  5
6C6A2
100
AcDbEntity
  8
0
  6
CONTINUOUS
100
AcDbVertex
100
AcDb3dPolylineVertex
 10
1.76521
 20
0.3985
 30
2.058275
 70
    32
1001
ACAD
1000
R13OBJECT
1002
{
1005
6C6A1
1002
}
  0
VERTEX
  5
6C6A3
100
AcDbEntity
  8
0
  6
CONTINUOUS
100
AcDbVertex
100
AcDb3dPolylineVertex
 10
1.76521
 20
-1.8455
 30
2.058275
 70
    32
1001
ACAD
1000
R13OBJECT
1002
{
1005
6C6A1
1002
}
  0
SEQEND
  5
6C6A4
100
AcDbEntity
  8
0
  6
CONTINUOUS
1001
ACAD
1000
R13OBJECT
1002
{
1005
6C6A1
1002
}
  0
POLYLINE
  5
6C6A5
100
AcDbEntity
  8
0
  6
CONTINUOUS
100
AcDb3dPolyline
 66
     1
 10
0.0
 20
0.0
 30
0.0
 70
     8
1001
ACAD
1000
R13OBJECT
1002
{
1005
6C6A1
1002
}
  0
VERTEX
  5
6C6A6
100
AcDbEntity
  8
0
  6
CONTINUOUS
100
AcDbVertex
100
AcDb3dPolylineVertex
 10
1.76521
 20
-1.8455
 30
2.058275
 70
    32
1001
ACAD
1000
R13OBJECT
1002
{
1005
6C6A1
1002
}
  0
VERTEX
  5
6C6A7
100
AcDbEntity
  8
0
  6
CONTINUOUS
100
AcDbVertex
100
AcDb3dPolylineVertex
 10
0.00021
 20
-1.8455
 30
2.058275
 70
    32
1001
ACAD
1000
R13OBJECT
1002
{
1005
6C6A1
1002
}
  0
SEQEND
  5
6C6A8
100
AcDbEntity
  8
0
  6
CONTINUOUS
1001
ACAD
1000
R13OBJECT
1002
{
1005
6C6A1
1002
}
  0
POLYLINE
  5
6C6A9
100
AcDbEntity
  8
0
  6
CONTINUOUS
100
AcDb3dPolyline
 66
     1
 10
0.0
 20
0.0
 30
0.0
 70
     8
1001
ACAD
1000
R13OBJECT
1002
{
1005
6C6A1
1002
}
  0
VERTEX
  5
6C6AA
100
AcDbEntity
  8
0
  6
CONTINUOUS
100
AcDbVertex
100
AcDb3dPolylineVertex
 10
0.00021
 20
-1.8455
 30
2.058275
 70
    32
1001
ACAD
1000
R13OBJECT
1002
{
1005
6C6A1
1002
}
  0
VERTEX
  5
6C6AB
100
AcDbEntity
  8
0
  6
CONTINUOUS
100
AcDbVertex
100
AcDb3dPolylineVertex
 10
0.00021
 20
0.3985
 30
2.058275
 70
    32
1001
ACAD
1000
R13OBJECT
1002
{
1005
6C6A1
1002
}
  0
SEQEND
  5
6C6AC
100
AcDbEntity
  8
0
  6
CONTINUOUS
1001
ACAD
1000
R13OBJECT
1002
{
1005
6C6A1
1002
}
  0
POLYLINE
  5
6C6AD
100
AcDbEntity
  8
0
  6
CONTINUOUS
100
AcDb3dPolyline
 66
     1
 10
0.0
 20
0.0
 30
0.0
 70
     8
1001
ACAD
1000
R13OBJECT
1002
{
1005
6C6A1
1002
}
  0
VERTEX
  5
6C6AE
100
AcDbEntity
  8
0
  6
CONTINUOUS
100
AcDbVertex
100
AcDb3dPolylineVertex
 10
0.00021
 20
0.3985
 30
2.058275
 70
    32
1001
ACAD
1000
R13OBJECT
1002
{
1005
6C6A1
1002
}
  0
VERTEX
  5
6C6AF
100
AcDbEntity
  8
0
  6
CONTINUOUS
100
AcDbVertex
100
AcDb3dPolylineVertex
 10
1.76521
 20
0.3985
 30
2.058275
 70
    32
1001
ACAD
1000
R13OBJECT
1002
{
1005
6C6A1
1002
}
  0
SEQEND
  5
6C6B0
100
AcDbEntity
  8
0
  6
CONTINUOUS
1001
ACAD
1000
R13OBJECT
1002
{
1005
6C6A1
1002
}
  0
POLYLINE
  5
6C6B1
100
AcDbEntity
  8
0
  6
CONTINUOUS
100
AcDb3dPolyline
 66
     1
 10
0.0
 20
0.0
 30
0.0
 70
     8
  0
VERTEX
  5
6C6B2
100
AcDbEntity
  8
0
  6
CONTINUOUS
100
AcDbVertex
100
AcDb3dPolylineVertex
 10
0.00021
 20
-1.8455
 30
3.080275
 70
    32
1001
ACAD
1000
R13OBJECT
1002
{
1005
6C6B1
1002
}
  0
VERTEX
  5
6C6B3
100
AcDbEntity
  8
0
  6
CONTINUOUS
100
AcDbVertex
100
AcDb3dPolylineVertex
 10
0.00021
 20
-1.8455
 30
2.058275
 70
    32
1001
ACAD
1000
R13OBJECT
1002
{
1005
6C6B1
1002
}
  0
SEQEND
  5
6C6B4
100
AcDbEntity
  8
0
  6
CONTINUOUS
1001
ACAD
1000
R13OBJECT
1002
{
1005
6C6B1
1002
}
  0
POLYLINE
  5
6C6B5
100
AcDbEntity
  8
0
  6
CONTINUOUS
100
AcDb3dPolyline
 66
     1
 10
0.0
 20
0.0
 30
0.0
 70
     8
1001
ACAD
1000
R13OBJECT
1002
{
1005
6C6B1
1002
}
  0
VERTEX
  5
6C6B6
100
AcDbEntity
  8
0
  6
CONTINUOUS
100
AcDbVertex
100
AcDb3dPolylineVertex
 10
1.76521
 20
-1.8455
 30
2.058275
 70
    32
1001
ACAD
1000
R13OBJECT
1002
{
1005
6C6B1
1002
}
  0
VERTEX
  5
6C6B7
100
AcDbEntity
  8
0
  6
CONTINUOUS
100
AcDbVertex
100
AcDb3dPolylineVertex
 10
0.00021
 20
-1.8455
 30
2.058275
 70
    32
1001
ACAD
1000
R13OBJECT
1002
{
1005
6C6B1
1002
}
  0
SEQEND
  5
6C6B8
100
AcDbEntity
  8
0
  6
CONTINUOUS
1001
ACAD
1000
R13OBJECT
1002
{
1005
6C6B1
1002
}
  0
POLYLINE
  5
6C6B9
100
AcDbEntity
  8
0
  6
CONTINUOUS
100
AcDb3dPolyline
 66
     1
 10
0.0
 20
0.0
 30
0.0
 70
     8
1001
ACAD
1000
R13OBJECT
1002
{
1005
6C6B1
1002
}
  0
VERTEX
  5
6C6BA
100
AcDbEntity
  8
0
  6
CONTINUOUS
100
AcDbVertex
100
AcDb3dPolylineVertex
 10
1.76521
 20
-1.8455
 30
3.080275
 70
    32
1001
ACAD
1000
R13OBJECT
1002
{
1005
6C6B1
1002
}
  0
VERTEX
  5
6C6BB
100
AcDbEntity
  8
0
  6
CONTINUOUS
100
AcDbVertex
100
AcDb3dPolylineVertex
 10
1.76521
 20
-1.8455
 30
2.058275
 70
    32
1001
ACAD
1000
R13OBJECT
1002
{
1005
6C6B1
1002
}
  0
SEQEND
  5
6C6BC
100
AcDbEntity
  8
0
  6
CONTINUOUS
1001
ACAD
1000
R13OBJECT
1002
{
1005
6C6B1
1002
}
  0
POLYLINE
  5
6C6BD
100
AcDbEntity
  8
0
  6
CONTINUOUS
100
AcDb3dPolyline
 66
     1
 10
0.0
 20
0.0
 30
0.0
 70
     8
1001
ACAD
1000
R13OBJECT
1002
{
1005
6C6B1
1002
}
  0
VERTEX
  5
6C6BE
100
AcDbEntity
  8
0
  6
CONTINUOUS
100
AcDbVertex
100
AcDb3dPolylineVertex
 10
0.00021
 20
-1.8455
 30
3.080275
 70
    32
1001
ACAD
1000
R13OBJECT
1002
{
1005
6C6B1
1002
}
  0
VERTEX
  5
6C6BF
100
AcDbEntity
  8
0
  6
CONTINUOUS
100
AcDbVertex
100
AcDb3dPolylineVertex
 10
1.76521
 20
-1.8455
 30
3.080275
 70
    32
1001
ACAD
1000
R13OBJECT
1002
{
1005
6C6B1
1002
}
  0
SEQEND
  5
6C6C0
100
AcDbEntity
  8
0
  6
CONTINUOUS
1001
ACAD
1000
R13OBJECT
1002
{
1005
6C6B1
1002
}
  0
POLYLINE
  5
6C6C1
100
AcDbEntity
  8
0
  6
CONTINUOUS
100
AcDb3dPolyline
 66
     1
 10
0.0
 20
0.0
 30
0.0
 70
     8
  0
VERTEX
  5
6C6C2
100
AcDbEntity
  8
0
  6
CONTINUOUS
100
AcDbVertex
100
AcDb3dPolylineVertex
 10
1.76521
 20
0.3985
 30
3.080275
 70
    32
1001
ACAD
1000
R13OBJECT
1002
{
1005
6C6C1
1002
}
  0
VERTEX
  5
6C6C3
100
AcDbEntity
  8
0
  6
CONTINUOUS
100
AcDbVertex
100
AcDb3dPolylineVertex
 10
1.76521
 20
0.3985
 30
2.058275
 70
    32
1001
ACAD
1000
R13OBJECT
1002
{
1005
6C6C1
1002
}
  0
SEQEND
  5
6C6C4
100
AcDbEntity
  8
0
  6
CONTINUOUS
1001
ACAD
1000
R13OBJECT
1002
{
1005
6C6C1
1002
}
  0
POLYLINE
  5
6C6C5
100
AcDbEntity
  8
0
  6
CONTINUOUS
100
AcDb3dPolyline
 66
     1
 10
0.0
 20
0.0
 30
0.0
 70
     8
1001
ACAD
1000
R13OBJECT
1002
{
1005
6C6C1
1002
}
  0
VERTEX
  5
6C6C6
100
AcDbEntity
  8
0
  6
CONTINUOUS
100
AcDbVertex
100
AcDb3dPolylineVertex
 10
0.00021
 20
0.3985
 30
2.058275
 70
    32
1001
ACAD
1000
R13OBJECT
1002
{
1005
6C6C1
1002
}
  0
VERTEX
  5
6C6C7
100
AcDbEntity
  8
0
  6
CONTINUOUS
100
AcDbVertex
100
AcDb3dPolylineVertex
 10
1.76521
 20
0.3985
 30
2.058275
 70
    32
1001
ACAD
1000
R13OBJECT
1002
{
1005
6C6C1
1002
}
  0
SEQEND
  5
6C6C8
100
AcDbEntity
  8
0
  6
CONTINUOUS
1001
ACAD
1000
R13OBJECT
1002
{
1005
6C6C1
1002
}
  0
POLYLINE
  5
6C6C9
100
AcDbEntity
  8
0
  6
CONTINUOUS
100
AcDb3dPolyline
 66
     1
 10
0.0
 20
0.0
 30
0.0
 70
     8
1001
ACAD
1000
R13OBJECT
1002
{
1005
6C6C1
1002
}
  0
VERTEX
  5
6C6CA
100
AcDbEntity
  8
0
  6
CONTINUOUS
100
AcDbVertex
100
AcDb3dPolylineVertex
 10
0.00021
 20
0.3985
 30
3.080275
 70
    32
1001
ACAD
1000
R13OBJECT
1002
{
1005
6C6C1
1002
}
  0
VERTEX
  5
6C6CB
100
AcDbEntity
  8
0
  6
CONTINUOUS
100
AcDbVertex
100
AcDb3dPolylineVertex
 10
0.00021
 20
0.3985
 30
2.058275
 70
    32
1001
ACAD
1000
R13OBJECT
1002
{
1005
6C6C1
1002
}
  0
SEQEND
  5
6C6CC
100
AcDbEntity
  8
0
  6
CONTINUOUS
1001
ACAD
1000
R13OBJECT
1002
{
1005
6C6C1
1002
}
  0
POLYLINE
  5
6C6CD
100
AcDbEntity
  8
0
  6
CONTINUOUS
100
AcDb3dPolyline
 66
     1
 10
0.0
 20
0.0
 30
0.0
 70
     8
1001
ACAD
1000
R13OBJECT
1002
{
1005
6C6C1
1002
}
  0
VERTEX
  5
6C6CE
100
AcDbEntity
  8
0
  6
CONTINUOUS
100
AcDbVertex
100
AcDb3dPolylineVertex
 10
1.76521
 20
0.3985
 30
3.080275
 70
    32
1001
ACAD
1000
R13OBJECT
1002
{
1005
6C6C1
1002
}
  0
VERTEX
  5
6C6CF
100
AcDbEntity
  8
0
  6
CONTINUOUS
100
AcDbVertex
100
AcDb3dPolylineVertex
 10
0.00021
 20
0.3985
 30
3.080275
 70
    32
1001
ACAD
1000
R13OBJECT
1002
{
1005
6C6C1
1002
}
  0
SEQEND
  5
6C6D0
100
AcDbEntity
  8
0
  6
CONTINUOUS
1001
ACAD
1000
R13OBJECT
1002
{
1005
6C6C1
1002
}
  0
POLYLINE
  5
6C6D1
100
AcDbEntity
  8
0
  6
CONTINUOUS
100
AcDb3dPolyline
 66
     1
 10
0.0
 20
0.0
 30
0.0
 70
     8
  0
VERTEX
  5
6C6D2
100
AcDbEntity
  8
0
  6
CONTINUOUS
100
AcDbVertex
100
AcDb3dPolylineVertex
 10
1.76521
 20
-1.8455
 30
3.080275
 70
    32
1001
ACAD
1000
R13OBJECT
1002
{
1005
6C6D1
1002
}
  0
VERTEX
  5
6C6D3
100
AcDbEntity
  8
0
  6
CONTINUOUS
100
AcDbVertex
100
AcDb3dPolylineVertex
 10
1.76521
 20
-1.8455
 30
2.058275
 70
    32
1001
ACAD
1000
R13OBJECT
1002
{
1005
6C6D1
1002
}
  0
SEQEND
  5
6C6D4
100
AcDbEntity
  8
0
  6
CONTINUOUS
1001
ACAD
1000
R13OBJECT
1002
{
1005
6C6D1
1002
}
  0
POLYLINE
  5
6C6D5
100
AcDbEntity
  8
0
  6
CONTINUOUS
100
AcDb3dPolyline
 66
     1
 10
0.0
 20
0.0
 30
0.0
 70
     8
1001
ACAD
1000
R13OBJECT
1002
{
1005
6C6D1
1002
}
  0
VERTEX
  5
6C6D6
100
AcDbEntity
  8
0
  6
CONTINUOUS
100
AcDbVertex
100
AcDb3dPolylineVertex
 10
1.76521
 20
0.3985
 30
2.058275
 70
    32
1001
ACAD
1000
R13OBJECT
1002
{
1005
6C6D1
1002
}
  0
VERTEX
  5
6C6D7
100
AcDbEntity
  8
0
  6
CONTINUOUS
100
AcDbVertex
100
AcDb3dPolylineVertex
 10
1.76521
 20
-1.8455
 30
2.058275
 70
    32
1001
ACAD
1000
R13OBJECT
1002
{
1005
6C6D1
1002
}
  0
SEQEND
  5
6C6D8
100
AcDbEntity
  8
0
  6
CONTINUOUS
1001
ACAD
1000
R13OBJECT
1002
{
1005
6C6D1
1002
}
  0
POLYLINE
  5
6C6D9
100
AcDbEntity
  8
0
  6
CONTINUOUS
100
AcDb3dPolyline
 66
     1
 10
0.0
 20
0.0
 30
0.0
 70
     8
1001
ACAD
1000
R13OBJECT
1002
{
1005
6C6D1
1002
}
  0
VERTEX
  5
6C6DA
100
AcDbEntity
  8
0
  6
CONTINUOUS
100
AcDbVertex
100
AcDb3dPolylineVertex
 10
1.76521
 20
0.3985
 30
3.080275
 70
    32
1001
ACAD
1000
R13OBJECT
1002
{
1005
6C6D1
1002
}
  0
VERTEX
  5
6C6DB
100
AcDbEntity
  8
0
  6
CONTINUOUS
100
AcDbVertex
100
AcDb3dPolylineVertex
 10
1.76521
 20
0.3985
 30
2.058275
 70
    32
1001
ACAD
1000
R13OBJECT
1002
{
1005
6C6D1
1002
}
  0
SEQEND
  5
6C6DC
100
AcDbEntity
  8
0
  6
CONTINUOUS
1001
ACAD
1000
R13OBJECT
1002
{
1005
6C6D1
1002
}
  0
POLYLINE
  5
6C6DD
100
AcDbEntity
  8
0
  6
CONTINUOUS
100
AcDb3dPolyline
 66
     1
 10
0.0
 20
0.0
 30
0.0
 70
     8
1001
ACAD
1000
R13OBJECT
1002
{
1005
6C6D1
1002
}
  0
VERTEX
  5
6C6DE
100
AcDbEntity
  8
0
  6
CONTINUOUS
100
AcDbVertex
100
AcDb3dPolylineVertex
 10
1.76521
 20
-1.8455
 30
3.080275
 70
    32
1001
ACAD
1000
R13OBJECT
1002
{
1005
6C6D1
1002
}
  0
VERTEX
  5
6C6DF
100
AcDbEntity
  8
0
  6
CONTINUOUS
100
AcDbVertex
100
AcDb3dPolylineVertex
 10
1.76521
 20
0.3985
 30
3.080275
 70
    32
1001
ACAD
1000
R13OBJECT
1002
{
1005
6C6D1
1002
}
  0
SEQEND
  5
6C6E0
100
AcDbEntity
  8
0
  6
CONTINUOUS
1001
ACAD
1000
R13OBJECT
1002
{
1005
6C6D1
1002
}
  0
LINE
  5
6C6E1
100
AcDbEntity
  8
0
100
AcDbLine
 10
0.00021
 20
0.3985
 30
3.080275
 11
0.00021
 21
0.3985
 31
2.058275
210
-1.0
220
0.0
230
0.0
  0
LINE
  5
6C6E2
100
AcDbEntity
  8
0
100
AcDbLine
 10
0.00021
 20
0.3985
 30
3.080275
 11
0.00021
 21
-1.8455
 31
3.080275
210
-1.0
220
0.0
230
0.0
  0
LINE
  5
6C6E3
100
AcDbEntity
  8
0
100
AcDbLine
 10
0.00021
 20
-1.8455
 30
3.080275
 11
0.00021
 21
-1.8455
 31
2.058275
210
-1.0
220
0.0
230
0.0
  0
3DFACE
  5
6C6E4
100
AcDbEntity
  8
0
100
AcDbFace
 10
1.76521
 20
0.3985
 30
3.080275
 11
1.76521
 21
-1.8455
 31
3.080275
 12
0.00021
 22
-1.8455
 32
3.080275
 13
0.00021
 23
0.3985
 33
3.080275
  0
POLYLINE
  5
6C6E5
100
AcDbEntity
  8
0
100
AcDbPolygonMesh
 66
     1
 10
0.0
 20
0.0
 30
0.0
 70
    16
 71
     6
 72
     3
  0
VERTEX
  5
6C6E6
100
AcDbEntity
  8
0
100
AcDbVertex
100
AcDbPolygonMeshVertex
 10
1.25071
 20
-0.439486
 30
3.291275
 70
    64
  0
VERTEX
  5
6C6E7
100
AcDbEntity
  8
0
100
AcDbVertex
100
AcDbPolygonMeshVertex
 10
1.25071
 20
-0.439486
 30
3.114275
 70
    64
  0
VERTEX
  5
6C6E8
100
AcDbEntity
  8
0
100
AcDbVertex
100
AcDbPolygonMeshVertex
 10
1.25071
 20
-0.439486
 30
3.114275
 70
    64
  0
VERTEX
  5
6C6E9
100
AcDbEntity
  8
0
100
AcDbVertex
100
AcDbPolygonMeshVertex
 10
1.08121
 20
-0.439486
 30
3.291275
 70
    64
  0
VERTEX
  5
6C6EA
100
AcDbEntity
  8
0
100
AcDbVertex
100
AcDbPolygonMeshVertex
 10
1.08121
 20
-0.439486
 30
3.114275
 70
    64
  0
VERTEX
  5
6C6EB
100
AcDbEntity
  8
0
100
AcDbVertex
100
AcDbPolygonMeshVertex
 10
1.08121
 20
-0.439486
 30
3.114275
 70
    64
  0
VERTEX
  5
6C6EC
100
AcDbEntity
  8
0
100
AcDbVertex
100
AcDbPolygonMeshVertex
 10
1.08121
 20
-0.086486
 30
3.291275
 70
    64
  0
VERTEX
  5
6C6ED
100
AcDbEntity
  8
0
100
AcDbVertex
100
AcDbPolygonMeshVertex
 10
1.08121
 20
-0.086486
 30
3.114275
 70
    64
  0
VERTEX
  5
6C6EE
100
AcDbEntity
  8
0
100
AcDbVertex
100
AcDbPolygonMeshVertex
 10
1.08121
 20
-0.439486
 30
3.114275
 70
    64
  0
VERTEX
  5
6C6EF
100
AcDbEntity
  8
0
100
AcDbVertex
100
AcDbPolygonMeshVertex
 10
1.25071
 20
-0.086486
 30
3.291275
 70
    64
  0
VERTEX
  5
6C6F0
100
AcDbEntity
  8
0
100
AcDbVertex
100
AcDbPolygonMeshVertex
 10
1.25071
 20
-0.086486
 30
3.114275
 70
    64
  0
VERTEX
  5
6C6F1
100
AcDbEntity
  8
0
100
AcDbVertex
100
AcDbPolygonMeshVertex
 10
1.25071
 20
-0.439486
 30
3.114275
 70
    64
  0
VERTEX
  5
6C6F2
100
AcDbEntity
  8
0
100
AcDbVertex
100
AcDbPolygonMeshVertex
 10
1.25071
 20
-0.086486
 30
3.291275
 70
    64
  0
VERTEX
  5
6C6F3
100
AcDbEntity
  8
0
100
AcDbVertex
100
AcDbPolygonMeshVertex
 10
1.25071
 20
-0.086486
 30
3.291275
 70
    64
  0
VERTEX
  5
6C6F4
100
AcDbEntity
  8
0
100
AcDbVertex
100
AcDbPolygonMeshVertex
 10
1.25071
 20
-0.439486
 30
3.291275
 70
    64
  0
VERTEX
  5
6C6F5
100
AcDbEntity
  8
0
100
AcDbVertex
100
AcDbPolygonMeshVertex
 10
1.08121
 20
-0.086486
 30
3.291275
 70
    64
  0
VERTEX
  5
6C6F6
100
AcDbEntity
  8
0
100
AcDbVertex
100
AcDbPolygonMeshVertex
 10
1.08121
 20
-0.086486
 30
3.291275
 70
    64
  0
VERTEX
  5
6C6F7
100
AcDbEntity
  8
0
100
AcDbVertex
100
AcDbPolygonMeshVertex
 10
1.08121
 20
-0.439486
 30
3.291275
 70
    64
  0
SEQEND
  5
6C6F8
100
AcDbEntity
  8
0
  0
POLYLINE
  5
6C6F9
100
AcDbEntity
  8
0
100
AcDbPolygonMesh
 66
     1
 10
0.0
 20
0.0
 30
0.0
 70
    16
 71
     6
 72
     3
  0
VERTEX
  5
6C6FA
100
AcDbEntity
  8
0
100
AcDbVertex
100
AcDbPolygonMeshVertex
 10
1.12271
 20
-0.894486
 30
3.330275
 70
    64
  0
VERTEX
  5
6C6FB
100
AcDbEntity
  8
0
100
AcDbVertex
100
AcDbPolygonMeshVertex
 10
1.12271
 20
-0.894486
 30
3.114275
 70
    64
  0
VERTEX
  5
6C6FC
100
AcDbEntity
  8
0
100
AcDbVertex
100
AcDbPolygonMeshVertex
 10
1.12271
 20
-0.894486
 30
3.114275
 70
    64
  0
VERTEX
  5
6C6FD
100
AcDbEntity
  8
0
100
AcDbVertex
100
AcDbPolygonMeshVertex
 10
0.98771
 20
-0.894486
 30
3.330275
 70
    64
  0
VERTEX
  5
6C6FE
100
AcDbEntity
  8
0
100
AcDbVertex
100
AcDbPolygonMeshVertex
 10
0.98771
 20
-0.894486
 30
3.114275
 70
    64
  0
VERTEX
  5
6C6FF
100
AcDbEntity
  8
0
100
AcDbVertex
100
AcDbPolygonMeshVertex
 10
0.98771
 20
-0.894486
 30
3.114275
 70
    64
  0
VERTEX
  5
6C700
100
AcDbEntity
  8
0
100
AcDbVertex
100
AcDbPolygonMeshVertex
 10
0.98771
 20
-0.549486
 30
3.330275
 70
    64
  0
VERTEX
  5
6C701
100
AcDbEntity
  8
0
100
AcDbVertex
100
AcDbPolygonMeshVertex
 10
0.98771
 20
-0.549486
 30
3.114275
 70
    64
  0
VERTEX
  5
6C702
100
AcDbEntity
  8
0
100
AcDbVertex
100
AcDbPolygonMeshVertex
 10
0.98771
 20
-0.894486
 30
3.114275
 70
    64
  0
VERTEX
  5
6C703
100
AcDbEntity
  8
0
100
AcDbVertex
100
AcDbPolygonMeshVertex
 10
1.12271
 20
-0.549486
 30
3.330275
 70
    64
  0
VERTEX
  5
6C704
100
AcDbEntity
  8
0
100
AcDbVertex
100
AcDbPolygonMeshVertex
 10
1.12271
 20
-0.549486
 30
3.114275
 70
    64
  0
VERTEX
  5
6C705
100
AcDbEntity
  8
0
100
AcDbVertex
100
AcDbPolygonMeshVertex
 10
1.12271
 20
-0.894486
 30
3.114275
 70
    64
  0
VERTEX
  5
6C706
100
AcDbEntity
  8
0
100
AcDbVertex
100
AcDbPolygonMeshVertex
 10
1.12271
 20
-0.549486
 30
3.330275
 70
    64
  0
VERTEX
  5
6C707
100
AcDbEntity
  8
0
100
AcDbVertex
100
AcDbPolygonMeshVertex
 10
1.12271
 20
-0.549486
 30
3.330275
 70
    64
  0
VERTEX
  5
6C708
100
AcDbEntity
  8
0
100
AcDbVertex
100
AcDbPolygonMeshVertex
 10
1.12271
 20
-0.894486
 30
3.330275
 70
    64
  0
VERTEX
  5
6C709
100
AcDbEntity
  8
0
100
AcDbVertex
100
AcDbPolygonMeshVertex
 10
0.98771
 20
-0.549486
 30
3.330275
 70
    64
  0
VERTEX
  5
6C70A
100
AcDbEntity
  8
0
100
AcDbVertex
100
AcDbPolygonMeshVertex
 10
0.98771
 20
-0.549486
 30
3.330275
 70
    64
  0
VERTEX
  5
6C70B
100
AcDbEntity
  8
0
100
AcDbVertex
100
AcDbPolygonMeshVertex
 10
0.98771
 20
-0.894486
 30
3.330275
 70
    64
  0
SEQEND
  5
6C70C
100
AcDbEntity
  8
0
  0
3DFACE
  5
6C70D
100
AcDbEntity
  8
0
100
AcDbFace
 10
1.76521
 20
0.3985
 30
3.080275
 11
1.76521
 21
0.3985
 31
3.080275
 12
0.00021
 22
0.3985
 32
3.080275
 13
0.00021
 23
0.3985
 33
3.080275
  0
CIRCLE
  5
6C70E
100
AcDbEntity
  8
0
100
AcDbCircle
 10
0.238085
 20
0.154908
 30
3.080275
 40
0.138
  0
TEXT
  5
6C70F
100
AcDbEntity
  8
0
100
AcDbText
 10
0.072628
 20
0.301596
 30
3.080275
 40
0.083465
  1
13
100
AcDbText
  0
TEXT
  5
6C710
100
AcDbEntity
  8
0
100
AcDbText
 10
1.134415
 20
0.304736
 30
3.080275
 40
0.083465
  1
NC
100
AcDbText
  0
CIRCLE
  5
6C711
100
AcDbEntity
  8
0
100
AcDbCircle
 10
0.667835
 20
0.154908
 30
3.080275
 40
0.138
  0
TEXT
  5
6C712
100
AcDbEntity
  8
0
100
AcDbText
 10
0.712799
 20
0.301324
 30
3.080275
 40
0.083465
  1
NC
100
AcDbText
  0
TEXT
  5
6C713
100
AcDbEntity
  8
0
100
AcDbText
 10
0.286175
 20
0.300754
 30
3.080275
 40
0.083465
  1
NO
100
AcDbText
  0
TEXT
  5
6C714
100
AcDbEntity
  8
0
100
AcDbText
 10
0.523379
 20
0.299912
 30
3.080275
 40
0.083465
  1
21
100
AcDbText
  0
TEXT
  5
6C715
100
AcDbEntity
  8
0
100
AcDbText
 10
0.964913
 20
0.302735
 30
3.080275
 40
0.083465
  1
31
100
AcDbText
  0
CIRCLE
  5
6C716
100
AcDbEntity
  8
0
100
AcDbCircle
 10
1.097585
 20
0.154908
 30
3.080275
 40
0.138
  0
TEXT
  5
6C717
100
AcDbEntity
  8
0
100
AcDbText
 10
1.599327
 20
0.304736
 30
3.080275
 40
0.083465
  1
NO
100
AcDbText
  0
TEXT
  5
6C718
100
AcDbEntity
  8
0
100
AcDbText
 10
1.370118
 20
0.302735
 30
3.080275
 40
0.083465
  1
43
100
AcDbText
  0
CIRCLE
  5
6C719
100
AcDbEntity
  8
0
100
AcDbCircle
 10
1.527335
 20
0.154908
 30
3.080275
 40
0.138
  0
POLYLINE
  5
6C71A
100
AcDbEntity
  8
0
100
AcDbPolygonMesh
 66
     1
 10
0.0
 20
0.0
 30
0.0
 70
    16
 71
     6
 72
     3
  0
VERTEX
  5
6C71B
100
AcDbEntity
  8
0
100
AcDbVertex
100
AcDbPolygonMeshVertex
 10
1.27071
 20
-1.376486
 30
3.280275
 70
    64
  0
VERTEX
  5
6C71C
100
AcDbEntity
  8
0
100
AcDbVertex
100
AcDbPolygonMeshVertex
 10
1.27071
 20
-1.376486
 30
3.080275
 70
    64
  0
VERTEX
  5
6C71D
100
AcDbEntity
  8
0
100
AcDbVertex
100
AcDbPolygonMeshVertex
 10
1.27071
 20
-1.376486
 30
3.080275
 70
    64
  0
VERTEX
  5
6C71E
100
AcDbEntity
  8
0
100
AcDbVertex
100
AcDbPolygonMeshVertex
 10
0.49971
 20
-1.376486
 30
3.280275
 70
    64
  0
VERTEX
  5
6C71F
100
AcDbEntity
  8
0
100
AcDbVertex
100
AcDbPolygonMeshVertex
 10
0.49971
 20
-1.376486
 30
3.080275
 70
    64
  0
VERTEX
  5
6C720
100
AcDbEntity
  8
0
100
AcDbVertex
100
AcDbPolygonMeshVertex
 10
0.49971
 20
-1.376486
 30
3.080275
 70
    64
  0
VERTEX
  5
6C721
100
AcDbEntity
  8
0
100
AcDbVertex
100
AcDbPolygonMeshVertex
 10
0.49971
 20
-1.094486
 30
3.280275
 70
    64
  0
VERTEX
  5
6C722
100
AcDbEntity
  8
0
100
AcDbVertex
100
AcDbPolygonMeshVertex
 10
0.49971
 20
-1.094486
 30
3.080275
 70
    64
  0
VERTEX
  5
6C723
100
AcDbEntity
  8
0
100
AcDbVertex
100
AcDbPolygonMeshVertex
 10
0.49971
 20
-1.376486
 30
3.080275
 70
    64
  0
VERTEX
  5
6C724
100
AcDbEntity
  8
0
100
AcDbVertex
100
AcDbPolygonMeshVertex
 10
1.27071
 20
-1.094486
 30
3.280275
 70
    64
  0
VERTEX
  5
6C725
100
AcDbEntity
  8
0
100
AcDbVertex
100
AcDbPolygonMeshVertex
 10
1.27071
 20
-1.094486
 30
3.080275
 70
    64
  0
VERTEX
  5
6C726
100
AcDbEntity
  8
0
100
AcDbVertex
100
AcDbPolygonMeshVertex
 10
1.27071
 20
-1.376486
 30
3.080275
 70
    64
  0
VERTEX
  5
6C727
100
AcDbEntity
  8
0
100
AcDbVertex
100
AcDbPolygonMeshVertex
 10
1.27071
 20
-1.094486
 30
3.280275
 70
    64
  0
VERTEX
  5
6C728
100
AcDbEntity
  8
0
100
AcDbVertex
100
AcDbPolygonMeshVertex
 10
1.27071
 20
-1.094486
 30
3.280275
 70
    64
  0
VERTEX
  5
6C729
100
AcDbEntity
  8
0
100
AcDbVertex
100
AcDbPolygonMeshVertex
 10
1.27071
 20
-1.376486
 30
3.280275
 70
    64
  0
VERTEX
  5
6C72A
100
AcDbEntity
  8
0
100
AcDbVertex
100
AcDbPolygonMeshVertex
 10
0.49971
 20
-1.094486
 30
3.280275
 70
    64
  0
VERTEX
  5
6C72B
100
AcDbEntity
  8
0
100
AcDbVertex
100
AcDbPolygonMeshVertex
 10
0.49971
 20
-1.094486
 30
3.280275
 70
    64
  0
VERTEX
  5
6C72C
100
AcDbEntity
  8
0
100
AcDbVertex
100
AcDbPolygonMeshVertex
 10
0.49971
 20
-1.376486
 30
3.280275
 70
    64
  0
SEQEND
  5
6C72D
100
AcDbEntity
  8
0
  0
POLYLINE
  5
6C72E
100
AcDbEntity
  8
0
100
AcDbPolygonMesh
 66
     1
 10
0.0
 20
0.0
 30
0.0
 70
    16
 71
     6
 72
     3
  0
VERTEX
  5
6C72F
100
AcDbEntity
  8
0
100
AcDbVertex
100
AcDbPolygonMeshVertex
 10
1.25071
 20
-0.439486
 30
3.114275
 70
    64
  0
VERTEX
  5
6C730
100
AcDbEntity
  8
0
100
AcDbVertex
100
AcDbPolygonMeshVertex
 10
1.25071
 20
-0.439486
 30
3.080275
 70
    64
  0
VERTEX
  5
6C731
100
AcDbEntity
  8
0
100
AcDbVertex
100
AcDbPolygonMeshVertex
 10
1.25071
 20
-0.439486
 30
3.080275
 70
    64
  0
VERTEX
  5
6C732
100
AcDbEntity
  8
0
100
AcDbVertex
100
AcDbPolygonMeshVertex
 10
0.51971
 20
-0.439486
 30
3.114275
 70
    64
  0
VERTEX
  5
6C733
100
AcDbEntity
  8
0
100
AcDbVertex
100
AcDbPolygonMeshVertex
 10
0.51971
 20
-0.439486
 30
3.080275
 70
    64
  0
VERTEX
  5
6C734
100
AcDbEntity
  8
0
100
AcDbVertex
100
AcDbPolygonMeshVertex
 10
0.51971
 20
-0.439486
 30
3.080275
 70
    64
  0
VERTEX
  5
6C735
100
AcDbEntity
  8
0
100
AcDbVertex
100
AcDbPolygonMeshVertex
 10
0.51971
 20
-0.086486
 30
3.114275
 70
    64
  0
VERTEX
  5
6C736
100
AcDbEntity
  8
0
100
AcDbVertex
100
AcDbPolygonMeshVertex
 10
0.51971
 20
-0.086486
 30
3.080275
 70
    64
  0
VERTEX
  5
6C737
100
AcDbEntity
  8
0
100
AcDbVertex
100
AcDbPolygonMeshVertex
 10
0.51971
 20
-0.439486
 30
3.080275
 70
    64
  0
VERTEX
  5
6C738
100
AcDbEntity
  8
0
100
AcDbVertex
100
AcDbPolygonMeshVertex
 10
1.25071
 20
-0.086486
 30
3.114275
 70
    64
  0
VERTEX
  5
6C739
100
AcDbEntity
  8
0
100
AcDbVertex
100
AcDbPolygonMeshVertex
 10
1.25071
 20
-0.086486
 30
3.080275
 70
    64
  0
VERTEX
  5
6C73A
100
AcDbEntity
  8
0
100
AcDbVertex
100
AcDbPolygonMeshVertex
 10
1.25071
 20
-0.439486
 30
3.080275
 70
    64
  0
VERTEX
  5
6C73B
100
AcDbEntity
  8
0
100
AcDbVertex
100
AcDbPolygonMeshVertex
 10
1.25071
 20
-0.086486
 30
3.114275
 70
    64
  0
VERTEX
  5
6C73C
100
AcDbEntity
  8
0
100
AcDbVertex
100
AcDbPolygonMeshVertex
 10
1.25071
 20
-0.086486
 30
3.114275
 70
    64
  0
VERTEX
  5
6C73D
100
AcDbEntity
  8
0
100
AcDbVertex
100
AcDbPolygonMeshVertex
 10
1.25071
 20
-0.439486
 30
3.114275
 70
    64
  0
VERTEX
  5
6C73E
100
AcDbEntity
  8
0
100
AcDbVertex
100
AcDbPolygonMeshVertex
 10
0.51971
 20
-0.086486
 30
3.114275
 70
    64
  0
VERTEX
  5
6C73F
100
AcDbEntity
  8
0
100
AcDbVertex
100
AcDbPolygonMeshVertex
 10
0.51971
 20
-0.086486
 30
3.114275
 70
    64
  0
VERTEX
  5
6C740
100
AcDbEntity
  8
0
100
AcDbVertex
100
AcDbPolygonMeshVertex
 10
0.51971
 20
-0.439486
 30
3.114275
 70
    64
  0
SEQEND
  5
6C741
100
AcDbEntity
  8
0
  0
POLYLINE
  5
6C742
100
AcDbEntity
  8
0
100
AcDbPolygonMesh
 66
     1
 10
0.0
 20
0.0
 30
0.0
 70
    16
 71
     6
 72
     3
  0
VERTEX
  5
6C743
100
AcDbEntity
  8
0
100
AcDbVertex
100
AcDbPolygonMeshVertex
 10
0.68921
 20
-0.439486
 30
3.291275
 70
    64
  0
VERTEX
  5
6C744
100
AcDbEntity
  8
0
100
AcDbVertex
100
AcDbPolygonMeshVertex
 10
0.68921
 20
-0.439486
 30
3.114275
 70
    64
  0
VERTEX
  5
6C745
100
AcDbEntity
  8
0
100
AcDbVertex
100
AcDbPolygonMeshVertex
 10
0.68921
 20
-0.439486
 30
3.114275
 70
    64
  0
VERTEX
  5
6C746
100
AcDbEntity
  8
0
100
AcDbVertex
100
AcDbPolygonMeshVertex
 10
0.51971
 20
-0.439486
 30
3.291275
 70
    64
  0
VERTEX
  5
6C747
100
AcDbEntity
  8
0
100
AcDbVertex
100
AcDbPolygonMeshVertex
 10
0.51971
 20
-0.439486
 30
3.114275
 70
    64
  0
VERTEX
  5
6C748
100
AcDbEntity
  8
0
100
AcDbVertex
100
AcDbPolygonMeshVertex
 10
0.51971
 20
-0.439486
 30
3.114275
 70
    64
  0
VERTEX
  5
6C749
100
AcDbEntity
  8
0
100
AcDbVertex
100
AcDbPolygonMeshVertex
 10
0.51971
 20
-0.086486
 30
3.291275
 70
    64
  0
VERTEX
  5
6C74A
100
AcDbEntity
  8
0
100
AcDbVertex
100
AcDbPolygonMeshVertex
 10
0.51971
 20
-0.086486
 30
3.114275
 70
    64
  0
VERTEX
  5
6C74B
100
AcDbEntity
  8
0
100
AcDbVertex
100
AcDbPolygonMeshVertex
 10
0.51971
 20
-0.439486
 30
3.114275
 70
    64
  0
VERTEX
  5
6C74C
100
AcDbEntity
  8
0
100
AcDbVertex
100
AcDbPolygonMeshVertex
 10
0.68921
 20
-0.086486
 30
3.291275
 70
    64
  0
VERTEX
  5
6C74D
100
AcDbEntity
  8
0
100
AcDbVertex
100
AcDbPolygonMeshVertex
 10
0.68921
 20
-0.086486
 30
3.114275
 70
    64
  0
VERTEX
  5
6C74E
100
AcDbEntity
  8
0
100
AcDbVertex
100
AcDbPolygonMeshVertex
 10
0.68921
 20
-0.439486
 30
3.114275
 70
    64
  0
VERTEX
  5
6C74F
100
AcDbEntity
  8
0
100
AcDbVertex
100
AcDbPolygonMeshVertex
 10
0.68921
 20
-0.086486
 30
3.291275
 70
    64
  0
VERTEX
  5
6C750
100
AcDbEntity
  8
0
100
AcDbVertex
100
AcDbPolygonMeshVertex
 10
0.68921
 20
-0.086486
 30
3.291275
 70
    64
  0
VERTEX
  5
6C751
100
AcDbEntity
  8
0
100
AcDbVertex
100
AcDbPolygonMeshVertex
 10
0.68921
 20
-0.439486
 30
3.291275
 70
    64
  0
VERTEX
  5
6C752
100
AcDbEntity
  8
0
100
AcDbVertex
100
AcDbPolygonMeshVertex
 10
0.51971
 20
-0.086486
 30
3.291275
 70
    64
  0
VERTEX
  5
6C753
100
AcDbEntity
  8
0
100
AcDbVertex
100
AcDbPolygonMeshVertex
 10
0.51971
 20
-0.086486
 30
3.291275
 70
    64
  0
VERTEX
  5
6C754
100
AcDbEntity
  8
0
100
AcDbVertex
100
AcDbPolygonMeshVertex
 10
0.51971
 20
-0.439486
 30
3.291275
 70
    64
  0
SEQEND
  5
6C755
100
AcDbEntity
  8
0
  0
POLYLINE
  5
6C756
100
AcDbEntity
  8
0
100
AcDbPolygonMesh
 66
     1
 10
0.0
 20
0.0
 30
0.0
 70
    16
 71
     6
 72
     3
  0
VERTEX
  5
6C757
100
AcDbEntity
  8
0
100
AcDbVertex
100
AcDbPolygonMeshVertex
 10
0.78271
 20
-0.894486
 30
3.330275
 70
    64
  0
VERTEX
  5
6C758
100
AcDbEntity
  8
0
100
AcDbVertex
100
AcDbPolygonMeshVertex
 10
0.78271
 20
-0.894486
 30
3.114275
 70
    64
  0
VERTEX
  5
6C759
100
AcDbEntity
  8
0
100
AcDbVertex
100
AcDbPolygonMeshVertex
 10
0.78271
 20
-0.894486
 30
3.114275
 70
    64
  0
VERTEX
  5
6C75A
100
AcDbEntity
  8
0
100
AcDbVertex
100
AcDbPolygonMeshVertex
 10
0.64771
 20
-0.894486
 30
3.330275
 70
    64
  0
VERTEX
  5
6C75B
100
AcDbEntity
  8
0
100
AcDbVertex
100
AcDbPolygonMeshVertex
 10
0.64771
 20
-0.894486
 30
3.114275
 70
    64
  0
VERTEX
  5
6C75C
100
AcDbEntity
  8
0
100
AcDbVertex
100
AcDbPolygonMeshVertex
 10
0.64771
 20
-0.894486
 30
3.114275
 70
    64
  0
VERTEX
  5
6C75D
100
AcDbEntity
  8
0
100
AcDbVertex
100
AcDbPolygonMeshVertex
 10
0.64771
 20
-0.549486
 30
3.330275
 70
    64
  0
VERTEX
  5
6C75E
100
AcDbEntity
  8
0
100
AcDbVertex
100
AcDbPolygonMeshVertex
 10
0.64771
 20
-0.549486
 30
3.114275
 70
    64
  0
VERTEX
  5
6C75F
100
AcDbEntity
  8
0
100
AcDbVertex
100
AcDbPolygonMeshVertex
 10
0.64771
 20
-0.894486
 30
3.114275
 70
    64
  0
VERTEX
  5
6C760
100
AcDbEntity
  8
0
100
AcDbVertex
100
AcDbPolygonMeshVertex
 10
0.78271
 20
-0.549486
 30
3.330275
 70
    64
  0
VERTEX
  5
6C761
100
AcDbEntity
  8
0
100
AcDbVertex
100
AcDbPolygonMeshVertex
 10
0.78271
 20
-0.549486
 30
3.114275
 70
    64
  0
VERTEX
  5
6C762
100
AcDbEntity
  8
0
100
AcDbVertex
100
AcDbPolygonMeshVertex
 10
0.78271
 20
-0.894486
 30
3.114275
 70
    64
  0
VERTEX
  5
6C763
100
AcDbEntity
  8
0
100
AcDbVertex
100
AcDbPolygonMeshVertex
 10
0.78271
 20
-0.549486
 30
3.330275
 70
    64
  0
VERTEX
  5
6C764
100
AcDbEntity
  8
0
100
AcDbVertex
100
AcDbPolygonMeshVertex
 10
0.78271
 20
-0.549486
 30
3.330275
 70
    64
  0
VERTEX
  5
6C765
100
AcDbEntity
  8
0
100
AcDbVertex
100
AcDbPolygonMeshVertex
 10
0.78271
 20
-0.894486
 30
3.330275
 70
    64
  0
VERTEX
  5
6C766
100
AcDbEntity
  8
0
100
AcDbVertex
100
AcDbPolygonMeshVertex
 10
0.64771
 20
-0.549486
 30
3.330275
 70
    64
  0
VERTEX
  5
6C767
100
AcDbEntity
  8
0
100
AcDbVertex
100
AcDbPolygonMeshVertex
 10
0.64771
 20
-0.549486
 30
3.330275
 70
    64
  0
VERTEX
  5
6C768
100
AcDbEntity
  8
0
100
AcDbVertex
100
AcDbPolygonMeshVertex
 10
0.64771
 20
-0.894486
 30
3.330275
 70
    64
  0
SEQEND
  5
6C769
100
AcDbEntity
  8
0
  0
TEXT
  5
6C76A
100
AcDbEntity
  8
0
100
AcDbText
 10
0.528717
 20
-1.819571
 30
3.080275
 40
0.083465
  1
22
100
AcDbText
  0
TEXT
  5
6C76B
100
AcDbEntity
  8
0
100
AcDbText
 10
0.71763
 20
-1.820413
 30
3.080275
 40
0.083465
  1
NC
100
AcDbText
  0
POLYLINE
  5
6C76C
100
AcDbEntity
  8
0
100
AcDbPolygonMesh
 66
     1
 10
0.0
 20
0.0
 30
0.0
 70
    16
 71
     6
 72
     3
  0
VERTEX
  5
6C76D
100
AcDbEntity
  8
0
100
AcDbVertex
100
AcDbPolygonMeshVertex
 10
1.12271
 20
-0.894486
 30
3.114275
 70
    64
  0
VERTEX
  5
6C76E
100
AcDbEntity
  8
0
100
AcDbVertex
100
AcDbPolygonMeshVertex
 10
1.12271
 20
-0.894486
 30
3.080275
 70
    64
  0
VERTEX
  5
6C76F
100
AcDbEntity
  8
0
100
AcDbVertex
100
AcDbPolygonMeshVertex
 10
1.12271
 20
-0.894486
 30
3.080275
 70
    64
  0
VERTEX
  5
6C770
100
AcDbEntity
  8
0
100
AcDbVertex
100
AcDbPolygonMeshVertex
 10
0.64771
 20
-0.894486
 30
3.114275
 70
    64
  0
VERTEX
  5
6C771
100
AcDbEntity
  8
0
100
AcDbVertex
100
AcDbPolygonMeshVertex
 10
0.64771
 20
-0.894486
 30
3.080275
 70
    64
  0
VERTEX
  5
6C772
100
AcDbEntity
  8
0
100
AcDbVertex
100
AcDbPolygonMeshVertex
 10
0.64771
 20
-0.894486
 30
3.080275
 70
    64
  0
VERTEX
  5
6C773
100
AcDbEntity
  8
0
100
AcDbVertex
100
AcDbPolygonMeshVertex
 10
0.64771
 20
-0.549486
 30
3.114275
 70
    64
  0
VERTEX
  5
6C774
100
AcDbEntity
  8
0
100
AcDbVertex
100
AcDbPolygonMeshVertex
 10
0.64771
 20
-0.549486
 30
3.080275
 70
    64
  0
VERTEX
  5
6C775
100
AcDbEntity
  8
0
100
AcDbVertex
100
AcDbPolygonMeshVertex
 10
0.64771
 20
-0.894486
 30
3.080275
 70
    64
  0
VERTEX
  5
6C776
100
AcDbEntity
  8
0
100
AcDbVertex
100
AcDbPolygonMeshVertex
 10
1.12271
 20
-0.549486
 30
3.114275
 70
    64
  0
VERTEX
  5
6C777
100
AcDbEntity
  8
0
100
AcDbVertex
100
AcDbPolygonMeshVertex
 10
1.12271
 20
-0.549486
 30
3.080275
 70
    64
  0
VERTEX
  5
6C778
100
AcDbEntity
  8
0
100
AcDbVertex
100
AcDbPolygonMeshVertex
 10
1.12271
 20
-0.894486
 30
3.080275
 70
    64
  0
VERTEX
  5
6C779
100
AcDbEntity
  8
0
100
AcDbVertex
100
AcDbPolygonMeshVertex
 10
1.12271
 20
-0.549486
 30
3.114275
 70
    64
  0
VERTEX
  5
6C77A
100
AcDbEntity
  8
0
100
AcDbVertex
100
AcDbPolygonMeshVertex
 10
1.12271
 20
-0.549486
 30
3.114275
 70
    64
  0
VERTEX
  5
6C77B
100
AcDbEntity
  8
0
100
AcDbVertex
100
AcDbPolygonMeshVertex
 10
1.12271
 20
-0.894486
 30
3.114275
 70
    64
  0
VERTEX
  5
6C77C
100
AcDbEntity
  8
0
100
AcDbVertex
100
AcDbPolygonMeshVertex
 10
0.64771
 20
-0.549486
 30
3.114275
 70
    64
  0
VERTEX
  5
6C77D
100
AcDbEntity
  8
0
100
AcDbVertex
100
AcDbPolygonMeshVertex
 10
0.64771
 20
-0.549486
 30
3.114275
 70
    64
  0
VERTEX
  5
6C77E
100
AcDbEntity
  8
0
100
AcDbVertex
100
AcDbPolygonMeshVertex
 10
0.64771
 20
-0.894486
 30
3.114275
 70
    64
  0
SEQEND
  5
6C77F
100
AcDbEntity
  8
0
  0
TEXT
  5
6C780
100
AcDbEntity
  8
0
100
AcDbText
 10
0.932671
 20
-1.819002
 30
3.080275
 40
0.083465
  1
32
100
AcDbText
  0
TEXT
  5
6C781
100
AcDbEntity
  8
0
100
AcDbText
 10
0.284838
 20
-1.817525
 30
3.080275
 40
0.083465
  1
NO
100
AcDbText
  0
CIRCLE
  5
6C782
100
AcDbEntity
  8
0
100
AcDbCircle
 10
0.238085
 20
-1.58788
 30
3.080275
 40
0.138
  0
TEXT
  5
6C783
100
AcDbEntity
  8
0
100
AcDbText
 10
0.080569
 20
-1.821552
 30
3.080275
 40
0.083465
  1
14
100
AcDbText
  0
TEXT
  5
6C784
100
AcDbEntity
  8
0
100
AcDbText
 10
1.598505
 20
-1.819002
 30
3.080275
 40
0.083465
  1
NO
100
AcDbText
  0
TEXT
  5
6C785
100
AcDbEntity
  8
0
100
AcDbText
 10
1.398533
 20
-1.820413
 30
3.080275
 40
0.083465
  1
44
100
AcDbText
  0
LWPOLYLINE
  5
6C786
100
AcDbEntity
  8
0
100
AcDbPolyline
 90
        2
 70
     0
 43
0.0
 38
2.058275
 10
0.00021
 20
-1.8455
 10
0.00021
 20
0.3985
  0
POLYLINE
  5
6C787
100
AcDbEntity
  8
0
100
AcDbPolygonMesh
 66
     1
 10
0.0
 20
0.0
 30
0.0
 70
    16
 71
     6
 72
     3
  0
VERTEX
  5
6C788
100
AcDbEntity
  8
0
100
AcDbVertex
100
AcDbPolygonMeshVertex
 10
1.76521
 20
-1.8455
 30
3.080275
 70
    64
  0
VERTEX
  5
6C789
100
AcDbEntity
  8
0
100
AcDbVertex
100
AcDbPolygonMeshVertex
 10
1.76521
 20
-1.8455
 30
2.058275
 70
    64
  0
VERTEX
  5
6C78A
100
AcDbEntity
  8
0
100
AcDbVertex
100
AcDbPolygonMeshVertex
 10
1.76521
 20
-1.8455
 30
2.058275
 70
    64
  0
VERTEX
  5
6C78B
100
AcDbEntity
  8
0
100
AcDbVertex
100
AcDbPolygonMeshVertex
 10
0.00021
 20
-1.8455
 30
3.080275
 70
    64
  0
VERTEX
  5
6C78C
100
AcDbEntity
  8
0
100
AcDbVertex
100
AcDbPolygonMeshVertex
 10
0.00021
 20
-1.8455
 30
2.058275
 70
    64
  0
VERTEX
  5
6C78D
100
AcDbEntity
  8
0
100
AcDbVertex
100
AcDbPolygonMeshVertex
 10
0.00021
 20
-1.8455
 30
2.058275
 70
    64
  0
VERTEX
  5
6C78E
100
AcDbEntity
  8
0
100
AcDbVertex
100
AcDbPolygonMeshVertex
 10
0.00021
 20
0.3985
 30
3.080275
 70
    64
  0
VERTEX
  5
6C78F
100
AcDbEntity
  8
0
100
AcDbVertex
100
AcDbPolygonMeshVertex
 10
0.00021
 20
0.3985
 30
2.058275
 70
    64
  0
VERTEX
  5
6C790
100
AcDbEntity
  8
0
100
AcDbVertex
100
AcDbPolygonMeshVertex
 10
0.00021
 20
-1.8455
 30
2.058275
 70
    64
  0
VERTEX
  5
6C791
100
AcDbEntity
  8
0
100
AcDbVertex
100
AcDbPolygonMeshVertex
 10
1.76521
 20
0.3985
 30
3.080275
 70
    64
  0
VERTEX
  5
6C792
100
AcDbEntity
  8
0
100
AcDbVertex
100
AcDbPolygonMeshVertex
 10
1.76521
 20
0.3985
 30
2.058275
 70
    64
  0
VERTEX
  5
6C793
100
AcDbEntity
  8
0
100
AcDbVertex
100
AcDbPolygonMeshVertex
 10
1.76521
 20
-1.8455
 30
2.058275
 70
    64
  0
VERTEX
  5
6C794
100
AcDbEntity
  8
0
100
AcDbVertex
100
AcDbPolygonMeshVertex
 10
1.76521
 20
0.3985
 30
3.080275
 70
    64
  0
VERTEX
  5
6C795
100
AcDbEntity
  8
0
100
AcDbVertex
100
AcDbPolygonMeshVertex
 10
1.76521
 20
0.3985
 30
3.080275
 70
    64
  0
VERTEX
  5
6C796
100
AcDbEntity
  8
0
100
AcDbVertex
100
AcDbPolygonMeshVertex
 10
1.76521
 20
-1.8455
 30
3.080275
 70
    64
  0
VERTEX
  5
6C797
100
AcDbEntity
  8
0
100
AcDbVertex
100
AcDbPolygonMeshVertex
 10
0.00021
 20
0.3985
 30
3.080275
 70
    64
  0
VERTEX
  5
6C798
100
AcDbEntity
  8
0
100
AcDbVertex
100
AcDbPolygonMeshVertex
 10
0.00021
 20
0.3985
 30
3.080275
 70
    64
  0
VERTEX
  5
6C799
100
AcDbEntity
  8
0
100
AcDbVertex
100
AcDbPolygonMeshVertex
 10
0.00021
 20
-1.8455
 30
3.080275
 70
    64
  0
SEQEND
  5
6C79A
100
AcDbEntity
  8
0
  0
POLYLINE
  5
6C79B
100
AcDbEntity
  8
0
100
AcDb3dPolyline
 66
     1
 10
0.0
 20
0.0
 30
0.0
 70
     8
  0
VERTEX
  5
6C79C
100
AcDbEntity
  8
0
100
AcDbVertex
100
AcDb3dPolylineVertex
 10
1.765421
 20
-0.6405
 30
1.590275
 70
    32
  0
VERTEX
  5
6C79D
100
AcDbEntity
  8
0
100
AcDbVertex
100
AcDb3dPolylineVertex
 10
1.765421
 20
-0.6405
 30
2.163275
 70
    32
  0
VERTEX
  5
6C79E
100
AcDbEntity
  8
0
100
AcDbVertex
100
AcDb3dPolylineVertex
 10
1.765421
 20
-0.8065
 30
2.163275
 70
    32
  0
VERTEX
  5
6C79F
100
AcDbEntity
  8
0
100
AcDbVertex
100
AcDb3dPolylineVertex
 10
1.765421
 20
-0.8065
 30
1.590275
 70
    32
  0
VERTEX
  5
6C7A0
100
AcDbEntity
  8
0
100
AcDbVertex
100
AcDb3dPolylineVertex
 10
1.765421
 20
-0.6405
 30
1.590275
 70
    32
  0
SEQEND
  5
6C7A1
100
AcDbEntity
  8
0
  0
LINE
  5
6C7A2
100
AcDbEntity
  8
0
100
AcDbLine
 10
1.765421
 20
-0.8065
 30
1.876775
 11
1.765421
 21
-0.6405
 31
1.876775
  0
LINE
  5
6C7A3
100
AcDbEntity
  8
0
100
AcDbLine
 10
1.765421
 20
-0.8065
 30
2.066775
 11
1.765421
 21
-0.6405
 31
2.066775
  0
POINT
  5
6C7A4
100
AcDbEntity
  8
SNAP_POINTS
100
AcDbPoint
 10
0.88521
 20
-0.721986
 30
3.114275
  0
POINT
  5
6C7A5
100
AcDbEntity
  8
SNAP_POINTS
100
AcDbPoint
 10
0.0
 20
-0.7735
 30
2.066775
  0
POINT
  5
6C7A6
100
AcDbEntity
  8
SNAP_POINTS
100
AcDbPoint
 10
1.765421
 20
-0.6735
 30
2.066775
  0
LINE
  5
6C7A7
100
AcDbEntity
  8
0
100
AcDbLine
 10
0.38771
 20
0.9585
 30
1.837275
 11
0.38771
 21
0.9585
 31
1.637275
  0
LINE
  5
6C7A8
100
AcDbEntity
  8
0
100
AcDbLine
 10
0.70471
 20
0.9585
 30
1.637275
 11
0.38771
 21
0.9585
 31
1.637275
  0
POINT
  5
6C7A9
100
AcDbEntity
  8
SNAP_POINTS
100
AcDbPoint
 10
0.70471
 20
0.9585
 30
1.637275
  0
LINE
  5
6C7AA
100
AcDbEntity
  8
0
100
AcDbLine
 10
0.70471
 20
0.9585
 30
1.837275
 11
0.70471
 21
0.9585
 31
1.637275
  0
LINE
  5
6C7AB
100
AcDbEntity
  8
0
100
AcDbLine
 10
1.06571
 20
0.9585
 30
1.637275
 11
1.38271
 21
0.9585
 31
1.637275
  0
LINE
  5
6C7AC
100
AcDbEntity
  8
0
100
AcDbLine
 10
1.38271
 20
0.9585
 30
1.837275
 11
1.38271
 21
0.9585
 31
1.637275
  0
LINE
  5
6C7AD
100
AcDbEntity
  8
0
100
AcDbLine
 10
1.06571
 20
0.9585
 30
1.837275
 11
1.38271
 21
0.9585
 31
1.837275
  0
LINE
  5
6C7AE
100
AcDbEntity
  8
0
100
AcDbLine
 10
1.06571
 20
0.9585
 30
1.837275
 11
1.06571
 21
0.9585
 31
1.637275
  0
LINE
  5
6C7AF
100
AcDbEntity
  8
0
100
AcDbLine
 10
0.70471
 20
0.9585
 30
1.837275
 11
0.38771
 21
0.9585
 31
1.837275
  0
POINT
  5
6C7B0
100
AcDbEntity
  8
DIMS-MTG-HOLES
100
AcDbPoint
 10
0.19121
 20
-1.9345
 30
0.0
  0
POINT
  5
6C7B1
100
AcDbEntity
  8
DIMS-MTG-HOLES
100
AcDbPoint
 10
1.57121
 20
0.4255
 30
0.0
  0
TEXT
  5
6C7B2
100
AcDbEntity
  8
0
100
AcDbText
 10
0.072628
 20
-0.511877
 30
3.080275
 40
0.083465
  1
CF
100
AcDbText
  0
TEXT
  5
6C7B3
100
AcDbEntity
  8
0
100
AcDbText
 10
1.139567
 20
-1.820413
 30
3.080275
 40
0.083465
  1
NC
100
AcDbText
  0
LWPOLYLINE
  5
6C7B4
100
AcDbEntity
  8
0
100
AcDbPolyline
 90
        6
 70
     0
 43
0.0
 38
3.080275
 10
0.258085
 20
0.291451
 10
0.258085
 20
0.174908
 10
0.318085
 20
0.174908
 10
0.318085
 20
0.134908
 10
0.258085
 20
0.134908
 10
0.258085
 20
0.018365
  0
LWPOLYLINE
  5
6C7B5
100
AcDbEntity
  8
0
100
AcDbPolyline
 90
        6
 70
     0
 43
0.0
 38
3.080275
 10
0.218085
 20
0.291451
 10
0.218085
 20
0.174908
 10
0.158085
 20
0.174908
 10
0.158085
 20
0.134908
 10
0.218085
 20
0.134908
 10
0.218085
 20
0.018365
  0
LWPOLYLINE
  5
6C7B6
100
AcDbEntity
  8
0
100
AcDbPolyline
 90
        6
 70
     0
 43
0.0
 38
3.080275
 10
0.647835
 20
0.291451
 10
0.647835
 20
0.174908
 10
0.587835
 20
0.174908
 10
0.587835
 20
0.134908
 10
0.647835
 20
0.134908
 10
0.647835
 20
0.018365
  0
LWPOLYLINE
  5
6C7B7
100
AcDbEntity
  8
0
100
AcDbPolyline
 90
        6
 70
     0
 43
0.0
 38
3.080275
 10
0.687835
 20
0.291451
 10
0.687835
 20
0.174908
 10
0.747835
 20
0.174908
 10
0.747835
 20
0.134908
 10
0.687835
 20
0.134908
 10
0.687835
 20
0.018365
  0
LWPOLYLINE
  5
6C7B8
100
AcDbEntity
  8
0
100
AcDbPolyline
 90
        6
 70
     0
 43
0.0
 38
3.080275
 10
1.077585
 20
0.291451
 10
1.077585
 20
0.174908
 10
1.017585
 20
0.174908
 10
1.017585
 20
0.134908
 10
1.077585
 20
0.134908
 10
1.077585
 20
0.018365
  0
LWPOLYLINE
  5
6C7B9
100
AcDbEntity
  8
0
100
AcDbPolyline
 90
        6
 70
     0
 43
0.0
 38
3.080275
 10
1.117585
 20
0.291451
 10
1.117585
 20
0.174908
 10
1.177585
 20
0.174908
 10
1.177585
 20
0.134908
 10
1.117585
 20
0.134908
 10
1.117585
 20
0.018365
  0
LWPOLYLINE
  5
6C7BA
100
AcDbEntity
  8
0
100
AcDbPolyline
 90
        6
 70
     0
 43
0.0
 38
3.080275
 10
1.547335
 20
0.291451
 10
1.547335
 20
0.174908
 10
1.607335
 20
0.174908
 10
1.607335
 20
0.134908
 10
1.547335
 20
0.134908
 10
1.547335
 20
0.018365
  0
LWPOLYLINE
  5
6C7BB
100
AcDbEntity
  8
0
100
AcDbPolyline
 90
        6
 70
     0
 43
0.0
 38
3.080275
 10
1.507335
 20
0.291451
 10
1.507335
 20
0.174908
 10
1.447335
 20
0.174908
 10
1.447335
 20
0.134908
 10
1.507335
 20
0.134908
 10
1.507335
 20
0.018365
  0
LWPOLYLINE
  5
6C7BC
100
AcDbEntity
  8
0
100
AcDbPolyline
 90
        6
 70
     0
 43
0.0
 38
2.058275
 10
1.24421
 20
0.858322
 10
1.24421
 20
0.76
 10
1.30421
 20
0.76
 10
1.30421
 20
0.72
 10
1.24421
 20
0.72
 10
1.24421
 20
0.621678
  0
LWPOLYLINE
  5
6C7BD
100
AcDbEntity
  8
0
100
AcDbPolyline
 90
        6
 70
     0
 43
0.0
 38
2.058275
 10
1.20421
 20
0.858322
 10
1.20421
 20
0.76
 10
1.14421
 20
0.76
 10
1.14421
 20
0.72
 10
1.20421
 20
0.72
 10
1.20421
 20
0.621678
  0
LWPOLYLINE
  5
6C7BE
100
AcDbEntity
  8
0
100
AcDbPolyline
 90
        6
 70
     0
 43
0.0
 38
2.058275
 10
0.56621
 20
0.858322
 10
0.56621
 20
0.76
 10
0.62621
 20
0.76
 10
0.62621
 20
0.72
 10
0.56621
 20
0.72
 10
0.56621
 20
0.621678
  0
LWPOLYLINE
  5
6C7BF
100
AcDbEntity
  8
0
100
AcDbPolyline
 90
        6
 70
     0
 43
0.0
 38
2.058275
 10
0.52621
 20
0.858322
 10
0.52621
 20
0.76
 10
0.46621
 20
0.76
 10
0.46621
 20
0.72
 10
0.52621
 20
0.72
 10
0.52621
 20
0.621678
  0
LWPOLYLINE
  5
6C7C0
100
AcDbEntity
  8
0
100
AcDbPolyline
 90
        6
 70
     0
 43
0.0
 38
3.080275
 10
0.687835
 20
-1.451337
 10
0.687835
 20
-1.56788
 10
0.747835
 20
-1.56788
 10
0.747835
 20
-1.60788
 10
0.687835
 20
-1.60788
 10
0.687835
 20
-1.724423
  0
LWPOLYLINE
  5
6C7C1
100
AcDbEntity
  8
0
100
AcDbPolyline
 90
        6
 70
     0
 43
0.0
 38
3.080275
 10
0.647835
 20
-1.451337
 10
0.647835
 20
-1.56788
 10
0.587835
 20
-1.56788
 10
0.587835
 20
-1.60788
 10
0.647835
 20
-1.60788
 10
0.647835
 20
-1.724423
  0
CIRCLE
  5
6C7C2
100
AcDbEntity
  8
0
100
AcDbCircle
 10
0.667835
 20
-1.58788
 30
3.080275
 40
0.138
  0
CIRCLE
  5
6C7C3
100
AcDbEntity
  8
0
100
AcDbCircle
 10
1.527335
 20
-1.58788
 30
3.080275
 40
0.138
  0
LWPOLYLINE
  5
6C7C4
100
AcDbEntity
  8
0
100
AcDbPolyline
 90
        6
 70
     0
 43
0.0
 38
3.080275
 10
1.117585
 20
-1.451337
 10
1.117585
 20
-1.56788
 10
1.177585
 20
-1.56788
 10
1.177585
 20
-1.60788
 10
1.117585
 20
-1.60788
 10
1.117585
 20
-1.724423
  0
LWPOLYLINE
  5
6C7C5
100
AcDbEntity
  8
0
100
AcDbPolyline
 90
        6
 70
     0
 43
0.0
 38
3.080275
 10
1.077585
 20
-1.451337
 10
1.077585
 20
-1.56788
 10
1.017585
 20
-1.56788
 10
1.017585
 20
-1.60788
 10
1.077585
 20
-1.60788
 10
1.077585
 20
-1.724423
  0
CIRCLE
  5
6C7C6
100
AcDbEntity
  8
0
100
AcDbCircle
 10
1.097585
 20
-1.58788
 30
3.080275
 40
0.138
  0
LWPOLYLINE
  5
6C7C7
100
AcDbEntity
  8
0
100
AcDbPolyline
 90
        6
 70
     0
 43
0.0
 38
3.080275
 10
1.507335
 20
-1.451337
 10
1.507335
 20
-1.56788
 10
1.447335
 20
-1.56788
 10
1.447335
 20
-1.60788
 10
1.507335
 20
-1.60788
 10
1.507335
 20
-1.724423
  0
LWPOLYLINE
  5
6C7C8
100
AcDbEntity
  8
0
100
AcDbPolyline
 90
        6
 70
     0
 43
0.0
 38
3.080275
 10
1.547335
 20
-1.451337
 10
1.547335
 20
-1.56788
 10
1.607335
 20
-1.56788
 10
1.607335
 20
-1.60788
 10
1.547335
 20
-1.60788
 10
1.547335
 20
-1.724423
  0
LWPOLYLINE
  5
6C7C9
100
AcDbEntity
  8
0
100
AcDbPolyline
 90
        6
 70
     0
 43
0.0
 38
3.080275
 10
0.258085
 20
-1.451337
 10
0.258085
 20
-1.56788
 10
0.318085
 20
-1.56788
 10
0.318085
 20
-1.60788
 10
0.258085
 20
-1.60788
 10
0.258085
 20
-1.724423
  0
LWPOLYLINE
  5
6C7CA
100
AcDbEntity
  8
0
100
AcDbPolyline
 90
        6
 70
     0
 43
0.0
 38
3.080275
 10
0.218085
 20
-1.451337
 10
0.218085
 20
-1.56788
 10
0.158085
 20
-1.56788
 10
0.158085
 20
-1.60788
 10
0.218085
 20
-1.60788
 10
0.218085
 20
-1.724423
  0
DIMENSION
  5
6C7CB
100
AcDbEntity
  8
AREA1
100
AcDbDimension
  2
*D1
 10
-0.445129
 20
-2.2215
 30
0.0
 11
-0.445129
 21
-0.61819
 31
0.0
 70
   160
  3
ABECAD_3D
100
AcDbAlignedDimension
 13
0.33271
 23
0.9585
 33
1.384275
 14
0.69971
 24
-2.2215
 34
1.384275
 50
90.0
100
AcDbRotatedDimension
  0
DIMENSION
  5
6C7D9
100
AcDbEntity
  8
AREA1
100
AcDbDimension
  2
*D2
 10
1.76521
 20
1.294721
 30
0.0
 11
0.876534
 21
1.504524
 31
0.0
 70
   160
  3
ABECAD_3D
100
AcDbAlignedDimension
 13
0.00021
 23
0.5385
 33
2.058275
 14
1.76521
 24
0.5745
 34
0.0
100
AcDbRotatedDimension
  0
LWPOLYLINE
  5
6C7FE
100
AcDbEntity
  8
SCALE
100
AcDbPolyline
 90
        4
 70
     1
 43
0.0
 10
0.324456
 20
-2.311459
 10
1.460085
 20
-2.311459
 10
1.460085
 20
-3.153069
 10
0.324456
 20
-3.153069
  0
LINE
  5
6C7FF
100
AcDbEntity
  8
SCALE
100
AcDbLine
 10
0.382455
 20
-2.691538
 30
0.0
 11
1.382455
 21
-2.691538
 31
0.0
  0
LINE
  5
6C800
100
AcDbEntity
  8
SCALE
100
AcDbLine
 10
0.382455
 20
-2.991538
 30
0.0
 11
0.776155
 21
-2.991538
 31
0.0
  0
LINE
  5
6C801
100
AcDbEntity
  8
SCALE
100
AcDbLine
 10
0.382455
 20
-2.791538
 30
0.0
 11
0.382455
 21
-2.591538
 31
0.0
  0
TEXT
  5
6C802
100
AcDbEntity
  8
SCALE
100
AcDbText
 10
0.438431
 20
-2.943853
 30
0.0
 40
0.0625
  1
[10mm]
100
AcDbText
  0
LINE
  5
6C803
100
AcDbEntity
  8
SCALE
100
AcDbLine
 10
0.382455
 20
-3.091538
 30
0.0
 11
0.382455
 21
-2.891538
 31
0.0
  0
TEXT
  5
6C804
100
AcDbEntity
  8
SCALE
100
AcDbText
 10
0.383985
 20
-2.416661
 30
0.0
 40
0.0625
  1
SCALE:
100
AcDbText
  0
LINE
  5
6C805
100
AcDbEntity
  8
SCALE
100
AcDbLine
 10
0.776155
 20
-3.091538
 30
0.0
 11
0.776155
 21
-2.891538
 31
0.0
  0
TEXT
  5
6C806
100
AcDbEntity
  8
SCALE
100
AcDbText
 10
0.745738
 20
-2.622489
 30
0.0
 40
0.0625
  1
1 Inch
100
AcDbText
  0
LINE
  5
6C807
100
AcDbEntity
  8
SCALE
100
AcDbLine
 10
1.382455
 20
-2.691538
 30
0.0
 11
1.382455
 21
-2.791538
 31
0.0
  0
LINE
  5
6C808
100
AcDbEntity
  8
SCALE
100
AcDbLine
 10
1.382455
 20
-2.791538
 30
0.0
 11
1.382455
 21
-2.591538
 31
0.0
  0
VIEWPORT
  5
5677D
102
{ACAD_XDICTIONARY
360
6C8A1
102
}
100
AcDbEntity
 67
     1
  8
0
100
AcDbViewport
 10
5.25
 20
4.0
 30
0.0
 40
16.386862
 41
8.993
 68
    -1
 69
     1
1001
ACAD
1000
MVIEW
1002
{
1070
    16
1010
0.0
1020
0.0
1030
0.0
1010
0.0
1020
0.0
1030
1.0
1040
0.0
1040
8.993
1040
5.25
1040
4.0
1040
50.0
1040
0.0
1040
0.0
1070
     0
1070
 20000
1070
     1
1070
     1
1070
     0
1070
     0
1070
     0
1070
     0
1040
0.0
1040
0.0
1040
0.0
1040
0.5
1040
0.5
1040
0.5
1040
0.5
1070
     0
1002
{
1002
}
1002
}
  0
VIEWPORT
  5
5677F
102
{ACAD_XDICTIONARY
360
6C8A3
102
}
100
AcDbEntity
 67
     1
  8
AREA1
100
AcDbViewport
 10
5.25
 20
4.0
 30
0.0
 40
8.4
 41
6.4
 68
     1
 69
     2
1001
ACAD
1000
MVIEW
1002
{
1070
    16
1010
0.563444
1020
-0.880137
1030
1.686493
1010
0.0
1020
0.0
1030
1.0
1040
0.0
1040
4.582914
1040
-1.017175
1040
0.747813
1040
50.0
1040
0.0
1040
0.0
1070
     0
1070
 20000
1070
     1
1070
     1
1070
     0
1070
     0
1070
     0
1070
     0
1040
0.0
1040
0.0
1040
0.0
1040
0.25
1040
0.25
1040
0.25
1040
0.25
1070
     0
1002
{
1002
}
1002
}
  0
ENDSEC
  0
SECTION
  2
OBJECTS
  0
DICTIONARY
  5
458CB
100
AcDbDictionary
  3
ACAD_GROUP
350
458CC
  3
ACAD_LAYOUT
350
458FB
  3
ACAD_MLINESTYLE
350
458D9
  3
ACAD_PLOTSETTINGS
350
458FC
  3
ACAD_PLOTSTYLENAME
350
458F9
  3
ACDBHEADERROUNDTRIPXREC
350
6C878
  3
ACDBVARIABLEDICTIONARY
350
458E1
  3
DWGPROPS
350
45901
  0
DICTIONARY
  5
6C876
100
AcDbDictionary
280
     1
  3
ACAD_XREC_ROUNDTRIP
360
6C877
  0
DICTIONARY
  5
6C89F
100
AcDbDictionary
280
     1
  3
ACAD_XREC_ROUNDTRIP
360
6C8A0
  0
DICTIONARY
  5
6C874
100
AcDbDictionary
280
     1
  3
ACAD_XREC_ROUNDTRIP
360
6C875
  0
DICTIONARY
  5
6C89B
100
AcDbDictionary
280
     1
  3
ACAD_XREC_ROUNDTRIP
360
6C89C
  0
DICTIONARY
  5
4592C
100
AcDbDictionary
280
     1
  3
ACAD_LAYOUTSELFREF
360
6C89A
  0
DICTIONARY
  5
4592A
100
AcDbDictionary
280
     1
  3
ACAD_LAYOUTSELFREF
360
6C899
  0
DICTIONARY
  5
6C8A1
100
AcDbDictionary
280
     1
  3
ACAD_XREC_ROUNDTRIP
360
6C8A2
  0
DICTIONARY
  5
6C8A3
100
AcDbDictionary
280
     1
  3
ACAD_XREC_ROUNDTRIP
360
6C8A4
  0
DICTIONARY
  5
458CC
102
{ACAD_REACTORS
330
458CB
102
}
100
AcDbDictionary
  0
DICTIONARY
  5
458FB
102
{ACAD_XDICTIONARY
360
6C89D
102
}
102
{ACAD_REACTORS
330
458CB
102
}
100
AcDbDictionary
  3
LAYOUT1
350
458FE
  3
MODEL
350
458FD
  0
DICTIONARY
  5
458D9
102
{ACAD_REACTORS
330
458CB
102
}
100
AcDbDictionary
  3
STANDARD
350
458DA
  0
DICTIONARY
  5
458FC
102
{ACAD_REACTORS
330
458CB
102
}
100
AcDbDictionary
  0
ACAD_PROXY_OBJECT
  5
458F9
102
{ACAD_REACTORS
330
458CB
102
}
100
AcDbProxyObject
 90
      499
 91
      501
 93
       86
310
405010041939BDC9B585B1
350
458FA
340
458FA
 94
        0
  0
DICTIONARY
  5
6C878
102
{ACAD_REACTORS
330
458CB
102
}
100
AcDbDictionary
  3
CEPSNTYPE
350
6C882
  3
DIMSTYLEDATA
350
6C886
  3
FINGERPRINTGUID
350
6C883
  3
HYPERLINKBASE
350
6C87B
  3
INSUNITS
350
6C881
  3
LAYOUTDICT
350
6C87D
  3
LWETCUNION
350
6C880
  3
PLOTSETDICT
350
6C87E
  3
PLOTSTYLNAMDICT
350
6C87F
  3
PSVPSCALE
350
6C885
  3
PUCSBASE
350
6C889
  3
PUCSORGBACK
350
6C88F
  3
PUCSORGBOTTOM
350
6C88B
  3
PUCSORGFRONT
350
6C88E
  3
PUCSORGLEFT
350
6C88C
  3
PUCSORGRIGHT
350
6C88D
  3
PUCSORGTOP
350
6C88A
  3
PUCSORTHOREF
350
6C887
  3
PUCSORTHOVIEW
350
6C888
  3
STYLESHEET
350
6C87C
  3
TSTACKALIGN
350
6C879
  3
TSTACKSIZE
350
6C87A
  3
UCSBASE
350
6C892
  3
UCSORGBACK
350
6C898
  3
UCSORGBOTTOM
350
6C894
  3
UCSORGFRONT
350
6C897
  3
UCSORGLEFT
350
6C895
  3
UCSORGRIGHT
350
6C896
  3
UCSORGTOP
350
6C893
  3
UCSORTHOREF
350
6C890
  3
UCSORTHOVIEW
350
6C891
  3
VERSIONGUID
350
6C884
  0
DICTIONARY
  5
458E1
102
{ACAD_REACTORS
330
458CB
102
}
100
AcDbDictionary
  3
DIMADEC
350
458E2
  0
XRECORD
  5
45901
102
{ACAD_REACTORS
330
458CB
102
}
100
AcDbXrecord
  1
DWGPROPS COOKIE
  2

  3

  4

  6

  7

  8
colin
  9

300
=
301
=
302
=
303
=
304
=
305
=
306
=
307
=
308
=
309
=
 40
0.000599
 41
2451670.444777
 42
2451670.445376
  1

 90
        0
  0
XRECORD
  5
6C877
102
{ACAD_REACTORS
330
6C876
102
}
100
AcDbXrecord
102
EXTNAMES
  1
*ACTIVE
  2
*Active
102
UCS
 74
     0
 71
     1
 10
0.0
 20
0.0
 30
0.0
 10
1.0
 20
0.0
 30
0.0
 10
0.0
 20
1.0
 30
0.0
146
0.0
 79
     1
102
VIEW
281
     1
  0
XRECORD
  5
6C8A0
102
{ACAD_REACTORS
330
6C89F
102
}
100
AcDbXrecord
102
PLOTBIT
280
     0
  0
XRECORD
  5
6C875
102
{ACAD_REACTORS
330
6C874
102
}
100
AcDbXrecord
102
EXTNAMES
  1
DEFPOINTS
  2
Defpoints
102
PLOTBIT
280
     0
  0
XRECORD
  5
6C89C
102
{ACAD_REACTORS
330
6C89B
102
}
100
AcDbXrecord
102
ACADR14ROUNDTRIP
1000
DSTYLE
1002
{
1070
   276
 70
     2
1070
   277
 70
     5
1070
   279
 70
     2
1070
   289
 70
     2
1002
}
  0
XRECORD
  5
6C89A
102
{ACAD_REACTORS
330
4592C
102
}
100
AcDbXrecord
340
458D6
  0
XRECORD
  5
6C899
102
{ACAD_REACTORS
330
4592A
102
}
100
AcDbXrecord
340
458D3
  0
XRECORD
  5
6C8A2
102
{ACAD_REACTORS
330
6C8A1
102
}
100
AcDbXrecord
102
UCS
 74
     0
 71
     1
 10
0.0
 20
0.0
 30
0.0
 10
1.0
 20
0.0
 30
0.0
 10
0.0
 20
1.0
 30
0.0
146
0.0
 79
     0
102
VIEW
281
     0
102
NEWVIEWCONTROL
280
     4
  0
XRECORD
  5
6C8A4
102
{ACAD_REACTORS
330
6C8A3
102
}
100
AcDbXrecord
102
UCS
 74
     0
 71
     1
 10
0.0
 20
0.0
 30
0.0
 10
1.0
 20
0.0
 30
0.0
 10
0.0
 20
1.0
 30
0.0
146
0.0
 79
     1
102
VIEW
281
     1
102
NEWVIEWCONTROL
280
     4
  0
DICTIONARY
  5
6C89D
100
AcDbDictionary
280
     1
  3
ACAD_XREC_ROUNDTRIP
360
6C89E
  0
ACAD_PROXY_OBJECT
  5
458FE
102
{ACAD_REACTORS
330
458FB
102
}
100
AcDbProxyObject
 90
      499
 91
      503
 93
     1700
310
90B6E6F6E655F6465766963652C0080000006066661940000000181999865000000000068661940000000001A1986500000000C0CCFC6A4000000018199D9C5011C4C65747465725F28382E35305F785F31312E30305F496E6368657329A901416AA547D11959985D5B1D08148C4D081C195B88185CDCDA59DB9B595B9D1CC
310
B98DD1891069074C61796F75743140501A840201008040342FEFF7FBFDFFFFF3EFDFAFF7FBFFDFC9501008043E3FDFC8102A6A6A0000003033333C0FC000000809999E93F8FFFFFF5766E622403FFFFFEBF333071020
330
458D3
330
5677D
340
0
340
0
 94
        0
  0
ACAD_PROXY_OBJECT
  5
458FD
102
{ACAD_REACTORS
330
458FB
102
}
100
AcDbProxyObject
 90
      499
 91
      503
 93
      924
310
91D4850204C617365724A65742035303030205365726965732050434C20362C01AAAAAAAAA547D11959985D5B1D08148C4D081C195B88185CDCDA59DB9B595B9D1CCB98DD18A69054D6F64656C901A800000000000000000000000000000000000000000000A1000000000000008902A6A6AAAA5
330
458D6
330
0
340
0
340
0
 94
        0
  0
MLINESTYLE
  5
458DA
102
{ACAD_REACTORS
330
458D9
102
}
100
AcDbMlineStyle
  2
STANDARD
 70
     0
  3

 62
   256
 51
90.0
 52
90.0
 71
     2
 49
0.5
 62
   256
  6
BYLAYER
 49
-0.5
 62
   256
  6
BYLAYER
  0
ACAD_PROXY_OBJECT
  5
458FA
102
{ACAD_REACTORS
330
458F9
102
}
100
AcDbProxyObject
 90
      499
 91
      502
 93
        0
 94
        0
  0
XRECORD
  5
6C882
102
{ACAD_REACTORS
330
6C878
102
}
100
AcDbXrecord
 90
        0
  0
XRECORD
  5
6C886
102
{ACAD_REACTORS
330
6C878
102
}
100
AcDbXrecord
1000
DSTYLE
1002
{
1070
   276
 70
     2
1070
   277
 70
     5
1070
   279
 70
     2
1070
   289
 70
     2
1002
}
  0
XRECORD
  5
6C883
102
{ACAD_REACTORS
330
6C878
102
}
100
AcDbXrecord
  1
{6E0CF4B8-225E-11D4-A150-00A0CC3303EC}
  0
XRECORD
  5
6C87B
102
{ACAD_REACTORS
330
6C878
102
}
100
AcDbXrecord
  1

  0
XRECORD
  5
6C881
102
{ACAD_REACTORS
330
6C878
102
}
100
AcDbXrecord
 90
        0
  0
XRECORD
  5
6C87D
102
{ACAD_REACTORS
330
6C878
102
}
100
AcDbXrecord
340
458FB
  0
XRECORD
  5
6C880
102
{ACAD_REACTORS
330
6C878
102
}
100
AcDbXrecord
 90
    14877
  0
XRECORD
  5
6C87E
102
{ACAD_REACTORS
330
6C878
102
}
100
AcDbXrecord
340
458FC
  0
XRECORD
  5
6C87F
102
{ACAD_REACTORS
330
6C878
102
}
100
AcDbXrecord
340
458F9
  0
XRECORD
  5
6C885
102
{ACAD_REACTORS
330
6C878
102
}
100
AcDbXrecord
 40
0.0
  0
XRECORD
  5
6C889
102
{ACAD_REACTORS
330
6C878
102
}
100
AcDbXrecord
340
0
  0
XRECORD
  5
6C88F
102
{ACAD_REACTORS
330
6C878
102
}
100
AcDbXrecord
 10
0.0
 20
0.0
 30
0.0
  0
XRECORD
  5
6C88B
102
{ACAD_REACTORS
330
6C878
102
}
100
AcDbXrecord
 10
0.0
 20
0.0
 30
0.0
  0
XRECORD
  5
6C88E
102
{ACAD_REACTORS
330
6C878
102
}
100
AcDbXrecord
 10
0.0
 20
0.0
 30
0.0
  0
XRECORD
  5
6C88C
102
{ACAD_REACTORS
330
6C878
102
}
100
AcDbXrecord
 10
0.0
 20
0.0
 30
0.0
  0
XRECORD
  5
6C88D
102
{ACAD_REACTORS
330
6C878
102
}
100
AcDbXrecord
 10
0.0
 20
0.0
 30
0.0
  0
XRECORD
  5
6C88A
102
{ACAD_REACTORS
330
6C878
102
}
100
AcDbXrecord
 10
0.0
 20
0.0
 30
0.0
  0
XRECORD
  5
6C887
102
{ACAD_REACTORS
330
6C878
102
}
100
AcDbXrecord
340
0
  0
XRECORD
  5
6C888
102
{ACAD_REACTORS
330
6C878
102
}
100
AcDbXrecord
 70
     0
  0
XRECORD
  5
6C87C
102
{ACAD_REACTORS
330
6C878
102
}
100
AcDbXrecord
  1

  0
XRECORD
  5
6C879
102
{ACAD_REACTORS
330
6C878
102
}
100
AcDbXrecord
 90
        1
  0
XRECORD
  5
6C87A
102
{ACAD_REACTORS
330
6C878
102
}
100
AcDbXrecord
 90
       70
  0
XRECORD
  5
6C892
102
{ACAD_REACTORS
330
6C878
102
}
100
AcDbXrecord
340
0
  0
XRECORD
  5
6C898
102
{ACAD_REACTORS
330
6C878
102
}
100
AcDbXrecord
 10
0.0
 20
0.0
 30
0.0
  0
XRECORD
  5
6C894
102
{ACAD_REACTORS
330
6C878
102
}
100
AcDbXrecord
 10
0.0
 20
0.0
 30
0.0
  0
XRECORD
  5
6C897
102
{ACAD_REACTORS
330
6C878
102
}
100
AcDbXrecord
 10
0.0
 20
0.0
 30
0.0
  0
XRECORD
  5
6C895
102
{ACAD_REACTORS
330
6C878
102
}
100
AcDbXrecord
 10
0.0
 20
0.0
 30
0.0
  0
XRECORD
  5
6C896
102
{ACAD_REACTORS
330
6C878
102
}
100
AcDbXrecord
 10
0.0
 20
0.0
 30
0.0
  0
XRECORD
  5
6C893
102
{ACAD_REACTORS
330
6C878
102
}
100
AcDbXrecord
 10
0.0
 20
0.0
 30
0.0
  0
XRECORD
  5
6C890
102
{ACAD_REACTORS
330
6C878
102
}
100
AcDbXrecord
340
0
  0
XRECORD
  5
6C891
102
{ACAD_REACTORS
330
6C878
102
}
100
AcDbXrecord
 70
     1
  0
XRECORD
  5
6C884
102
{ACAD_REACTORS
330
6C878
102
}
100
AcDbXrecord
  1
{B3433EFD-BC4E-4346-A3C1-5E55F4316F69}
  0
DICTIONARYVAR
  5
458E2
102
{ACAD_REACTORS
330
458E1
102
}
100
DictionaryVariables
280
     0
  1
0
  0
XRECORD
  5
6C89E
102
{ACAD_REACTORS
330
6C89D
102
}
100
AcDbXrecord
102
EXTNAMES
  1
LAYOUT1
  2
Layout1
  1
MODEL
  2
Model
  0
ENDSEC
  0
EOF
