  0
SECTION
  2
HEADER
  9
$ACADVER
  1
AC1014
  9
$ACADMAINTVER
 70
     8
  9
$DWGCODEPAGE
  3
ANSI_1252
  9
$INSBASE
 10
0.0
 20
0.0
 30
0.0
  9
$EXTMIN
 10
-4.300074
 20
-10.039497
 30
0.0
  9
$EXTMAX
 10
7.126983
 20
1.104966
 30
4.747
  9
$LIMMIN
 10
0.0
 20
0.0
  9
$LIMMAX
 10
12.0
 20
9.0
  9
$ORTHOMODE
 70
     0
  9
$REGENMODE
 70
     1
  9
$FILLMODE
 70
     1
  9
$QTEXTMODE
 70
     0
  9
$MIRRTEXT
 70
     1
  9
$DRAGMODE
 70
     2
  9
$LTSCALE
 40
1.0
  9
$OSMODE
 70
    37
  9
$ATTMODE
 70
     1
  9
$TEXTSIZE
 40
0.12
  9
$TRACEWID
 40
0.05
  9
$TEXTSTYLE
  7
STANDARD
  9
$CLAYER
  8
0
  9
$CELTYPE
  6
BYLAYER
  9
$CECOLOR
 62
   256
  9
$CELTSCALE
 40
1.0
  9
$DELOBJ
 70
     1
  9
$DISPSILH
 70
     0
  9
$DIMSCALE
 40
1.0
  9
$DIMASZ
 40
0.25
  9
$DIMEXO
 40
0.0625
  9
$DIMDLI
 40
0.375
  9
$DIMRND
 40
0.0
  9
$DIMDLE
 40
0.0
  9
$DIMEXE
 40
0.1
  9
$DIMTP
 40
0.0
  9
$DIMTM
 40
0.0
  9
$DIMTXT
 40
0.25
  9
$DIMCEN
 40
0.09
  9
$DIMTSZ
 40
0.0
  9
$DIMTOL
 70
     0
  9
$DIMLIM
 70
     0
  9
$DIMTIH
 70
     0
  9
$DIMTOH
 70
     1
  9
$DIMSE1
 70
     0
  9
$DIMSE2
 70
     0
  9
$DIMTAD
 70
     0
  9
$DIMZIN
 70
     4
  9
$DIMBLK
  1

  9
$DIMASO
 70
     1
  9
$DIMSHO
 70
     1
  9
$DIMPOST
  1

  9
$DIMAPOST
  1

  9
$DIMALT
 70
     1
  9
$DIMALTD
 70
     2
  9
$DIMALTF
 40
25.4
  9
$DIMLFAC
 40
1.0
  9
$DIMTOFL
 70
     0
  9
$DIMTVP
 40
0.0
  9
$DIMTIX
 70
     0
  9
$DIMSOXD
 70
     0
  9
$DIMSAH
 70
     0
  9
$DIMBLK1
  1

  9
$DIMBLK2
  1

  9
$DIMSTYLE
  2
ABECAD_3D
  9
$DIMCLRD
 70
     0
  9
$DIMCLRE
 70
     0
  9
$DIMCLRT
 70
     0
  9
$DIMTFAC
 40
1.5
  9
$DIMGAP
 40
0.09
  9
$DIMJUST
 70
     0
  9
$DIMSD1
 70
     0
  9
$DIMSD2
 70
     0
  9
$DIMTOLJ
 70
     1
  9
$DIMTZIN
 70
     4
  9
$DIMALTZ
 70
     4
  9
$DIMALTTZ
 70
     4
  9
$DIMFIT
 70
     5
  9
$DIMUPT
 70
     1
  9
$DIMUNIT
 70
     7
  9
$DIMDEC
 70
     6
  9
$DIMTDEC
 70
     6
  9
$DIMALTU
 70
     2
  9
$DIMALTTD
 70
     2
  9
$DIMTXSTY
  7
STANDARD
  9
$DIMAUNIT
 70
     0
  9
$LUNITS
 70
     2
  9
$LUPREC
 70
     4
  9
$SKETCHINC
 40
0.1
  9
$FILLETRAD
 40
0.0
  9
$AUNITS
 70
     0
  9
$AUPREC
 70
     0
  9
$MENU
  1
ACAD
  9
$ELEVATION
 40
0.0
  9
$PELEVATION
 40
0.0
  9
$THICKNESS
 40
0.0
  9
$LIMCHECK
 70
     0
  9
$BLIPMODE
 70
     0
  9
$CHAMFERA
 40
0.0
  9
$CHAMFERB
 40
0.0
  9
$CHAMFERC
 40
0.0
  9
$CHAMFERD
 40
0.0
  9
$SKPOLY
 70
     0
  9
$TDCREATE
 40
2451726.438389120
  9
$TDUPDATE
 40
2452010.490569791
  9
$TDINDWG
 40
0.9754311343
  9
$TDUSRTIMER
 40
0.9754311343
  9
$USRTIMER
 70
     1
  9
$ANGBASE
 50
0.0
  9
$ANGDIR
 70
     0
  9
$PDMODE
 70
     3
  9
$PDSIZE
 40
0.09
  9
$PLINEWID
 40
0.0
  9
$COORDS
 70
     1
  9
$SPLFRAME
 70
     1
  9
$SPLINETYPE
 70
     6
  9
$SPLINESEGS
 70
     8
  9
$ATTDIA
 70
     0
  9
$ATTREQ
 70
     1
  9
$HANDLING
 70
     1
  9
$HANDSEED
  5
79755
  9
$SURFTAB1
 70
     6
  9
$SURFTAB2
 70
     6
  9
$SURFTYPE
 70
     6
  9
$SURFU
 70
     6
  9
$SURFV
 70
     6
  9
$UCSNAME
  2

  9
$UCSORG
 10
0.0
 20
0.0
 30
0.0
  9
$UCSXDIR
 10
1.0
 20
0.0
 30
0.0
  9
$UCSYDIR
 10
0.0
 20
1.0
 30
0.0
  9
$PUCSNAME
  2

  9
$PUCSORG
 10
0.0
 20
0.0
 30
0.0
  9
$PUCSXDIR
 10
1.0
 20
0.0
 30
0.0
  9
$PUCSYDIR
 10
0.0
 20
1.0
 30
0.0
  9
$USERI1
 70
     0
  9
$USERI2
 70
     0
  9
$USERI3
 70
     0
  9
$USERI4
 70
     0
  9
$USERI5
 70
     0
  9
$USERR1
 40
0.0
  9
$USERR2
 40
0.0
  9
$USERR3
 40
0.0
  9
$USERR4
 40
0.0
  9
$USERR5
 40
0.0
  9
$WORLDVIEW
 70
     1
  9
$SHADEDGE
 70
     3
  9
$SHADEDIF
 70
    70
  9
$TILEMODE
 70
     1
  9
$MAXACTVP
 70
    16
  9
$PINSBASE
 10
0.0
 20
0.0
 30
0.0
  9
$PLIMCHECK
 70
     0
  9
$PEXTMIN
 10
1.05
 20
0.8
 30
0.0
  9
$PEXTMAX
 10
9.45
 20
7.2
 30
0.0
  9
$PLIMMIN
 10
-0.25
 20
-0.25
  9
$PLIMMAX
 10
10.75
 20
8.25
  9
$UNITMODE
 70
     0
  9
$VISRETAIN
 70
     0
  9
$PLINEGEN
 70
     0
  9
$PSLTSCALE
 70
     1
  9
$TREEDEPTH
 70
  3020
  9
$PICKSTYLE
 70
     1
  9
$CMLSTYLE
  2
STANDARD
  9
$CMLJUST
 70
     0
  9
$CMLSCALE
 40
1.0
  9
$PROXYGRAPHICS
 70
     1
  9
$MEASUREMENT
 70
     0
  0
ENDSEC
  0
SECTION
  2
CLASSES
  0
CLASS
  1
DICTIONARYVAR
  2
AcDbDictionaryVar
  3
"AutoCAD"
 90
        0
280
     0
281
     0
  0
CLASS
  1
ACDBDICTIONARYWDFLT
  2
AcDbDictionaryWithDefault
  3
AutoCAD 2000
 90
        0
280
     0
281
     0
  0
CLASS
  1
ACDBPLACEHOLDER
  2
AcDbPlaceHolder
  3
AutoCAD 2000
 90
        0
280
     0
281
     0
  0
CLASS
  1
LAYOUT
  2
AcDbLayout
  3
AutoCAD 2000
 90
        0
280
     0
281
     0
  0
CLASS
  1
LONG_TRANSACTION
  2
AcDbLongTransaction
  3
AutoCAD 2000
 90
        0
280
     0
281
     0
  0
CLASS
  1
LWPOLYLINE
  2
AcDbPolyline
  3
"AutoCAD"
 90
        0
280
     0
281
     1
  0
CLASS
  1
HATCH
  2
AcDbHatch
  3
"ACAD_SEDONA"
 90
        0
280
     0
281
     1
  0
CLASS
  1
XRECORD
  2
AcDbXrecord
  3
"<Built In>"
 90
        0
280
     0
281
     0
  0
CLASS
  1
LONG_TRANSACTION
  2
AcDbLongTransaction
  3
AutoCAD 2000
 90
        0
280
     0
281
     0
  0
CLASS
  1
LWPOLYLINE
  2
AcDbPolyline
  3
"AutoCAD"
 90
        0
280
     0
281
     1
  0
CLASS
  1
HATCH
  2
AcDbHatch
  3
"ACAD_SEDONA"
 90
        0
280
     0
281
     1
  0
CLASS
  1
XRECORD
  2
AcDbXrecord
  3
"<Built In>"
 90
        0
280
     0
281
     0
  0
CLASS
  1
LONG_TRANSACTION
  2
AcDbLongTransaction
  3
AutoCAD 2000
 90
        0
280
     0
281
     0
  0
CLASS
  1
LWPOLYLINE
  2
AcDbPolyline
  3
"AutoCAD"
 90
        0
280
     0
281
     1
  0
CLASS
  1
HATCH
  2
AcDbHatch
  3
"ACAD_SEDONA"
 90
        0
280
     0
281
     1
  0
CLASS
  1
XRECORD
  2
AcDbXrecord
  3
"<Built In>"
 90
        0
280
     0
281
     0
  0
CLASS
  1
LONG_TRANSACTION
  2
AcDbLongTransaction
  3
AutoCAD 2000
 90
        0
280
     0
281
     0
  0
CLASS
  1
LWPOLYLINE
  2
AcDbPolyline
  3
"AutoCAD"
 90
        0
280
     0
281
     1
  0
CLASS
  1
HATCH
  2
AcDbHatch
  3
"ACAD_SEDONA"
 90
        0
280
     0
281
     1
  0
CLASS
  1
XRECORD
  2
AcDbXrecord
  3
"<Built In>"
 90
        0
280
     0
281
     0
  0
CLASS
  1
LONG_TRANSACTION
  2
AcDbLongTransaction
  3
AutoCAD 2000
 90
        0
280
     0
281
     0
  0
CLASS
  1
LWPOLYLINE
  2
AcDbPolyline
  3
"AutoCAD"
 90
        0
280
     0
281
     1
  0
CLASS
  1
HATCH
  2
AcDbHatch
  3
"ACAD_SEDONA"
 90
        0
280
     0
281
     1
  0
CLASS
  1
XRECORD
  2
AcDbXrecord
  3
"<Built In>"
 90
        0
280
     0
281
     0
  0
CLASS
  1
LONG_TRANSACTION
  2
AcDbLongTransaction
  3
AutoCAD 2000
 90
        0
280
     0
281
     0
  0
CLASS
  1
LWPOLYLINE
  2
AcDbPolyline
  3
"AutoCAD"
 90
        0
280
     0
281
     1
  0
CLASS
  1
HATCH
  2
AcDbHatch
  3
"ACAD_SEDONA"
 90
        0
280
     0
281
     1
  0
CLASS
  1
XRECORD
  2
AcDbXrecord
  3
"<Built In>"
 90
        0
280
     0
281
     0
  0
CLASS
  1
LONG_TRANSACTION
  2
AcDbLongTransaction
  3
AutoCAD 2000
 90
        0
280
     0
281
     0
  0
CLASS
  1
LWPOLYLINE
  2
AcDbPolyline
  3
"AutoCAD"
 90
        0
280
     0
281
     1
  0
CLASS
  1
HATCH
  2
AcDbHatch
  3
"ACAD_SEDONA"
 90
        0
280
     0
281
     1
  0
CLASS
  1
XRECORD
  2
AcDbXrecord
  3
"<Built In>"
 90
        0
280
     0
281
     0
  0
CLASS
  1
LONG_TRANSACTION
  2
AcDbLongTransaction
  3
AutoCAD 2000
 90
        0
280
     0
281
     0
  0
CLASS
  1
LWPOLYLINE
  2
AcDbPolyline
  3
"AutoCAD"
 90
        0
280
     0
281
     1
  0
CLASS
  1
HATCH
  2
AcDbHatch
  3
"ACAD_SEDONA"
 90
        0
280
     0
281
     1
  0
CLASS
  1
XRECORD
  2
AcDbXrecord
  3
"<Built In>"
 90
        0
280
     0
281
     0
  0
CLASS
  1
LONG_TRANSACTION
  2
AcDbLongTransaction
  3
AutoCAD 2000
 90
        0
280
     0
281
     0
  0
CLASS
  1
LWPOLYLINE
  2
AcDbPolyline
  3
"AutoCAD"
 90
        0
280
     0
281
     1
  0
CLASS
  1
HATCH
  2
AcDbHatch
  3
"ACAD_SEDONA"
 90
        0
280
     0
281
     1
  0
CLASS
  1
XRECORD
  2
AcDbXrecord
  3
"<Built In>"
 90
        0
280
     0
281
     0
  0
CLASS
  1
LONG_TRANSACTION
  2
AcDbLongTransaction
  3
AutoCAD 2000
 90
        0
280
     0
281
     0
  0
CLASS
  1
LWPOLYLINE
  2
AcDbPolyline
  3
"AutoCAD"
 90
        0
280
     0
281
     1
  0
CLASS
  1
HATCH
  2
AcDbHatch
  3
"ACAD_SEDONA"
 90
        0
280
     0
281
     1
  0
CLASS
  1
XRECORD
  2
AcDbXrecord
  3
"<Built In>"
 90
        0
280
     0
281
     0
  0
CLASS
  1
LONG_TRANSACTION
  2
AcDbLongTransaction
  3
AutoCAD 2000
 90
        0
280
     0
281
     0
  0
CLASS
  1
LWPOLYLINE
  2
AcDbPolyline
  3
"AutoCAD"
 90
        0
280
     0
281
     1
  0
CLASS
  1
HATCH
  2
AcDbHatch
  3
"ACAD_SEDONA"
 90
        0
280
     0
281
     1
  0
CLASS
  1
XRECORD
  2
AcDbXrecord
  3
"<Built In>"
 90
        0
280
     0
281
     0
  0
CLASS
  1
LONG_TRANSACTION
  2
AcDbLongTransaction
  3
AutoCAD 2000
 90
        0
280
     0
281
     0
  0
CLASS
  1
LWPOLYLINE
  2
AcDbPolyline
  3
"AutoCAD"
 90
        0
280
     0
281
     1
  0
CLASS
  1
HATCH
  2
AcDbHatch
  3
"ACAD_SEDONA"
 90
        0
280
     0
281
     1
  0
CLASS
  1
XRECORD
  2
AcDbXrecord
  3
"<Built In>"
 90
        0
280
     0
281
     0
  0
CLASS
  1
LONG_TRANSACTION
  2
AcDbLongTransaction
  3
AutoCAD 2000
 90
        0
280
     0
281
     0
  0
CLASS
  1
LWPOLYLINE
  2
AcDbPolyline
  3
"AutoCAD"
 90
        0
280
     0
281
     1
  0
CLASS
  1
HATCH
  2
AcDbHatch
  3
"ACAD_SEDONA"
 90
        0
280
     0
281
     1
  0
CLASS
  1
XRECORD
  2
AcDbXrecord
  3
"<Built In>"
 90
        0
280
     0
281
     0
  0
CLASS
  1
LONG_TRANSACTION
  2
AcDbLongTransaction
  3
AutoCAD 2000
 90
        0
280
     0
281
     0
  0
CLASS
  1
LWPOLYLINE
  2
AcDbPolyline
  3
"AutoCAD"
 90
        0
280
     0
281
     1
  0
CLASS
  1
HATCH
  2
AcDbHatch
  3
"ACAD_SEDONA"
 90
        0
280
     0
281
     1
  0
CLASS
  1
XRECORD
  2
AcDbXrecord
  3
"<Built In>"
 90
        0
280
     0
281
     0
  0
CLASS
  1
LONG_TRANSACTION
  2
AcDbLongTransaction
  3
AutoCAD 2000
 90
        0
280
     0
281
     0
  0
CLASS
  1
LWPOLYLINE
  2
AcDbPolyline
  3
"AutoCAD"
 90
        0
280
     0
281
     1
  0
CLASS
  1
HATCH
  2
AcDbHatch
  3
"ACAD_SEDONA"
 90
        0
280
     0
281
     1
  0
CLASS
  1
XRECORD
  2
AcDbXrecord
  3
"<Built In>"
 90
        0
280
     0
281
     0
  0
CLASS
  1
LONG_TRANSACTION
  2
AcDbLongTransaction
  3
AutoCAD 2000
 90
        0
280
     0
281
     0
  0
CLASS
  1
LWPOLYLINE
  2
AcDbPolyline
  3
"AutoCAD"
 90
        0
280
     0
281
     1
  0
CLASS
  1
HATCH
  2
AcDbHatch
  3
"ACAD_SEDONA"
 90
        0
280
     0
281
     1
  0
CLASS
  1
XRECORD
  2
AcDbXrecord
  3
"<Built In>"
 90
        0
280
     0
281
     0
  0
CLASS
  1
LONG_TRANSACTION
  2
AcDbLongTransaction
  3
AutoCAD 2000
 90
        0
280
     0
281
     0
  0
CLASS
  1
LWPOLYLINE
  2
AcDbPolyline
  3
"AutoCAD"
 90
        0
280
     0
281
     1
  0
CLASS
  1
HATCH
  2
AcDbHatch
  3
"ACAD_SEDONA"
 90
        0
280
     0
281
     1
  0
CLASS
  1
XRECORD
  2
AcDbXrecord
  3
"<Built In>"
 90
        0
280
     0
281
     0
  0
CLASS
  1
LONG_TRANSACTION
  2
AcDbLongTransaction
  3
AutoCAD 2000
 90
        0
280
     0
281
     0
  0
CLASS
  1
LWPOLYLINE
  2
AcDbPolyline
  3
"AutoCAD"
 90
        0
280
     0
281
     1
  0
CLASS
  1
HATCH
  2
AcDbHatch
  3
"ACAD_SEDONA"
 90
        0
280
     0
281
     1
  0
CLASS
  1
XRECORD
  2
AcDbXrecord
  3
"<Built In>"
 90
        0
280
     0
281
     0
  0
CLASS
  1
LONG_TRANSACTION
  2
AcDbLongTransaction
  3
AutoCAD 2000
 90
        0
280
     0
281
     0
  0
CLASS
  1
LWPOLYLINE
  2
AcDbPolyline
  3
"AutoCAD"
 90
        0
280
     0
281
     1
  0
CLASS
  1
HATCH
  2
AcDbHatch
  3
"ACAD_SEDONA"
 90
        0
280
     0
281
     1
  0
CLASS
  1
XRECORD
  2
AcDbXrecord
  3
"<Built In>"
 90
        0
280
     0
281
     0
  0
CLASS
  1
LONG_TRANSACTION
  2
AcDbLongTransaction
  3
AutoCAD 2000
 90
        0
280
     0
281
     0
  0
CLASS
  1
LWPOLYLINE
  2
AcDbPolyline
  3
"AutoCAD"
 90
        0
280
     0
281
     1
  0
CLASS
  1
HATCH
  2
AcDbHatch
  3
"ACAD_SEDONA"
 90
        0
280
     0
281
     1
  0
CLASS
  1
XRECORD
  2
AcDbXrecord
  3
"<Built In>"
 90
        0
280
     0
281
     0
  0
CLASS
  1
LONG_TRANSACTION
  2
AcDbLongTransaction
  3
AutoCAD 2000
 90
        0
280
     0
281
     0
  0
CLASS
  1
LWPOLYLINE
  2
AcDbPolyline
  3
"AutoCAD"
 90
        0
280
     0
281
     1
  0
CLASS
  1
HATCH
  2
AcDbHatch
  3
"ACAD_SEDONA"
 90
        0
280
     0
281
     1
  0
CLASS
  1
XRECORD
  2
AcDbXrecord
  3
"<Built In>"
 90
        0
280
     0
281
     0
  0
CLASS
  1
LONG_TRANSACTION
  2
AcDbLongTransaction
  3
AutoCAD 2000
 90
        0
280
     0
281
     0
  0
CLASS
  1
LWPOLYLINE
  2
AcDbPolyline
  3
"AutoCAD"
 90
        0
280
     0
281
     1
  0
CLASS
  1
HATCH
  2
AcDbHatch
  3
"ACAD_SEDONA"
 90
        0
280
     0
281
     1
  0
CLASS
  1
XRECORD
  2
AcDbXrecord
  3
"<Built In>"
 90
        0
280
     0
281
     0
  0
CLASS
  1
LONG_TRANSACTION
  2
AcDbLongTransaction
  3
AutoCAD 2000
 90
        0
280
     0
281
     0
  0
CLASS
  1
LWPOLYLINE
  2
AcDbPolyline
  3
"AutoCAD"
 90
        0
280
     0
281
     1
  0
CLASS
  1
HATCH
  2
AcDbHatch
  3
"ACAD_SEDONA"
 90
        0
280
     0
281
     1
  0
CLASS
  1
XRECORD
  2
AcDbXrecord
  3
"<Built In>"
 90
        0
280
     0
281
     0
  0
CLASS
  1
LONG_TRANSACTION
  2
AcDbLongTransaction
  3
AutoCAD 2000
 90
        0
280
     0
281
     0
  0
CLASS
  1
LWPOLYLINE
  2
AcDbPolyline
  3
"AutoCAD"
 90
        0
280
     0
281
     1
  0
CLASS
  1
HATCH
  2
AcDbHatch
  3
"ACAD_SEDONA"
 90
        0
280
     0
281
     1
  0
CLASS
  1
XRECORD
  2
AcDbXrecord
  3
"<Built In>"
 90
        0
280
     0
281
     0
  0
CLASS
  1
LONG_TRANSACTION
  2
AcDbLongTransaction
  3
AutoCAD 2000
 90
        0
280
     0
281
     0
  0
CLASS
  1
LWPOLYLINE
  2
AcDbPolyline
  3
"AutoCAD"
 90
        0
280
     0
281
     1
  0
CLASS
  1
HATCH
  2
AcDbHatch
  3
"ACAD_SEDONA"
 90
        0
280
     0
281
     1
  0
CLASS
  1
XRECORD
  2
AcDbXrecord
  3
"<Built In>"
 90
        0
280
     0
281
     0
  0
CLASS
  1
LONG_TRANSACTION
  2
AcDbLongTransaction
  3
AutoCAD 2000
 90
        0
280
     0
281
     0
  0
CLASS
  1
LWPOLYLINE
  2
AcDbPolyline
  3
"AutoCAD"
 90
        0
280
     0
281
     1
  0
CLASS
  1
HATCH
  2
AcDbHatch
  3
"ACAD_SEDONA"
 90
        0
280
     0
281
     1
  0
CLASS
  1
XRECORD
  2
AcDbXrecord
  3
"<Built In>"
 90
        0
280
     0
281
     0
  0
CLASS
  1
LONG_TRANSACTION
  2
AcDbLongTransaction
  3
AutoCAD 2000
 90
        0
280
     0
281
     0
  0
CLASS
  1
LWPOLYLINE
  2
AcDbPolyline
  3
"AutoCAD"
 90
        0
280
     0
281
     1
  0
CLASS
  1
HATCH
  2
AcDbHatch
  3
"ACAD_SEDONA"
 90
        0
280
     0
281
     1
  0
CLASS
  1
XRECORD
  2
AcDbXrecord
  3
"<Built In>"
 90
        0
280
     0
281
     0
  0
ENDSEC
  0
SECTION
  2
TABLES
  0
TABLE
  2
VPORT
  5
458C7
100
AcDbSymbolTable
 70
     1
  0
VPORT
  5
79720
102
{ACAD_XDICTIONARY
360
79723
102
}
100
AcDbSymbolTableRecord
100
AcDbViewportTableRecord
  2
*ACTIVE
 70
     0
 10
0.0
 20
0.0
 11
1.0
 21
1.0
 12
0.850313
 22
-3.587047
 13
0.0
 23
0.0
 14
0.25
 24
0.25
 15
0.25
 25
0.25
 16
0.0
 26
0.0
 36
1.0
 17
0.563444
 27
-0.880137
 37
1.686493
 40
11.333111
 41
1.960674
 42
50.0
 43
0.0
 44
0.0
 50
0.0
 51
0.0
 71
     0
 72
 20000
 73
     1
 74
     1
 75
     0
 76
     0
 77
     0
 78
     0
  0
ENDTAB
  0
TABLE
  2
LTYPE
  5
458C4
100
AcDbSymbolTable
 70
     1
  0
LTYPE
  5
458D0
100
AcDbSymbolTableRecord
100
AcDbLinetypeTableRecord
  2
BYBLOCK
 70
     0
  3

 72
    65
 73
     0
 40
0.0
  0
LTYPE
  5
458D1
100
AcDbSymbolTableRecord
100
AcDbLinetypeTableRecord
  2
BYLAYER
 70
     0
  3

 72
    65
 73
     0
 40
0.0
  0
LTYPE
  5
458D2
100
AcDbSymbolTableRecord
100
AcDbLinetypeTableRecord
  2
CONTINUOUS
 70
     0
  3
Solid line
 72
    65
 73
     0
 40
0.0
  0
ENDTAB
  0
TABLE
  2
LAYER
  5
458C1
100
AcDbSymbolTable
 70
     7
  0
LAYER
  5
458CD
100
AcDbSymbolTableRecord
100
AcDbLayerTableRecord
  2
0
 70
     0
 62
     7
  6
CONTINUOUS
  0
LAYER
  5
458EA
100
AcDbSymbolTableRecord
100
AcDbLayerTableRecord
  2
DIMS-MTG-HOLES
 70
     0
 62
     1
  6
CONTINUOUS
  0
LAYER
  5
458EB
100
AcDbSymbolTableRecord
100
AcDbLayerTableRecord
  2
ATTRIBUTES
 70
     0
 62
     7
  6
CONTINUOUS
  0
LAYER
  5
4593B
102
{ACAD_XDICTIONARY
360
7974C
102
}
100
AcDbSymbolTableRecord
100
AcDbLayerTableRecord
  2
AREA1
 70
     0
 62
    -7
  6
CONTINUOUS
  0
LAYER
  5
45940
102
{ACAD_XDICTIONARY
360
79721
102
}
100
AcDbSymbolTableRecord
100
AcDbLayerTableRecord
  2
DEFPOINTS
 70
     0
 62
    -7
  6
CONTINUOUS
  0
LAYER
  5
45954
100
AcDbSymbolTableRecord
100
AcDbLayerTableRecord
  2
SCALE
 70
     0
 62
    -7
  6
CONTINUOUS
  0
LAYER
  5
4D59A
100
AcDbSymbolTableRecord
100
AcDbLayerTableRecord
  2
SNAP_POINTS
 70
     0
 62
    -1
  6
CONTINUOUS
  0
ENDTAB
  0
TABLE
  2
STYLE
  5
458C2
100
AcDbSymbolTable
 70
     1
  0
STYLE
  5
458CE
100
AcDbSymbolTableRecord
100
AcDbTextStyleTableRecord
  2
STANDARD
 70
     0
 40
0.0
 41
1.0
 50
0.0
 71
     0
 42
0.12
  3
txt
  4

  0
ENDTAB
  0
TABLE
  2
VIEW
  5
458C5
100
AcDbSymbolTable
 70
     0
  0
ENDTAB
  0
TABLE
  2
UCS
  5
458C6
100
AcDbSymbolTable
 70
     0
  0
ENDTAB
  0
TABLE
  2
APPID
  5
458C8
100
AcDbSymbolTable
 70
     2
  0
APPID
  5
458CF
100
AcDbSymbolTableRecord
100
AcDbRegAppTableRecord
  2
ACAD
 70
     0
  0
APPID
  5
5FD5B
100
AcDbSymbolTableRecord
100
AcDbRegAppTableRecord
  2
AVE_RENDER
 70
     0
  0
ENDTAB
  0
TABLE
  2
DIMSTYLE
  5
458C9
100
AcDbSymbolTable
 70
     1
  0
DIMSTYLE
105
458F6
102
{ACAD_XDICTIONARY
360
79748
102
}
102
{ACAD_REACTORS
330
796B3
330
796C1
102
}
100
AcDbSymbolTableRecord
100
AcDbDimStyleTableRecord
  2
ABECAD_3D
 70
     0
  3

  4

  5

  6

  7

 40
1.0
 41
0.25
 42
0.0625
 43
0.375
 44
0.1
 45
0.0
 46
0.0
 47
0.0
 48
0.0
140
0.25
141
0.09
142
0.0
143
25.4
144
1.0
145
0.0
146
1.5
147
0.09
 71
     0
 72
     0
 73
     0
 74
     1
 75
     0
 76
     0
 77
     0
 78
     4
170
     1
171
     2
172
     0
173
     0
174
     0
175
     0
176
     0
177
     0
178
     0
270
     7
271
     6
272
     6
273
     2
274
     2
340
458CE
275
     0
280
     0
281
     0
282
     0
283
     1
284
     4
285
     4
286
     4
287
     5
288
     1
  0
ENDTAB
  0
TABLE
  2
BLOCK_RECORD
  5
458C0
100
AcDbSymbolTable
 70
     2
  0
BLOCK_RECORD
  5
458D6
102
{ACAD_XDICTIONARY
360
4592C
102
}
100
AcDbSymbolTableRecord
100
AcDbBlockTableRecord
  2
*MODEL_SPACE
  0
BLOCK_RECORD
  5
458D3
102
{ACAD_XDICTIONARY
360
4592A
102
}
100
AcDbSymbolTableRecord
100
AcDbBlockTableRecord
  2
*PAPER_SPACE
  0
BLOCK_RECORD
  5
796B4
100
AcDbSymbolTableRecord
100
AcDbBlockTableRecord
  2
*D0
  0
BLOCK_RECORD
  5
796C2
100
AcDbSymbolTableRecord
100
AcDbBlockTableRecord
  2
*D1
  0
ENDTAB
  0
ENDSEC
  0
SECTION
  2
BLOCKS
  0
BLOCK
  5
458DF
100
AcDbEntity
  8
0
100
AcDbBlockBegin
  2
*MODEL_SPACE
 70
     0
 10
0.0
 20
0.0
 30
0.0
  3
*MODEL_SPACE
  1

  0
ENDBLK
  5
458E0
100
AcDbEntity
  8
0
100
AcDbBlockEnd
  0
BLOCK
  5
458DD
100
AcDbEntity
 67
     1
  8
0
100
AcDbBlockBegin
  2
*PAPER_SPACE
 70
     0
 10
0.0
 20
0.0
 30
0.0
  3
*PAPER_SPACE
  1

  0
ENDBLK
  5
458DE
100
AcDbEntity
 67
     1
  8
0
100
AcDbBlockEnd
  0
BLOCK
  5
796BF
100
AcDbEntity
  8
0
100
AcDbBlockBegin
  2
*D0
 70
     1
 10
0.0
 20
0.0
 30
0.0
  3
*D0
  1

  0
LINE
  5
796B5
100
AcDbEntity
  8
AREA1
 62
     0
100
AcDbLine
 10
-1.0625
 20
0.281
 30
0.0
 11
-4.275074
 21
0.281
 31
0.0
1001
ACAD
1000
RTLwPs
1070
   158
  0
LINE
  5
796B6
100
AcDbEntity
  8
AREA1
 62
     0
100
AcDbLine
 10
-3.0855
 20
-8.879
 30
0.0
 11
-4.275074
 21
-8.879
 31
0.0
1001
ACAD
1000
RTLwPs
1070
   158
  0
LINE
  5
796B7
100
AcDbEntity
  8
AREA1
 62
     0
100
AcDbLine
 10
-4.175074
 20
0.031
 30
0.0
 11
-4.175074
 21
-2.760472
 31
0.0
1001
ACAD
1000
RTLwPs
1070
   158
  0
LINE
  5
796B8
100
AcDbEntity
  8
AREA1
 62
     0
100
AcDbLine
 10
-4.175074
 20
-8.629
 30
0.0
 11
-4.175074
 21
-6.273806
 31
0.0
1001
ACAD
1000
RTLwPs
1070
   158
  0
MTEXT
  5
796B9
100
AcDbEntity
  8
AREA1
 62
     0
100
AcDbMText
 10
-4.175074
 20
-4.517139
 30
0.0
 40
0.25
 41
0.0
 71
     5
 72
     1
  1
\A1;9 5/32 [232.66]
 11
0.0
 21
1.0
 31
0.0
1001
ACAD
1000
MTEXTBEGIN
1070
    73
1070
     1
1070
    44
1040
1.0
1070
    74
1070
     0
1000
MTEXTEND
1000
MTEXTBEGIN
1070
    73
1070
     1
1070
    44
1040
1.0
1070
    74
1070
     0
1000
MTEXTEND
  0
SOLID
  5
796BA
100
AcDbEntity
  8
AREA1
 62
     0
100
AcDbTrace
 10
-4.216741
 20
0.031
 30
0.0
 11
-4.133408
 21
0.031
 31
0.0
 12
-4.175074
 22
0.281
 32
0.0
 13
-4.175074
 23
0.281
 33
0.0
  0
SOLID
  5
796BB
100
AcDbEntity
  8
AREA1
 62
     0
100
AcDbTrace
 10
-4.216741
 20
-8.629
 30
0.0
 11
-4.133408
 21
-8.629
 31
0.0
 12
-4.175074
 22
-8.879
 32
0.0
 13
-4.175074
 23
-8.879
 33
0.0
  0
POINT
  5
796BC
100
AcDbEntity
  8
DEFPOINTS
 62
     0
100
AcDbPoint
 10
-1.0
 20
0.281
 30
0.0
  0
POINT
  5
796BD
100
AcDbEntity
  8
DEFPOINTS
 62
     0
100
AcDbPoint
 10
-3.023
 20
-8.879
 30
0.0
  0
POINT
  5
796BE
100
AcDbEntity
  8
DEFPOINTS
 62
     0
100
AcDbPoint
 10
-4.175074
 20
-8.879
 30
0.0
  0
ENDBLK
  5
796C0
100
AcDbEntity
  8
0
100
AcDbBlockEnd
  0
BLOCK
  5
796CD
100
AcDbEntity
  8
0
100
AcDbBlockBegin
  2
*D1
 70
     1
 10
0.0
 20
0.0
 30
0.0
  3
*D1
  1

  0
LINE
  5
796C3
100
AcDbEntity
  8
AREA1
 62
     0
100
AcDbLine
 10
-3.153
 20
-0.9665
 30
0.0
 11
-3.153
 21
1.079966
 31
0.0
1001
ACAD
1000
RTLwPs
1070
   158
  0
LINE
  5
796C4
100
AcDbEntity
  8
AREA1
 62
     0
100
AcDbLine
 10
5.137
 20
-0.9665
 30
0.0
 11
5.137
 21
1.079966
 31
0.0
1001
ACAD
1000
RTLwPs
1070
   158
  0
LINE
  5
796C5
100
AcDbEntity
  8
AREA1
 62
     0
100
AcDbLine
 10
-2.903
 20
0.979966
 30
0.0
 11
-0.654504
 21
0.979966
 31
0.0
1001
ACAD
1000
RTLwPs
1070
   158
  0
LINE
  5
796C6
100
AcDbEntity
  8
AREA1
 62
     0
100
AcDbLine
 10
4.887
 20
0.979966
 30
0.0
 11
2.900496
 21
0.979966
 31
0.0
1001
ACAD
1000
RTLwPs
1070
   158
  0
MTEXT
  5
796C7
100
AcDbEntity
  8
AREA1
 62
     0
100
AcDbMText
 10
1.122996
 20
0.979966
 30
0.0
 40
0.25
 41
0.0
 71
     5
 72
     1
  1
\A1;8 19/64 [210.57]
1001
ACAD
1000
MTEXTBEGIN
1070
    73
1070
     1
1070
    44
1040
1.0
1070
    74
1070
     0
1000
MTEXTEND
1000
MTEXTBEGIN
1070
    73
1070
     1
1070
    44
1040
1.0
1070
    74
1070
     0
1000
MTEXTEND
  0
SOLID
  5
796C8
100
AcDbEntity
  8
AREA1
 62
     0
100
AcDbTrace
 10
-2.903
 20
1.021633
 30
0.0
 11
-2.903
 21
0.938299
 31
0.0
 12
-3.153
 22
0.979966
 32
0.0
 13
-3.153
 23
0.979966
 33
0.0
  0
SOLID
  5
796C9
100
AcDbEntity
  8
AREA1
 62
     0
100
AcDbTrace
 10
4.887
 20
1.021633
 30
0.0
 11
4.887
 21
0.938299
 31
0.0
 12
5.137
 22
0.979966
 32
0.0
 13
5.137
 23
0.979966
 33
0.0
  0
POINT
  5
796CA
100
AcDbEntity
  8
DEFPOINTS
 62
     0
100
AcDbPoint
 10
-3.153
 20
-1.029
 30
0.0
  0
POINT
  5
796CB
100
AcDbEntity
  8
DEFPOINTS
 62
     0
100
AcDbPoint
 10
5.137
 20
-1.029
 30
0.0
  0
POINT
  5
796CC
100
AcDbEntity
  8
DEFPOINTS
 62
     0
100
AcDbPoint
 10
5.137
 20
0.979966
 30
0.0
  0
ENDBLK
  5
796CE
100
AcDbEntity
  8
0
100
AcDbBlockEnd
  0
ENDSEC
  0
SECTION
  2
ENTITIES
  0
3DFACE
  5
792E1
100
AcDbEntity
  8
0
100
AcDbFace
 10
-3.153
 20
-1.029
 30
0.197
 11
-2.753
 21
-0.629
 31
0.197
 12
4.737
 22
-0.629
 32
0.2
 13
5.137
 23
-1.029
 33
0.197
 70
    14
  0
3DFACE
  5
792E2
100
AcDbEntity
  8
0
100
AcDbFace
 10
4.237
 20
-8.879
 30
0.19
 11
4.237
 21
-8.658
 31
0.197
 12
-2.653
 22
-8.658
 32
0.197
 13
-2.653
 23
-8.879
 33
0.197
 70
    14
  0
LINE
  5
792E3
100
AcDbEntity
  8
0
100
AcDbLine
 10
0.486
 20
-3.1
 30
0.387
 11
1.216
 21
-3.1
 31
0.387
  0
LINE
  5
792E4
100
AcDbEntity
  8
0
100
AcDbLine
 10
0.388
 20
-3.1
 30
0.387
 11
1.118
 21
-3.1
 31
0.387
  0
LINE
  5
792E5
100
AcDbEntity
  8
0
100
AcDbLine
 10
4.237
 20
-8.879
 30
0.197
 11
-2.653
 21
-8.879
 31
0.197
  0
LINE
  5
792E6
100
AcDbEntity
  8
0
100
AcDbLine
 10
-1.0
 20
0.281
 30
0.197
 11
1.0
 21
0.281
 31
0.197
  0
LINE
  5
792E7
100
AcDbEntity
  8
0
100
AcDbLine
 10
-1.0
 20
0.281
 30
0.0
 11
1.0
 21
0.281
 31
0.0
  0
3DFACE
  5
792E8
100
AcDbEntity
  8
0
100
AcDbFace
 10
-1.91
 20
-0.629
 30
0.197
 11
-1.0
 21
0.281
 31
0.197
 12
1.0
 22
0.281
 32
0.197
 13
1.91
 23
-0.629
 33
0.197
 70
    14
  0
3DFACE
  5
792E9
100
AcDbEntity
  8
0
100
AcDbFace
 10
-1.0
 20
0.281
 30
0.197
 11
-1.0
 21
0.281
 31
0.0
 12
1.0
 22
0.281
 32
0.0
 13
1.0
 23
0.281
 33
0.197
 70
    14
  0
3DFACE
  5
792EA
100
AcDbEntity
  8
0
100
AcDbFace
 10
-2.653
 20
-8.879
 30
0.197
 11
-2.653
 21
-8.879
 31
0.0
 12
4.237
 22
-8.879
 32
0.0
 13
4.437
 23
-8.658
 33
0.0
 70
    14
  0
LINE
  5
792EB
100
AcDbEntity
  8
0
100
AcDbLine
 39
0.19
 10
4.237
 20
-8.879
 30
0.0
 11
-2.653
 21
-8.879
 31
0.0
  0
3DFACE
  5
792EC
100
AcDbEntity
  8
0
100
AcDbFace
 10
-3.153
 20
-8.749
 30
0.197
 11
-3.153
 21
-1.029
 31
0.197
 12
-2.753
 22
-0.629
 32
0.197
 13
-2.853
 23
-8.879
 33
0.197
 70
    14
  0
LINE
  5
792ED
100
AcDbEntity
  8
0
100
AcDbLine
 10
-3.153
 20
-8.749
 30
0.197
 11
-3.153
 21
-1.029
 31
0.197
  0
LINE
  5
792EE
100
AcDbEntity
  8
0
100
AcDbLine
 10
-3.153
 20
-8.749
 30
0.0
 11
-3.153
 21
-1.029
 31
0.0
  0
3DFACE
  5
792EF
100
AcDbEntity
  8
0
100
AcDbFace
 10
-2.753
 20
-0.629
 30
0.197
 11
-3.153
 21
-1.029
 31
0.197
 12
-3.153
 22
-8.749
 32
0.197
 13
-3.023
 23
-8.879
 33
0.197
 70
    14
  0
LINE
  5
792F0
100
AcDbEntity
  8
0
100
AcDbLine
 10
-2.853
 20
-8.879
 30
0.197
 11
-3.023
 21
-8.879
 31
0.197
  0
LINE
  5
792F1
100
AcDbEntity
  8
0
100
AcDbLine
 10
-2.853
 20
-8.879
 30
0.0
 11
-3.023
 21
-8.879
 31
0.0
  0
3DFACE
  5
792F2
100
AcDbEntity
  8
0
100
AcDbFace
 10
-2.853
 20
-8.879
 30
0.197
 11
-2.853
 21
-8.879
 31
0.0
 12
-3.023
 22
-8.879
 32
0.0
 13
-3.023
 23
-8.879
 33
0.197
 70
    14
  0
3DFACE
  5
792F3
100
AcDbEntity
  8
0
100
AcDbFace
 10
-2.853
 20
-8.658
 30
0.197
 11
-2.853
 21
-8.879
 31
0.197
 12
-3.023
 22
-8.879
 32
0.197
 13
-3.153
 23
-8.749
 33
0.197
 70
    14
  0
LINE
  5
792F4
100
AcDbEntity
  8
0
100
AcDbLine
 10
-3.023
 20
-8.879
 30
0.0
 11
-3.023
 21
-8.879
 31
0.197
  0
LINE
  5
792F5
100
AcDbEntity
  8
0
100
AcDbLine
 10
-3.153
 20
-8.749
 30
0.0
 11
-3.153
 21
-8.749
 31
0.197
  0
3DFACE
  5
792F6
100
AcDbEntity
  8
0
100
AcDbFace
 10
-3.153
 20
-8.749
 30
0.0
 11
-3.023
 21
-8.879
 31
0.0
 12
-3.023
 22
-8.879
 32
0.197
 13
-3.153
 23
-8.749
 33
0.197
 70
    14
  0
LINE
  5
792F7
100
AcDbEntity
  8
0
100
AcDbLine
 10
-3.023
 20
-8.879
 30
0.0
 11
-3.153
 21
-8.749
 31
0.0
  0
LINE
  5
792F8
100
AcDbEntity
  8
0
100
AcDbLine
 10
-3.023
 20
-8.879
 30
0.197
 11
-3.153
 21
-8.749
 31
0.197
  0
ARC
  5
792F9
100
AcDbEntity
  8
0
100
AcDbCircle
 10
-2.753
 20
-8.658
 30
0.0
 40
0.1
100
AcDbArc
 50
0.0
 51
179.999985
  0
ARC
  5
792FA
100
AcDbEntity
  8
0
100
AcDbCircle
 10
-2.753
 20
-8.658
 30
0.197
 40
0.1
100
AcDbArc
 50
0.0
 51
179.999985
  0
LINE
  5
792FB
100
AcDbEntity
  8
0
100
AcDbLine
 10
-2.653
 20
-8.879
 30
0.0
 11
-2.653
 21
-8.879
 31
0.197
  0
LINE
  5
792FC
100
AcDbEntity
  8
0
100
AcDbLine
 10
-2.653
 20
-8.658
 30
0.0
 11
-2.653
 21
-8.658
 31
0.197
  0
LINE
  5
792FD
100
AcDbEntity
  8
0
100
AcDbLine
 10
-2.853
 20
-8.658
 30
0.0
 11
-2.853
 21
-8.658
 31
0.197
  0
LINE
  5
792FE
100
AcDbEntity
  8
0
100
AcDbLine
 10
-2.853
 20
-8.879
 30
0.0
 11
-2.853
 21
-8.879
 31
0.197
  0
LINE
  5
792FF
100
AcDbEntity
  8
0
100
AcDbLine
 10
-2.853
 20
-8.658
 30
0.0
 11
-2.853
 21
-8.879
 31
0.0
  0
LINE
  5
79300
100
AcDbEntity
  8
0
100
AcDbLine
 10
-2.653
 20
-8.879
 30
0.0
 11
-2.653
 21
-8.658
 31
0.0
  0
LINE
  5
79301
100
AcDbEntity
  8
0
100
AcDbLine
 10
-2.853
 20
-8.658
 30
0.197
 11
-2.853
 21
-8.879
 31
0.197
  0
LINE
  5
79302
100
AcDbEntity
  8
0
100
AcDbLine
 10
-2.653
 20
-8.879
 30
0.197
 11
-2.653
 21
-8.658
 31
0.197
  0
LINE
  5
79303
100
AcDbEntity
  8
0
100
AcDbLine
 10
-1.91
 20
-0.629
 30
0.197
 11
-1.0
 21
0.281
 31
0.197
  0
LINE
  5
79304
100
AcDbEntity
  8
0
100
AcDbLine
 10
-1.91
 20
-0.629
 30
0.0
 11
-1.0
 21
0.281
 31
0.0
  0
LINE
  5
79305
100
AcDbEntity
  8
0
100
AcDbLine
 10
-3.153
 20
-1.029
 30
0.197
 11
-2.753
 21
-0.629
 31
0.197
  0
LINE
  5
79306
100
AcDbEntity
  8
0
100
AcDbLine
 10
-3.153
 20
-1.029
 30
0.0
 11
-2.753
 21
-0.629
 31
0.0
  0
LINE
  5
79307
100
AcDbEntity
  8
0
100
AcDbLine
 10
-3.153
 20
-1.029
 30
0.0
 11
-3.153
 21
-1.029
 31
0.197
  0
LINE
  5
79308
100
AcDbEntity
  8
0
100
AcDbLine
 39
0.2
 10
-2.753
 20
-0.629
 30
0.0
 11
-1.91
 21
-0.629
 31
0.0
  0
LINE
  5
79309
100
AcDbEntity
  8
0
100
AcDbLine
 10
-2.753
 20
-0.629
 30
0.0
 11
-2.753
 21
-0.629
 31
0.197
  0
LINE
  5
7930A
100
AcDbEntity
  8
0
100
AcDbLine
 10
-1.91
 20
-0.629
 30
0.0
 11
-1.91
 21
-0.629
 31
0.197
  0
LINE
  5
7930B
100
AcDbEntity
  8
0
100
AcDbLine
 10
-2.753
 20
-0.629
 30
0.197
 11
-1.91
 21
-0.629
 31
0.197
  0
LINE
  5
7930C
100
AcDbEntity
  8
0
100
AcDbLine
 10
-1.0
 20
0.281
 30
0.0
 11
-1.0
 21
0.281
 31
0.197
  0
LINE
  5
7930D
100
AcDbEntity
  8
0
100
AcDbLine
 10
0.1
 20
0.0
 30
0.197
 11
0.1
 21
-0.131891
 31
0.197
  0
LINE
  5
7930E
100
AcDbEntity
  8
0
100
AcDbLine
 10
-0.1
 20
0.0
 30
0.197
 11
-0.1
 21
-0.131891
 31
0.197
  0
LINE
  5
7930F
100
AcDbEntity
  8
0
100
AcDbLine
 10
0.1
 20
0.0
 30
0.0
 11
0.1
 21
-0.131891
 31
0.0
  0
LINE
  5
79310
100
AcDbEntity
  8
0
100
AcDbLine
 10
-0.1
 20
0.0
 30
0.0
 11
-0.1
 21
-0.131891
 31
0.0
  0
LINE
  5
79311
100
AcDbEntity
  8
0
100
AcDbLine
 10
-0.1
 20
-0.131891
 30
0.0
 11
-0.1
 21
-0.131891
 31
0.197
  0
LINE
  5
79312
100
AcDbEntity
  8
0
100
AcDbLine
 10
0.1
 20
-0.131891
 30
0.0
 11
0.1
 21
-0.131891
 31
0.197
  0
ARC
  5
79313
100
AcDbEntity
  8
0
100
AcDbCircle
 10
0.0
 20
-0.344
 30
0.0
 40
0.2345
100
AcDbArc
 50
115.241821
 51
64.758209
  0
ARC
  5
79314
100
AcDbEntity
  8
0
100
AcDbCircle
 10
0.0
 20
-0.344
 30
0.197
 40
0.2345
100
AcDbArc
 50
115.241821
 51
64.758209
  0
LINE
  5
79315
100
AcDbEntity
  8
0
100
AcDbLine
 10
0.1
 20
0.0
 30
0.0
 11
0.1
 21
0.0
 31
0.197
  0
LINE
  5
79316
100
AcDbEntity
  8
0
100
AcDbLine
 10
-0.1
 20
0.0
 30
0.0
 11
-0.1
 21
0.0
 31
0.197
  0
ARC
  5
79317
100
AcDbEntity
  8
0
100
AcDbCircle
 10
0.0
 20
0.0
 30
0.0
 40
0.1
100
AcDbArc
 50
0.0
 51
179.999985
  0
ARC
  5
79318
100
AcDbEntity
  8
0
100
AcDbCircle
 10
0.0
 20
0.0
 30
0.197
 40
0.1
100
AcDbArc
 50
0.0
 51
179.999985
  0
3DFACE
  5
79319
100
AcDbEntity
  8
0
100
AcDbFace
 10
5.137
 20
-8.749
 30
0.197
 11
5.137
 21
-1.029
 31
0.197
 12
4.737
 22
-0.629
 32
0.2
 13
5.007
 23
-8.879
 33
0.197
 70
    14
  0
LINE
  5
7931A
100
AcDbEntity
  8
0
100
AcDbLine
 10
5.137
 20
-1.029
 30
0.197
 11
5.137
 21
-8.749
 31
0.197
  0
LINE
  5
7931B
100
AcDbEntity
  8
0
100
AcDbLine
 10
5.137
 20
-1.029
 30
0.0
 11
5.137
 21
-8.749
 31
0.0
  0
3DFACE
  5
7931C
100
AcDbEntity
  8
0
100
AcDbFace
 10
5.137
 20
-1.029
 30
0.197
 11
5.137
 21
-1.029
 31
0.0
 12
5.137
 22
-8.749
 32
0.0
 13
5.137
 23
-8.749
 33
0.197
 70
    14
  0
3DFACE
  5
7931D
100
AcDbEntity
  8
0
100
AcDbFace
 10
5.137
 20
-1.029
 30
0.197
 11
5.137
 21
-8.749
 31
0.197
 12
5.007
 22
-8.879
 32
0.197
 13
4.437
 23
-8.879
 33
0.197
 70
    14
  0
3DFACE
  5
7931E
100
AcDbEntity
  8
0
100
AcDbFace
 10
5.007
 20
-8.879
 30
0.197
 11
4.437
 21
-8.879
 31
0.197
 12
4.437
 22
-8.658
 32
0.197
 13
5.137
 23
-8.749
 33
0.197
 70
    14
  0
LINE
  5
7931F
100
AcDbEntity
  8
0
100
AcDbLine
 10
5.007
 20
-8.879
 30
0.197
 11
4.437
 21
-8.879
 31
0.197
  0
LINE
  5
79320
100
AcDbEntity
  8
0
100
AcDbLine
 10
5.007
 20
-8.879
 30
0.0
 11
4.437
 21
-8.879
 31
0.0
  0
3DFACE
  5
79321
100
AcDbEntity
  8
0
100
AcDbFace
 10
4.437
 20
-8.879
 30
0.197
 11
4.437
 21
-8.879
 31
0.0
 12
5.007
 22
-8.879
 32
0.0
 13
5.007
 23
-8.879
 33
0.197
 70
    14
  0
ARC
  5
79322
100
AcDbEntity
  8
0
100
AcDbCircle
 10
4.337
 20
-8.658
 30
0.0
 40
0.1
100
AcDbArc
 50
0.0
 51
179.999985
  0
ARC
  5
79323
100
AcDbEntity
  8
0
100
AcDbCircle
 10
4.337
 20
-8.658
 30
0.197
 40
0.1
100
AcDbArc
 50
0.0
 51
179.999985
  0
LINE
  5
79324
100
AcDbEntity
  8
0
100
AcDbLine
 10
4.437
 20
-8.879
 30
0.0
 11
4.437
 21
-8.879
 31
0.197
  0
LINE
  5
79325
100
AcDbEntity
  8
0
100
AcDbLine
 10
4.437
 20
-8.658
 30
0.0
 11
4.437
 21
-8.658
 31
0.197
  0
LINE
  5
79326
100
AcDbEntity
  8
0
100
AcDbLine
 10
4.237
 20
-8.658
 30
0.0
 11
4.237
 21
-8.658
 31
0.197
  0
LINE
  5
79327
100
AcDbEntity
  8
0
100
AcDbLine
 10
4.237
 20
-8.879
 30
0.0
 11
4.237
 21
-8.879
 31
0.197
  0
LINE
  5
79328
100
AcDbEntity
  8
0
100
AcDbLine
 10
4.237
 20
-8.658
 30
0.0
 11
4.237
 21
-8.879
 31
0.0
  0
LINE
  5
79329
100
AcDbEntity
  8
0
100
AcDbLine
 10
4.437
 20
-8.879
 30
0.0
 11
4.437
 21
-8.658
 31
0.0
  0
LINE
  5
7932A
100
AcDbEntity
  8
0
100
AcDbLine
 10
4.237
 20
-8.658
 30
0.197
 11
4.237
 21
-8.879
 31
0.197
  0
LINE
  5
7932B
100
AcDbEntity
  8
0
100
AcDbLine
 10
4.437
 20
-8.879
 30
0.197
 11
4.437
 21
-8.658
 31
0.197
  0
LINE
  5
7932C
100
AcDbEntity
  8
0
100
AcDbLine
 39
0.2
 10
5.137
 20
-8.749
 30
0.0
 11
5.007
 21
-8.879
 31
0.0
  0
LINE
  5
7932D
100
AcDbEntity
  8
0
100
AcDbLine
 10
5.137
 20
-8.749
 30
0.0
 11
5.137
 21
-8.749
 31
0.197
  0
LINE
  5
7932E
100
AcDbEntity
  8
0
100
AcDbLine
 10
5.007
 20
-8.879
 30
0.0
 11
5.007
 21
-8.879
 31
0.197
  0
LINE
  5
7932F
100
AcDbEntity
  8
0
100
AcDbLine
 10
5.137
 20
-8.749
 30
0.197
 11
5.007
 21
-8.879
 31
0.197
  0
LINE
  5
79330
100
AcDbEntity
  8
0
100
AcDbLine
 39
0.2
 10
1.91
 20
-0.629
 30
0.0
 11
4.737
 21
-0.629
 31
0.0
  0
LINE
  5
79331
100
AcDbEntity
  8
0
100
AcDbLine
 10
1.91
 20
-0.629
 30
0.197
 11
4.737
 21
-0.629
 31
0.197
  0
LINE
  5
79332
100
AcDbEntity
  8
0
100
AcDbLine
 10
1.0
 20
0.281
 30
0.197
 11
1.91
 21
-0.629
 31
0.197
  0
LINE
  5
79333
100
AcDbEntity
  8
0
100
AcDbLine
 10
1.0
 20
0.281
 30
0.0
 11
1.91
 21
-0.629
 31
0.0
  0
LINE
  5
79334
100
AcDbEntity
  8
0
100
AcDbLine
 10
1.91
 20
-0.629
 30
0.0
 11
1.91
 21
-0.629
 31
0.197
  0
LINE
  5
79335
100
AcDbEntity
  8
0
100
AcDbLine
 10
1.0
 20
0.281
 30
0.0
 11
1.0
 21
0.281
 31
0.197
  0
LINE
  5
79336
100
AcDbEntity
  8
0
100
AcDbLine
 10
4.737
 20
-0.629
 30
0.0
 11
4.737
 21
-0.629
 31
0.197
  0
LINE
  5
79337
100
AcDbEntity
  8
0
100
AcDbLine
 10
5.137
 20
-1.029
 30
0.0
 11
5.137
 21
-1.029
 31
0.197
  0
LINE
  5
79338
100
AcDbEntity
  8
0
100
AcDbLine
 10
-2.972
 20
-5.79
 30
1.817
 11
-2.972
 21
-5.79
 31
3.047
  0
LINE
  5
79339
100
AcDbEntity
  8
0
100
AcDbLine
 10
-2.572
 20
-6.690001
 30
0.197
 11
-2.572
 21
-6.440001
 31
0.197
  0
LINE
  5
7933A
100
AcDbEntity
  8
0
100
AcDbLine
 10
-2.572
 20
-6.690001
 30
0.387
 11
-2.572
 21
-6.440001
 31
0.387
  0
LINE
  5
7933B
100
AcDbEntity
  8
0
100
AcDbLine
 10
-2.772
 20
-6.440001
 30
0.197
 11
-2.772
 21
-6.690001
 31
0.197
  0
LINE
  5
7933C
100
AcDbEntity
  8
0
100
AcDbLine
 10
-2.772
 20
-6.440001
 30
0.387
 11
-2.772
 21
-6.690001
 31
0.387
  0
LINE
  5
7933D
100
AcDbEntity
  8
0
100
AcDbLine
 10
-2.772
 20
-6.690001
 30
0.197
 11
-2.772
 21
-6.690001
 31
0.387
  0
LINE
  5
7933E
100
AcDbEntity
  8
0
100
AcDbLine
 10
-2.572
 20
-6.440001
 30
0.197
 11
-2.572
 21
-6.440001
 31
0.387
  0
LINE
  5
7933F
100
AcDbEntity
  8
0
100
AcDbLine
 10
-2.772
 20
-6.440001
 30
0.197
 11
-2.772
 21
-6.440001
 31
0.387
  0
ARC
  5
79340
100
AcDbEntity
  8
0
100
AcDbCircle
 10
-2.672
 20
-6.440001
 30
0.197
 40
0.1
100
AcDbArc
 50
0.0
 51
179.999985
  0
ARC
  5
79341
100
AcDbEntity
  8
0
100
AcDbCircle
 10
-2.672
 20
-6.440001
 30
0.387
 40
0.1
100
AcDbArc
 50
0.0
 51
179.999985
  0
3DFACE
  5
79342
100
AcDbEntity
  8
0
100
AcDbFace
 10
0.178
 20
-6.440001
 30
0.387
 11
0.178
 21
-6.440001
 31
0.197
 12
0.178
 22
-6.690001
 32
0.197
 13
0.178
 23
-6.690001
 33
0.387
 70
    14
  0
LINE
  5
79343
100
AcDbEntity
  8
0
100
AcDbLine
 10
-0.022
 20
-6.440001
 30
0.197
 11
-0.022
 21
-6.690001
 31
0.197
  0
LINE
  5
79344
100
AcDbEntity
  8
0
100
AcDbLine
 10
0.178
 20
-6.690001
 30
0.197
 11
0.178
 21
-6.440001
 31
0.197
  0
LINE
  5
79345
100
AcDbEntity
  8
0
100
AcDbLine
 10
-0.022
 20
-6.440001
 30
0.387
 11
-0.022
 21
-6.690001
 31
0.387
  0
LINE
  5
79346
100
AcDbEntity
  8
0
100
AcDbLine
 10
0.178
 20
-6.690001
 30
0.387
 11
0.178
 21
-6.440001
 31
0.387
  0
LINE
  5
79347
100
AcDbEntity
  8
0
100
AcDbLine
 10
-0.022
 20
-6.690001
 30
0.197
 11
-0.022
 21
-6.690001
 31
0.387
  0
LINE
  5
79348
100
AcDbEntity
  8
0
100
AcDbLine
 10
0.178
 20
-6.690001
 30
0.197
 11
0.178
 21
-6.690001
 31
0.387
  0
LINE
  5
79349
100
AcDbEntity
  8
0
100
AcDbLine
 10
-0.022
 20
-6.440001
 30
0.197
 11
-0.022
 21
-6.440001
 31
0.387
  0
LINE
  5
7934A
100
AcDbEntity
  8
0
100
AcDbLine
 10
0.178
 20
-6.440001
 30
0.197
 11
0.178
 21
-6.440001
 31
0.387
  0
ARC
  5
7934B
100
AcDbEntity
  8
0
100
AcDbCircle
 10
0.078
 20
-6.440001
 30
0.197
 40
0.1
100
AcDbArc
 50
0.0
 51
179.999985
  0
ARC
  5
7934C
100
AcDbEntity
  8
0
100
AcDbCircle
 10
0.078
 20
-6.440001
 30
0.387
 40
0.1
100
AcDbArc
 50
0.0
 51
179.999985
  0
CIRCLE
  5
7934D
100
AcDbEntity
  8
0
100
AcDbCircle
 10
-0.912
 20
-0.97
 30
0.387
 40
0.1
  0
CIRCLE
  5
7934E
100
AcDbEntity
  8
0
100
AcDbCircle
 10
-0.912
 20
-0.97
 30
0.387
 40
0.1
  0
LINE
  5
7934F
100
AcDbEntity
  8
0
100
AcDbLine
 10
-1.577
 20
-0.69
 30
0.197
 11
-0.137
 21
-0.69
 31
0.197
  0
LINE
  5
79350
100
AcDbEntity
  8
0
100
AcDbLine
 10
-1.577
 20
-0.69
 30
0.387
 11
-0.137
 21
-0.69
 31
0.387
  0
3DFACE
  5
79351
100
AcDbEntity
  8
0
100
AcDbFace
 10
-2.267
 20
-0.69
 30
0.387
 11
-2.457
 21
-0.69
 31
0.387
 12
-2.457
 22
-0.69
 32
0.197
 13
-2.267
 23
-0.69
 33
0.197
 70
    14
  0
LINE
  5
79352
100
AcDbEntity
  8
0
100
AcDbLine
 10
-2.457
 20
-0.69
 30
0.197
 11
-2.267
 21
-0.69
 31
0.197
  0
LINE
  5
79353
100
AcDbEntity
  8
0
100
AcDbLine
 10
-2.457
 20
-0.69
 30
0.387
 11
-2.267
 21
-0.69
 31
0.387
  0
ARC
  5
79354
100
AcDbEntity
  8
0
100
AcDbCircle
 10
-1.292
 20
-0.97
 30
0.387
 40
0.1015
100
AcDbArc
 50
0.0
 51
179.999985
  0
ARC
  5
79355
100
AcDbEntity
  8
0
100
AcDbCircle
 10
-1.292
 20
-0.97
 30
0.387
 40
0.1015
100
AcDbArc
 50
0.0
 51
179.999985
  0
LINE
  5
79356
100
AcDbEntity
  8
0
100
AcDbLine
 10
-1.1905
 20
-1.102159
 30
0.197
 11
-1.1905
 21
-1.102159
 31
0.387
  0
LINE
  5
79357
100
AcDbEntity
  8
0
100
AcDbLine
 10
-1.1905
 20
-0.97
 30
0.197
 11
-1.1905
 21
-0.97
 31
0.387
  0
LINE
  5
79358
100
AcDbEntity
  8
0
100
AcDbLine
 10
-1.3935
 20
-0.97
 30
0.197
 11
-1.3935
 21
-0.97
 31
0.387
  0
ARC
  5
79359
100
AcDbEntity
  8
0
100
AcDbCircle
 10
-1.292
 20
-1.313
 30
0.387
 40
0.234
100
AcDbArc
 50
115.70649
 51
64.293579
  0
ARC
  5
7935A
100
AcDbEntity
  8
0
100
AcDbCircle
 10
-1.292
 20
-1.313
 30
0.387
 40
0.234
100
AcDbArc
 50
115.70649
 51
64.293579
  0
LINE
  5
7935B
100
AcDbEntity
  8
0
100
AcDbLine
 10
-1.3935
 20
-0.97
 30
0.387
 11
-1.3935
 21
-1.102159
 31
0.387
  0
LINE
  5
7935C
100
AcDbEntity
  8
0
100
AcDbLine
 10
-1.3935
 20
-0.97
 30
0.387
 11
-1.3935
 21
-1.102159
 31
0.387
  0
LINE
  5
7935D
100
AcDbEntity
  8
0
100
AcDbLine
 10
-1.1905
 20
-0.97
 30
0.387
 11
-1.1905
 21
-1.102159
 31
0.387
  0
LINE
  5
7935E
100
AcDbEntity
  8
0
100
AcDbLine
 10
-1.1905
 20
-0.97
 30
0.387
 11
-1.1905
 21
-1.102159
 31
0.387
  0
LINE
  5
7935F
100
AcDbEntity
  8
0
100
AcDbLine
 10
-0.137
 20
-0.69
 30
0.197
 11
0.483
 21
-1.31
 31
0.197
  0
LINE
  5
79360
100
AcDbEntity
  8
0
100
AcDbLine
 10
-0.137
 20
-0.69
 30
0.387
 11
0.483
 21
-1.31
 31
0.387
  0
LINE
  5
79361
100
AcDbEntity
  8
0
100
AcDbLine
 10
-0.812
 20
-0.97
 30
0.197
 11
-0.812
 21
-0.97
 31
0.387
  0
CIRCLE
  5
79362
100
AcDbEntity
  8
0
100
AcDbCircle
 10
-0.912
 20
-0.97
 30
0.197
 40
0.1
  0
ARC
  5
79363
100
AcDbEntity
  8
0
100
AcDbCircle
 10
-1.292
 20
-1.313
 30
0.197
 40
0.234
100
AcDbArc
 50
115.70649
 51
64.293579
  0
LINE
  5
79364
100
AcDbEntity
  8
0
100
AcDbLine
 10
-1.1905
 20
-0.97
 30
0.197
 11
-1.1905
 21
-1.102159
 31
0.197
  0
ARC
  5
79365
100
AcDbEntity
  8
0
100
AcDbCircle
 10
-1.292
 20
-0.97
 30
0.197
 40
0.1015
100
AcDbArc
 50
0.0
 51
179.999985
  0
LINE
  5
79366
100
AcDbEntity
  8
0
100
AcDbLine
 10
-1.3935
 20
-0.97
 30
0.197
 11
-1.3935
 21
-1.102159
 31
0.197
  0
LINE
  5
79367
100
AcDbEntity
  8
0
100
AcDbLine
 10
-1.3935
 20
-1.102159
 30
0.197
 11
-1.3935
 21
-1.102159
 31
0.387
  0
POLYLINE
  5
79368
100
AcDbEntity
  8
0
100
AcDb3dPolyline
 66
     1
 10
0.0
 20
0.0
 30
0.0
 70
     8
  0
VERTEX
  5
79369
100
AcDbEntity
  8
0
100
AcDbVertex
100
AcDb3dPolylineVertex
 10
2.938983
 20
-2.835438
 30
0.387
 70
    32
  0
VERTEX
  5
7971C
100
AcDbEntity
  8
0
100
AcDbVertex
100
AcDb3dPolylineVertex
 10
2.938983
 20
-2.835438
 30
0.387
 70
    32
  0
SEQEND
  5
7936A
100
AcDbEntity
  8
0
  0
LINE
  5
7936B
100
AcDbEntity
  8
0
100
AcDbLine
 10
-1.871326
 20
-3.825015
 30
4.667
 11
-1.75671
 21
-3.975138
 31
4.667
  0
LINE
  5
7936C
100
AcDbEntity
  8
0
100
AcDbLine
 10
-1.887515
 20
-3.841205
 30
4.667
 11
-1.772899
 21
-3.991327
 31
4.667
  0
CIRCLE
  5
7936D
100
AcDbEntity
  8
0
100
AcDbCircle
 10
-1.822
 20
-3.91
 30
4.667
 40
0.095
  0
LINE
  5
7936E
100
AcDbEntity
  8
0
100
AcDbLine
 10
-0.811326
 20
-3.825015
 30
4.667
 11
-0.69671
 21
-3.975138
 31
4.667
  0
LINE
  5
7936F
100
AcDbEntity
  8
0
100
AcDbLine
 10
-0.827515
 20
-3.841205
 30
4.667
 11
-0.7129
 21
-3.991327
 31
4.667
  0
CIRCLE
  5
79370
100
AcDbEntity
  8
0
100
AcDbCircle
 10
-0.762
 20
-3.91
 30
4.667
 40
0.095
  0
POLYLINE
  5
79371
100
AcDbEntity
  8
0
100
AcDbPolygonMesh
 66
     1
 10
0.0
 20
0.0
 30
0.0
 70
    16
 71
     6
 72
     3
  0
VERTEX
  5
79372
100
AcDbEntity
  8
0
100
AcDbVertex
100
AcDbPolygonMeshVertex
 10
-0.352
 20
-4.44
 30
4.197
 70
    64
  0
VERTEX
  5
79373
100
AcDbEntity
  8
0
100
AcDbVertex
100
AcDbPolygonMeshVertex
 10
-0.352
 20
-4.44
 30
3.827
 70
    64
  0
VERTEX
  5
79374
100
AcDbEntity
  8
0
100
AcDbVertex
100
AcDbPolygonMeshVertex
 10
-0.352
 20
-4.44
 30
3.827
 70
    64
  0
VERTEX
  5
79375
100
AcDbEntity
  8
0
100
AcDbVertex
100
AcDbPolygonMeshVertex
 10
-2.232
 20
-4.44
 30
4.197
 70
    64
  0
VERTEX
  5
79376
100
AcDbEntity
  8
0
100
AcDbVertex
100
AcDbPolygonMeshVertex
 10
-2.232
 20
-4.44
 30
3.827
 70
    64
  0
VERTEX
  5
79377
100
AcDbEntity
  8
0
100
AcDbVertex
100
AcDbPolygonMeshVertex
 10
-2.232
 20
-4.44
 30
3.827
 70
    64
  0
VERTEX
  5
79378
100
AcDbEntity
  8
0
100
AcDbVertex
100
AcDbPolygonMeshVertex
 10
-2.232
 20
-3.6
 30
4.197
 70
    64
  0
VERTEX
  5
79379
100
AcDbEntity
  8
0
100
AcDbVertex
100
AcDbPolygonMeshVertex
 10
-2.232
 20
-3.6
 30
3.827
 70
    64
  0
VERTEX
  5
7937A
100
AcDbEntity
  8
0
100
AcDbVertex
100
AcDbPolygonMeshVertex
 10
-2.232
 20
-4.44
 30
3.827
 70
    64
  0
VERTEX
  5
7937B
100
AcDbEntity
  8
0
100
AcDbVertex
100
AcDbPolygonMeshVertex
 10
-0.352
 20
-3.6
 30
4.197
 70
    64
  0
VERTEX
  5
7937C
100
AcDbEntity
  8
0
100
AcDbVertex
100
AcDbPolygonMeshVertex
 10
-0.352
 20
-3.6
 30
3.827
 70
    64
  0
VERTEX
  5
7937D
100
AcDbEntity
  8
0
100
AcDbVertex
100
AcDbPolygonMeshVertex
 10
-0.352
 20
-4.44
 30
3.827
 70
    64
  0
VERTEX
  5
7937E
100
AcDbEntity
  8
0
100
AcDbVertex
100
AcDbPolygonMeshVertex
 10
-0.352
 20
-3.6
 30
4.197
 70
    64
  0
VERTEX
  5
7937F
100
AcDbEntity
  8
0
100
AcDbVertex
100
AcDbPolygonMeshVertex
 10
-0.352
 20
-3.6
 30
4.197
 70
    64
  0
VERTEX
  5
79380
100
AcDbEntity
  8
0
100
AcDbVertex
100
AcDbPolygonMeshVertex
 10
-0.352
 20
-4.44
 30
4.197
 70
    64
  0
VERTEX
  5
79381
100
AcDbEntity
  8
0
100
AcDbVertex
100
AcDbPolygonMeshVertex
 10
-2.232
 20
-3.6
 30
4.197
 70
    64
  0
VERTEX
  5
79382
100
AcDbEntity
  8
0
100
AcDbVertex
100
AcDbPolygonMeshVertex
 10
-2.232
 20
-3.6
 30
4.197
 70
    64
  0
VERTEX
  5
79383
100
AcDbEntity
  8
0
100
AcDbVertex
100
AcDbPolygonMeshVertex
 10
-2.232
 20
-4.44
 30
4.197
 70
    64
  0
SEQEND
  5
79384
100
AcDbEntity
  8
0
  0
POLYLINE
  5
79385
100
AcDbEntity
  8
0
100
AcDbPolygonMesh
 66
     1
 10
0.0
 20
0.0
 30
0.0
 70
    16
 71
     6
 72
     3
  0
VERTEX
  5
79386
100
AcDbEntity
  8
0
100
AcDbVertex
100
AcDbPolygonMeshVertex
 10
-0.542
 20
-4.04
 30
4.667
 70
    64
  0
VERTEX
  5
79387
100
AcDbEntity
  8
0
100
AcDbVertex
100
AcDbPolygonMeshVertex
 10
-0.542
 20
-4.04
 30
4.197
 70
    64
  0
VERTEX
  5
79388
100
AcDbEntity
  8
0
100
AcDbVertex
100
AcDbPolygonMeshVertex
 10
-0.542
 20
-4.04
 30
4.197
 70
    64
  0
VERTEX
  5
79389
100
AcDbEntity
  8
0
100
AcDbVertex
100
AcDbPolygonMeshVertex
 10
-0.982
 20
-4.04
 30
4.667
 70
    64
  0
VERTEX
  5
7938A
100
AcDbEntity
  8
0
100
AcDbVertex
100
AcDbPolygonMeshVertex
 10
-0.982
 20
-4.04
 30
4.197
 70
    64
  0
VERTEX
  5
7938B
100
AcDbEntity
  8
0
100
AcDbVertex
100
AcDbPolygonMeshVertex
 10
-0.982
 20
-4.04
 30
4.197
 70
    64
  0
VERTEX
  5
7938C
100
AcDbEntity
  8
0
100
AcDbVertex
100
AcDbPolygonMeshVertex
 10
-0.982
 20
-3.66
 30
4.667
 70
    64
  0
VERTEX
  5
7938D
100
AcDbEntity
  8
0
100
AcDbVertex
100
AcDbPolygonMeshVertex
 10
-0.982
 20
-3.66
 30
4.197
 70
    64
  0
VERTEX
  5
7938E
100
AcDbEntity
  8
0
100
AcDbVertex
100
AcDbPolygonMeshVertex
 10
-0.982
 20
-4.04
 30
4.197
 70
    64
  0
VERTEX
  5
7938F
100
AcDbEntity
  8
0
100
AcDbVertex
100
AcDbPolygonMeshVertex
 10
-0.542
 20
-3.66
 30
4.667
 70
    64
  0
VERTEX
  5
79390
100
AcDbEntity
  8
0
100
AcDbVertex
100
AcDbPolygonMeshVertex
 10
-0.542
 20
-3.66
 30
4.197
 70
    64
  0
VERTEX
  5
79391
100
AcDbEntity
  8
0
100
AcDbVertex
100
AcDbPolygonMeshVertex
 10
-0.542
 20
-4.04
 30
4.197
 70
    64
  0
VERTEX
  5
79392
100
AcDbEntity
  8
0
100
AcDbVertex
100
AcDbPolygonMeshVertex
 10
-0.542
 20
-3.66
 30
4.667
 70
    64
  0
VERTEX
  5
79393
100
AcDbEntity
  8
0
100
AcDbVertex
100
AcDbPolygonMeshVertex
 10
-0.542
 20
-3.66
 30
4.667
 70
    64
  0
VERTEX
  5
79394
100
AcDbEntity
  8
0
100
AcDbVertex
100
AcDbPolygonMeshVertex
 10
-0.542
 20
-4.04
 30
4.667
 70
    64
  0
VERTEX
  5
79395
100
AcDbEntity
  8
0
100
AcDbVertex
100
AcDbPolygonMeshVertex
 10
-0.982
 20
-3.66
 30
4.667
 70
    64
  0
VERTEX
  5
79396
100
AcDbEntity
  8
0
100
AcDbVertex
100
AcDbPolygonMeshVertex
 10
-0.982
 20
-3.66
 30
4.667
 70
    64
  0
VERTEX
  5
79397
100
AcDbEntity
  8
0
100
AcDbVertex
100
AcDbPolygonMeshVertex
 10
-0.982
 20
-4.04
 30
4.667
 70
    64
  0
SEQEND
  5
79398
100
AcDbEntity
  8
0
  0
POLYLINE
  5
79399
100
AcDbEntity
  8
0
100
AcDbPolygonMesh
 66
     1
 10
0.0
 20
0.0
 30
0.0
 70
    16
 71
     6
 72
     3
  0
VERTEX
  5
7939A
100
AcDbEntity
  8
0
100
AcDbVertex
100
AcDbPolygonMeshVertex
 10
-1.602
 20
-4.04
 30
4.667
 70
    64
  0
VERTEX
  5
7939B
100
AcDbEntity
  8
0
100
AcDbVertex
100
AcDbPolygonMeshVertex
 10
-1.602
 20
-4.04
 30
4.197
 70
    64
  0
VERTEX
  5
7939C
100
AcDbEntity
  8
0
100
AcDbVertex
100
AcDbPolygonMeshVertex
 10
-1.602
 20
-4.04
 30
4.197
 70
    64
  0
VERTEX
  5
7939D
100
AcDbEntity
  8
0
100
AcDbVertex
100
AcDbPolygonMeshVertex
 10
-2.042
 20
-4.04
 30
4.667
 70
    64
  0
VERTEX
  5
7939E
100
AcDbEntity
  8
0
100
AcDbVertex
100
AcDbPolygonMeshVertex
 10
-2.042
 20
-4.04
 30
4.197
 70
    64
  0
VERTEX
  5
7939F
100
AcDbEntity
  8
0
100
AcDbVertex
100
AcDbPolygonMeshVertex
 10
-2.042
 20
-4.04
 30
4.197
 70
    64
  0
VERTEX
  5
793A0
100
AcDbEntity
  8
0
100
AcDbVertex
100
AcDbPolygonMeshVertex
 10
-2.042
 20
-3.66
 30
4.667
 70
    64
  0
VERTEX
  5
793A1
100
AcDbEntity
  8
0
100
AcDbVertex
100
AcDbPolygonMeshVertex
 10
-2.042
 20
-3.66
 30
4.197
 70
    64
  0
VERTEX
  5
793A2
100
AcDbEntity
  8
0
100
AcDbVertex
100
AcDbPolygonMeshVertex
 10
-2.042
 20
-4.04
 30
4.197
 70
    64
  0
VERTEX
  5
793A3
100
AcDbEntity
  8
0
100
AcDbVertex
100
AcDbPolygonMeshVertex
 10
-1.602
 20
-3.66
 30
4.667
 70
    64
  0
VERTEX
  5
793A4
100
AcDbEntity
  8
0
100
AcDbVertex
100
AcDbPolygonMeshVertex
 10
-1.602
 20
-3.66
 30
4.197
 70
    64
  0
VERTEX
  5
793A5
100
AcDbEntity
  8
0
100
AcDbVertex
100
AcDbPolygonMeshVertex
 10
-1.602
 20
-4.04
 30
4.197
 70
    64
  0
VERTEX
  5
793A6
100
AcDbEntity
  8
0
100
AcDbVertex
100
AcDbPolygonMeshVertex
 10
-1.602
 20
-3.66
 30
4.667
 70
    64
  0
VERTEX
  5
793A7
100
AcDbEntity
  8
0
100
AcDbVertex
100
AcDbPolygonMeshVertex
 10
-1.602
 20
-3.66
 30
4.667
 70
    64
  0
VERTEX
  5
793A8
100
AcDbEntity
  8
0
100
AcDbVertex
100
AcDbPolygonMeshVertex
 10
-1.602
 20
-4.04
 30
4.667
 70
    64
  0
VERTEX
  5
793A9
100
AcDbEntity
  8
0
100
AcDbVertex
100
AcDbPolygonMeshVertex
 10
-2.042
 20
-3.66
 30
4.667
 70
    64
  0
VERTEX
  5
793AA
100
AcDbEntity
  8
0
100
AcDbVertex
100
AcDbPolygonMeshVertex
 10
-2.042
 20
-3.66
 30
4.667
 70
    64
  0
VERTEX
  5
793AB
100
AcDbEntity
  8
0
100
AcDbVertex
100
AcDbPolygonMeshVertex
 10
-2.042
 20
-4.04
 30
4.667
 70
    64
  0
SEQEND
  5
793AC
100
AcDbEntity
  8
0
  0
LINE
  5
793AD
100
AcDbEntity
  8
0
100
AcDbLine
 10
-2.972
 20
-2.15
 30
3.827
 11
-2.972
 21
-2.15
 31
0.387
  0
POLYLINE
  5
793AE
100
AcDbEntity
  8
0
100
AcDbPolygonMesh
 66
     1
 10
0.0
 20
0.0
 30
0.0
 70
    16
 71
     6
 72
     3
  0
VERTEX
  5
793AF
100
AcDbEntity
  8
0
100
AcDbVertex
100
AcDbPolygonMeshVertex
 10
0.388
 20
-5.54
 30
3.827
 70
    64
  0
VERTEX
  5
793B0
100
AcDbEntity
  8
0
100
AcDbVertex
100
AcDbPolygonMeshVertex
 10
0.388
 20
-5.54
 30
0.387
 70
    64
  0
VERTEX
  5
793B1
100
AcDbEntity
  8
0
100
AcDbVertex
100
AcDbPolygonMeshVertex
 10
0.388
 20
-5.54
 30
0.387
 70
    64
  0
VERTEX
  5
793B2
100
AcDbEntity
  8
0
100
AcDbVertex
100
AcDbPolygonMeshVertex
 10
-2.972
 20
-5.54
 30
3.827
 70
    64
  0
VERTEX
  5
793B3
100
AcDbEntity
  8
0
100
AcDbVertex
100
AcDbPolygonMeshVertex
 10
-2.972
 20
-5.54
 30
0.387
 70
    64
  0
VERTEX
  5
793B4
100
AcDbEntity
  8
0
100
AcDbVertex
100
AcDbPolygonMeshVertex
 10
-2.972
 20
-5.54
 30
0.387
 70
    64
  0
VERTEX
  5
793B5
100
AcDbEntity
  8
0
100
AcDbVertex
100
AcDbPolygonMeshVertex
 10
-2.972
 20
-2.15
 30
3.827
 70
    64
  0
VERTEX
  5
793B6
100
AcDbEntity
  8
0
100
AcDbVertex
100
AcDbPolygonMeshVertex
 10
-2.972
 20
-2.15
 30
0.387
 70
    64
  0
VERTEX
  5
793B7
100
AcDbEntity
  8
0
100
AcDbVertex
100
AcDbPolygonMeshVertex
 10
-2.972
 20
-5.54
 30
0.387
 70
    64
  0
VERTEX
  5
793B8
100
AcDbEntity
  8
0
100
AcDbVertex
100
AcDbPolygonMeshVertex
 10
0.388
 20
-2.15
 30
3.827
 70
    64
  0
VERTEX
  5
793B9
100
AcDbEntity
  8
0
100
AcDbVertex
100
AcDbPolygonMeshVertex
 10
0.388
 20
-2.15
 30
0.387
 70
    64
  0
VERTEX
  5
793BA
100
AcDbEntity
  8
0
100
AcDbVertex
100
AcDbPolygonMeshVertex
 10
0.388
 20
-5.54
 30
0.387
 70
    64
  0
VERTEX
  5
793BB
100
AcDbEntity
  8
0
100
AcDbVertex
100
AcDbPolygonMeshVertex
 10
0.388
 20
-2.15
 30
3.827
 70
    64
  0
VERTEX
  5
793BC
100
AcDbEntity
  8
0
100
AcDbVertex
100
AcDbPolygonMeshVertex
 10
0.388
 20
-2.15
 30
3.827
 70
    64
  0
VERTEX
  5
793BD
100
AcDbEntity
  8
0
100
AcDbVertex
100
AcDbPolygonMeshVertex
 10
0.388
 20
-5.54
 30
3.827
 70
    64
  0
VERTEX
  5
793BE
100
AcDbEntity
  8
0
100
AcDbVertex
100
AcDbPolygonMeshVertex
 10
-2.972
 20
-2.15
 30
3.827
 70
    64
  0
VERTEX
  5
793BF
100
AcDbEntity
  8
0
100
AcDbVertex
100
AcDbPolygonMeshVertex
 10
-2.972
 20
-2.15
 30
3.827
 70
    64
  0
VERTEX
  5
793C0
100
AcDbEntity
  8
0
100
AcDbVertex
100
AcDbPolygonMeshVertex
 10
-2.972
 20
-5.54
 30
3.827
 70
    64
  0
SEQEND
  5
793C1
100
AcDbEntity
  8
0
  0
POLYLINE
  5
793C2
100
AcDbEntity
  8
0
100
AcDbPolygonMesh
 66
     1
 10
0.0
 20
0.0
 30
0.0
 70
    16
 71
     6
 72
     3
  0
VERTEX
  5
793C3
100
AcDbEntity
  8
0
100
AcDbVertex
100
AcDbPolygonMeshVertex
 10
0.388
 20
-5.79
 30
3.047
 70
    64
  0
VERTEX
  5
793C4
100
AcDbEntity
  8
0
100
AcDbVertex
100
AcDbPolygonMeshVertex
 10
0.388
 20
-5.79
 30
1.817
 70
    64
  0
VERTEX
  5
793C5
100
AcDbEntity
  8
0
100
AcDbVertex
100
AcDbPolygonMeshVertex
 10
0.388
 20
-5.79
 30
1.817
 70
    64
  0
VERTEX
  5
793C6
100
AcDbEntity
  8
0
100
AcDbVertex
100
AcDbPolygonMeshVertex
 10
-2.972
 20
-5.79
 30
3.047
 70
    64
  0
VERTEX
  5
793C7
100
AcDbEntity
  8
0
100
AcDbVertex
100
AcDbPolygonMeshVertex
 10
-2.972
 20
-5.79
 30
1.817
 70
    64
  0
VERTEX
  5
793C8
100
AcDbEntity
  8
0
100
AcDbVertex
100
AcDbPolygonMeshVertex
 10
-2.972
 20
-5.79
 30
1.817
 70
    64
  0
VERTEX
  5
793C9
100
AcDbEntity
  8
0
100
AcDbVertex
100
AcDbPolygonMeshVertex
 10
-2.972
 20
-5.54
 30
3.047
 70
    64
  0
VERTEX
  5
793CA
100
AcDbEntity
  8
0
100
AcDbVertex
100
AcDbPolygonMeshVertex
 10
-2.972
 20
-5.54
 30
1.817
 70
    64
  0
VERTEX
  5
793CB
100
AcDbEntity
  8
0
100
AcDbVertex
100
AcDbPolygonMeshVertex
 10
-2.972
 20
-5.79
 30
1.817
 70
    64
  0
VERTEX
  5
793CC
100
AcDbEntity
  8
0
100
AcDbVertex
100
AcDbPolygonMeshVertex
 10
0.388
 20
-5.54
 30
3.047
 70
    64
  0
VERTEX
  5
793CD
100
AcDbEntity
  8
0
100
AcDbVertex
100
AcDbPolygonMeshVertex
 10
0.388
 20
-5.54
 30
1.817
 70
    64
  0
VERTEX
  5
793CE
100
AcDbEntity
  8
0
100
AcDbVertex
100
AcDbPolygonMeshVertex
 10
0.388
 20
-5.79
 30
1.817
 70
    64
  0
VERTEX
  5
793CF
100
AcDbEntity
  8
0
100
AcDbVertex
100
AcDbPolygonMeshVertex
 10
0.388
 20
-5.54
 30
3.047
 70
    64
  0
VERTEX
  5
793D0
100
AcDbEntity
  8
0
100
AcDbVertex
100
AcDbPolygonMeshVertex
 10
0.388
 20
-5.54
 30
3.047
 70
    64
  0
VERTEX
  5
793D1
100
AcDbEntity
  8
0
100
AcDbVertex
100
AcDbPolygonMeshVertex
 10
0.388
 20
-5.79
 30
3.047
 70
    64
  0
VERTEX
  5
793D2
100
AcDbEntity
  8
0
100
AcDbVertex
100
AcDbPolygonMeshVertex
 10
-2.972
 20
-5.54
 30
3.047
 70
    64
  0
VERTEX
  5
793D3
100
AcDbEntity
  8
0
100
AcDbVertex
100
AcDbPolygonMeshVertex
 10
-2.972
 20
-5.54
 30
3.047
 70
    64
  0
VERTEX
  5
793D4
100
AcDbEntity
  8
0
100
AcDbVertex
100
AcDbPolygonMeshVertex
 10
-2.972
 20
-5.79
 30
3.047
 70
    64
  0
SEQEND
  5
793D5
100
AcDbEntity
  8
0
  0
POLYLINE
  5
793D6
100
AcDbEntity
  8
0
100
AcDbPolygonMesh
 66
     1
 10
0.0
 20
0.0
 30
0.0
 70
    16
 71
     6
 72
     3
  0
VERTEX
  5
793D7
100
AcDbEntity
  8
0
100
AcDbVertex
100
AcDbPolygonMeshVertex
 10
-2.972
 20
-5.54
 30
0.387
 70
    64
  0
VERTEX
  5
793D8
100
AcDbEntity
  8
0
100
AcDbVertex
100
AcDbPolygonMeshVertex
 10
-2.972
 20
-5.54
 30
0.387
 70
    64
  0
VERTEX
  5
793D9
100
AcDbEntity
  8
0
100
AcDbVertex
100
AcDbPolygonMeshVertex
 10
-2.972
 20
-5.54
 30
0.387
 70
    64
  0
VERTEX
  5
793DA
100
AcDbEntity
  8
0
100
AcDbVertex
100
AcDbPolygonMeshVertex
 10
-2.972
 20
-5.79
 30
1.817
 70
    64
  0
VERTEX
  5
793DB
100
AcDbEntity
  8
0
100
AcDbVertex
100
AcDbPolygonMeshVertex
 10
-2.972
 20
-5.54
 30
1.817
 70
    64
  0
VERTEX
  5
793DC
100
AcDbEntity
  8
0
100
AcDbVertex
100
AcDbPolygonMeshVertex
 10
-2.972
 20
-5.54
 30
1.817
 70
    64
  0
VERTEX
  5
793DD
100
AcDbEntity
  8
0
100
AcDbVertex
100
AcDbPolygonMeshVertex
 10
0.388
 20
-5.79
 30
1.817
 70
    64
  0
VERTEX
  5
793DE
100
AcDbEntity
  8
0
100
AcDbVertex
100
AcDbPolygonMeshVertex
 10
0.388
 20
-5.54
 30
1.817
 70
    64
  0
VERTEX
  5
793DF
100
AcDbEntity
  8
0
100
AcDbVertex
100
AcDbPolygonMeshVertex
 10
-2.972
 20
-5.54
 30
1.817
 70
    64
  0
VERTEX
  5
793E0
100
AcDbEntity
  8
0
100
AcDbVertex
100
AcDbPolygonMeshVertex
 10
0.388
 20
-5.54
 30
0.387
 70
    64
  0
VERTEX
  5
793E1
100
AcDbEntity
  8
0
100
AcDbVertex
100
AcDbPolygonMeshVertex
 10
0.388
 20
-5.54
 30
0.387
 70
    64
  0
VERTEX
  5
793E2
100
AcDbEntity
  8
0
100
AcDbVertex
100
AcDbPolygonMeshVertex
 10
-2.972
 20
-5.54
 30
0.387
 70
    64
  0
VERTEX
  5
793E3
100
AcDbEntity
  8
0
100
AcDbVertex
100
AcDbPolygonMeshVertex
 10
0.388
 20
-5.54
 30
0.387
 70
    64
  0
VERTEX
  5
793E4
100
AcDbEntity
  8
0
100
AcDbVertex
100
AcDbPolygonMeshVertex
 10
0.388
 20
-5.54
 30
0.387
 70
    64
  0
VERTEX
  5
793E5
100
AcDbEntity
  8
0
100
AcDbVertex
100
AcDbPolygonMeshVertex
 10
-2.972
 20
-5.54
 30
0.387
 70
    64
  0
VERTEX
  5
793E6
100
AcDbEntity
  8
0
100
AcDbVertex
100
AcDbPolygonMeshVertex
 10
0.388
 20
-5.79
 30
1.817
 70
    64
  0
VERTEX
  5
793E7
100
AcDbEntity
  8
0
100
AcDbVertex
100
AcDbPolygonMeshVertex
 10
0.388
 20
-5.79
 30
1.817
 70
    64
  0
VERTEX
  5
793E8
100
AcDbEntity
  8
0
100
AcDbVertex
100
AcDbPolygonMeshVertex
 10
-2.972
 20
-5.79
 30
1.817
 70
    64
  0
SEQEND
  5
793E9
100
AcDbEntity
  8
0
  0
POLYLINE
  5
793EA
100
AcDbEntity
  8
0
100
AcDbPolygonMesh
 66
     1
 10
0.0
 20
0.0
 30
0.0
 70
    16
 71
     6
 72
     3
  0
VERTEX
  5
793EB
100
AcDbEntity
  8
0
100
AcDbVertex
100
AcDbPolygonMeshVertex
 10
0.388
 20
-2.15
 30
4.287
 70
    64
  0
VERTEX
  5
793EC
100
AcDbEntity
  8
0
100
AcDbVertex
100
AcDbPolygonMeshVertex
 10
0.388
 20
-2.15
 30
0.387
 70
    64
  0
VERTEX
  5
793ED
100
AcDbEntity
  8
0
100
AcDbVertex
100
AcDbPolygonMeshVertex
 10
0.388
 20
-2.15
 30
0.387
 70
    64
  0
VERTEX
  5
793EE
100
AcDbEntity
  8
0
100
AcDbVertex
100
AcDbPolygonMeshVertex
 10
-2.972
 20
-2.15
 30
4.287
 70
    64
  0
VERTEX
  5
793EF
100
AcDbEntity
  8
0
100
AcDbVertex
100
AcDbPolygonMeshVertex
 10
-2.972
 20
-2.15
 30
0.387
 70
    64
  0
VERTEX
  5
793F0
100
AcDbEntity
  8
0
100
AcDbVertex
100
AcDbPolygonMeshVertex
 10
-2.972
 20
-2.15
 30
0.387
 70
    64
  0
VERTEX
  5
793F1
100
AcDbEntity
  8
0
100
AcDbVertex
100
AcDbPolygonMeshVertex
 10
-2.972
 20
-1.47
 30
4.287
 70
    64
  0
VERTEX
  5
793F2
100
AcDbEntity
  8
0
100
AcDbVertex
100
AcDbPolygonMeshVertex
 10
-2.972
 20
-1.47
 30
0.387
 70
    64
  0
VERTEX
  5
793F3
100
AcDbEntity
  8
0
100
AcDbVertex
100
AcDbPolygonMeshVertex
 10
-2.972
 20
-2.15
 30
0.387
 70
    64
  0
VERTEX
  5
793F4
100
AcDbEntity
  8
0
100
AcDbVertex
100
AcDbPolygonMeshVertex
 10
0.388
 20
-1.47
 30
4.287
 70
    64
  0
VERTEX
  5
793F5
100
AcDbEntity
  8
0
100
AcDbVertex
100
AcDbPolygonMeshVertex
 10
0.388
 20
-1.47
 30
0.387
 70
    64
  0
VERTEX
  5
793F6
100
AcDbEntity
  8
0
100
AcDbVertex
100
AcDbPolygonMeshVertex
 10
0.388
 20
-2.15
 30
0.387
 70
    64
  0
VERTEX
  5
793F7
100
AcDbEntity
  8
0
100
AcDbVertex
100
AcDbPolygonMeshVertex
 10
0.388
 20
-1.47
 30
4.287
 70
    64
  0
VERTEX
  5
793F8
100
AcDbEntity
  8
0
100
AcDbVertex
100
AcDbPolygonMeshVertex
 10
0.388
 20
-1.47
 30
4.287
 70
    64
  0
VERTEX
  5
793F9
100
AcDbEntity
  8
0
100
AcDbVertex
100
AcDbPolygonMeshVertex
 10
0.388
 20
-2.15
 30
4.287
 70
    64
  0
VERTEX
  5
793FA
100
AcDbEntity
  8
0
100
AcDbVertex
100
AcDbPolygonMeshVertex
 10
-2.972
 20
-1.47
 30
4.287
 70
    64
  0
VERTEX
  5
793FB
100
AcDbEntity
  8
0
100
AcDbVertex
100
AcDbPolygonMeshVertex
 10
-2.972
 20
-1.47
 30
4.287
 70
    64
  0
VERTEX
  5
793FC
100
AcDbEntity
  8
0
100
AcDbVertex
100
AcDbPolygonMeshVertex
 10
-2.972
 20
-2.15
 30
4.287
 70
    64
  0
SEQEND
  5
793FD
100
AcDbEntity
  8
0
  0
LINE
  5
793FE
100
AcDbEntity
  8
0
100
AcDbLine
 10
-0.672
 20
-1.47
 30
4.287
 11
-0.672
 21
-1.34
 31
4.287
  0
LINE
  5
793FF
100
AcDbEntity
  8
0
100
AcDbLine
 10
-0.672
 20
-1.34
 30
4.287
 11
-0.852
 21
-1.34
 31
4.287
  0
POLYLINE
  5
79400
100
AcDbEntity
  8
0
100
AcDbPolygonMesh
 66
     1
 10
0.0
 20
0.0
 30
0.0
 70
    16
 71
     6
 72
     3
  0
VERTEX
  5
79401
100
AcDbEntity
  8
0
100
AcDbVertex
100
AcDbPolygonMeshVertex
 10
-0.852
 20
-1.34
 30
4.667
 70
    64
  0
VERTEX
  5
79402
100
AcDbEntity
  8
0
100
AcDbVertex
100
AcDbPolygonMeshVertex
 10
-0.852
 20
-1.34
 30
4.287
 70
    64
  0
VERTEX
  5
79403
100
AcDbEntity
  8
0
100
AcDbVertex
100
AcDbPolygonMeshVertex
 10
-0.852
 20
-1.34
 30
4.287
 70
    64
  0
VERTEX
  5
79404
100
AcDbEntity
  8
0
100
AcDbVertex
100
AcDbPolygonMeshVertex
 10
-0.672
 20
-1.34
 30
4.667
 70
    64
  0
VERTEX
  5
79405
100
AcDbEntity
  8
0
100
AcDbVertex
100
AcDbPolygonMeshVertex
 10
-0.672
 20
-1.34
 30
4.287
 70
    64
  0
VERTEX
  5
79406
100
AcDbEntity
  8
0
100
AcDbVertex
100
AcDbPolygonMeshVertex
 10
-0.672
 20
-1.34
 30
4.287
 70
    64
  0
VERTEX
  5
79407
100
AcDbEntity
  8
0
100
AcDbVertex
100
AcDbPolygonMeshVertex
 10
-0.672
 20
-2.15
 30
4.667
 70
    64
  0
VERTEX
  5
79408
100
AcDbEntity
  8
0
100
AcDbVertex
100
AcDbPolygonMeshVertex
 10
-0.672
 20
-2.15
 30
4.287
 70
    64
  0
VERTEX
  5
79409
100
AcDbEntity
  8
0
100
AcDbVertex
100
AcDbPolygonMeshVertex
 10
-0.672
 20
-1.34
 30
4.287
 70
    64
  0
VERTEX
  5
7940A
100
AcDbEntity
  8
0
100
AcDbVertex
100
AcDbPolygonMeshVertex
 10
-0.852
 20
-2.15
 30
4.667
 70
    64
  0
VERTEX
  5
7940B
100
AcDbEntity
  8
0
100
AcDbVertex
100
AcDbPolygonMeshVertex
 10
-0.852
 20
-2.15
 30
4.287
 70
    64
  0
VERTEX
  5
7940C
100
AcDbEntity
  8
0
100
AcDbVertex
100
AcDbPolygonMeshVertex
 10
-0.852
 20
-1.34
 30
4.287
 70
    64
  0
VERTEX
  5
7940D
100
AcDbEntity
  8
0
100
AcDbVertex
100
AcDbPolygonMeshVertex
 10
-0.852
 20
-2.15
 30
4.667
 70
    64
  0
VERTEX
  5
7940E
100
AcDbEntity
  8
0
100
AcDbVertex
100
AcDbPolygonMeshVertex
 10
-0.852
 20
-2.15
 30
4.667
 70
    64
  0
VERTEX
  5
7940F
100
AcDbEntity
  8
0
100
AcDbVertex
100
AcDbPolygonMeshVertex
 10
-0.852
 20
-1.34
 30
4.667
 70
    64
  0
VERTEX
  5
79410
100
AcDbEntity
  8
0
100
AcDbVertex
100
AcDbPolygonMeshVertex
 10
-0.672
 20
-2.15
 30
4.667
 70
    64
  0
VERTEX
  5
79411
100
AcDbEntity
  8
0
100
AcDbVertex
100
AcDbPolygonMeshVertex
 10
-0.672
 20
-2.15
 30
4.667
 70
    64
  0
VERTEX
  5
79412
100
AcDbEntity
  8
0
100
AcDbVertex
100
AcDbPolygonMeshVertex
 10
-0.672
 20
-1.34
 30
4.667
 70
    64
  0
SEQEND
  5
79413
100
AcDbEntity
  8
0
  0
POLYLINE
  5
79414
100
AcDbEntity
  8
0
100
AcDbPolygonMesh
 66
     1
 10
0.0
 20
0.0
 30
0.0
 70
    16
 71
     6
 72
     3
  0
VERTEX
  5
79415
100
AcDbEntity
  8
0
100
AcDbVertex
100
AcDbPolygonMeshVertex
 10
-0.852
 20
-1.34
 30
4.287
 70
    64
  0
VERTEX
  5
79416
100
AcDbEntity
  8
0
100
AcDbVertex
100
AcDbPolygonMeshVertex
 10
-0.852
 20
-1.34
 30
3.167
 70
    64
  0
VERTEX
  5
79417
100
AcDbEntity
  8
0
100
AcDbVertex
100
AcDbPolygonMeshVertex
 10
-0.852
 20
-1.34
 30
3.167
 70
    64
  0
VERTEX
  5
79418
100
AcDbEntity
  8
0
100
AcDbVertex
100
AcDbPolygonMeshVertex
 10
-0.672
 20
-1.34
 30
4.287
 70
    64
  0
VERTEX
  5
79419
100
AcDbEntity
  8
0
100
AcDbVertex
100
AcDbPolygonMeshVertex
 10
-0.672
 20
-1.34
 30
3.167
 70
    64
  0
VERTEX
  5
7941A
100
AcDbEntity
  8
0
100
AcDbVertex
100
AcDbPolygonMeshVertex
 10
-0.672
 20
-1.34
 30
3.167
 70
    64
  0
VERTEX
  5
7941B
100
AcDbEntity
  8
0
100
AcDbVertex
100
AcDbPolygonMeshVertex
 10
-0.672
 20
-1.47
 30
4.287
 70
    64
  0
VERTEX
  5
7941C
100
AcDbEntity
  8
0
100
AcDbVertex
100
AcDbPolygonMeshVertex
 10
-0.672
 20
-1.47
 30
3.167
 70
    64
  0
VERTEX
  5
7941D
100
AcDbEntity
  8
0
100
AcDbVertex
100
AcDbPolygonMeshVertex
 10
-0.672
 20
-1.34
 30
3.167
 70
    64
  0
VERTEX
  5
7941E
100
AcDbEntity
  8
0
100
AcDbVertex
100
AcDbPolygonMeshVertex
 10
-0.852
 20
-1.47
 30
4.287
 70
    64
  0
VERTEX
  5
7941F
100
AcDbEntity
  8
0
100
AcDbVertex
100
AcDbPolygonMeshVertex
 10
-0.852
 20
-1.47
 30
3.167
 70
    64
  0
VERTEX
  5
79420
100
AcDbEntity
  8
0
100
AcDbVertex
100
AcDbPolygonMeshVertex
 10
-0.852
 20
-1.34
 30
3.167
 70
    64
  0
VERTEX
  5
79421
100
AcDbEntity
  8
0
100
AcDbVertex
100
AcDbPolygonMeshVertex
 10
-0.852
 20
-1.47
 30
4.287
 70
    64
  0
VERTEX
  5
79422
100
AcDbEntity
  8
0
100
AcDbVertex
100
AcDbPolygonMeshVertex
 10
-0.852
 20
-1.47
 30
4.287
 70
    64
  0
VERTEX
  5
79423
100
AcDbEntity
  8
0
100
AcDbVertex
100
AcDbPolygonMeshVertex
 10
-0.852
 20
-1.34
 30
4.287
 70
    64
  0
VERTEX
  5
79424
100
AcDbEntity
  8
0
100
AcDbVertex
100
AcDbPolygonMeshVertex
 10
-0.672
 20
-1.47
 30
4.287
 70
    64
  0
VERTEX
  5
79425
100
AcDbEntity
  8
0
100
AcDbVertex
100
AcDbPolygonMeshVertex
 10
-0.672
 20
-1.47
 30
4.287
 70
    64
  0
VERTEX
  5
79426
100
AcDbEntity
  8
0
100
AcDbVertex
100
AcDbPolygonMeshVertex
 10
-0.672
 20
-1.34
 30
4.287
 70
    64
  0
SEQEND
  5
79427
100
AcDbEntity
  8
0
  0
POLYLINE
  5
79428
100
AcDbEntity
  8
0
100
AcDbPolygonMesh
 66
     1
 10
0.0
 20
0.0
 30
0.0
 70
    16
 71
     6
 72
     3
  0
VERTEX
  5
79429
100
AcDbEntity
  8
0
100
AcDbVertex
100
AcDbPolygonMeshVertex
 10
-1.912
 20
-1.34
 30
4.667
 70
    64
  0
VERTEX
  5
7942A
100
AcDbEntity
  8
0
100
AcDbVertex
100
AcDbPolygonMeshVertex
 10
-1.912
 20
-1.34
 30
4.287
 70
    64
  0
VERTEX
  5
7942B
100
AcDbEntity
  8
0
100
AcDbVertex
100
AcDbPolygonMeshVertex
 10
-1.912
 20
-1.34
 30
4.287
 70
    64
  0
VERTEX
  5
7942C
100
AcDbEntity
  8
0
100
AcDbVertex
100
AcDbPolygonMeshVertex
 10
-1.732
 20
-1.34
 30
4.667
 70
    64
  0
VERTEX
  5
7942D
100
AcDbEntity
  8
0
100
AcDbVertex
100
AcDbPolygonMeshVertex
 10
-1.732
 20
-1.34
 30
4.287
 70
    64
  0
VERTEX
  5
7942E
100
AcDbEntity
  8
0
100
AcDbVertex
100
AcDbPolygonMeshVertex
 10
-1.732
 20
-1.34
 30
4.287
 70
    64
  0
VERTEX
  5
7942F
100
AcDbEntity
  8
0
100
AcDbVertex
100
AcDbPolygonMeshVertex
 10
-1.732
 20
-2.15
 30
4.667
 70
    64
  0
VERTEX
  5
79430
100
AcDbEntity
  8
0
100
AcDbVertex
100
AcDbPolygonMeshVertex
 10
-1.732
 20
-2.15
 30
4.287
 70
    64
  0
VERTEX
  5
79431
100
AcDbEntity
  8
0
100
AcDbVertex
100
AcDbPolygonMeshVertex
 10
-1.732
 20
-1.34
 30
4.287
 70
    64
  0
VERTEX
  5
79432
100
AcDbEntity
  8
0
100
AcDbVertex
100
AcDbPolygonMeshVertex
 10
-1.912
 20
-2.15
 30
4.667
 70
    64
  0
VERTEX
  5
79433
100
AcDbEntity
  8
0
100
AcDbVertex
100
AcDbPolygonMeshVertex
 10
-1.912
 20
-2.15
 30
4.287
 70
    64
  0
VERTEX
  5
79434
100
AcDbEntity
  8
0
100
AcDbVertex
100
AcDbPolygonMeshVertex
 10
-1.912
 20
-1.34
 30
4.287
 70
    64
  0
VERTEX
  5
79435
100
AcDbEntity
  8
0
100
AcDbVertex
100
AcDbPolygonMeshVertex
 10
-1.912
 20
-2.15
 30
4.667
 70
    64
  0
VERTEX
  5
79436
100
AcDbEntity
  8
0
100
AcDbVertex
100
AcDbPolygonMeshVertex
 10
-1.912
 20
-2.15
 30
4.667
 70
    64
  0
VERTEX
  5
79437
100
AcDbEntity
  8
0
100
AcDbVertex
100
AcDbPolygonMeshVertex
 10
-1.912
 20
-1.34
 30
4.667
 70
    64
  0
VERTEX
  5
79438
100
AcDbEntity
  8
0
100
AcDbVertex
100
AcDbPolygonMeshVertex
 10
-1.732
 20
-2.15
 30
4.667
 70
    64
  0
VERTEX
  5
79439
100
AcDbEntity
  8
0
100
AcDbVertex
100
AcDbPolygonMeshVertex
 10
-1.732
 20
-2.15
 30
4.667
 70
    64
  0
VERTEX
  5
7943A
100
AcDbEntity
  8
0
100
AcDbVertex
100
AcDbPolygonMeshVertex
 10
-1.732
 20
-1.34
 30
4.667
 70
    64
  0
SEQEND
  5
7943B
100
AcDbEntity
  8
0
  0
POLYLINE
  5
7943C
100
AcDbEntity
  8
0
100
AcDbPolygonMesh
 66
     1
 10
0.0
 20
0.0
 30
0.0
 70
    16
 71
     6
 72
     3
  0
VERTEX
  5
7943D
100
AcDbEntity
  8
0
100
AcDbVertex
100
AcDbPolygonMeshVertex
 10
-1.912
 20
-1.34
 30
4.287
 70
    64
  0
VERTEX
  5
7943E
100
AcDbEntity
  8
0
100
AcDbVertex
100
AcDbPolygonMeshVertex
 10
-1.912
 20
-1.34
 30
3.167
 70
    64
  0
VERTEX
  5
7943F
100
AcDbEntity
  8
0
100
AcDbVertex
100
AcDbPolygonMeshVertex
 10
-1.912
 20
-1.34
 30
3.167
 70
    64
  0
VERTEX
  5
79440
100
AcDbEntity
  8
0
100
AcDbVertex
100
AcDbPolygonMeshVertex
 10
-1.732
 20
-1.34
 30
4.287
 70
    64
  0
VERTEX
  5
79441
100
AcDbEntity
  8
0
100
AcDbVertex
100
AcDbPolygonMeshVertex
 10
-1.732
 20
-1.34
 30
3.167
 70
    64
  0
VERTEX
  5
79442
100
AcDbEntity
  8
0
100
AcDbVertex
100
AcDbPolygonMeshVertex
 10
-1.732
 20
-1.34
 30
3.167
 70
    64
  0
VERTEX
  5
79443
100
AcDbEntity
  8
0
100
AcDbVertex
100
AcDbPolygonMeshVertex
 10
-1.732
 20
-1.47
 30
4.287
 70
    64
  0
VERTEX
  5
79444
100
AcDbEntity
  8
0
100
AcDbVertex
100
AcDbPolygonMeshVertex
 10
-1.732
 20
-1.47
 30
3.167
 70
    64
  0
VERTEX
  5
79445
100
AcDbEntity
  8
0
100
AcDbVertex
100
AcDbPolygonMeshVertex
 10
-1.732
 20
-1.34
 30
3.167
 70
    64
  0
VERTEX
  5
79446
100
AcDbEntity
  8
0
100
AcDbVertex
100
AcDbPolygonMeshVertex
 10
-1.912
 20
-1.47
 30
4.287
 70
    64
  0
VERTEX
  5
79447
100
AcDbEntity
  8
0
100
AcDbVertex
100
AcDbPolygonMeshVertex
 10
-1.912
 20
-1.47
 30
3.167
 70
    64
  0
VERTEX
  5
79448
100
AcDbEntity
  8
0
100
AcDbVertex
100
AcDbPolygonMeshVertex
 10
-1.912
 20
-1.34
 30
3.167
 70
    64
  0
VERTEX
  5
79449
100
AcDbEntity
  8
0
100
AcDbVertex
100
AcDbPolygonMeshVertex
 10
-1.912
 20
-1.47
 30
4.287
 70
    64
  0
VERTEX
  5
7944A
100
AcDbEntity
  8
0
100
AcDbVertex
100
AcDbPolygonMeshVertex
 10
-1.912
 20
-1.47
 30
4.287
 70
    64
  0
VERTEX
  5
7944B
100
AcDbEntity
  8
0
100
AcDbVertex
100
AcDbPolygonMeshVertex
 10
-1.912
 20
-1.34
 30
4.287
 70
    64
  0
VERTEX
  5
7944C
100
AcDbEntity
  8
0
100
AcDbVertex
100
AcDbPolygonMeshVertex
 10
-1.732
 20
-1.47
 30
4.287
 70
    64
  0
VERTEX
  5
7944D
100
AcDbEntity
  8
0
100
AcDbVertex
100
AcDbPolygonMeshVertex
 10
-1.732
 20
-1.47
 30
4.287
 70
    64
  0
VERTEX
  5
7944E
100
AcDbEntity
  8
0
100
AcDbVertex
100
AcDbPolygonMeshVertex
 10
-1.732
 20
-1.34
 30
4.287
 70
    64
  0
SEQEND
  5
7944F
100
AcDbEntity
  8
0
  0
LINE
  5
79450
100
AcDbEntity
  8
0
100
AcDbLine
 10
-2.572
 20
-6.690001
 30
0.387
 11
-2.572
 21
-6.690001
 31
0.197
  0
3DFACE
  5
79451
100
AcDbEntity
  8
0
100
AcDbFace
 10
0.483
 20
-1.31
 30
0.387
 11
-0.137
 21
-0.69
 31
0.387
 12
-1.577
 22
-0.69
 32
0.387
 13
-1.677
 23
-0.97
 33
0.387
 70
     8
  0
3DFACE
  5
79452
100
AcDbEntity
  8
0
100
AcDbFace
 10
-2.167
 20
-0.97
 30
0.387
 11
-2.267
 21
-0.69
 31
0.387
 12
-2.457
 22
-0.69
 32
0.387
 13
-3.077
 23
-1.31
 33
0.387
 70
     8
  0
3DFACE
  5
79453
100
AcDbEntity
  8
0
100
AcDbFace
 10
-2.167
 20
-0.97
 30
0.387
 11
-3.077
 21
-1.31
 31
0.387
 12
0.483
 22
-1.31
 32
0.387
 13
-1.677
 23
-0.97
 33
0.387
 70
    15
  0
3DFACE
  5
79454
100
AcDbEntity
  8
0
100
AcDbFace
 10
-2.167
 20
-0.97
 30
0.197
 11
-3.077
 21
-1.31
 31
0.197
 12
0.483
 22
-1.31
 32
0.197
 13
-1.677
 23
-0.97
 33
0.197
 70
    15
  0
3DFACE
  5
79455
100
AcDbEntity
  8
0
100
AcDbFace
 10
0.483
 20
-1.31
 30
0.197
 11
-0.137
 21
-0.69
 31
0.197
 12
-1.577
 22
-0.69
 32
0.197
 13
-1.677
 23
-0.97
 33
0.197
 70
     8
  0
3DFACE
  5
79456
100
AcDbEntity
  8
0
100
AcDbFace
 10
-2.167
 20
-0.97
 30
0.197
 11
-2.267
 21
-0.69
 31
0.197
 12
-2.457
 22
-0.69
 32
0.197
 13
-3.077
 23
-1.31
 33
0.197
 70
     8
  0
3DFACE
  5
79457
100
AcDbEntity
  8
0
100
AcDbFace
 10
0.483
 20
-1.31
 30
0.197
 11
0.483
 21
-1.31
 31
0.387
 12
-0.137
 22
-0.69
 32
0.387
 13
-0.137
 23
-0.69
 33
0.197
  0
3DFACE
  5
79458
100
AcDbEntity
  8
0
100
AcDbFace
 10
-0.137
 20
-0.69
 30
0.387
 11
-1.577
 21
-0.69
 31
0.387
 12
-1.577
 22
-0.69
 32
0.197
 13
-0.137
 23
-0.69
 33
0.197
  0
3DFACE
  5
79459
100
AcDbEntity
  8
0
100
AcDbFace
 10
-2.167
 20
-0.97
 30
0.387
 11
-2.167
 21
-0.97
 31
0.197
 12
-2.267
 22
-0.69
 32
0.197
 13
-2.267
 23
-0.69
 33
0.387
  0
3DFACE
  5
7945A
100
AcDbEntity
  8
0
100
AcDbFace
 10
-1.677
 20
-0.97
 30
0.387
 11
-1.677
 21
-0.97
 31
0.197
 12
-2.167
 22
-0.97
 32
0.197
 13
-2.167
 23
-0.97
 33
0.387
  0
3DFACE
  5
7945B
100
AcDbEntity
  8
0
100
AcDbFace
 10
-2.267
 20
-0.69
 30
0.387
 11
-2.267
 21
-0.69
 31
0.197
 12
-2.457
 22
-0.69
 32
0.197
 13
-2.457
 23
-0.69
 33
0.387
  0
3DFACE
  5
7945C
100
AcDbEntity
  8
0
100
AcDbFace
 10
-1.677
 20
-0.97
 30
0.387
 11
-1.677
 21
-0.97
 31
0.197
 12
-1.577
 22
-0.69
 32
0.197
 13
-1.577
 23
-0.69
 33
0.387
  0
3DFACE
  5
7945D
100
AcDbEntity
  8
0
100
AcDbFace
 10
-2.457
 20
-0.69
 30
0.197
 11
-2.457
 21
-0.69
 31
0.387
 12
-3.077
 22
-1.31
 32
0.387
 13
-3.077
 23
-1.31
 33
0.197
  0
LINE
  5
7945E
100
AcDbEntity
  8
0
100
AcDbLine
 10
1.216
 20
-5.79
 30
1.817
 11
1.216
 21
-5.79
 31
3.047
  0
LINE
  5
7945F
100
AcDbEntity
  8
0
100
AcDbLine
 10
1.616
 20
-8.31
 30
0.197
 11
1.616
 21
-8.06
 31
0.197
  0
LINE
  5
79460
100
AcDbEntity
  8
0
100
AcDbLine
 10
1.616
 20
-8.31
 30
0.387
 11
1.616
 21
-8.06
 31
0.387
  0
LINE
  5
79461
100
AcDbEntity
  8
0
100
AcDbLine
 10
1.416
 20
-8.06
 30
0.197
 11
1.416
 21
-8.31
 31
0.197
  0
LINE
  5
79462
100
AcDbEntity
  8
0
100
AcDbLine
 10
1.416
 20
-8.06
 30
0.387
 11
1.416
 21
-8.31
 31
0.387
  0
LINE
  5
79463
100
AcDbEntity
  8
0
100
AcDbLine
 10
1.416
 20
-8.31
 30
0.197
 11
1.416
 21
-8.31
 31
0.387
  0
LINE
  5
79464
100
AcDbEntity
  8
0
100
AcDbLine
 10
1.616
 20
-8.06
 30
0.197
 11
1.616
 21
-8.06
 31
0.387
  0
LINE
  5
79465
100
AcDbEntity
  8
0
100
AcDbLine
 10
1.416
 20
-8.06
 30
0.197
 11
1.416
 21
-8.06
 31
0.387
  0
ARC
  5
79466
100
AcDbEntity
  8
0
100
AcDbCircle
 10
1.516
 20
-8.06
 30
0.197
 40
0.1
100
AcDbArc
 50
0.0
 51
179.999985
  0
ARC
  5
79467
100
AcDbEntity
  8
0
100
AcDbCircle
 10
1.516
 20
-8.06
 30
0.387
 40
0.1
100
AcDbArc
 50
0.0
 51
179.999985
  0
3DFACE
  5
79468
100
AcDbEntity
  8
0
100
AcDbFace
 10
4.366
 20
-8.06
 30
0.387
 11
4.366
 21
-8.06
 31
0.197
 12
4.366
 22
-8.31
 32
0.197
 13
4.366
 23
-8.31
 33
0.387
 70
    14
  0
LINE
  5
79469
100
AcDbEntity
  8
0
100
AcDbLine
 10
4.166
 20
-8.06
 30
0.197
 11
4.166
 21
-8.31
 31
0.197
  0
LINE
  5
7946A
100
AcDbEntity
  8
0
100
AcDbLine
 10
4.366
 20
-8.31
 30
0.197
 11
4.366
 21
-8.06
 31
0.197
  0
LINE
  5
7946B
100
AcDbEntity
  8
0
100
AcDbLine
 10
4.166
 20
-8.06
 30
0.387
 11
4.166
 21
-8.31
 31
0.387
  0
LINE
  5
7946C
100
AcDbEntity
  8
0
100
AcDbLine
 10
4.366
 20
-8.31
 30
0.387
 11
4.366
 21
-8.06
 31
0.387
  0
LINE
  5
7946D
100
AcDbEntity
  8
0
100
AcDbLine
 10
4.166
 20
-8.31
 30
0.197
 11
4.166
 21
-8.31
 31
0.387
  0
LINE
  5
7946E
100
AcDbEntity
  8
0
100
AcDbLine
 10
4.366
 20
-8.31
 30
0.197
 11
4.366
 21
-8.31
 31
0.387
  0
LINE
  5
7946F
100
AcDbEntity
  8
0
100
AcDbLine
 10
4.166
 20
-8.06
 30
0.197
 11
4.166
 21
-8.06
 31
0.387
  0
LINE
  5
79470
100
AcDbEntity
  8
0
100
AcDbLine
 10
4.366
 20
-8.06
 30
0.197
 11
4.366
 21
-8.06
 31
0.387
  0
ARC
  5
79471
100
AcDbEntity
  8
0
100
AcDbCircle
 10
4.266
 20
-8.06
 30
0.197
 40
0.1
100
AcDbArc
 50
0.0
 51
179.999985
  0
ARC
  5
79472
100
AcDbEntity
  8
0
100
AcDbCircle
 10
4.266
 20
-8.06
 30
0.387
 40
0.1
100
AcDbArc
 50
0.0
 51
179.999985
  0
CIRCLE
  5
79473
100
AcDbEntity
  8
0
100
AcDbCircle
 10
1.766
 20
-6.128219
 30
5.178531
 40
0.155
210
0.0
220
-0.3163624652213708
230
0.9486383876899864
  0
LINE
  5
79474
100
AcDbEntity
  8
0
100
AcDbLine
 10
1.745925
 20
-7.597557
 30
2.925192
 11
1.766414
 21
-7.304718
 31
3.022851
210
0.0
220
-0.3163624652213708
230
0.9486383876899864
  0
LINE
  5
79475
100
AcDbEntity
  8
0
100
AcDbLine
 10
1.765042
 20
-7.598819
 30
2.924771
 11
1.785531
 21
-7.30598
 31
3.02243
210
0.0
220
-0.3163624652213708
230
0.9486383876899864
  0
CIRCLE
  5
79476
100
AcDbEntity
  8
0
100
AcDbCircle
 10
2.826
 20
-6.128219
 30
5.178531
 40
0.155
210
0.0
220
-0.3163624652213708
230
0.9486383876899864
  0
LINE
  5
79477
100
AcDbEntity
  8
0
100
AcDbLine
 10
2.825042
 20
-7.598819
 30
2.924771
 11
2.845531
 21
-7.30598
 31
3.02243
210
0.0
220
-0.3163624652213708
230
0.9486383876899864
  0
LINE
  5
79478
100
AcDbEntity
  8
0
100
AcDbLine
 10
2.805925
 20
-7.597557
 30
2.925192
 11
2.826414
 21
-7.304718
 31
3.022851
210
0.0
220
-0.3163624652213708
230
0.9486383876899864
  0
LINE
  5
79479
100
AcDbEntity
  8
0
100
AcDbLine
 10
2.173
 20
-6.29
 30
4.157
 11
2.173
 21
-6.29
 31
3.837
  0
LINE
  5
7947A
100
AcDbEntity
  8
0
100
AcDbLine
 10
2.423
 20
-6.29
 30
4.157
 11
2.423
 21
-6.29
 31
3.837
  0
LINE
  5
7947B
100
AcDbEntity
  8
0
100
AcDbLine
 10
2.423
 20
-6.04
 30
4.157
 11
2.423
 21
-6.04
 31
3.837
  0
LINE
  5
7947C
100
AcDbEntity
  8
0
100
AcDbLine
 10
2.173
 20
-6.04
 30
4.157
 11
2.173
 21
-6.04
 31
3.837
  0
LINE
  5
7947D
100
AcDbEntity
  8
0
100
AcDbLine
 10
2.423
 20
-6.04
 30
4.157
 11
2.423
 21
-6.04
 31
3.837
  0
3DFACE
  5
7947E
100
AcDbEntity
  8
0
100
AcDbFace
 10
2.423
 20
-6.29
 30
4.157
 11
2.423
 21
-6.29
 31
3.837
 12
2.423
 22
-6.04
 32
3.837
 13
2.423
 23
-6.04
 33
4.157
 70
    14
  0
3DFACE
  5
7947F
100
AcDbEntity
  8
0
100
AcDbFace
 10
2.423
 20
-6.04
 30
3.837
 11
2.423
 21
-6.04
 31
4.157
 12
2.423
 22
-6.29
 32
4.157
 13
2.423
 23
-6.29
 33
3.837
 70
     3
  0
3DFACE
  5
79480
100
AcDbEntity
  8
0
100
AcDbFace
 10
2.423
 20
-6.29
 30
4.157
 11
2.423
 21
-6.29
 31
3.837
 12
2.423
 22
-6.04
 32
3.837
 13
2.423
 23
-6.04
 33
3.837
 70
    14
  0
3DFACE
  5
79481
100
AcDbEntity
  8
0
100
AcDbFace
 10
2.423
 20
-6.04
 30
3.837
 11
2.173
 21
-6.04
 31
3.837
 12
2.173
 22
-6.04
 32
4.157
 13
2.423
 23
-6.04
 33
4.157
 70
    14
  0
3DFACE
  5
79482
100
AcDbEntity
  8
0
100
AcDbFace
 10
2.173
 20
-6.04
 30
4.157
 11
2.173
 21
-6.29
 31
4.157
 12
2.173
 22
-6.29
 32
3.837
 13
2.173
 23
-6.04
 33
3.837
 70
    14
  0
3DFACE
  5
79483
100
AcDbEntity
  8
0
100
AcDbFace
 10
2.173
 20
-6.29
 30
4.157
 11
2.173
 21
-6.29
 31
3.837
 12
2.423
 22
-6.29
 32
3.837
 13
2.423
 23
-6.29
 33
4.157
 70
    14
  0
LINE
  5
79484
100
AcDbEntity
  8
0
100
AcDbLine
 10
2.423
 20
-6.29
 30
3.837
 11
2.173
 21
-6.29
 31
3.837
  0
LINE
  5
79485
100
AcDbEntity
  8
0
100
AcDbLine
 10
2.173
 20
-6.04
 30
3.837
 11
2.423
 21
-6.04
 31
3.837
  0
LINE
  5
79486
100
AcDbEntity
  8
0
100
AcDbLine
 10
2.173
 20
-6.29
 30
3.837
 11
2.173
 21
-6.04
 31
3.837
  0
LINE
  5
79487
100
AcDbEntity
  8
0
100
AcDbLine
 10
2.423
 20
-6.04
 30
3.837
 11
2.423
 21
-6.29
 31
3.837
  0
3DFACE
  5
79488
100
AcDbEntity
  8
0
100
AcDbFace
 10
1.988
 20
-5.79
 30
4.747
 11
2.608
 21
-5.79
 31
4.747
 12
2.608
 22
-5.79
 32
4.622
 13
1.988
 23
-5.79
 33
4.622
 70
    14
  0
LINE
  5
79489
100
AcDbEntity
  8
0
100
AcDbLine
 10
1.988
 20
-5.79
 30
4.747
 11
2.608
 21
-5.79
 31
4.747
  0
LINE
  5
7948A
100
AcDbEntity
  8
0
100
AcDbLine
 10
1.988
 20
-5.79
 30
4.622
 11
2.608
 21
-5.79
 31
4.622
  0
LINE
  5
7948B
100
AcDbEntity
  8
0
100
AcDbLine
 10
2.048
 20
-5.915
 30
4.157
 11
2.548
 21
-5.915
 31
4.157
  0
3DFACE
  5
7948C
100
AcDbEntity
  8
0
100
AcDbFace
 10
2.608
 20
-5.79
 30
4.622
 11
1.988
 21
-5.79
 31
4.622
 12
2.048
 22
-5.915
 32
4.157
 13
2.548
 23
-5.915
 33
4.157
 70
    14
  0
LINE
  5
7948D
100
AcDbEntity
  8
0
100
AcDbLine
 10
2.608
 20
-6.54
 30
4.622
 11
1.988
 21
-6.54
 31
4.622
  0
3DFACE
  5
7948E
100
AcDbEntity
  8
0
100
AcDbFace
 10
1.988
 20
-6.54
 30
4.747
 11
2.608
 21
-6.54
 31
4.747
 12
2.608
 22
-6.54
 32
4.622
 13
1.988
 23
-6.54
 33
4.622
 70
    14
  0
LINE
  5
7948F
100
AcDbEntity
  8
0
100
AcDbLine
 10
2.608
 20
-6.54
 30
4.747
 11
1.988
 21
-6.54
 31
4.747
  0
LINE
  5
79490
100
AcDbEntity
  8
0
100
AcDbLine
 10
2.548
 20
-6.415
 30
4.157
 11
2.048
 21
-6.415
 31
4.157
  0
3DFACE
  5
79491
100
AcDbEntity
  8
0
100
AcDbFace
 10
1.988
 20
-6.54
 30
4.622
 11
2.608
 21
-6.54
 31
4.622
 12
2.548
 22
-6.415
 32
4.157
 13
2.048
 23
-6.415
 33
4.157
 70
    14
  0
3DFACE
  5
79492
100
AcDbEntity
  8
0
100
AcDbFace
 10
1.988
 20
-5.79
 30
4.747
 11
2.608
 21
-5.79
 31
4.747
 12
2.608
 22
-6.54
 32
4.747
 13
1.988
 23
-6.54
 33
4.747
 70
    14
  0
LINE
  5
79493
100
AcDbEntity
  8
0
100
AcDbLine
 10
2.173
 20
-6.29
 30
4.157
 11
2.423
 21
-6.29
 31
4.157
  0
LINE
  5
79494
100
AcDbEntity
  8
0
100
AcDbLine
 10
2.173
 20
-6.04
 30
4.157
 11
2.423
 21
-6.04
 31
4.157
  0
LINE
  5
79495
100
AcDbEntity
  8
0
100
AcDbLine
 10
1.988
 20
-6.54
 30
4.622
 11
1.988
 21
-5.79
 31
4.622
  0
3DFACE
  5
79496
100
AcDbEntity
  8
0
100
AcDbFace
 10
1.988
 20
-5.79
 30
4.747
 11
1.988
 21
-5.79
 31
4.622
 12
1.988
 22
-6.54
 32
4.622
 13
1.988
 23
-6.54
 33
4.747
 70
    14
  0
LINE
  5
79497
100
AcDbEntity
  8
0
100
AcDbLine
 10
1.988
 20
-6.54
 30
4.747
 11
1.988
 21
-5.79
 31
4.747
  0
LINE
  5
79498
100
AcDbEntity
  8
0
100
AcDbLine
 10
2.048
 20
-5.915
 30
4.157
 11
2.048
 21
-6.415
 31
4.157
  0
LINE
  5
79499
100
AcDbEntity
  8
0
100
AcDbLine
 10
2.173
 20
-6.29
 30
4.157
 11
2.173
 21
-6.04
 31
4.157
  0
3DFACE
  5
7949A
100
AcDbEntity
  8
0
100
AcDbFace
 10
1.988
 20
-5.79
 30
4.622
 11
2.048
 21
-5.915
 31
4.157
 12
2.048
 22
-6.415
 32
4.157
 13
1.988
 23
-6.54
 33
4.622
 70
    14
  0
LINE
  5
7949B
100
AcDbEntity
  8
0
100
AcDbLine
 10
2.048
 20
-6.415
 30
4.157
 11
1.988
 21
-6.54
 31
4.622
  0
LINE
  5
7949C
100
AcDbEntity
  8
0
100
AcDbLine
 10
1.988
 20
-6.54
 30
4.622
 11
1.988
 21
-6.54
 31
4.747
  0
LINE
  5
7949D
100
AcDbEntity
  8
0
100
AcDbLine
 10
1.988
 20
-5.79
 30
4.622
 11
2.048
 21
-5.915
 31
4.157
  0
LINE
  5
7949E
100
AcDbEntity
  8
0
100
AcDbLine
 10
1.988
 20
-5.79
 30
4.747
 11
1.988
 21
-5.79
 31
4.622
  0
3DFACE
  5
7949F
100
AcDbEntity
  8
0
100
AcDbFace
 10
2.608
 20
-5.79
 30
4.747
 11
2.608
 21
-6.54
 31
4.747
 12
2.608
 22
-6.54
 32
4.622
 13
2.608
 23
-5.79
 33
4.622
 70
    14
  0
LINE
  5
794A0
100
AcDbEntity
  8
0
100
AcDbLine
 10
2.608
 20
-5.79
 30
4.747
 11
2.608
 21
-6.54
 31
4.747
  0
LINE
  5
794A1
100
AcDbEntity
  8
0
100
AcDbLine
 10
2.608
 20
-5.79
 30
4.622
 11
2.608
 21
-6.54
 31
4.622
  0
LINE
  5
794A2
100
AcDbEntity
  8
0
100
AcDbLine
 10
2.423
 20
-6.04
 30
4.157
 11
2.423
 21
-6.29
 31
4.157
  0
LINE
  5
794A3
100
AcDbEntity
  8
0
100
AcDbLine
 10
2.548
 20
-5.915
 30
4.157
 11
2.548
 21
-6.415
 31
4.157
  0
3DFACE
  5
794A4
100
AcDbEntity
  8
0
100
AcDbFace
 10
2.608
 20
-6.54
 30
4.622
 11
2.548
 21
-6.415
 31
4.157
 12
2.548
 22
-5.915
 32
4.157
 13
2.608
 23
-5.79
 33
4.622
 70
    14
  0
LINE
  5
794A5
100
AcDbEntity
  8
0
100
AcDbLine
 10
2.608
 20
-6.54
 30
4.622
 11
2.548
 21
-6.415
 31
4.157
  0
LINE
  5
794A6
100
AcDbEntity
  8
0
100
AcDbLine
 10
2.608
 20
-6.54
 30
4.747
 11
2.608
 21
-6.54
 31
4.622
  0
LINE
  5
794A7
100
AcDbEntity
  8
0
100
AcDbLine
 10
2.608
 20
-5.79
 30
4.622
 11
2.548
 21
-5.915
 31
4.157
  0
LINE
  5
794A8
100
AcDbEntity
  8
0
100
AcDbLine
 10
2.608
 20
-5.79
 30
4.747
 11
2.608
 21
-5.79
 31
4.622
  0
CIRCLE
  5
794A9
100
AcDbEntity
  8
0
100
AcDbCircle
 10
3.886
 20
-6.128219
 30
5.178531
 40
0.155
210
0.0
220
-0.3163624652213708
230
0.9486383876899864
  0
LINE
  5
794AA
100
AcDbEntity
  8
0
100
AcDbLine
 10
3.885042
 20
-7.598819
 30
2.924771
 11
3.905531
 21
-7.30598
 31
3.02243
210
0.0
220
-0.3163624652213708
230
0.9486383876899864
  0
LINE
  5
794AB
100
AcDbEntity
  8
0
100
AcDbLine
 10
3.865925
 20
-7.597557
 30
2.925192
 11
3.886414
 21
-7.304718
 31
3.022851
210
0.0
220
-0.3163624652213708
230
0.9486383876899864
  0
CIRCLE
  5
794AC
100
AcDbEntity
  8
0
100
AcDbCircle
 10
3.276
 20
-0.97
 30
0.387
 40
0.1
  0
CIRCLE
  5
794AD
100
AcDbEntity
  8
0
100
AcDbCircle
 10
3.276
 20
-0.97
 30
0.387
 40
0.1
  0
LINE
  5
794AE
100
AcDbEntity
  8
0
100
AcDbLine
 10
2.611
 20
-0.69
 30
0.197
 11
4.051
 21
-0.69
 31
0.197
  0
LINE
  5
794AF
100
AcDbEntity
  8
0
100
AcDbLine
 10
2.611
 20
-0.69
 30
0.387
 11
4.051
 21
-0.69
 31
0.387
  0
3DFACE
  5
794B0
100
AcDbEntity
  8
0
100
AcDbFace
 10
1.921
 20
-0.69
 30
0.387
 11
1.731
 21
-0.69
 31
0.387
 12
1.731
 22
-0.69
 32
0.197
 13
1.921
 23
-0.69
 33
0.197
 70
    14
  0
LINE
  5
794B1
100
AcDbEntity
  8
0
100
AcDbLine
 10
1.731
 20
-0.69
 30
0.197
 11
1.921
 21
-0.69
 31
0.197
  0
LINE
  5
794B2
100
AcDbEntity
  8
0
100
AcDbLine
 10
1.731
 20
-0.69
 30
0.387
 11
1.921
 21
-0.69
 31
0.387
  0
ARC
  5
794B3
100
AcDbEntity
  8
0
100
AcDbCircle
 10
2.896
 20
-0.97
 30
0.387
 40
0.1015
100
AcDbArc
 50
0.0
 51
179.999985
  0
ARC
  5
794B4
100
AcDbEntity
  8
0
100
AcDbCircle
 10
2.896
 20
-0.97
 30
0.387
 40
0.1015
100
AcDbArc
 50
0.0
 51
179.999985
  0
LINE
  5
794B5
100
AcDbEntity
  8
0
100
AcDbLine
 10
2.9975
 20
-1.102159
 30
0.197
 11
2.9975
 21
-1.102159
 31
0.387
  0
LINE
  5
794B6
100
AcDbEntity
  8
0
100
AcDbLine
 10
2.9975
 20
-0.97
 30
0.197
 11
2.9975
 21
-0.97
 31
0.387
  0
LINE
  5
794B7
100
AcDbEntity
  8
0
100
AcDbLine
 10
2.7945
 20
-0.97
 30
0.197
 11
2.7945
 21
-0.97
 31
0.387
  0
ARC
  5
794B8
100
AcDbEntity
  8
0
100
AcDbCircle
 10
2.896
 20
-1.313
 30
0.387
 40
0.234
100
AcDbArc
 50
115.70649
 51
64.293579
  0
ARC
  5
794B9
100
AcDbEntity
  8
0
100
AcDbCircle
 10
2.896
 20
-1.313
 30
0.387
 40
0.234
100
AcDbArc
 50
115.70649
 51
64.293579
  0
LINE
  5
794BA
100
AcDbEntity
  8
0
100
AcDbLine
 10
2.7945
 20
-0.97
 30
0.387
 11
2.7945
 21
-1.102159
 31
0.387
  0
LINE
  5
794BB
100
AcDbEntity
  8
0
100
AcDbLine
 10
2.7945
 20
-0.97
 30
0.387
 11
2.7945
 21
-1.102159
 31
0.387
  0
LINE
  5
794BC
100
AcDbEntity
  8
0
100
AcDbLine
 10
2.9975
 20
-0.97
 30
0.387
 11
2.9975
 21
-1.102159
 31
0.387
  0
LINE
  5
794BD
100
AcDbEntity
  8
0
100
AcDbLine
 10
2.9975
 20
-0.97
 30
0.387
 11
2.9975
 21
-1.102159
 31
0.387
  0
LINE
  5
794BE
100
AcDbEntity
  8
0
100
AcDbLine
 10
4.051
 20
-0.69
 30
0.197
 11
4.671
 21
-1.31
 31
0.197
  0
LINE
  5
794BF
100
AcDbEntity
  8
0
100
AcDbLine
 10
4.051
 20
-0.69
 30
0.387
 11
4.671
 21
-1.31
 31
0.387
  0
LINE
  5
794C0
100
AcDbEntity
  8
0
100
AcDbLine
 10
3.376
 20
-0.97
 30
0.197
 11
3.376
 21
-0.97
 31
0.387
  0
CIRCLE
  5
794C1
100
AcDbEntity
  8
0
100
AcDbCircle
 10
3.276
 20
-0.97
 30
0.197
 40
0.1
  0
ARC
  5
794C2
100
AcDbEntity
  8
0
100
AcDbCircle
 10
2.896
 20
-1.313
 30
0.197
 40
0.234
100
AcDbArc
 50
115.70649
 51
64.293579
  0
LINE
  5
794C3
100
AcDbEntity
  8
0
100
AcDbLine
 10
2.9975
 20
-0.97
 30
0.197
 11
2.9975
 21
-1.102159
 31
0.197
  0
ARC
  5
794C4
100
AcDbEntity
  8
0
100
AcDbCircle
 10
2.896
 20
-0.97
 30
0.197
 40
0.1015
100
AcDbArc
 50
0.0
 51
179.999985
  0
LINE
  5
794C5
100
AcDbEntity
  8
0
100
AcDbLine
 10
2.7945
 20
-0.97
 30
0.197
 11
2.7945
 21
-1.102159
 31
0.197
  0
LINE
  5
794C6
100
AcDbEntity
  8
0
100
AcDbLine
 10
2.7945
 20
-1.102159
 30
0.197
 11
2.7945
 21
-1.102159
 31
0.387
  0
POLYLINE
  5
794C7
100
AcDbEntity
  8
0
100
AcDb3dPolyline
 66
     1
 10
0.0
 20
0.0
 30
0.0
 70
     8
  0
VERTEX
  5
794C8
100
AcDbEntity
  8
0
100
AcDbVertex
100
AcDb3dPolylineVertex
 10
7.126983
 20
-2.835438
 30
0.387
 70
    32
  0
VERTEX
  5
7971D
100
AcDbEntity
  8
0
100
AcDbVertex
100
AcDb3dPolylineVertex
 10
7.126983
 20
-2.835438
 30
0.387
 70
    32
  0
SEQEND
  5
794C9
100
AcDbEntity
  8
0
  0
LINE
  5
794CA
100
AcDbEntity
  8
0
100
AcDbLine
 10
1.216
 20
-7.2
 30
3.047
 11
1.216
 21
-7.2
 31
0.387
  0
LINE
  5
794CB
100
AcDbEntity
  8
0
100
AcDbLine
 10
4.576
 20
-5.79
 30
1.817
 11
4.576
 21
-7.592911
 31
1.817
  0
LINE
  5
794CC
100
AcDbEntity
  8
0
100
AcDbLine
 10
1.216
 20
-7.61
 30
1.967
 11
1.216
 21
-7.61
 31
1.817
  0
LINE
  5
794CD
100
AcDbEntity
  8
0
100
AcDbLine
 10
1.216
 20
-7.61
 30
1.817
 11
1.216
 21
-7.61
 31
0.387
  0
POLYLINE
  5
794CE
100
AcDbEntity
  8
0
100
AcDbPolygonMesh
 66
     1
 10
0.0
 20
0.0
 30
0.0
 70
    16
 71
     6
 72
     3
  0
VERTEX
  5
794CF
100
AcDbEntity
  8
0
100
AcDbVertex
100
AcDbPolygonMeshVertex
 10
4.576
 20
-7.61
 30
2.897
 70
    64
  0
VERTEX
  5
794D0
100
AcDbEntity
  8
0
100
AcDbVertex
100
AcDbPolygonMeshVertex
 10
4.576
 20
-7.61
 30
0.387
 70
    64
  0
VERTEX
  5
794D1
100
AcDbEntity
  8
0
100
AcDbVertex
100
AcDbPolygonMeshVertex
 10
4.576
 20
-7.61
 30
0.387
 70
    64
  0
VERTEX
  5
794D2
100
AcDbEntity
  8
0
100
AcDbVertex
100
AcDbPolygonMeshVertex
 10
1.216
 20
-7.61
 30
2.897
 70
    64
  0
VERTEX
  5
794D3
100
AcDbEntity
  8
0
100
AcDbVertex
100
AcDbPolygonMeshVertex
 10
1.216
 20
-7.61
 30
0.387
 70
    64
  0
VERTEX
  5
794D4
100
AcDbEntity
  8
0
100
AcDbVertex
100
AcDbPolygonMeshVertex
 10
1.216
 20
-7.61
 30
0.387
 70
    64
  0
VERTEX
  5
794D5
100
AcDbEntity
  8
0
100
AcDbVertex
100
AcDbPolygonMeshVertex
 10
1.216
 20
-7.2
 30
2.897
 70
    64
  0
VERTEX
  5
794D6
100
AcDbEntity
  8
0
100
AcDbVertex
100
AcDbPolygonMeshVertex
 10
1.216
 20
-7.2
 30
0.387
 70
    64
  0
VERTEX
  5
794D7
100
AcDbEntity
  8
0
100
AcDbVertex
100
AcDbPolygonMeshVertex
 10
1.216
 20
-7.61
 30
0.387
 70
    64
  0
VERTEX
  5
794D8
100
AcDbEntity
  8
0
100
AcDbVertex
100
AcDbPolygonMeshVertex
 10
4.576
 20
-7.2
 30
2.897
 70
    64
  0
VERTEX
  5
794D9
100
AcDbEntity
  8
0
100
AcDbVertex
100
AcDbPolygonMeshVertex
 10
4.576
 20
-7.2
 30
0.387
 70
    64
  0
VERTEX
  5
794DA
100
AcDbEntity
  8
0
100
AcDbVertex
100
AcDbPolygonMeshVertex
 10
4.576
 20
-7.61
 30
0.387
 70
    64
  0
VERTEX
  5
794DB
100
AcDbEntity
  8
0
100
AcDbVertex
100
AcDbPolygonMeshVertex
 10
4.576
 20
-7.2
 30
2.897
 70
    64
  0
VERTEX
  5
794DC
100
AcDbEntity
  8
0
100
AcDbVertex
100
AcDbPolygonMeshVertex
 10
4.576
 20
-7.2
 30
2.897
 70
    64
  0
VERTEX
  5
794DD
100
AcDbEntity
  8
0
100
AcDbVertex
100
AcDbPolygonMeshVertex
 10
4.576
 20
-7.61
 30
2.897
 70
    64
  0
VERTEX
  5
794DE
100
AcDbEntity
  8
0
100
AcDbVertex
100
AcDbPolygonMeshVertex
 10
1.216
 20
-7.2
 30
2.897
 70
    64
  0
VERTEX
  5
794DF
100
AcDbEntity
  8
0
100
AcDbVertex
100
AcDbPolygonMeshVertex
 10
1.216
 20
-7.2
 30
2.897
 70
    64
  0
VERTEX
  5
794E0
100
AcDbEntity
  8
0
100
AcDbVertex
100
AcDbPolygonMeshVertex
 10
1.216
 20
-7.61
 30
2.897
 70
    64
  0
SEQEND
  5
794E1
100
AcDbEntity
  8
0
  0
POLYLINE
  5
794E2
100
AcDbEntity
  8
0
100
AcDbPolygonMesh
 66
     1
 10
0.0
 20
0.0
 30
0.0
 70
    16
 71
     6
 72
     3
  0
VERTEX
  5
794E3
100
AcDbEntity
  8
0
100
AcDbVertex
100
AcDbPolygonMeshVertex
 10
2.386
 20
-8.04
 30
0.697
 70
    64
  0
VERTEX
  5
794E4
100
AcDbEntity
  8
0
100
AcDbVertex
100
AcDbPolygonMeshVertex
 10
2.386
 20
-8.04
 30
0.387
 70
    64
  0
VERTEX
  5
794E5
100
AcDbEntity
  8
0
100
AcDbVertex
100
AcDbPolygonMeshVertex
 10
2.386
 20
-8.04
 30
0.387
 70
    64
  0
VERTEX
  5
794E6
100
AcDbEntity
  8
0
100
AcDbVertex
100
AcDbPolygonMeshVertex
 10
1.886
 20
-8.04
 30
0.697
 70
    64
  0
VERTEX
  5
794E7
100
AcDbEntity
  8
0
100
AcDbVertex
100
AcDbPolygonMeshVertex
 10
1.886
 20
-8.04
 30
0.387
 70
    64
  0
VERTEX
  5
794E8
100
AcDbEntity
  8
0
100
AcDbVertex
100
AcDbPolygonMeshVertex
 10
1.886
 20
-8.04
 30
0.387
 70
    64
  0
VERTEX
  5
794E9
100
AcDbEntity
  8
0
100
AcDbVertex
100
AcDbPolygonMeshVertex
 10
1.886
 20
-7.61
 30
0.697
 70
    64
  0
VERTEX
  5
794EA
100
AcDbEntity
  8
0
100
AcDbVertex
100
AcDbPolygonMeshVertex
 10
1.886
 20
-7.61
 30
0.387
 70
    64
  0
VERTEX
  5
794EB
100
AcDbEntity
  8
0
100
AcDbVertex
100
AcDbPolygonMeshVertex
 10
1.886
 20
-8.04
 30
0.387
 70
    64
  0
VERTEX
  5
794EC
100
AcDbEntity
  8
0
100
AcDbVertex
100
AcDbPolygonMeshVertex
 10
2.386
 20
-7.61
 30
0.697
 70
    64
  0
VERTEX
  5
794ED
100
AcDbEntity
  8
0
100
AcDbVertex
100
AcDbPolygonMeshVertex
 10
2.386
 20
-7.61
 30
0.387
 70
    64
  0
VERTEX
  5
794EE
100
AcDbEntity
  8
0
100
AcDbVertex
100
AcDbPolygonMeshVertex
 10
2.386
 20
-8.04
 30
0.387
 70
    64
  0
VERTEX
  5
794EF
100
AcDbEntity
  8
0
100
AcDbVertex
100
AcDbPolygonMeshVertex
 10
2.386
 20
-7.61
 30
0.697
 70
    64
  0
VERTEX
  5
794F0
100
AcDbEntity
  8
0
100
AcDbVertex
100
AcDbPolygonMeshVertex
 10
2.386
 20
-7.61
 30
0.697
 70
    64
  0
VERTEX
  5
794F1
100
AcDbEntity
  8
0
100
AcDbVertex
100
AcDbPolygonMeshVertex
 10
2.386
 20
-8.04
 30
0.697
 70
    64
  0
VERTEX
  5
794F2
100
AcDbEntity
  8
0
100
AcDbVertex
100
AcDbPolygonMeshVertex
 10
1.886
 20
-7.61
 30
0.697
 70
    64
  0
VERTEX
  5
794F3
100
AcDbEntity
  8
0
100
AcDbVertex
100
AcDbPolygonMeshVertex
 10
1.886
 20
-7.61
 30
0.697
 70
    64
  0
VERTEX
  5
794F4
100
AcDbEntity
  8
0
100
AcDbVertex
100
AcDbPolygonMeshVertex
 10
1.886
 20
-8.04
 30
0.697
 70
    64
  0
SEQEND
  5
794F5
100
AcDbEntity
  8
0
  0
POLYLINE
  5
794F6
100
AcDbEntity
  8
0
100
AcDbPolygonMesh
 66
     1
 10
0.0
 20
0.0
 30
0.0
 70
    16
 71
     6
 72
     3
  0
VERTEX
  5
794F7
100
AcDbEntity
  8
0
100
AcDbVertex
100
AcDbPolygonMeshVertex
 10
3.763
 20
-8.04
 30
0.697
 70
    64
  0
VERTEX
  5
794F8
100
AcDbEntity
  8
0
100
AcDbVertex
100
AcDbPolygonMeshVertex
 10
3.763
 20
-8.04
 30
0.387
 70
    64
  0
VERTEX
  5
794F9
100
AcDbEntity
  8
0
100
AcDbVertex
100
AcDbPolygonMeshVertex
 10
3.763
 20
-8.04
 30
0.387
 70
    64
  0
VERTEX
  5
794FA
100
AcDbEntity
  8
0
100
AcDbVertex
100
AcDbPolygonMeshVertex
 10
3.263
 20
-8.04
 30
0.697
 70
    64
  0
VERTEX
  5
794FB
100
AcDbEntity
  8
0
100
AcDbVertex
100
AcDbPolygonMeshVertex
 10
3.263
 20
-8.04
 30
0.387
 70
    64
  0
VERTEX
  5
794FC
100
AcDbEntity
  8
0
100
AcDbVertex
100
AcDbPolygonMeshVertex
 10
3.263
 20
-8.04
 30
0.387
 70
    64
  0
VERTEX
  5
794FD
100
AcDbEntity
  8
0
100
AcDbVertex
100
AcDbPolygonMeshVertex
 10
3.263
 20
-7.61
 30
0.697
 70
    64
  0
VERTEX
  5
794FE
100
AcDbEntity
  8
0
100
AcDbVertex
100
AcDbPolygonMeshVertex
 10
3.263
 20
-7.61
 30
0.387
 70
    64
  0
VERTEX
  5
794FF
100
AcDbEntity
  8
0
100
AcDbVertex
100
AcDbPolygonMeshVertex
 10
3.263
 20
-8.04
 30
0.387
 70
    64
  0
VERTEX
  5
79500
100
AcDbEntity
  8
0
100
AcDbVertex
100
AcDbPolygonMeshVertex
 10
3.763
 20
-7.61
 30
0.697
 70
    64
  0
VERTEX
  5
79501
100
AcDbEntity
  8
0
100
AcDbVertex
100
AcDbPolygonMeshVertex
 10
3.763
 20
-7.61
 30
0.387
 70
    64
  0
VERTEX
  5
79502
100
AcDbEntity
  8
0
100
AcDbVertex
100
AcDbPolygonMeshVertex
 10
3.763
 20
-8.04
 30
0.387
 70
    64
  0
VERTEX
  5
79503
100
AcDbEntity
  8
0
100
AcDbVertex
100
AcDbPolygonMeshVertex
 10
3.763
 20
-7.61
 30
0.697
 70
    64
  0
VERTEX
  5
79504
100
AcDbEntity
  8
0
100
AcDbVertex
100
AcDbPolygonMeshVertex
 10
3.763
 20
-7.61
 30
0.697
 70
    64
  0
VERTEX
  5
79505
100
AcDbEntity
  8
0
100
AcDbVertex
100
AcDbPolygonMeshVertex
 10
3.763
 20
-8.04
 30
0.697
 70
    64
  0
VERTEX
  5
79506
100
AcDbEntity
  8
0
100
AcDbVertex
100
AcDbPolygonMeshVertex
 10
3.263
 20
-7.61
 30
0.697
 70
    64
  0
VERTEX
  5
79507
100
AcDbEntity
  8
0
100
AcDbVertex
100
AcDbPolygonMeshVertex
 10
3.263
 20
-7.61
 30
0.697
 70
    64
  0
VERTEX
  5
79508
100
AcDbEntity
  8
0
100
AcDbVertex
100
AcDbPolygonMeshVertex
 10
3.263
 20
-8.04
 30
0.697
 70
    64
  0
SEQEND
  5
79509
100
AcDbEntity
  8
0
  0
POLYLINE
  5
7950A
100
AcDbEntity
  8
0
100
AcDbPolygonMesh
 66
     1
 10
0.0
 20
0.0
 30
0.0
 70
    16
 71
     6
 72
     3
  0
VERTEX
  5
7950B
100
AcDbEntity
  8
0
100
AcDbVertex
100
AcDbPolygonMeshVertex
 10
1.216
 20
-7.61
 30
2.897
 70
    64
  0
VERTEX
  5
7950C
100
AcDbEntity
  8
0
100
AcDbVertex
100
AcDbPolygonMeshVertex
 10
1.216
 20
-7.61
 30
2.897
 70
    64
  0
VERTEX
  5
7950D
100
AcDbEntity
  8
0
100
AcDbVertex
100
AcDbPolygonMeshVertex
 10
1.216
 20
-7.61
 30
2.897
 70
    64
  0
VERTEX
  5
7950E
100
AcDbEntity
  8
0
100
AcDbVertex
100
AcDbPolygonMeshVertex
 10
1.216
 20
-7.2
 30
3.047
 70
    64
  0
VERTEX
  5
7950F
100
AcDbEntity
  8
0
100
AcDbVertex
100
AcDbPolygonMeshVertex
 10
1.216
 20
-7.2
 30
2.897
 70
    64
  0
VERTEX
  5
79510
100
AcDbEntity
  8
0
100
AcDbVertex
100
AcDbPolygonMeshVertex
 10
1.216
 20
-7.2
 30
2.897
 70
    64
  0
VERTEX
  5
79511
100
AcDbEntity
  8
0
100
AcDbVertex
100
AcDbPolygonMeshVertex
 10
4.576
 20
-7.2
 30
3.047
 70
    64
  0
VERTEX
  5
79512
100
AcDbEntity
  8
0
100
AcDbVertex
100
AcDbPolygonMeshVertex
 10
4.576
 20
-7.2
 30
2.897
 70
    64
  0
VERTEX
  5
79513
100
AcDbEntity
  8
0
100
AcDbVertex
100
AcDbPolygonMeshVertex
 10
1.216
 20
-7.2
 30
2.897
 70
    64
  0
VERTEX
  5
79514
100
AcDbEntity
  8
0
100
AcDbVertex
100
AcDbPolygonMeshVertex
 10
4.576
 20
-7.61
 30
2.897
 70
    64
  0
VERTEX
  5
79515
100
AcDbEntity
  8
0
100
AcDbVertex
100
AcDbPolygonMeshVertex
 10
4.576
 20
-7.61
 30
2.897
 70
    64
  0
VERTEX
  5
79516
100
AcDbEntity
  8
0
100
AcDbVertex
100
AcDbPolygonMeshVertex
 10
1.216
 20
-7.61
 30
2.897
 70
    64
  0
VERTEX
  5
79517
100
AcDbEntity
  8
0
100
AcDbVertex
100
AcDbPolygonMeshVertex
 10
4.576
 20
-7.61
 30
2.897
 70
    64
  0
VERTEX
  5
79518
100
AcDbEntity
  8
0
100
AcDbVertex
100
AcDbPolygonMeshVertex
 10
4.576
 20
-7.61
 30
2.897
 70
    64
  0
VERTEX
  5
79519
100
AcDbEntity
  8
0
100
AcDbVertex
100
AcDbPolygonMeshVertex
 10
1.216
 20
-7.61
 30
2.897
 70
    64
  0
VERTEX
  5
7951A
100
AcDbEntity
  8
0
100
AcDbVertex
100
AcDbPolygonMeshVertex
 10
4.576
 20
-7.2
 30
3.047
 70
    64
  0
VERTEX
  5
7951B
100
AcDbEntity
  8
0
100
AcDbVertex
100
AcDbPolygonMeshVertex
 10
4.576
 20
-7.2
 30
3.047
 70
    64
  0
VERTEX
  5
7951C
100
AcDbEntity
  8
0
100
AcDbVertex
100
AcDbPolygonMeshVertex
 10
1.216
 20
-7.2
 30
3.047
 70
    64
  0
SEQEND
  5
7951D
100
AcDbEntity
  8
0
  0
POLYLINE
  5
7951E
100
AcDbEntity
  8
0
100
AcDbPolygonMesh
 66
     1
 10
0.0
 20
0.0
 30
0.0
 70
    16
 71
     6
 72
     3
  0
VERTEX
  5
7951F
100
AcDbEntity
  8
0
100
AcDbVertex
100
AcDbPolygonMeshVertex
 10
4.576
 20
-7.2
 30
3.837
 70
    64
  0
VERTEX
  5
79520
100
AcDbEntity
  8
0
100
AcDbVertex
100
AcDbPolygonMeshVertex
 10
4.576
 20
-7.2
 30
0.387
 70
    64
  0
VERTEX
  5
79521
100
AcDbEntity
  8
0
100
AcDbVertex
100
AcDbPolygonMeshVertex
 10
4.576
 20
-7.2
 30
0.387
 70
    64
  0
VERTEX
  5
79522
100
AcDbEntity
  8
0
100
AcDbVertex
100
AcDbPolygonMeshVertex
 10
1.216
 20
-7.2
 30
3.837
 70
    64
  0
VERTEX
  5
79523
100
AcDbEntity
  8
0
100
AcDbVertex
100
AcDbPolygonMeshVertex
 10
1.216
 20
-7.2
 30
0.387
 70
    64
  0
VERTEX
  5
79524
100
AcDbEntity
  8
0
100
AcDbVertex
100
AcDbPolygonMeshVertex
 10
1.216
 20
-7.2
 30
0.387
 70
    64
  0
VERTEX
  5
79525
100
AcDbEntity
  8
0
100
AcDbVertex
100
AcDbPolygonMeshVertex
 10
1.216
 20
-5.79
 30
3.837
 70
    64
  0
VERTEX
  5
79526
100
AcDbEntity
  8
0
100
AcDbVertex
100
AcDbPolygonMeshVertex
 10
1.216
 20
-5.79
 30
0.387
 70
    64
  0
VERTEX
  5
79527
100
AcDbEntity
  8
0
100
AcDbVertex
100
AcDbPolygonMeshVertex
 10
1.216
 20
-7.2
 30
0.387
 70
    64
  0
VERTEX
  5
79528
100
AcDbEntity
  8
0
100
AcDbVertex
100
AcDbPolygonMeshVertex
 10
4.576
 20
-5.79
 30
3.837
 70
    64
  0
VERTEX
  5
79529
100
AcDbEntity
  8
0
100
AcDbVertex
100
AcDbPolygonMeshVertex
 10
4.576
 20
-5.79
 30
0.387
 70
    64
  0
VERTEX
  5
7952A
100
AcDbEntity
  8
0
100
AcDbVertex
100
AcDbPolygonMeshVertex
 10
4.576
 20
-7.2
 30
0.387
 70
    64
  0
VERTEX
  5
7952B
100
AcDbEntity
  8
0
100
AcDbVertex
100
AcDbPolygonMeshVertex
 10
4.576
 20
-5.79
 30
3.837
 70
    64
  0
VERTEX
  5
7952C
100
AcDbEntity
  8
0
100
AcDbVertex
100
AcDbPolygonMeshVertex
 10
4.576
 20
-5.79
 30
3.837
 70
    64
  0
VERTEX
  5
7952D
100
AcDbEntity
  8
0
100
AcDbVertex
100
AcDbPolygonMeshVertex
 10
4.576
 20
-7.2
 30
3.837
 70
    64
  0
VERTEX
  5
7952E
100
AcDbEntity
  8
0
100
AcDbVertex
100
AcDbPolygonMeshVertex
 10
1.216
 20
-5.79
 30
3.837
 70
    64
  0
VERTEX
  5
7952F
100
AcDbEntity
  8
0
100
AcDbVertex
100
AcDbPolygonMeshVertex
 10
1.216
 20
-5.79
 30
3.837
 70
    64
  0
VERTEX
  5
79530
100
AcDbEntity
  8
0
100
AcDbVertex
100
AcDbPolygonMeshVertex
 10
1.216
 20
-7.2
 30
3.837
 70
    64
  0
SEQEND
  5
79531
100
AcDbEntity
  8
0
  0
LINE
  5
79532
100
AcDbEntity
  8
0
100
AcDbLine
 10
2.316674
 20
-3.825015
 30
4.667
 11
2.43129
 21
-3.975138
 31
4.667
  0
LINE
  5
79533
100
AcDbEntity
  8
0
100
AcDbLine
 10
2.300485
 20
-3.841205
 30
4.667
 11
2.415101
 21
-3.991327
 31
4.667
  0
CIRCLE
  5
79534
100
AcDbEntity
  8
0
100
AcDbCircle
 10
2.366
 20
-3.91
 30
4.667
 40
0.095
  0
LINE
  5
79535
100
AcDbEntity
  8
0
100
AcDbLine
 10
3.376674
 20
-3.825015
 30
4.667
 11
3.49129
 21
-3.975138
 31
4.667
  0
LINE
  5
79536
100
AcDbEntity
  8
0
100
AcDbLine
 10
3.360485
 20
-3.841205
 30
4.667
 11
3.4751
 21
-3.991327
 31
4.667
  0
CIRCLE
  5
79537
100
AcDbEntity
  8
0
100
AcDbCircle
 10
3.426
 20
-3.91
 30
4.667
 40
0.095
  0
CIRCLE
  5
79538
100
AcDbEntity
  8
0
100
AcDbCircle
 10
3.956
 20
-1.765
 30
4.477
 40
0.19
  0
POLYLINE
  5
79539
100
AcDbEntity
  8
0
100
AcDbPolygonMesh
 66
     1
 10
0.0
 20
0.0
 30
0.0
 70
    16
 71
     6
 72
     3
  0
VERTEX
  5
7953A
100
AcDbEntity
  8
0
100
AcDbVertex
100
AcDbPolygonMeshVertex
 10
3.836
 20
-4.44
 30
4.197
 70
    64
  0
VERTEX
  5
7953B
100
AcDbEntity
  8
0
100
AcDbVertex
100
AcDbPolygonMeshVertex
 10
3.836
 20
-4.44
 30
3.827
 70
    64
  0
VERTEX
  5
7953C
100
AcDbEntity
  8
0
100
AcDbVertex
100
AcDbPolygonMeshVertex
 10
3.836
 20
-4.44
 30
3.827
 70
    64
  0
VERTEX
  5
7953D
100
AcDbEntity
  8
0
100
AcDbVertex
100
AcDbPolygonMeshVertex
 10
1.956
 20
-4.44
 30
4.197
 70
    64
  0
VERTEX
  5
7953E
100
AcDbEntity
  8
0
100
AcDbVertex
100
AcDbPolygonMeshVertex
 10
1.956
 20
-4.44
 30
3.827
 70
    64
  0
VERTEX
  5
7953F
100
AcDbEntity
  8
0
100
AcDbVertex
100
AcDbPolygonMeshVertex
 10
1.956
 20
-4.44
 30
3.827
 70
    64
  0
VERTEX
  5
79540
100
AcDbEntity
  8
0
100
AcDbVertex
100
AcDbPolygonMeshVertex
 10
1.956
 20
-3.6
 30
4.197
 70
    64
  0
VERTEX
  5
79541
100
AcDbEntity
  8
0
100
AcDbVertex
100
AcDbPolygonMeshVertex
 10
1.956
 20
-3.6
 30
3.827
 70
    64
  0
VERTEX
  5
79542
100
AcDbEntity
  8
0
100
AcDbVertex
100
AcDbPolygonMeshVertex
 10
1.956
 20
-4.44
 30
3.827
 70
    64
  0
VERTEX
  5
79543
100
AcDbEntity
  8
0
100
AcDbVertex
100
AcDbPolygonMeshVertex
 10
3.836
 20
-3.6
 30
4.197
 70
    64
  0
VERTEX
  5
79544
100
AcDbEntity
  8
0
100
AcDbVertex
100
AcDbPolygonMeshVertex
 10
3.836
 20
-3.6
 30
3.827
 70
    64
  0
VERTEX
  5
79545
100
AcDbEntity
  8
0
100
AcDbVertex
100
AcDbPolygonMeshVertex
 10
3.836
 20
-4.44
 30
3.827
 70
    64
  0
VERTEX
  5
79546
100
AcDbEntity
  8
0
100
AcDbVertex
100
AcDbPolygonMeshVertex
 10
3.836
 20
-3.6
 30
4.197
 70
    64
  0
VERTEX
  5
79547
100
AcDbEntity
  8
0
100
AcDbVertex
100
AcDbPolygonMeshVertex
 10
3.836
 20
-3.6
 30
4.197
 70
    64
  0
VERTEX
  5
79548
100
AcDbEntity
  8
0
100
AcDbVertex
100
AcDbPolygonMeshVertex
 10
3.836
 20
-4.44
 30
4.197
 70
    64
  0
VERTEX
  5
79549
100
AcDbEntity
  8
0
100
AcDbVertex
100
AcDbPolygonMeshVertex
 10
1.956
 20
-3.6
 30
4.197
 70
    64
  0
VERTEX
  5
7954A
100
AcDbEntity
  8
0
100
AcDbVertex
100
AcDbPolygonMeshVertex
 10
1.956
 20
-3.6
 30
4.197
 70
    64
  0
VERTEX
  5
7954B
100
AcDbEntity
  8
0
100
AcDbVertex
100
AcDbPolygonMeshVertex
 10
1.956
 20
-4.44
 30
4.197
 70
    64
  0
SEQEND
  5
7954C
100
AcDbEntity
  8
0
  0
POLYLINE
  5
7954D
100
AcDbEntity
  8
0
100
AcDbPolygonMesh
 66
     1
 10
0.0
 20
0.0
 30
0.0
 70
    16
 71
     6
 72
     3
  0
VERTEX
  5
7954E
100
AcDbEntity
  8
0
100
AcDbVertex
100
AcDbPolygonMeshVertex
 10
3.646
 20
-4.04
 30
4.667
 70
    64
  0
VERTEX
  5
7954F
100
AcDbEntity
  8
0
100
AcDbVertex
100
AcDbPolygonMeshVertex
 10
3.646
 20
-4.04
 30
4.197
 70
    64
  0
VERTEX
  5
79550
100
AcDbEntity
  8
0
100
AcDbVertex
100
AcDbPolygonMeshVertex
 10
3.646
 20
-4.04
 30
4.197
 70
    64
  0
VERTEX
  5
79551
100
AcDbEntity
  8
0
100
AcDbVertex
100
AcDbPolygonMeshVertex
 10
3.206
 20
-4.04
 30
4.667
 70
    64
  0
VERTEX
  5
79552
100
AcDbEntity
  8
0
100
AcDbVertex
100
AcDbPolygonMeshVertex
 10
3.206
 20
-4.04
 30
4.197
 70
    64
  0
VERTEX
  5
79553
100
AcDbEntity
  8
0
100
AcDbVertex
100
AcDbPolygonMeshVertex
 10
3.206
 20
-4.04
 30
4.197
 70
    64
  0
VERTEX
  5
79554
100
AcDbEntity
  8
0
100
AcDbVertex
100
AcDbPolygonMeshVertex
 10
3.206
 20
-3.66
 30
4.667
 70
    64
  0
VERTEX
  5
79555
100
AcDbEntity
  8
0
100
AcDbVertex
100
AcDbPolygonMeshVertex
 10
3.206
 20
-3.66
 30
4.197
 70
    64
  0
VERTEX
  5
79556
100
AcDbEntity
  8
0
100
AcDbVertex
100
AcDbPolygonMeshVertex
 10
3.206
 20
-4.04
 30
4.197
 70
    64
  0
VERTEX
  5
79557
100
AcDbEntity
  8
0
100
AcDbVertex
100
AcDbPolygonMeshVertex
 10
3.646
 20
-3.66
 30
4.667
 70
    64
  0
VERTEX
  5
79558
100
AcDbEntity
  8
0
100
AcDbVertex
100
AcDbPolygonMeshVertex
 10
3.646
 20
-3.66
 30
4.197
 70
    64
  0
VERTEX
  5
79559
100
AcDbEntity
  8
0
100
AcDbVertex
100
AcDbPolygonMeshVertex
 10
3.646
 20
-4.04
 30
4.197
 70
    64
  0
VERTEX
  5
7955A
100
AcDbEntity
  8
0
100
AcDbVertex
100
AcDbPolygonMeshVertex
 10
3.646
 20
-3.66
 30
4.667
 70
    64
  0
VERTEX
  5
7955B
100
AcDbEntity
  8
0
100
AcDbVertex
100
AcDbPolygonMeshVertex
 10
3.646
 20
-3.66
 30
4.667
 70
    64
  0
VERTEX
  5
7955C
100
AcDbEntity
  8
0
100
AcDbVertex
100
AcDbPolygonMeshVertex
 10
3.646
 20
-4.04
 30
4.667
 70
    64
  0
VERTEX
  5
7955D
100
AcDbEntity
  8
0
100
AcDbVertex
100
AcDbPolygonMeshVertex
 10
3.206
 20
-3.66
 30
4.667
 70
    64
  0
VERTEX
  5
7955E
100
AcDbEntity
  8
0
100
AcDbVertex
100
AcDbPolygonMeshVertex
 10
3.206
 20
-3.66
 30
4.667
 70
    64
  0
VERTEX
  5
7955F
100
AcDbEntity
  8
0
100
AcDbVertex
100
AcDbPolygonMeshVertex
 10
3.206
 20
-4.04
 30
4.667
 70
    64
  0
SEQEND
  5
79560
100
AcDbEntity
  8
0
  0
POLYLINE
  5
79561
100
AcDbEntity
  8
0
100
AcDbPolygonMesh
 66
     1
 10
0.0
 20
0.0
 30
0.0
 70
    16
 71
     6
 72
     3
  0
VERTEX
  5
79562
100
AcDbEntity
  8
0
100
AcDbVertex
100
AcDbPolygonMeshVertex
 10
2.586
 20
-4.04
 30
4.667
 70
    64
  0
VERTEX
  5
79563
100
AcDbEntity
  8
0
100
AcDbVertex
100
AcDbPolygonMeshVertex
 10
2.586
 20
-4.04
 30
4.197
 70
    64
  0
VERTEX
  5
79564
100
AcDbEntity
  8
0
100
AcDbVertex
100
AcDbPolygonMeshVertex
 10
2.586
 20
-4.04
 30
4.197
 70
    64
  0
VERTEX
  5
79565
100
AcDbEntity
  8
0
100
AcDbVertex
100
AcDbPolygonMeshVertex
 10
2.146
 20
-4.04
 30
4.667
 70
    64
  0
VERTEX
  5
79566
100
AcDbEntity
  8
0
100
AcDbVertex
100
AcDbPolygonMeshVertex
 10
2.146
 20
-4.04
 30
4.197
 70
    64
  0
VERTEX
  5
79567
100
AcDbEntity
  8
0
100
AcDbVertex
100
AcDbPolygonMeshVertex
 10
2.146
 20
-4.04
 30
4.197
 70
    64
  0
VERTEX
  5
79568
100
AcDbEntity
  8
0
100
AcDbVertex
100
AcDbPolygonMeshVertex
 10
2.146
 20
-3.66
 30
4.667
 70
    64
  0
VERTEX
  5
79569
100
AcDbEntity
  8
0
100
AcDbVertex
100
AcDbPolygonMeshVertex
 10
2.146
 20
-3.66
 30
4.197
 70
    64
  0
VERTEX
  5
7956A
100
AcDbEntity
  8
0
100
AcDbVertex
100
AcDbPolygonMeshVertex
 10
2.146
 20
-4.04
 30
4.197
 70
    64
  0
VERTEX
  5
7956B
100
AcDbEntity
  8
0
100
AcDbVertex
100
AcDbPolygonMeshVertex
 10
2.586
 20
-3.66
 30
4.667
 70
    64
  0
VERTEX
  5
7956C
100
AcDbEntity
  8
0
100
AcDbVertex
100
AcDbPolygonMeshVertex
 10
2.586
 20
-3.66
 30
4.197
 70
    64
  0
VERTEX
  5
7956D
100
AcDbEntity
  8
0
100
AcDbVertex
100
AcDbPolygonMeshVertex
 10
2.586
 20
-4.04
 30
4.197
 70
    64
  0
VERTEX
  5
7956E
100
AcDbEntity
  8
0
100
AcDbVertex
100
AcDbPolygonMeshVertex
 10
2.586
 20
-3.66
 30
4.667
 70
    64
  0
VERTEX
  5
7956F
100
AcDbEntity
  8
0
100
AcDbVertex
100
AcDbPolygonMeshVertex
 10
2.586
 20
-3.66
 30
4.667
 70
    64
  0
VERTEX
  5
79570
100
AcDbEntity
  8
0
100
AcDbVertex
100
AcDbPolygonMeshVertex
 10
2.586
 20
-4.04
 30
4.667
 70
    64
  0
VERTEX
  5
79571
100
AcDbEntity
  8
0
100
AcDbVertex
100
AcDbPolygonMeshVertex
 10
2.146
 20
-3.66
 30
4.667
 70
    64
  0
VERTEX
  5
79572
100
AcDbEntity
  8
0
100
AcDbVertex
100
AcDbPolygonMeshVertex
 10
2.146
 20
-3.66
 30
4.667
 70
    64
  0
VERTEX
  5
79573
100
AcDbEntity
  8
0
100
AcDbVertex
100
AcDbPolygonMeshVertex
 10
2.146
 20
-4.04
 30
4.667
 70
    64
  0
SEQEND
  5
79574
100
AcDbEntity
  8
0
  0
LINE
  5
79575
100
AcDbEntity
  8
0
100
AcDbLine
 10
1.216
 20
-2.15
 30
3.827
 11
1.216
 21
-2.15
 31
0.387
  0
POLYLINE
  5
79576
100
AcDbEntity
  8
0
100
AcDbPolygonMesh
 66
     1
 10
0.0
 20
0.0
 30
0.0
 70
    16
 71
     6
 72
     3
  0
VERTEX
  5
79577
100
AcDbEntity
  8
0
100
AcDbVertex
100
AcDbPolygonMeshVertex
 10
4.576
 20
-5.54
 30
3.827
 70
    64
  0
VERTEX
  5
79578
100
AcDbEntity
  8
0
100
AcDbVertex
100
AcDbPolygonMeshVertex
 10
4.576
 20
-5.54
 30
0.387
 70
    64
  0
VERTEX
  5
79579
100
AcDbEntity
  8
0
100
AcDbVertex
100
AcDbPolygonMeshVertex
 10
4.576
 20
-5.54
 30
0.387
 70
    64
  0
VERTEX
  5
7957A
100
AcDbEntity
  8
0
100
AcDbVertex
100
AcDbPolygonMeshVertex
 10
1.216
 20
-5.54
 30
3.827
 70
    64
  0
VERTEX
  5
7957B
100
AcDbEntity
  8
0
100
AcDbVertex
100
AcDbPolygonMeshVertex
 10
1.216
 20
-5.54
 30
0.387
 70
    64
  0
VERTEX
  5
7957C
100
AcDbEntity
  8
0
100
AcDbVertex
100
AcDbPolygonMeshVertex
 10
1.216
 20
-5.54
 30
0.387
 70
    64
  0
VERTEX
  5
7957D
100
AcDbEntity
  8
0
100
AcDbVertex
100
AcDbPolygonMeshVertex
 10
1.216
 20
-2.15
 30
3.827
 70
    64
  0
VERTEX
  5
7957E
100
AcDbEntity
  8
0
100
AcDbVertex
100
AcDbPolygonMeshVertex
 10
1.216
 20
-2.15
 30
0.387
 70
    64
  0
VERTEX
  5
7957F
100
AcDbEntity
  8
0
100
AcDbVertex
100
AcDbPolygonMeshVertex
 10
1.216
 20
-5.54
 30
0.387
 70
    64
  0
VERTEX
  5
79580
100
AcDbEntity
  8
0
100
AcDbVertex
100
AcDbPolygonMeshVertex
 10
4.576
 20
-2.15
 30
3.827
 70
    64
  0
VERTEX
  5
79581
100
AcDbEntity
  8
0
100
AcDbVertex
100
AcDbPolygonMeshVertex
 10
4.576
 20
-2.15
 30
0.387
 70
    64
  0
VERTEX
  5
79582
100
AcDbEntity
  8
0
100
AcDbVertex
100
AcDbPolygonMeshVertex
 10
4.576
 20
-5.54
 30
0.387
 70
    64
  0
VERTEX
  5
79583
100
AcDbEntity
  8
0
100
AcDbVertex
100
AcDbPolygonMeshVertex
 10
4.576
 20
-2.15
 30
3.827
 70
    64
  0
VERTEX
  5
79584
100
AcDbEntity
  8
0
100
AcDbVertex
100
AcDbPolygonMeshVertex
 10
4.576
 20
-2.15
 30
3.827
 70
    64
  0
VERTEX
  5
79585
100
AcDbEntity
  8
0
100
AcDbVertex
100
AcDbPolygonMeshVertex
 10
4.576
 20
-5.54
 30
3.827
 70
    64
  0
VERTEX
  5
79586
100
AcDbEntity
  8
0
100
AcDbVertex
100
AcDbPolygonMeshVertex
 10
1.216
 20
-2.15
 30
3.827
 70
    64
  0
VERTEX
  5
79587
100
AcDbEntity
  8
0
100
AcDbVertex
100
AcDbPolygonMeshVertex
 10
1.216
 20
-2.15
 30
3.827
 70
    64
  0
VERTEX
  5
79588
100
AcDbEntity
  8
0
100
AcDbVertex
100
AcDbPolygonMeshVertex
 10
1.216
 20
-5.54
 30
3.827
 70
    64
  0
SEQEND
  5
79589
100
AcDbEntity
  8
0
  0
POLYLINE
  5
7958A
100
AcDbEntity
  8
0
100
AcDbPolygonMesh
 66
     1
 10
0.0
 20
0.0
 30
0.0
 70
    16
 71
     6
 72
     3
  0
VERTEX
  5
7958B
100
AcDbEntity
  8
0
100
AcDbVertex
100
AcDbPolygonMeshVertex
 10
4.576
 20
-5.79
 30
3.047
 70
    64
  0
VERTEX
  5
7958C
100
AcDbEntity
  8
0
100
AcDbVertex
100
AcDbPolygonMeshVertex
 10
4.576
 20
-5.79
 30
1.817
 70
    64
  0
VERTEX
  5
7958D
100
AcDbEntity
  8
0
100
AcDbVertex
100
AcDbPolygonMeshVertex
 10
4.576
 20
-5.79
 30
1.817
 70
    64
  0
VERTEX
  5
7958E
100
AcDbEntity
  8
0
100
AcDbVertex
100
AcDbPolygonMeshVertex
 10
1.216
 20
-5.79
 30
3.047
 70
    64
  0
VERTEX
  5
7958F
100
AcDbEntity
  8
0
100
AcDbVertex
100
AcDbPolygonMeshVertex
 10
1.216
 20
-5.79
 30
1.817
 70
    64
  0
VERTEX
  5
79590
100
AcDbEntity
  8
0
100
AcDbVertex
100
AcDbPolygonMeshVertex
 10
1.216
 20
-5.79
 30
1.817
 70
    64
  0
VERTEX
  5
79591
100
AcDbEntity
  8
0
100
AcDbVertex
100
AcDbPolygonMeshVertex
 10
1.216
 20
-5.54
 30
3.047
 70
    64
  0
VERTEX
  5
79592
100
AcDbEntity
  8
0
100
AcDbVertex
100
AcDbPolygonMeshVertex
 10
1.216
 20
-5.54
 30
1.817
 70
    64
  0
VERTEX
  5
79593
100
AcDbEntity
  8
0
100
AcDbVertex
100
AcDbPolygonMeshVertex
 10
1.216
 20
-5.79
 30
1.817
 70
    64
  0
VERTEX
  5
79594
100
AcDbEntity
  8
0
100
AcDbVertex
100
AcDbPolygonMeshVertex
 10
4.576
 20
-5.54
 30
3.047
 70
    64
  0
VERTEX
  5
79595
100
AcDbEntity
  8
0
100
AcDbVertex
100
AcDbPolygonMeshVertex
 10
4.576
 20
-5.54
 30
1.817
 70
    64
  0
VERTEX
  5
79596
100
AcDbEntity
  8
0
100
AcDbVertex
100
AcDbPolygonMeshVertex
 10
4.576
 20
-5.79
 30
1.817
 70
    64
  0
VERTEX
  5
79597
100
AcDbEntity
  8
0
100
AcDbVertex
100
AcDbPolygonMeshVertex
 10
4.576
 20
-5.54
 30
3.047
 70
    64
  0
VERTEX
  5
79598
100
AcDbEntity
  8
0
100
AcDbVertex
100
AcDbPolygonMeshVertex
 10
4.576
 20
-5.54
 30
3.047
 70
    64
  0
VERTEX
  5
79599
100
AcDbEntity
  8
0
100
AcDbVertex
100
AcDbPolygonMeshVertex
 10
4.576
 20
-5.79
 30
3.047
 70
    64
  0
VERTEX
  5
7959A
100
AcDbEntity
  8
0
100
AcDbVertex
100
AcDbPolygonMeshVertex
 10
1.216
 20
-5.54
 30
3.047
 70
    64
  0
VERTEX
  5
7959B
100
AcDbEntity
  8
0
100
AcDbVertex
100
AcDbPolygonMeshVertex
 10
1.216
 20
-5.54
 30
3.047
 70
    64
  0
VERTEX
  5
7959C
100
AcDbEntity
  8
0
100
AcDbVertex
100
AcDbPolygonMeshVertex
 10
1.216
 20
-5.79
 30
3.047
 70
    64
  0
SEQEND
  5
7959D
100
AcDbEntity
  8
0
  0
POLYLINE
  5
7959E
100
AcDbEntity
  8
0
100
AcDbPolygonMesh
 66
     1
 10
0.0
 20
0.0
 30
0.0
 70
    16
 71
     6
 72
     3
  0
VERTEX
  5
7959F
100
AcDbEntity
  8
0
100
AcDbVertex
100
AcDbPolygonMeshVertex
 10
1.216
 20
-5.54
 30
0.387
 70
    64
  0
VERTEX
  5
795A0
100
AcDbEntity
  8
0
100
AcDbVertex
100
AcDbPolygonMeshVertex
 10
1.216
 20
-5.54
 30
0.387
 70
    64
  0
VERTEX
  5
795A1
100
AcDbEntity
  8
0
100
AcDbVertex
100
AcDbPolygonMeshVertex
 10
1.216
 20
-5.54
 30
0.387
 70
    64
  0
VERTEX
  5
795A2
100
AcDbEntity
  8
0
100
AcDbVertex
100
AcDbPolygonMeshVertex
 10
1.216
 20
-5.79
 30
1.817
 70
    64
  0
VERTEX
  5
795A3
100
AcDbEntity
  8
0
100
AcDbVertex
100
AcDbPolygonMeshVertex
 10
1.216
 20
-5.54
 30
1.817
 70
    64
  0
VERTEX
  5
795A4
100
AcDbEntity
  8
0
100
AcDbVertex
100
AcDbPolygonMeshVertex
 10
1.216
 20
-5.54
 30
1.817
 70
    64
  0
VERTEX
  5
795A5
100
AcDbEntity
  8
0
100
AcDbVertex
100
AcDbPolygonMeshVertex
 10
4.576
 20
-5.79
 30
1.817
 70
    64
  0
VERTEX
  5
795A6
100
AcDbEntity
  8
0
100
AcDbVertex
100
AcDbPolygonMeshVertex
 10
4.576
 20
-5.54
 30
1.817
 70
    64
  0
VERTEX
  5
795A7
100
AcDbEntity
  8
0
100
AcDbVertex
100
AcDbPolygonMeshVertex
 10
1.216
 20
-5.54
 30
1.817
 70
    64
  0
VERTEX
  5
795A8
100
AcDbEntity
  8
0
100
AcDbVertex
100
AcDbPolygonMeshVertex
 10
4.576
 20
-5.54
 30
0.387
 70
    64
  0
VERTEX
  5
795A9
100
AcDbEntity
  8
0
100
AcDbVertex
100
AcDbPolygonMeshVertex
 10
4.576
 20
-5.54
 30
0.387
 70
    64
  0
VERTEX
  5
795AA
100
AcDbEntity
  8
0
100
AcDbVertex
100
AcDbPolygonMeshVertex
 10
1.216
 20
-5.54
 30
0.387
 70
    64
  0
VERTEX
  5
795AB
100
AcDbEntity
  8
0
100
AcDbVertex
100
AcDbPolygonMeshVertex
 10
4.576
 20
-5.54
 30
0.387
 70
    64
  0
VERTEX
  5
795AC
100
AcDbEntity
  8
0
100
AcDbVertex
100
AcDbPolygonMeshVertex
 10
4.576
 20
-5.54
 30
0.387
 70
    64
  0
VERTEX
  5
795AD
100
AcDbEntity
  8
0
100
AcDbVertex
100
AcDbPolygonMeshVertex
 10
1.216
 20
-5.54
 30
0.387
 70
    64
  0
VERTEX
  5
795AE
100
AcDbEntity
  8
0
100
AcDbVertex
100
AcDbPolygonMeshVertex
 10
4.576
 20
-5.79
 30
1.817
 70
    64
  0
VERTEX
  5
795AF
100
AcDbEntity
  8
0
100
AcDbVertex
100
AcDbPolygonMeshVertex
 10
4.576
 20
-5.79
 30
1.817
 70
    64
  0
VERTEX
  5
795B0
100
AcDbEntity
  8
0
100
AcDbVertex
100
AcDbPolygonMeshVertex
 10
1.216
 20
-5.79
 30
1.817
 70
    64
  0
SEQEND
  5
795B1
100
AcDbEntity
  8
0
  0
POLYLINE
  5
795B2
100
AcDbEntity
  8
0
100
AcDbPolygonMesh
 66
     1
 10
0.0
 20
0.0
 30
0.0
 70
    16
 71
     6
 72
     3
  0
VERTEX
  5
795B3
100
AcDbEntity
  8
0
100
AcDbVertex
100
AcDbPolygonMeshVertex
 10
4.576
 20
-2.15
 30
4.287
 70
    64
  0
VERTEX
  5
795B4
100
AcDbEntity
  8
0
100
AcDbVertex
100
AcDbPolygonMeshVertex
 10
4.576
 20
-2.15
 30
0.387
 70
    64
  0
VERTEX
  5
795B5
100
AcDbEntity
  8
0
100
AcDbVertex
100
AcDbPolygonMeshVertex
 10
4.576
 20
-2.15
 30
0.387
 70
    64
  0
VERTEX
  5
795B6
100
AcDbEntity
  8
0
100
AcDbVertex
100
AcDbPolygonMeshVertex
 10
1.216
 20
-2.15
 30
4.287
 70
    64
  0
VERTEX
  5
795B7
100
AcDbEntity
  8
0
100
AcDbVertex
100
AcDbPolygonMeshVertex
 10
1.216
 20
-2.15
 30
0.387
 70
    64
  0
VERTEX
  5
795B8
100
AcDbEntity
  8
0
100
AcDbVertex
100
AcDbPolygonMeshVertex
 10
1.216
 20
-2.15
 30
0.387
 70
    64
  0
VERTEX
  5
795B9
100
AcDbEntity
  8
0
100
AcDbVertex
100
AcDbPolygonMeshVertex
 10
1.216
 20
-1.47
 30
4.287
 70
    64
  0
VERTEX
  5
795BA
100
AcDbEntity
  8
0
100
AcDbVertex
100
AcDbPolygonMeshVertex
 10
1.216
 20
-1.47
 30
0.387
 70
    64
  0
VERTEX
  5
795BB
100
AcDbEntity
  8
0
100
AcDbVertex
100
AcDbPolygonMeshVertex
 10
1.216
 20
-2.15
 30
0.387
 70
    64
  0
VERTEX
  5
795BC
100
AcDbEntity
  8
0
100
AcDbVertex
100
AcDbPolygonMeshVertex
 10
4.576
 20
-1.47
 30
4.287
 70
    64
  0
VERTEX
  5
795BD
100
AcDbEntity
  8
0
100
AcDbVertex
100
AcDbPolygonMeshVertex
 10
4.576
 20
-1.47
 30
0.387
 70
    64
  0
VERTEX
  5
795BE
100
AcDbEntity
  8
0
100
AcDbVertex
100
AcDbPolygonMeshVertex
 10
4.576
 20
-2.15
 30
0.387
 70
    64
  0
VERTEX
  5
795BF
100
AcDbEntity
  8
0
100
AcDbVertex
100
AcDbPolygonMeshVertex
 10
4.576
 20
-1.47
 30
4.287
 70
    64
  0
VERTEX
  5
795C0
100
AcDbEntity
  8
0
100
AcDbVertex
100
AcDbPolygonMeshVertex
 10
4.576
 20
-1.47
 30
4.287
 70
    64
  0
VERTEX
  5
795C1
100
AcDbEntity
  8
0
100
AcDbVertex
100
AcDbPolygonMeshVertex
 10
4.576
 20
-2.15
 30
4.287
 70
    64
  0
VERTEX
  5
795C2
100
AcDbEntity
  8
0
100
AcDbVertex
100
AcDbPolygonMeshVertex
 10
1.216
 20
-1.47
 30
4.287
 70
    64
  0
VERTEX
  5
795C3
100
AcDbEntity
  8
0
100
AcDbVertex
100
AcDbPolygonMeshVertex
 10
1.216
 20
-1.47
 30
4.287
 70
    64
  0
VERTEX
  5
795C4
100
AcDbEntity
  8
0
100
AcDbVertex
100
AcDbPolygonMeshVertex
 10
1.216
 20
-2.15
 30
4.287
 70
    64
  0
SEQEND
  5
795C5
100
AcDbEntity
  8
0
  0
LINE
  5
795C6
100
AcDbEntity
  8
0
100
AcDbLine
 10
3.516
 20
-1.47
 30
4.287
 11
3.516
 21
-1.34
 31
4.287
  0
LINE
  5
795C7
100
AcDbEntity
  8
0
100
AcDbLine
 10
3.516
 20
-1.34
 30
4.287
 11
3.336
 21
-1.34
 31
4.287
  0
POLYLINE
  5
795C8
100
AcDbEntity
  8
0
100
AcDbPolygonMesh
 66
     1
 10
0.0
 20
0.0
 30
0.0
 70
    16
 71
     6
 72
     3
  0
VERTEX
  5
795C9
100
AcDbEntity
  8
0
100
AcDbVertex
100
AcDbPolygonMeshVertex
 10
3.336
 20
-1.34
 30
4.667
 70
    64
  0
VERTEX
  5
795CA
100
AcDbEntity
  8
0
100
AcDbVertex
100
AcDbPolygonMeshVertex
 10
3.336
 20
-1.34
 30
4.287
 70
    64
  0
VERTEX
  5
795CB
100
AcDbEntity
  8
0
100
AcDbVertex
100
AcDbPolygonMeshVertex
 10
3.336
 20
-1.34
 30
4.287
 70
    64
  0
VERTEX
  5
795CC
100
AcDbEntity
  8
0
100
AcDbVertex
100
AcDbPolygonMeshVertex
 10
3.516
 20
-1.34
 30
4.667
 70
    64
  0
VERTEX
  5
795CD
100
AcDbEntity
  8
0
100
AcDbVertex
100
AcDbPolygonMeshVertex
 10
3.516
 20
-1.34
 30
4.287
 70
    64
  0
VERTEX
  5
795CE
100
AcDbEntity
  8
0
100
AcDbVertex
100
AcDbPolygonMeshVertex
 10
3.516
 20
-1.34
 30
4.287
 70
    64
  0
VERTEX
  5
795CF
100
AcDbEntity
  8
0
100
AcDbVertex
100
AcDbPolygonMeshVertex
 10
3.516
 20
-2.15
 30
4.667
 70
    64
  0
VERTEX
  5
795D0
100
AcDbEntity
  8
0
100
AcDbVertex
100
AcDbPolygonMeshVertex
 10
3.516
 20
-2.15
 30
4.287
 70
    64
  0
VERTEX
  5
795D1
100
AcDbEntity
  8
0
100
AcDbVertex
100
AcDbPolygonMeshVertex
 10
3.516
 20
-1.34
 30
4.287
 70
    64
  0
VERTEX
  5
795D2
100
AcDbEntity
  8
0
100
AcDbVertex
100
AcDbPolygonMeshVertex
 10
3.336
 20
-2.15
 30
4.667
 70
    64
  0
VERTEX
  5
795D3
100
AcDbEntity
  8
0
100
AcDbVertex
100
AcDbPolygonMeshVertex
 10
3.336
 20
-2.15
 30
4.287
 70
    64
  0
VERTEX
  5
795D4
100
AcDbEntity
  8
0
100
AcDbVertex
100
AcDbPolygonMeshVertex
 10
3.336
 20
-1.34
 30
4.287
 70
    64
  0
VERTEX
  5
795D5
100
AcDbEntity
  8
0
100
AcDbVertex
100
AcDbPolygonMeshVertex
 10
3.336
 20
-2.15
 30
4.667
 70
    64
  0
VERTEX
  5
795D6
100
AcDbEntity
  8
0
100
AcDbVertex
100
AcDbPolygonMeshVertex
 10
3.336
 20
-2.15
 30
4.667
 70
    64
  0
VERTEX
  5
795D7
100
AcDbEntity
  8
0
100
AcDbVertex
100
AcDbPolygonMeshVertex
 10
3.336
 20
-1.34
 30
4.667
 70
    64
  0
VERTEX
  5
795D8
100
AcDbEntity
  8
0
100
AcDbVertex
100
AcDbPolygonMeshVertex
 10
3.516
 20
-2.15
 30
4.667
 70
    64
  0
VERTEX
  5
795D9
100
AcDbEntity
  8
0
100
AcDbVertex
100
AcDbPolygonMeshVertex
 10
3.516
 20
-2.15
 30
4.667
 70
    64
  0
VERTEX
  5
795DA
100
AcDbEntity
  8
0
100
AcDbVertex
100
AcDbPolygonMeshVertex
 10
3.516
 20
-1.34
 30
4.667
 70
    64
  0
SEQEND
  5
795DB
100
AcDbEntity
  8
0
  0
POLYLINE
  5
795DC
100
AcDbEntity
  8
0
100
AcDbPolygonMesh
 66
     1
 10
0.0
 20
0.0
 30
0.0
 70
    16
 71
     6
 72
     3
  0
VERTEX
  5
795DD
100
AcDbEntity
  8
0
100
AcDbVertex
100
AcDbPolygonMeshVertex
 10
3.336
 20
-1.34
 30
4.287
 70
    64
  0
VERTEX
  5
795DE
100
AcDbEntity
  8
0
100
AcDbVertex
100
AcDbPolygonMeshVertex
 10
3.336
 20
-1.34
 30
3.167
 70
    64
  0
VERTEX
  5
795DF
100
AcDbEntity
  8
0
100
AcDbVertex
100
AcDbPolygonMeshVertex
 10
3.336
 20
-1.34
 30
3.167
 70
    64
  0
VERTEX
  5
795E0
100
AcDbEntity
  8
0
100
AcDbVertex
100
AcDbPolygonMeshVertex
 10
3.516
 20
-1.34
 30
4.287
 70
    64
  0
VERTEX
  5
795E1
100
AcDbEntity
  8
0
100
AcDbVertex
100
AcDbPolygonMeshVertex
 10
3.516
 20
-1.34
 30
3.167
 70
    64
  0
VERTEX
  5
795E2
100
AcDbEntity
  8
0
100
AcDbVertex
100
AcDbPolygonMeshVertex
 10
3.516
 20
-1.34
 30
3.167
 70
    64
  0
VERTEX
  5
795E3
100
AcDbEntity
  8
0
100
AcDbVertex
100
AcDbPolygonMeshVertex
 10
3.516
 20
-1.47
 30
4.287
 70
    64
  0
VERTEX
  5
795E4
100
AcDbEntity
  8
0
100
AcDbVertex
100
AcDbPolygonMeshVertex
 10
3.516
 20
-1.47
 30
3.167
 70
    64
  0
VERTEX
  5
795E5
100
AcDbEntity
  8
0
100
AcDbVertex
100
AcDbPolygonMeshVertex
 10
3.516
 20
-1.34
 30
3.167
 70
    64
  0
VERTEX
  5
795E6
100
AcDbEntity
  8
0
100
AcDbVertex
100
AcDbPolygonMeshVertex
 10
3.336
 20
-1.47
 30
4.287
 70
    64
  0
VERTEX
  5
795E7
100
AcDbEntity
  8
0
100
AcDbVertex
100
AcDbPolygonMeshVertex
 10
3.336
 20
-1.47
 30
3.167
 70
    64
  0
VERTEX
  5
795E8
100
AcDbEntity
  8
0
100
AcDbVertex
100
AcDbPolygonMeshVertex
 10
3.336
 20
-1.34
 30
3.167
 70
    64
  0
VERTEX
  5
795E9
100
AcDbEntity
  8
0
100
AcDbVertex
100
AcDbPolygonMeshVertex
 10
3.336
 20
-1.47
 30
4.287
 70
    64
  0
VERTEX
  5
795EA
100
AcDbEntity
  8
0
100
AcDbVertex
100
AcDbPolygonMeshVertex
 10
3.336
 20
-1.47
 30
4.287
 70
    64
  0
VERTEX
  5
795EB
100
AcDbEntity
  8
0
100
AcDbVertex
100
AcDbPolygonMeshVertex
 10
3.336
 20
-1.34
 30
4.287
 70
    64
  0
VERTEX
  5
795EC
100
AcDbEntity
  8
0
100
AcDbVertex
100
AcDbPolygonMeshVertex
 10
3.516
 20
-1.47
 30
4.287
 70
    64
  0
VERTEX
  5
795ED
100
AcDbEntity
  8
0
100
AcDbVertex
100
AcDbPolygonMeshVertex
 10
3.516
 20
-1.47
 30
4.287
 70
    64
  0
VERTEX
  5
795EE
100
AcDbEntity
  8
0
100
AcDbVertex
100
AcDbPolygonMeshVertex
 10
3.516
 20
-1.34
 30
4.287
 70
    64
  0
SEQEND
  5
795EF
100
AcDbEntity
  8
0
  0
POLYLINE
  5
795F0
100
AcDbEntity
  8
0
100
AcDbPolygonMesh
 66
     1
 10
0.0
 20
0.0
 30
0.0
 70
    16
 71
     6
 72
     3
  0
VERTEX
  5
795F1
100
AcDbEntity
  8
0
100
AcDbVertex
100
AcDbPolygonMeshVertex
 10
2.276
 20
-1.34
 30
4.667
 70
    64
  0
VERTEX
  5
795F2
100
AcDbEntity
  8
0
100
AcDbVertex
100
AcDbPolygonMeshVertex
 10
2.276
 20
-1.34
 30
4.287
 70
    64
  0
VERTEX
  5
795F3
100
AcDbEntity
  8
0
100
AcDbVertex
100
AcDbPolygonMeshVertex
 10
2.276
 20
-1.34
 30
4.287
 70
    64
  0
VERTEX
  5
795F4
100
AcDbEntity
  8
0
100
AcDbVertex
100
AcDbPolygonMeshVertex
 10
2.456
 20
-1.34
 30
4.667
 70
    64
  0
VERTEX
  5
795F5
100
AcDbEntity
  8
0
100
AcDbVertex
100
AcDbPolygonMeshVertex
 10
2.456
 20
-1.34
 30
4.287
 70
    64
  0
VERTEX
  5
795F6
100
AcDbEntity
  8
0
100
AcDbVertex
100
AcDbPolygonMeshVertex
 10
2.456
 20
-1.34
 30
4.287
 70
    64
  0
VERTEX
  5
795F7
100
AcDbEntity
  8
0
100
AcDbVertex
100
AcDbPolygonMeshVertex
 10
2.456
 20
-2.15
 30
4.667
 70
    64
  0
VERTEX
  5
795F8
100
AcDbEntity
  8
0
100
AcDbVertex
100
AcDbPolygonMeshVertex
 10
2.456
 20
-2.15
 30
4.287
 70
    64
  0
VERTEX
  5
795F9
100
AcDbEntity
  8
0
100
AcDbVertex
100
AcDbPolygonMeshVertex
 10
2.456
 20
-1.34
 30
4.287
 70
    64
  0
VERTEX
  5
795FA
100
AcDbEntity
  8
0
100
AcDbVertex
100
AcDbPolygonMeshVertex
 10
2.276
 20
-2.15
 30
4.667
 70
    64
  0
VERTEX
  5
795FB
100
AcDbEntity
  8
0
100
AcDbVertex
100
AcDbPolygonMeshVertex
 10
2.276
 20
-2.15
 30
4.287
 70
    64
  0
VERTEX
  5
795FC
100
AcDbEntity
  8
0
100
AcDbVertex
100
AcDbPolygonMeshVertex
 10
2.276
 20
-1.34
 30
4.287
 70
    64
  0
VERTEX
  5
795FD
100
AcDbEntity
  8
0
100
AcDbVertex
100
AcDbPolygonMeshVertex
 10
2.276
 20
-2.15
 30
4.667
 70
    64
  0
VERTEX
  5
795FE
100
AcDbEntity
  8
0
100
AcDbVertex
100
AcDbPolygonMeshVertex
 10
2.276
 20
-2.15
 30
4.667
 70
    64
  0
VERTEX
  5
795FF
100
AcDbEntity
  8
0
100
AcDbVertex
100
AcDbPolygonMeshVertex
 10
2.276
 20
-1.34
 30
4.667
 70
    64
  0
VERTEX
  5
79600
100
AcDbEntity
  8
0
100
AcDbVertex
100
AcDbPolygonMeshVertex
 10
2.456
 20
-2.15
 30
4.667
 70
    64
  0
VERTEX
  5
79601
100
AcDbEntity
  8
0
100
AcDbVertex
100
AcDbPolygonMeshVertex
 10
2.456
 20
-2.15
 30
4.667
 70
    64
  0
VERTEX
  5
79602
100
AcDbEntity
  8
0
100
AcDbVertex
100
AcDbPolygonMeshVertex
 10
2.456
 20
-1.34
 30
4.667
 70
    64
  0
SEQEND
  5
79603
100
AcDbEntity
  8
0
  0
POLYLINE
  5
79604
100
AcDbEntity
  8
0
100
AcDbPolygonMesh
 66
     1
 10
0.0
 20
0.0
 30
0.0
 70
    16
 71
     6
 72
     3
  0
VERTEX
  5
79605
100
AcDbEntity
  8
0
100
AcDbVertex
100
AcDbPolygonMeshVertex
 10
2.276
 20
-1.34
 30
4.287
 70
    64
  0
VERTEX
  5
79606
100
AcDbEntity
  8
0
100
AcDbVertex
100
AcDbPolygonMeshVertex
 10
2.276
 20
-1.34
 30
3.167
 70
    64
  0
VERTEX
  5
79607
100
AcDbEntity
  8
0
100
AcDbVertex
100
AcDbPolygonMeshVertex
 10
2.276
 20
-1.34
 30
3.167
 70
    64
  0
VERTEX
  5
79608
100
AcDbEntity
  8
0
100
AcDbVertex
100
AcDbPolygonMeshVertex
 10
2.456
 20
-1.34
 30
4.287
 70
    64
  0
VERTEX
  5
79609
100
AcDbEntity
  8
0
100
AcDbVertex
100
AcDbPolygonMeshVertex
 10
2.456
 20
-1.34
 30
3.167
 70
    64
  0
VERTEX
  5
7960A
100
AcDbEntity
  8
0
100
AcDbVertex
100
AcDbPolygonMeshVertex
 10
2.456
 20
-1.34
 30
3.167
 70
    64
  0
VERTEX
  5
7960B
100
AcDbEntity
  8
0
100
AcDbVertex
100
AcDbPolygonMeshVertex
 10
2.456
 20
-1.47
 30
4.287
 70
    64
  0
VERTEX
  5
7960C
100
AcDbEntity
  8
0
100
AcDbVertex
100
AcDbPolygonMeshVertex
 10
2.456
 20
-1.47
 30
3.167
 70
    64
  0
VERTEX
  5
7960D
100
AcDbEntity
  8
0
100
AcDbVertex
100
AcDbPolygonMeshVertex
 10
2.456
 20
-1.34
 30
3.167
 70
    64
  0
VERTEX
  5
7960E
100
AcDbEntity
  8
0
100
AcDbVertex
100
AcDbPolygonMeshVertex
 10
2.276
 20
-1.47
 30
4.287
 70
    64
  0
VERTEX
  5
7960F
100
AcDbEntity
  8
0
100
AcDbVertex
100
AcDbPolygonMeshVertex
 10
2.276
 20
-1.47
 30
3.167
 70
    64
  0
VERTEX
  5
79610
100
AcDbEntity
  8
0
100
AcDbVertex
100
AcDbPolygonMeshVertex
 10
2.276
 20
-1.34
 30
3.167
 70
    64
  0
VERTEX
  5
79611
100
AcDbEntity
  8
0
100
AcDbVertex
100
AcDbPolygonMeshVertex
 10
2.276
 20
-1.47
 30
4.287
 70
    64
  0
VERTEX
  5
79612
100
AcDbEntity
  8
0
100
AcDbVertex
100
AcDbPolygonMeshVertex
 10
2.276
 20
-1.47
 30
4.287
 70
    64
  0
VERTEX
  5
79613
100
AcDbEntity
  8
0
100
AcDbVertex
100
AcDbPolygonMeshVertex
 10
2.276
 20
-1.34
 30
4.287
 70
    64
  0
VERTEX
  5
79614
100
AcDbEntity
  8
0
100
AcDbVertex
100
AcDbPolygonMeshVertex
 10
2.456
 20
-1.47
 30
4.287
 70
    64
  0
VERTEX
  5
79615
100
AcDbEntity
  8
0
100
AcDbVertex
100
AcDbPolygonMeshVertex
 10
2.456
 20
-1.47
 30
4.287
 70
    64
  0
VERTEX
  5
79616
100
AcDbEntity
  8
0
100
AcDbVertex
100
AcDbPolygonMeshVertex
 10
2.456
 20
-1.34
 30
4.287
 70
    64
  0
SEQEND
  5
79617
100
AcDbEntity
  8
0
  0
POLYLINE
  5
79618
100
AcDbEntity
  8
0
100
AcDbPolygonMesh
 66
     1
 10
0.0
 20
0.0
 30
0.0
 70
    16
 71
     6
 72
     3
  0
VERTEX
  5
79619
100
AcDbEntity
  8
0
100
AcDbVertex
100
AcDbPolygonMeshVertex
 10
3.706
 20
-1.56
 30
4.477
 70
    64
  0
VERTEX
  5
7961A
100
AcDbEntity
  8
0
100
AcDbVertex
100
AcDbPolygonMeshVertex
 10
3.706
 20
-1.56
 30
4.287
 70
    64
  0
VERTEX
  5
7961B
100
AcDbEntity
  8
0
100
AcDbVertex
100
AcDbPolygonMeshVertex
 10
3.706
 20
-1.56
 30
4.287
 70
    64
  0
VERTEX
  5
7961C
100
AcDbEntity
  8
0
100
AcDbVertex
100
AcDbPolygonMeshVertex
 10
4.206
 20
-1.56
 30
4.477
 70
    64
  0
VERTEX
  5
7961D
100
AcDbEntity
  8
0
100
AcDbVertex
100
AcDbPolygonMeshVertex
 10
4.206
 20
-1.56
 30
4.287
 70
    64
  0
VERTEX
  5
7961E
100
AcDbEntity
  8
0
100
AcDbVertex
100
AcDbPolygonMeshVertex
 10
4.206
 20
-1.56
 30
4.287
 70
    64
  0
VERTEX
  5
7961F
100
AcDbEntity
  8
0
100
AcDbVertex
100
AcDbPolygonMeshVertex
 10
4.206
 20
-1.97
 30
4.477
 70
    64
  0
VERTEX
  5
79620
100
AcDbEntity
  8
0
100
AcDbVertex
100
AcDbPolygonMeshVertex
 10
4.206
 20
-1.97
 30
4.287
 70
    64
  0
VERTEX
  5
79621
100
AcDbEntity
  8
0
100
AcDbVertex
100
AcDbPolygonMeshVertex
 10
4.206
 20
-1.56
 30
4.287
 70
    64
  0
VERTEX
  5
79622
100
AcDbEntity
  8
0
100
AcDbVertex
100
AcDbPolygonMeshVertex
 10
3.706
 20
-1.97
 30
4.477
 70
    64
  0
VERTEX
  5
79623
100
AcDbEntity
  8
0
100
AcDbVertex
100
AcDbPolygonMeshVertex
 10
3.706
 20
-1.97
 30
4.287
 70
    64
  0
VERTEX
  5
79624
100
AcDbEntity
  8
0
100
AcDbVertex
100
AcDbPolygonMeshVertex
 10
3.706
 20
-1.56
 30
4.287
 70
    64
  0
VERTEX
  5
79625
100
AcDbEntity
  8
0
100
AcDbVertex
100
AcDbPolygonMeshVertex
 10
3.706
 20
-1.97
 30
4.477
 70
    64
  0
VERTEX
  5
79626
100
AcDbEntity
  8
0
100
AcDbVertex
100
AcDbPolygonMeshVertex
 10
3.706
 20
-1.97
 30
4.477
 70
    64
  0
VERTEX
  5
79627
100
AcDbEntity
  8
0
100
AcDbVertex
100
AcDbPolygonMeshVertex
 10
3.706
 20
-1.56
 30
4.477
 70
    64
  0
VERTEX
  5
79628
100
AcDbEntity
  8
0
100
AcDbVertex
100
AcDbPolygonMeshVertex
 10
4.206
 20
-1.97
 30
4.477
 70
    64
  0
VERTEX
  5
79629
100
AcDbEntity
  8
0
100
AcDbVertex
100
AcDbPolygonMeshVertex
 10
4.206
 20
-1.97
 30
4.477
 70
    64
  0
VERTEX
  5
7962A
100
AcDbEntity
  8
0
100
AcDbVertex
100
AcDbPolygonMeshVertex
 10
4.206
 20
-1.56
 30
4.477
 70
    64
  0
SEQEND
  5
7962B
100
AcDbEntity
  8
0
  0
CIRCLE
  5
7962C
100
AcDbEntity
  8
0
100
AcDbCircle
 10
2.896
 20
-1.765
 30
4.477
 40
0.19
  0
POLYLINE
  5
7962D
100
AcDbEntity
  8
0
100
AcDbPolygonMesh
 66
     1
 10
0.0
 20
0.0
 30
0.0
 70
    16
 71
     6
 72
     3
  0
VERTEX
  5
7962E
100
AcDbEntity
  8
0
100
AcDbVertex
100
AcDbPolygonMeshVertex
 10
2.646
 20
-1.56
 30
4.477
 70
    64
  0
VERTEX
  5
7962F
100
AcDbEntity
  8
0
100
AcDbVertex
100
AcDbPolygonMeshVertex
 10
2.646
 20
-1.56
 30
4.287
 70
    64
  0
VERTEX
  5
79630
100
AcDbEntity
  8
0
100
AcDbVertex
100
AcDbPolygonMeshVertex
 10
2.646
 20
-1.56
 30
4.287
 70
    64
  0
VERTEX
  5
79631
100
AcDbEntity
  8
0
100
AcDbVertex
100
AcDbPolygonMeshVertex
 10
3.146
 20
-1.56
 30
4.477
 70
    64
  0
VERTEX
  5
79632
100
AcDbEntity
  8
0
100
AcDbVertex
100
AcDbPolygonMeshVertex
 10
3.146
 20
-1.56
 30
4.287
 70
    64
  0
VERTEX
  5
79633
100
AcDbEntity
  8
0
100
AcDbVertex
100
AcDbPolygonMeshVertex
 10
3.146
 20
-1.56
 30
4.287
 70
    64
  0
VERTEX
  5
79634
100
AcDbEntity
  8
0
100
AcDbVertex
100
AcDbPolygonMeshVertex
 10
3.146
 20
-1.97
 30
4.477
 70
    64
  0
VERTEX
  5
79635
100
AcDbEntity
  8
0
100
AcDbVertex
100
AcDbPolygonMeshVertex
 10
3.146
 20
-1.97
 30
4.287
 70
    64
  0
VERTEX
  5
79636
100
AcDbEntity
  8
0
100
AcDbVertex
100
AcDbPolygonMeshVertex
 10
3.146
 20
-1.56
 30
4.287
 70
    64
  0
VERTEX
  5
79637
100
AcDbEntity
  8
0
100
AcDbVertex
100
AcDbPolygonMeshVertex
 10
2.646
 20
-1.97
 30
4.477
 70
    64
  0
VERTEX
  5
79638
100
AcDbEntity
  8
0
100
AcDbVertex
100
AcDbPolygonMeshVertex
 10
2.646
 20
-1.97
 30
4.287
 70
    64
  0
VERTEX
  5
79639
100
AcDbEntity
  8
0
100
AcDbVertex
100
AcDbPolygonMeshVertex
 10
2.646
 20
-1.56
 30
4.287
 70
    64
  0
VERTEX
  5
7963A
100
AcDbEntity
  8
0
100
AcDbVertex
100
AcDbPolygonMeshVertex
 10
2.646
 20
-1.97
 30
4.477
 70
    64
  0
VERTEX
  5
7963B
100
AcDbEntity
  8
0
100
AcDbVertex
100
AcDbPolygonMeshVertex
 10
2.646
 20
-1.97
 30
4.477
 70
    64
  0
VERTEX
  5
7963C
100
AcDbEntity
  8
0
100
AcDbVertex
100
AcDbPolygonMeshVertex
 10
2.646
 20
-1.56
 30
4.477
 70
    64
  0
VERTEX
  5
7963D
100
AcDbEntity
  8
0
100
AcDbVertex
100
AcDbPolygonMeshVertex
 10
3.146
 20
-1.97
 30
4.477
 70
    64
  0
VERTEX
  5
7963E
100
AcDbEntity
  8
0
100
AcDbVertex
100
AcDbPolygonMeshVertex
 10
3.146
 20
-1.97
 30
4.477
 70
    64
  0
VERTEX
  5
7963F
100
AcDbEntity
  8
0
100
AcDbVertex
100
AcDbPolygonMeshVertex
 10
3.146
 20
-1.56
 30
4.477
 70
    64
  0
SEQEND
  5
79640
100
AcDbEntity
  8
0
  0
CIRCLE
  5
79641
100
AcDbEntity
  8
0
100
AcDbCircle
 10
1.836
 20
-1.765
 30
4.477
 40
0.19
  0
POLYLINE
  5
79642
100
AcDbEntity
  8
0
100
AcDbPolygonMesh
 66
     1
 10
0.0
 20
0.0
 30
0.0
 70
    16
 71
     6
 72
     3
  0
VERTEX
  5
79643
100
AcDbEntity
  8
0
100
AcDbVertex
100
AcDbPolygonMeshVertex
 10
1.586
 20
-1.56
 30
4.477
 70
    64
  0
VERTEX
  5
79644
100
AcDbEntity
  8
0
100
AcDbVertex
100
AcDbPolygonMeshVertex
 10
1.586
 20
-1.56
 30
4.287
 70
    64
  0
VERTEX
  5
79645
100
AcDbEntity
  8
0
100
AcDbVertex
100
AcDbPolygonMeshVertex
 10
1.586
 20
-1.56
 30
4.287
 70
    64
  0
VERTEX
  5
79646
100
AcDbEntity
  8
0
100
AcDbVertex
100
AcDbPolygonMeshVertex
 10
2.086
 20
-1.56
 30
4.477
 70
    64
  0
VERTEX
  5
79647
100
AcDbEntity
  8
0
100
AcDbVertex
100
AcDbPolygonMeshVertex
 10
2.086
 20
-1.56
 30
4.287
 70
    64
  0
VERTEX
  5
79648
100
AcDbEntity
  8
0
100
AcDbVertex
100
AcDbPolygonMeshVertex
 10
2.086
 20
-1.56
 30
4.287
 70
    64
  0
VERTEX
  5
79649
100
AcDbEntity
  8
0
100
AcDbVertex
100
AcDbPolygonMeshVertex
 10
2.086
 20
-1.97
 30
4.477
 70
    64
  0
VERTEX
  5
7964A
100
AcDbEntity
  8
0
100
AcDbVertex
100
AcDbPolygonMeshVertex
 10
2.086
 20
-1.97
 30
4.287
 70
    64
  0
VERTEX
  5
7964B
100
AcDbEntity
  8
0
100
AcDbVertex
100
AcDbPolygonMeshVertex
 10
2.086
 20
-1.56
 30
4.287
 70
    64
  0
VERTEX
  5
7964C
100
AcDbEntity
  8
0
100
AcDbVertex
100
AcDbPolygonMeshVertex
 10
1.586
 20
-1.97
 30
4.477
 70
    64
  0
VERTEX
  5
7964D
100
AcDbEntity
  8
0
100
AcDbVertex
100
AcDbPolygonMeshVertex
 10
1.586
 20
-1.97
 30
4.287
 70
    64
  0
VERTEX
  5
7964E
100
AcDbEntity
  8
0
100
AcDbVertex
100
AcDbPolygonMeshVertex
 10
1.586
 20
-1.56
 30
4.287
 70
    64
  0
VERTEX
  5
7964F
100
AcDbEntity
  8
0
100
AcDbVertex
100
AcDbPolygonMeshVertex
 10
1.586
 20
-1.97
 30
4.477
 70
    64
  0
VERTEX
  5
79650
100
AcDbEntity
  8
0
100
AcDbVertex
100
AcDbPolygonMeshVertex
 10
1.586
 20
-1.97
 30
4.477
 70
    64
  0
VERTEX
  5
79651
100
AcDbEntity
  8
0
100
AcDbVertex
100
AcDbPolygonMeshVertex
 10
1.586
 20
-1.56
 30
4.477
 70
    64
  0
VERTEX
  5
79652
100
AcDbEntity
  8
0
100
AcDbVertex
100
AcDbPolygonMeshVertex
 10
2.086
 20
-1.97
 30
4.477
 70
    64
  0
VERTEX
  5
79653
100
AcDbEntity
  8
0
100
AcDbVertex
100
AcDbPolygonMeshVertex
 10
2.086
 20
-1.97
 30
4.477
 70
    64
  0
VERTEX
  5
79654
100
AcDbEntity
  8
0
100
AcDbVertex
100
AcDbPolygonMeshVertex
 10
2.086
 20
-1.56
 30
4.477
 70
    64
  0
SEQEND
  5
79655
100
AcDbEntity
  8
0
  0
POLYLINE
  5
79656
100
AcDbEntity
  8
0
100
AcDbPolygonMesh
 66
     1
 10
0.0
 20
0.0
 30
0.0
 70
    16
 71
     6
 72
     3
  0
VERTEX
  5
79657
100
AcDbEntity
  8
0
100
AcDbVertex
100
AcDbPolygonMeshVertex
 10
4.671
 20
-8.31
 30
0.387
 70
    64
  0
VERTEX
  5
79658
100
AcDbEntity
  8
0
100
AcDbVertex
100
AcDbPolygonMeshVertex
 10
4.671
 20
-8.31
 30
0.197
 70
    64
  0
VERTEX
  5
79659
100
AcDbEntity
  8
0
100
AcDbVertex
100
AcDbPolygonMeshVertex
 10
4.671
 20
-8.31
 30
0.197
 70
    64
  0
VERTEX
  5
7965A
100
AcDbEntity
  8
0
100
AcDbVertex
100
AcDbPolygonMeshVertex
 10
1.111
 20
-8.31
 30
0.387
 70
    64
  0
VERTEX
  5
7965B
100
AcDbEntity
  8
0
100
AcDbVertex
100
AcDbPolygonMeshVertex
 10
1.111
 20
-8.31
 30
0.197
 70
    64
  0
VERTEX
  5
7965C
100
AcDbEntity
  8
0
100
AcDbVertex
100
AcDbPolygonMeshVertex
 10
1.111
 20
-8.31
 30
0.197
 70
    64
  0
VERTEX
  5
7965D
100
AcDbEntity
  8
0
100
AcDbVertex
100
AcDbPolygonMeshVertex
 10
1.111
 20
-1.31
 30
0.387
 70
    64
  0
VERTEX
  5
7965E
100
AcDbEntity
  8
0
100
AcDbVertex
100
AcDbPolygonMeshVertex
 10
1.111
 20
-1.31
 30
0.197
 70
    64
  0
VERTEX
  5
7965F
100
AcDbEntity
  8
0
100
AcDbVertex
100
AcDbPolygonMeshVertex
 10
1.111
 20
-8.31
 30
0.197
 70
    64
  0
VERTEX
  5
79660
100
AcDbEntity
  8
0
100
AcDbVertex
100
AcDbPolygonMeshVertex
 10
4.671
 20
-1.31
 30
0.387
 70
    64
  0
VERTEX
  5
79661
100
AcDbEntity
  8
0
100
AcDbVertex
100
AcDbPolygonMeshVertex
 10
4.671
 20
-1.31
 30
0.197
 70
    64
  0
VERTEX
  5
79662
100
AcDbEntity
  8
0
100
AcDbVertex
100
AcDbPolygonMeshVertex
 10
4.671
 20
-8.31
 30
0.197
 70
    64
  0
VERTEX
  5
79663
100
AcDbEntity
  8
0
100
AcDbVertex
100
AcDbPolygonMeshVertex
 10
4.671
 20
-1.31
 30
0.387
 70
    64
  0
VERTEX
  5
79664
100
AcDbEntity
  8
0
100
AcDbVertex
100
AcDbPolygonMeshVertex
 10
4.671
 20
-1.31
 30
0.387
 70
    64
  0
VERTEX
  5
79665
100
AcDbEntity
  8
0
100
AcDbVertex
100
AcDbPolygonMeshVertex
 10
4.671
 20
-8.31
 30
0.387
 70
    64
  0
VERTEX
  5
79666
100
AcDbEntity
  8
0
100
AcDbVertex
100
AcDbPolygonMeshVertex
 10
1.111
 20
-1.31
 30
0.387
 70
    64
  0
VERTEX
  5
79667
100
AcDbEntity
  8
0
100
AcDbVertex
100
AcDbPolygonMeshVertex
 10
1.111
 20
-1.31
 30
0.387
 70
    64
  0
VERTEX
  5
79668
100
AcDbEntity
  8
0
100
AcDbVertex
100
AcDbPolygonMeshVertex
 10
1.111
 20
-8.31
 30
0.387
 70
    64
  0
SEQEND
  5
79669
100
AcDbEntity
  8
0
  0
LINE
  5
7966A
100
AcDbEntity
  8
0
100
AcDbLine
 10
1.616
 20
-8.31
 30
0.387
 11
1.616
 21
-8.31
 31
0.197
  0
3DFACE
  5
7966B
100
AcDbEntity
  8
0
100
AcDbFace
 10
4.671
 20
-1.31
 30
0.387
 11
4.051
 21
-0.69
 31
0.387
 12
2.611
 22
-0.69
 32
0.387
 13
2.511
 23
-0.97
 33
0.387
 70
     8
  0
3DFACE
  5
7966C
100
AcDbEntity
  8
0
100
AcDbFace
 10
2.021
 20
-0.97
 30
0.387
 11
1.921
 21
-0.69
 31
0.387
 12
1.731
 22
-0.69
 32
0.387
 13
1.111
 23
-1.31
 33
0.387
 70
     8
  0
3DFACE
  5
7966D
100
AcDbEntity
  8
0
100
AcDbFace
 10
2.021
 20
-0.97
 30
0.387
 11
1.111
 21
-1.31
 31
0.387
 12
4.671
 22
-1.31
 32
0.387
 13
2.511
 23
-0.97
 33
0.387
 70
    15
  0
3DFACE
  5
7966E
100
AcDbEntity
  8
0
100
AcDbFace
 10
2.021
 20
-0.97
 30
0.197
 11
1.111
 21
-1.31
 31
0.197
 12
4.671
 22
-1.31
 32
0.197
 13
2.511
 23
-0.97
 33
0.197
 70
    15
  0
3DFACE
  5
7966F
100
AcDbEntity
  8
0
100
AcDbFace
 10
4.671
 20
-1.31
 30
0.197
 11
4.051
 21
-0.69
 31
0.197
 12
2.611
 22
-0.69
 32
0.197
 13
2.511
 23
-0.97
 33
0.197
 70
     8
  0
3DFACE
  5
79670
100
AcDbEntity
  8
0
100
AcDbFace
 10
2.021
 20
-0.97
 30
0.197
 11
1.921
 21
-0.69
 31
0.197
 12
1.731
 22
-0.69
 32
0.197
 13
1.111
 23
-1.31
 33
0.197
 70
     8
  0
3DFACE
  5
79671
100
AcDbEntity
  8
0
100
AcDbFace
 10
4.671
 20
-1.31
 30
0.197
 11
4.671
 21
-1.31
 31
0.387
 12
4.051
 22
-0.69
 32
0.387
 13
4.051
 23
-0.69
 33
0.197
  0
3DFACE
  5
79672
100
AcDbEntity
  8
0
100
AcDbFace
 10
4.051
 20
-0.69
 30
0.387
 11
2.611
 21
-0.69
 31
0.387
 12
2.611
 22
-0.69
 32
0.197
 13
4.051
 23
-0.69
 33
0.197
  0
3DFACE
  5
79673
100
AcDbEntity
  8
0
100
AcDbFace
 10
2.021
 20
-0.97
 30
0.387
 11
2.021
 21
-0.97
 31
0.197
 12
1.921
 22
-0.69
 32
0.197
 13
1.921
 23
-0.69
 33
0.387
  0
3DFACE
  5
79674
100
AcDbEntity
  8
0
100
AcDbFace
 10
2.511
 20
-0.97
 30
0.387
 11
2.511
 21
-0.97
 31
0.197
 12
2.021
 22
-0.97
 32
0.197
 13
2.021
 23
-0.97
 33
0.387
  0
3DFACE
  5
79675
100
AcDbEntity
  8
0
100
AcDbFace
 10
1.921
 20
-0.69
 30
0.387
 11
1.921
 21
-0.69
 31
0.197
 12
1.731
 22
-0.69
 32
0.197
 13
1.731
 23
-0.69
 33
0.387
  0
3DFACE
  5
79676
100
AcDbEntity
  8
0
100
AcDbFace
 10
2.511
 20
-0.97
 30
0.387
 11
2.511
 21
-0.97
 31
0.197
 12
2.611
 22
-0.69
 32
0.197
 13
2.611
 23
-0.69
 33
0.387
  0
3DFACE
  5
79677
100
AcDbEntity
  8
0
100
AcDbFace
 10
1.731
 20
-0.69
 30
0.197
 11
1.731
 21
-0.69
 31
0.387
 12
1.111
 22
-1.31
 32
0.387
 13
1.111
 23
-1.31
 33
0.197
  0
TEXT
  5
79678
100
AcDbEntity
  8
0
100
AcDbText
 10
1.744085
 20
-1.83698
 30
4.477
 40
0.182402
  1
L1
100
AcDbText
  0
TEXT
  5
79679
100
AcDbEntity
  8
0
100
AcDbText
 10
2.769212
 20
-1.858324
 30
4.477
 40
0.182402
  1
L2
100
AcDbText
  0
TEXT
  5
7967A
100
AcDbEntity
  8
0
100
AcDbText
 10
3.829688
 20
-1.867891
 30
4.477
 40
0.182402
  1
L3
100
AcDbText
  0
TEXT
  5
7967B
100
AcDbEntity
  8
0
100
AcDbText
 10
1.644367
 20
-7.159352
 30
3.837
 40
0.182402
  1
T1
100
AcDbText
  0
TEXT
  5
7967C
100
AcDbEntity
  8
0
100
AcDbText
 10
2.681277
 20
-7.168919
 30
3.837
 40
0.182402
  1
T2
100
AcDbText
  0
TEXT
  5
7967D
100
AcDbEntity
  8
0
100
AcDbText
 10
3.741752
 20
-7.178486
 30
3.837
 40
0.182402
  1
T3
100
AcDbText
  0
3DFACE
  5
7967E
100
AcDbEntity
  8
0
100
AcDbFace
 10
5.137
 20
-1.029
 30
0.197
 11
4.737
 21
-0.629
 31
0.197
 12
4.737
 22
-0.629
 32
0.0
 13
5.137
 23
-1.029
 33
0.0
  0
POLYLINE
  5
7967F
100
AcDbEntity
  8
0
100
AcDbPolygonMesh
 66
     1
 10
0.0
 20
0.0
 30
0.0
 70
    16
 71
     6
 72
     3
  0
VERTEX
  5
79680
100
AcDbEntity
  8
0
100
AcDbVertex
100
AcDbPolygonMeshVertex
 10
0.483
 20
-6.690001
 30
0.387
 70
    64
  0
VERTEX
  5
79681
100
AcDbEntity
  8
0
100
AcDbVertex
100
AcDbPolygonMeshVertex
 10
0.483
 20
-6.690001
 30
0.197
 70
    64
  0
VERTEX
  5
79682
100
AcDbEntity
  8
0
100
AcDbVertex
100
AcDbPolygonMeshVertex
 10
0.483
 20
-6.690001
 30
0.197
 70
    64
  0
VERTEX
  5
79683
100
AcDbEntity
  8
0
100
AcDbVertex
100
AcDbPolygonMeshVertex
 10
-3.077
 20
-6.690001
 30
0.387
 70
    64
  0
VERTEX
  5
79684
100
AcDbEntity
  8
0
100
AcDbVertex
100
AcDbPolygonMeshVertex
 10
-3.077
 20
-6.690001
 30
0.197
 70
    64
  0
VERTEX
  5
79685
100
AcDbEntity
  8
0
100
AcDbVertex
100
AcDbPolygonMeshVertex
 10
-3.077
 20
-6.690001
 30
0.197
 70
    64
  0
VERTEX
  5
79686
100
AcDbEntity
  8
0
100
AcDbVertex
100
AcDbPolygonMeshVertex
 10
-3.077
 20
-1.31
 30
0.387
 70
    64
  0
VERTEX
  5
79687
100
AcDbEntity
  8
0
100
AcDbVertex
100
AcDbPolygonMeshVertex
 10
-3.077
 20
-1.31
 30
0.197
 70
    64
  0
VERTEX
  5
79688
100
AcDbEntity
  8
0
100
AcDbVertex
100
AcDbPolygonMeshVertex
 10
-3.077
 20
-6.690001
 30
0.197
 70
    64
  0
VERTEX
  5
79689
100
AcDbEntity
  8
0
100
AcDbVertex
100
AcDbPolygonMeshVertex
 10
0.483
 20
-1.31
 30
0.387
 70
    64
  0
VERTEX
  5
7968A
100
AcDbEntity
  8
0
100
AcDbVertex
100
AcDbPolygonMeshVertex
 10
0.483
 20
-1.31
 30
0.197
 70
    64
  0
VERTEX
  5
7968B
100
AcDbEntity
  8
0
100
AcDbVertex
100
AcDbPolygonMeshVertex
 10
0.483
 20
-6.690001
 30
0.197
 70
    64
  0
VERTEX
  5
7968C
100
AcDbEntity
  8
0
100
AcDbVertex
100
AcDbPolygonMeshVertex
 10
0.483
 20
-1.31
 30
0.387
 70
    64
  0
VERTEX
  5
7968D
100
AcDbEntity
  8
0
100
AcDbVertex
100
AcDbPolygonMeshVertex
 10
0.483
 20
-1.31
 30
0.387
 70
    64
  0
VERTEX
  5
7968E
100
AcDbEntity
  8
0
100
AcDbVertex
100
AcDbPolygonMeshVertex
 10
0.483
 20
-6.690001
 30
0.387
 70
    64
  0
VERTEX
  5
7968F
100
AcDbEntity
  8
0
100
AcDbVertex
100
AcDbPolygonMeshVertex
 10
-3.077
 20
-1.31
 30
0.387
 70
    64
  0
VERTEX
  5
79690
100
AcDbEntity
  8
0
100
AcDbVertex
100
AcDbPolygonMeshVertex
 10
-3.077
 20
-1.31
 30
0.387
 70
    64
  0
VERTEX
  5
79691
100
AcDbEntity
  8
0
100
AcDbVertex
100
AcDbPolygonMeshVertex
 10
-3.077
 20
-6.690001
 30
0.387
 70
    64
  0
SEQEND
  5
79692
100
AcDbEntity
  8
0
  0
POLYLINE
  5
79693
100
AcDbEntity
  8
0
100
AcDbPolygonMesh
 66
     1
 10
0.0
 20
0.0
 30
0.0
 70
    16
 71
     6
 72
     3
  0
VERTEX
  5
79694
100
AcDbEntity
  8
0
100
AcDbVertex
100
AcDbPolygonMeshVertex
 10
1.216
 20
-5.16
 30
4.667
 70
    64
  0
VERTEX
  5
79695
100
AcDbEntity
  8
0
100
AcDbVertex
100
AcDbPolygonMeshVertex
 10
1.216
 20
-5.16
 30
0.387
 70
    64
  0
VERTEX
  5
79696
100
AcDbEntity
  8
0
100
AcDbVertex
100
AcDbPolygonMeshVertex
 10
1.216
 20
-5.16
 30
0.387
 70
    64
  0
VERTEX
  5
79697
100
AcDbEntity
  8
0
100
AcDbVertex
100
AcDbPolygonMeshVertex
 10
0.388
 20
-5.16
 30
4.667
 70
    64
  0
VERTEX
  5
79698
100
AcDbEntity
  8
0
100
AcDbVertex
100
AcDbPolygonMeshVertex
 10
0.388
 20
-5.16
 30
0.387
 70
    64
  0
VERTEX
  5
79699
100
AcDbEntity
  8
0
100
AcDbVertex
100
AcDbPolygonMeshVertex
 10
0.388
 20
-5.16
 30
0.387
 70
    64
  0
VERTEX
  5
7969A
100
AcDbEntity
  8
0
100
AcDbVertex
100
AcDbPolygonMeshVertex
 10
0.388
 20
-3.1
 30
4.667
 70
    64
  0
VERTEX
  5
7969B
100
AcDbEntity
  8
0
100
AcDbVertex
100
AcDbPolygonMeshVertex
 10
0.388
 20
-3.1
 30
0.387
 70
    64
  0
VERTEX
  5
7969C
100
AcDbEntity
  8
0
100
AcDbVertex
100
AcDbPolygonMeshVertex
 10
0.388
 20
-5.16
 30
0.387
 70
    64
  0
VERTEX
  5
7969D
100
AcDbEntity
  8
0
100
AcDbVertex
100
AcDbPolygonMeshVertex
 10
1.216
 20
-3.1
 30
4.667
 70
    64
  0
VERTEX
  5
7969E
100
AcDbEntity
  8
0
100
AcDbVertex
100
AcDbPolygonMeshVertex
 10
1.216
 20
-3.1
 30
0.387
 70
    64
  0
VERTEX
  5
7969F
100
AcDbEntity
  8
0
100
AcDbVertex
100
AcDbPolygonMeshVertex
 10
1.216
 20
-5.16
 30
0.387
 70
    64
  0
VERTEX
  5
796A0
100
AcDbEntity
  8
0
100
AcDbVertex
100
AcDbPolygonMeshVertex
 10
1.216
 20
-3.1
 30
4.667
 70
    64
  0
VERTEX
  5
796A1
100
AcDbEntity
  8
0
100
AcDbVertex
100
AcDbPolygonMeshVertex
 10
1.216
 20
-3.1
 30
4.667
 70
    64
  0
VERTEX
  5
796A2
100
AcDbEntity
  8
0
100
AcDbVertex
100
AcDbPolygonMeshVertex
 10
1.216
 20
-5.16
 30
4.667
 70
    64
  0
VERTEX
  5
796A3
100
AcDbEntity
  8
0
100
AcDbVertex
100
AcDbPolygonMeshVertex
 10
0.388
 20
-3.1
 30
4.667
 70
    64
  0
VERTEX
  5
796A4
100
AcDbEntity
  8
0
100
AcDbVertex
100
AcDbPolygonMeshVertex
 10
0.388
 20
-3.1
 30
4.667
 70
    64
  0
VERTEX
  5
796A5
100
AcDbEntity
  8
0
100
AcDbVertex
100
AcDbPolygonMeshVertex
 10
0.388
 20
-5.16
 30
4.667
 70
    64
  0
SEQEND
  5
796A6
100
AcDbEntity
  8
0
  0
ATTDEF
  5
796A7
100
AcDbEntity
  8
ATTRIBUTES
100
AcDbText
 10
-2.780842
 20
-5.983614
 30
0.0
 40
0.147608
  1
ALLEN-BRADLEY
100
AcDbAttributeDefinition
  3
MANUFACTURER NAME?
  2
AC_VND_LABEL
 70
     1
  0
ATTDEF
  5
796A8
100
AcDbEntity
  8
ATTRIBUTES
100
AcDbText
 10
-2.780842
 20
-6.291132
 30
0.0
 40
0.147608
  1
505-A
100
AcDbAttributeDefinition
  3
CATALOG NUMBER?
  2
AC_PART_NO
 70
     1
  0
ATTDEF
  5
796A9
100
AcDbEntity
  8
ATTRIBUTES
100
AcDbText
 10
-2.780842
 20
-6.598649
 30
0.0
 40
0.147608
  1
REVERSING STARTER W/ EUTECTIC ALLOY OLR; SIZE 0 & 1
100
AcDbAttributeDefinition
  3
PART DESCRIPTION?
  2
AC_DESCRIPTION
 70
     1
  0
ATTDEF
  5
796AA
100
AcDbEntity
  8
ATTRIBUTES
100
AcDbText
 10
-2.780842
 20
-6.906167
 30
0.0
 40
0.147608
  1

100
AcDbAttributeDefinition
  3
DEVICE ID?
  2
DEVICE_ID
 70
     1
  0
ATTDEF
  5
796AB
100
AcDbEntity
  8
ATTRIBUTES
100
AcDbText
 10
-2.780842
 20
-7.213684
 30
0.0
 40
0.147608
  1

100
AcDbAttributeDefinition
  3
CUSTOMER PART NUMBER?
  2
AC_CPART_NO
 70
     1
  0
ATTDEF
  5
796AC
100
AcDbEntity
  8
ATTRIBUTES
100
AcDbText
 10
-2.780842
 20
-7.521202
 30
0.0
 40
0.147608
  1

100
AcDbAttributeDefinition
  3
CUSTOMER NOTE?
  2
AC_NOTE
 70
     1
  0
ATTDEF
  5
796AD
100
AcDbEntity
  8
ATTRIBUTES
100
AcDbText
 10
-2.780842
 20
-7.828719
 30
0.0
 40
0.147608
  1

100
AcDbAttributeDefinition
  3
FASTENER DATA?
  2
FASTENER
 70
     1
  0
ATTDEF
  5
796AE
100
AcDbEntity
  8
ATTRIBUTES
100
AcDbText
 10
-2.780842
 20
-8.136237
 30
0.0
 40
0.147608
  1
INCH
100
AcDbAttributeDefinition
  3
UNIT OF SCALE?
  2
AC_SCALE_UNIT
 70
     1
  0
ATTDEF
  5
796AF
100
AcDbEntity
  8
ATTRIBUTES
100
AcDbText
 10
-2.780842
 20
-8.443754
 30
0.0
 40
0.147608
  1
0
100
AcDbAttributeDefinition
  3
VIEW CODE?
  2
AC_VIEW_CODE
 70
     1
  0
POINT
  5
796B0
100
AcDbEntity
  8
DIMS-MTG-HOLES
100
AcDbPoint
 10
-2.753
 20
-8.658
 30
0.0
  0
POINT
  5
796B1
100
AcDbEntity
  8
DIMS-MTG-HOLES
100
AcDbPoint
 10
4.337
 20
-8.658
 30
0.0
  0
POINT
  5
796B2
100
AcDbEntity
  8
DIMS-MTG-HOLES
100
AcDbPoint
 10
0.0
 20
0.0
 30
0.0
  0
DIMENSION
  5
796B3
100
AcDbEntity
  8
AREA1
100
AcDbDimension
  2
*D0
 10
-4.175074
 20
-8.879
 30
0.0
 11
-4.175074
 21
-4.517139
 31
0.0
 70
   160
  3
ABECAD_3D
100
AcDbAlignedDimension
 13
-1.0
 23
0.281
 33
0.0
 14
-3.023
 24
-8.879
 34
0.0
 50
90.0
100
AcDbRotatedDimension
  0
DIMENSION
  5
796C1
100
AcDbEntity
  8
AREA1
100
AcDbDimension
  2
*D1
 10
5.137
 20
0.979966
 30
0.0
 11
1.122996
 21
0.979966
 31
0.0
 70
   160
  3
ABECAD_3D
100
AcDbAlignedDimension
 13
-3.153
 23
-1.029
 33
0.0
 14
5.137
 24
-1.029
 34
0.0
100
AcDbRotatedDimension
  0
LWPOLYLINE
  5
796DE
100
AcDbEntity
  8
SCALE
100
AcDbPolyline
 90
        4
 70
     1
 43
0.0
 10
0.424571
 20
-9.197888
 10
1.5602
 20
-9.197888
 10
1.5602
 20
-10.039497
 10
0.424571
 20
-10.039497
  0
LINE
  5
796DF
100
AcDbEntity
  8
SCALE
100
AcDbLine
 10
0.48257
 20
-9.577966
 30
0.0
 11
1.48257
 21
-9.577966
 31
0.0
  0
LINE
  5
796E0
100
AcDbEntity
  8
SCALE
100
AcDbLine
 10
0.48257
 20
-9.877966
 30
0.0
 11
0.87627
 21
-9.877966
 31
0.0
  0
LINE
  5
796E1
100
AcDbEntity
  8
SCALE
100
AcDbLine
 10
0.48257
 20
-9.677966
 30
0.0
 11
0.48257
 21
-9.477966
 31
0.0
  0
TEXT
  5
796E2
100
AcDbEntity
  8
SCALE
100
AcDbText
 10
0.538546
 20
-9.830281
 30
0.0
 40
0.0625
  1
[10mm]
100
AcDbText
  0
LINE
  5
796E3
100
AcDbEntity
  8
SCALE
100
AcDbLine
 10
0.48257
 20
-9.977966
 30
0.0
 11
0.48257
 21
-9.777966
 31
0.0
  0
TEXT
  5
796E4
100
AcDbEntity
  8
SCALE
100
AcDbText
 10
0.4841
 20
-9.303089
 30
0.0
 40
0.0625
  1
SCALE:
100
AcDbText
  0
LINE
  5
796E5
100
AcDbEntity
  8
SCALE
100
AcDbLine
 10
0.87627
 20
-9.977966
 30
0.0
 11
0.87627
 21
-9.777966
 31
0.0
  0
TEXT
  5
796E6
100
AcDbEntity
  8
SCALE
100
AcDbText
 10
0.845853
 20
-9.508917
 30
0.0
 40
0.0625
  1
1 Inch
100
AcDbText
  0
LINE
  5
796E7
100
AcDbEntity
  8
SCALE
100
AcDbLine
 10
1.48257
 20
-9.577966
 30
0.0
 11
1.48257
 21
-9.677966
 31
0.0
  0
LINE
  5
796E8
100
AcDbEntity
  8
SCALE
100
AcDbLine
 10
1.48257
 20
-9.677966
 30
0.0
 11
1.48257
 21
-9.477966
 31
0.0
  0
VIEWPORT
  5
5677D
102
{ACAD_XDICTIONARY
360
7974E
102
}
100
AcDbEntity
 67
     1
  8
0
100
AcDbViewport
 10
5.25
 20
4.0
 30
0.0
 40
16.386862
 41
8.993
 68
    -1
 69
     1
1001
ACAD
1000
MVIEW
1002
{
1070
    16
1010
0.0
1020
0.0
1030
0.0
1010
0.0
1020
0.0
1030
1.0
1040
0.0
1040
8.993
1040
5.25
1040
4.0
1040
50.0
1040
0.0
1040
0.0
1070
     0
1070
 20000
1070
     1
1070
     1
1070
     0
1070
     0
1070
     0
1070
     0
1040
0.0
1040
0.0
1040
0.0
1040
0.5
1040
0.5
1040
0.5
1040
0.5
1070
     0
1002
{
1002
}
1002
}
  0
VIEWPORT
  5
5677F
102
{ACAD_XDICTIONARY
360
79750
102
}
100
AcDbEntity
 67
     1
  8
AREA1
100
AcDbViewport
 10
5.25
 20
4.0
 30
0.0
 40
8.4
 41
6.4
 68
     1
 69
     2
1001
ACAD
1000
MVIEW
1002
{
1070
    16
1010
0.563444
1020
-0.880137
1030
1.686493
1010
0.0
1020
0.0
1030
1.0
1040
0.0
1040
4.582914
1040
-1.017175
1040
0.747813
1040
50.0
1040
0.0
1040
0.0
1070
     0
1070
 20000
1070
     1
1070
     1
1070
     0
1070
     0
1070
     0
1070
     0
1040
0.0
1040
0.0
1040
0.0
1040
0.25
1040
0.25
1040
0.25
1040
0.25
1070
     0
1002
{
1002
}
1002
}
  0
ENDSEC
  0
SECTION
  2
OBJECTS
  0
DICTIONARY
  5
458CB
100
AcDbDictionary
  3
ACAD_GROUP
350
458CC
  3
ACAD_LAYOUT
350
458FB
  3
ACAD_MLINESTYLE
350
458D9
  3
ACAD_PLOTSETTINGS
350
458FC
  3
ACAD_PLOTSTYLENAME
350
458F9
  3
ACDBHEADERROUNDTRIPXREC
350
79725
  3
ACDBVARIABLEDICTIONARY
350
458E1
  3
DWGPROPS
350
45901
  0
DICTIONARY
  5
79723
100
AcDbDictionary
280
     1
  3
ACAD_XREC_ROUNDTRIP
360
79724
  0
DICTIONARY
  5
7974C
100
AcDbDictionary
280
     1
  3
ACAD_XREC_ROUNDTRIP
360
7974D
  0
DICTIONARY
  5
79721
100
AcDbDictionary
280
     1
  3
ACAD_XREC_ROUNDTRIP
360
79722
  0
DICTIONARY
  5
79748
100
AcDbDictionary
280
     1
  3
ACAD_XREC_ROUNDTRIP
360
79749
  0
DICTIONARY
  5
4592C
100
AcDbDictionary
280
     1
  3
ACAD_LAYOUTSELFREF
360
79747
  0
DICTIONARY
  5
4592A
100
AcDbDictionary
280
     1
  3
ACAD_LAYOUTSELFREF
360
79746
  0
DICTIONARY
  5
7974E
100
AcDbDictionary
280
     1
  3
ACAD_XREC_ROUNDTRIP
360
7974F
  0
DICTIONARY
  5
79750
100
AcDbDictionary
280
     1
  3
ACAD_XREC_ROUNDTRIP
360
79751
  0
DICTIONARY
  5
458CC
102
{ACAD_REACTORS
330
458CB
102
}
100
AcDbDictionary
  0
DICTIONARY
  5
458FB
102
{ACAD_XDICTIONARY
360
7974A
102
}
102
{ACAD_REACTORS
330
458CB
102
}
100
AcDbDictionary
  3
LAYOUT1
350
458FE
  3
MODEL
350
458FD
  0
DICTIONARY
  5
458D9
102
{ACAD_REACTORS
330
458CB
102
}
100
AcDbDictionary
  3
STANDARD
350
458DA
  0
DICTIONARY
  5
458FC
102
{ACAD_REACTORS
330
458CB
102
}
100
AcDbDictionary
  0
ACAD_PROXY_OBJECT
  5
458F9
102
{ACAD_REACTORS
330
458CB
102
}
100
AcDbProxyObject
 90
      499
 91
      501
 93
       86
310
405010041939BDC9B585B0
350
458FA
340
458FA
 94
        0
  0
DICTIONARY
  5
79725
102
{ACAD_REACTORS
330
458CB
102
}
100
AcDbDictionary
  3
CEPSNTYPE
350
7972F
  3
DIMSTYLEDATA
350
79733
  3
FINGERPRINTGUID
350
79730
  3
HYPERLINKBASE
350
79728
  3
INSUNITS
350
7972E
  3
LAYOUTDICT
350
7972A
  3
LWETCUNION
350
7972D
  3
PLOTSETDICT
350
7972B
  3
PLOTSTYLNAMDICT
350
7972C
  3
PSVPSCALE
350
79732
  3
PUCSBASE
350
79736
  3
PUCSORGBACK
350
7973C
  3
PUCSORGBOTTOM
350
79738
  3
PUCSORGFRONT
350
7973B
  3
PUCSORGLEFT
350
79739
  3
PUCSORGRIGHT
350
7973A
  3
PUCSORGTOP
350
79737
  3
PUCSORTHOREF
350
79734
  3
PUCSORTHOVIEW
350
79735
  3
STYLESHEET
350
79729
  3
TSTACKALIGN
350
79726
  3
TSTACKSIZE
350
79727
  3
UCSBASE
350
7973F
  3
UCSORGBACK
350
79745
  3
UCSORGBOTTOM
350
79741
  3
UCSORGFRONT
350
79744
  3
UCSORGLEFT
350
79742
  3
UCSORGRIGHT
350
79743
  3
UCSORGTOP
350
79740
  3
UCSORTHOREF
350
7973D
  3
UCSORTHOVIEW
350
7973E
  3
VERSIONGUID
350
79731
  0
DICTIONARY
  5
458E1
102
{ACAD_REACTORS
330
458CB
102
}
100
AcDbDictionary
  3
DIMADEC
350
458E2
  0
XRECORD
  5
45901
102
{ACAD_REACTORS
330
458CB
102
}
100
AcDbXrecord
  1
DWGPROPS COOKIE
  2

  3

  4

  6

  7

  8
colin
  9

300
=
301
=
302
=
303
=
304
=
305
=
306
=
307
=
308
=
309
=
 40
0.000599
 41
2451670.444777
 42
2451670.445376
  1

 90
        0
  0
XRECORD
  5
79724
102
{ACAD_REACTORS
330
79723
102
}
100
AcDbXrecord
102
EXTNAMES
  1
*ACTIVE
  2
*Active
102
UCS
 74
     0
 71
     1
 10
0.0
 20
0.0
 30
0.0
 10
1.0
 20
0.0
 30
0.0
 10
0.0
 20
1.0
 30
0.0
146
0.0
 79
     1
102
VIEW
281
     1
  0
XRECORD
  5
7974D
102
{ACAD_REACTORS
330
7974C
102
}
100
AcDbXrecord
102
PLOTBIT
280
     0
  0
XRECORD
  5
79722
102
{ACAD_REACTORS
330
79721
102
}
100
AcDbXrecord
102
EXTNAMES
  1
DEFPOINTS
  2
Defpoints
102
PLOTBIT
280
     0
  0
XRECORD
  5
79749
102
{ACAD_REACTORS
330
79748
102
}
100
AcDbXrecord
102
ACADR14ROUNDTRIP
1000
DSTYLE
1002
{
1070
   276
 70
     2
1070
   277
 70
     5
1070
   279
 70
     2
1070
   289
 70
     2
1002
}
  0
XRECORD
  5
79747
102
{ACAD_REACTORS
330
4592C
102
}
100
AcDbXrecord
340
458D6
  0
XRECORD
  5
79746
102
{ACAD_REACTORS
330
4592A
102
}
100
AcDbXrecord
340
458D3
  0
XRECORD
  5
7974F
102
{ACAD_REACTORS
330
7974E
102
}
100
AcDbXrecord
102
UCS
 74
     0
 71
     1
 10
0.0
 20
0.0
 30
0.0
 10
1.0
 20
0.0
 30
0.0
 10
0.0
 20
1.0
 30
0.0
146
0.0
 79
     0
102
VIEW
281
     0
102
NEWVIEWCONTROL
280
     4
  0
XRECORD
  5
79751
102
{ACAD_REACTORS
330
79750
102
}
100
AcDbXrecord
102
UCS
 74
     0
 71
     1
 10
0.0
 20
0.0
 30
0.0
 10
1.0
 20
0.0
 30
0.0
 10
0.0
 20
1.0
 30
0.0
146
0.0
 79
     1
102
VIEW
281
     1
102
NEWVIEWCONTROL
280
     4
  0
DICTIONARY
  5
7974A
100
AcDbDictionary
280
     1
  3
ACAD_XREC_ROUNDTRIP
360
7974B
  0
ACAD_PROXY_OBJECT
  5
458FE
102
{ACAD_REACTORS
330
458FB
102
}
100
AcDbProxyObject
 90
      499
 91
      503
 93
     1700
310
90B6E6F6E655F6465766963652C0080000006066661940000000181999865000000000068661940000000001A1986500000000C0CCFC6A4000000018199D9C5011C4C65747465725F28382E35305F785F31312E30305F496E6368657329A901416AA547D11959985D5B1D08148C4D081C195B88185CDCDA59DB9B595B9D1CC
310
B98DD1891069074C61796F75743140501A840201008040342FEFF7FBFDFFFFF3EFDFAFF7FBFFDFC9501008043E3FDFC8102A6A6A0000003033333C0FC000000809999E93F8FFFFFF5766E622403FFFFFEBF333071020
330
458D3
330
5677D
340
0
340
0
 94
        0
  0
ACAD_PROXY_OBJECT
  5
458FD
102
{ACAD_REACTORS
330
458FB
102
}
100
AcDbProxyObject
 90
      499
 91
      503
 93
      924
310
91D4850204C617365724A65742035303030205365726965732050434C20362C01AAAAAAAAA547D11959985D5B1D08148C4D081C195B88185CDCDA59DB9B595B9D1CCB98DD18A69054D6F64656C901A800000000000000000000000000000000000000000000A1000000000000008902A6A6AAAA0
330
458D6
330
0
340
0
340
0
 94
        0
  0
MLINESTYLE
  5
458DA
102
{ACAD_REACTORS
330
458D9
102
}
100
AcDbMlineStyle
  2
STANDARD
 70
     0
  3

 62
   256
 51
90.0
 52
90.0
 71
     2
 49
0.5
 62
   256
  6
BYLAYER
 49
-0.5
 62
   256
  6
BYLAYER
  0
ACAD_PROXY_OBJECT
  5
458FA
102
{ACAD_REACTORS
330
458F9
102
}
100
AcDbProxyObject
 90
      499
 91
      502
 93
        0
 94
        0
  0
XRECORD
  5
7972F
102
{ACAD_REACTORS
330
79725
102
}
100
AcDbXrecord
 90
        0
  0
XRECORD
  5
79733
102
{ACAD_REACTORS
330
79725
102
}
100
AcDbXrecord
1000
DSTYLE
1002
{
1070
   276
 70
     2
1070
   277
 70
     5
1070
   279
 70
     2
1070
   289
 70
     2
1002
}
  0
XRECORD
  5
79730
102
{ACAD_REACTORS
330
79725
102
}
100
AcDbXrecord
  1
{6E0CF4B8-225E-11D4-A150-00A0CC3303EC}
  0
XRECORD
  5
79728
102
{ACAD_REACTORS
330
79725
102
}
100
AcDbXrecord
  1

  0
XRECORD
  5
7972E
102
{ACAD_REACTORS
330
79725
102
}
100
AcDbXrecord
 90
        0
  0
XRECORD
  5
7972A
102
{ACAD_REACTORS
330
79725
102
}
100
AcDbXrecord
340
458FB
  0
XRECORD
  5
7972D
102
{ACAD_REACTORS
330
79725
102
}
100
AcDbXrecord
 90
    14877
  0
XRECORD
  5
7972B
102
{ACAD_REACTORS
330
79725
102
}
100
AcDbXrecord
340
458FC
  0
XRECORD
  5
7972C
102
{ACAD_REACTORS
330
79725
102
}
100
AcDbXrecord
340
458F9
  0
XRECORD
  5
79732
102
{ACAD_REACTORS
330
79725
102
}
100
AcDbXrecord
 40
0.0
  0
XRECORD
  5
79736
102
{ACAD_REACTORS
330
79725
102
}
100
AcDbXrecord
340
0
  0
XRECORD
  5
7973C
102
{ACAD_REACTORS
330
79725
102
}
100
AcDbXrecord
 10
0.0
 20
0.0
 30
0.0
  0
XRECORD
  5
79738
102
{ACAD_REACTORS
330
79725
102
}
100
AcDbXrecord
 10
0.0
 20
0.0
 30
0.0
  0
XRECORD
  5
7973B
102
{ACAD_REACTORS
330
79725
102
}
100
AcDbXrecord
 10
0.0
 20
0.0
 30
0.0
  0
XRECORD
  5
79739
102
{ACAD_REACTORS
330
79725
102
}
100
AcDbXrecord
 10
0.0
 20
0.0
 30
0.0
  0
XRECORD
  5
7973A
102
{ACAD_REACTORS
330
79725
102
}
100
AcDbXrecord
 10
0.0
 20
0.0
 30
0.0
  0
XRECORD
  5
79737
102
{ACAD_REACTORS
330
79725
102
}
100
AcDbXrecord
 10
0.0
 20
0.0
 30
0.0
  0
XRECORD
  5
79734
102
{ACAD_REACTORS
330
79725
102
}
100
AcDbXrecord
340
0
  0
XRECORD
  5
79735
102
{ACAD_REACTORS
330
79725
102
}
100
AcDbXrecord
 70
     0
  0
XRECORD
  5
79729
102
{ACAD_REACTORS
330
79725
102
}
100
AcDbXrecord
  1

  0
XRECORD
  5
79726
102
{ACAD_REACTORS
330
79725
102
}
100
AcDbXrecord
 90
        1
  0
XRECORD
  5
79727
102
{ACAD_REACTORS
330
79725
102
}
100
AcDbXrecord
 90
       70
  0
XRECORD
  5
7973F
102
{ACAD_REACTORS
330
79725
102
}
100
AcDbXrecord
340
0
  0
XRECORD
  5
79745
102
{ACAD_REACTORS
330
79725
102
}
100
AcDbXrecord
 10
0.0
 20
0.0
 30
0.0
  0
XRECORD
  5
79741
102
{ACAD_REACTORS
330
79725
102
}
100
AcDbXrecord
 10
0.0
 20
0.0
 30
0.0
  0
XRECORD
  5
79744
102
{ACAD_REACTORS
330
79725
102
}
100
AcDbXrecord
 10
0.0
 20
0.0
 30
0.0
  0
XRECORD
  5
79742
102
{ACAD_REACTORS
330
79725
102
}
100
AcDbXrecord
 10
0.0
 20
0.0
 30
0.0
  0
XRECORD
  5
79743
102
{ACAD_REACTORS
330
79725
102
}
100
AcDbXrecord
 10
0.0
 20
0.0
 30
0.0
  0
XRECORD
  5
79740
102
{ACAD_REACTORS
330
79725
102
}
100
AcDbXrecord
 10
0.0
 20
0.0
 30
0.0
  0
XRECORD
  5
7973D
102
{ACAD_REACTORS
330
79725
102
}
100
AcDbXrecord
340
0
  0
XRECORD
  5
7973E
102
{ACAD_REACTORS
330
79725
102
}
100
AcDbXrecord
 70
     1
  0
XRECORD
  5
79731
102
{ACAD_REACTORS
330
79725
102
}
100
AcDbXrecord
  1
{0F7BC302-EE30-4038-9509-9D17A3AD6E2C}
  0
DICTIONARYVAR
  5
458E2
102
{ACAD_REACTORS
330
458E1
102
}
100
DictionaryVariables
280
     0
  1
0
  0
XRECORD
  5
7974B
102
{ACAD_REACTORS
330
7974A
102
}
100
AcDbXrecord
102
EXTNAMES
  1
LAYOUT1
  2
Layout1
  1
MODEL
  2
Model
  0
ENDSEC
  0
EOF
