  0
SECTION
  2
HEADER
  9
$ACADVER
  1
AC1014
  9
$ACADMAINTVER
 70
     8
  9
$DWGCODEPAGE
  3
ANSI_1252
  9
$INSBASE
 10
0.0
 20
0.0
 30
0.0
  9
$EXTMIN
 10
-4.351021
 20
-10.039497
 30
-0.703787
  9
$EXTMAX
 10
5.137
 20
1.155913
 30
5.450787
  9
$LIMMIN
 10
0.0
 20
0.0
  9
$LIMMAX
 10
12.0
 20
9.0
  9
$ORTHOMODE
 70
     0
  9
$REGENMODE
 70
     1
  9
$FILLMODE
 70
     1
  9
$QTEXTMODE
 70
     0
  9
$MIRRTEXT
 70
     1
  9
$DRAGMODE
 70
     2
  9
$LTSCALE
 40
1.0
  9
$OSMODE
 70
    37
  9
$ATTMODE
 70
     0
  9
$TEXTSIZE
 40
0.2
  9
$TRACEWID
 40
0.05
  9
$TEXTSTYLE
  7
STANDARD
  9
$CLAYER
  8
0
  9
$CELTYPE
  6
BYLAYER
  9
$CECOLOR
 62
   256
  9
$CELTSCALE
 40
1.0
  9
$DELOBJ
 70
     1
  9
$DISPSILH
 70
     0
  9
$DIMSCALE
 40
0.0
  9
$DIMASZ
 40
0.125
  9
$DIMEXO
 40
0.0625
  9
$DIMDLI
 40
0.375
  9
$DIMRND
 40
0.0
  9
$DIMDLE
 40
0.0
  9
$DIMEXE
 40
0.0625
  9
$DIMTP
 40
0.0
  9
$DIMTM
 40
0.0
  9
$DIMTXT
 40
0.125
  9
$DIMCEN
 40
0.09
  9
$DIMTSZ
 40
0.0
  9
$DIMTOL
 70
     0
  9
$DIMLIM
 70
     0
  9
$DIMTIH
 70
     0
  9
$DIMTOH
 70
     1
  9
$DIMSE1
 70
     0
  9
$DIMSE2
 70
     0
  9
$DIMTAD
 70
     0
  9
$DIMZIN
 70
     4
  9
$DIMBLK
  1

  9
$DIMASO
 70
     1
  9
$DIMSHO
 70
     1
  9
$DIMPOST
  1

  9
$DIMAPOST
  1

  9
$DIMALT
 70
     1
  9
$DIMALTD
 70
     2
  9
$DIMALTF
 40
25.4
  9
$DIMLFAC
 40
1.0
  9
$DIMTOFL
 70
     0
  9
$DIMTVP
 40
0.0
  9
$DIMTIX
 70
     0
  9
$DIMSOXD
 70
     0
  9
$DIMSAH
 70
     0
  9
$DIMBLK1
  1

  9
$DIMBLK2
  1

  9
$DIMSTYLE
  2
ABECAD_3V
  9
$DIMCLRD
 70
     0
  9
$DIMCLRE
 70
     0
  9
$DIMCLRT
 70
     0
  9
$DIMTFAC
 40
1.5
  9
$DIMGAP
 40
0.09
  9
$DIMJUST
 70
     0
  9
$DIMSD1
 70
     0
  9
$DIMSD2
 70
     0
  9
$DIMTOLJ
 70
     1
  9
$DIMTZIN
 70
     4
  9
$DIMALTZ
 70
     4
  9
$DIMALTTZ
 70
     4
  9
$DIMFIT
 70
     5
  9
$DIMUPT
 70
     1
  9
$DIMUNIT
 70
     7
  9
$DIMDEC
 70
     6
  9
$DIMTDEC
 70
     6
  9
$DIMALTU
 70
     2
  9
$DIMALTTD
 70
     2
  9
$DIMTXSTY
  7
STANDARD
  9
$DIMAUNIT
 70
     0
  9
$LUNITS
 70
     2
  9
$LUPREC
 70
     6
  9
$SKETCHINC
 40
0.1
  9
$FILLETRAD
 40
0.0
  9
$AUNITS
 70
     0
  9
$AUPREC
 70
     0
  9
$MENU
  1
acad
  9
$ELEVATION
 40
0.0
  9
$PELEVATION
 40
0.0
  9
$THICKNESS
 40
0.0
  9
$LIMCHECK
 70
     0
  9
$BLIPMODE
 70
     0
  9
$CHAMFERA
 40
0.0
  9
$CHAMFERB
 40
0.0
  9
$CHAMFERC
 40
0.0
  9
$CHAMFERD
 40
0.0
  9
$SKPOLY
 70
     0
  9
$TDCREATE
 40
2451726.438362384
  9
$TDUPDATE
 40
2452010.725300000
  9
$TDINDWG
 40
0.9997045139
  9
$TDUSRTIMER
 40
0.9997045139
  9
$USRTIMER
 70
     1
  9
$ANGBASE
 50
0.0
  9
$ANGDIR
 70
     0
  9
$PDMODE
 70
     3
  9
$PDSIZE
 40
0.18
  9
$PLINEWID
 40
0.0
  9
$COORDS
 70
     1
  9
$SPLFRAME
 70
     0
  9
$SPLINETYPE
 70
     6
  9
$SPLINESEGS
 70
     8
  9
$ATTDIA
 70
     0
  9
$ATTREQ
 70
     1
  9
$HANDLING
 70
     1
  9
$HANDSEED
  5
396A6
  9
$SURFTAB1
 70
     6
  9
$SURFTAB2
 70
     6
  9
$SURFTYPE
 70
     6
  9
$SURFU
 70
     6
  9
$SURFV
 70
     6
  9
$UCSNAME
  2

  9
$UCSORG
 10
0.0
 20
0.0
 30
0.0
  9
$UCSXDIR
 10
1.0
 20
0.0
 30
0.0
  9
$UCSYDIR
 10
0.0
 20
0.0
 30
1.0
  9
$PUCSNAME
  2

  9
$PUCSORG
 10
0.0
 20
0.0
 30
0.0
  9
$PUCSXDIR
 10
1.0
 20
0.0
 30
0.0
  9
$PUCSYDIR
 10
0.0
 20
1.0
 30
0.0
  9
$USERI1
 70
     0
  9
$USERI2
 70
     0
  9
$USERI3
 70
     0
  9
$USERI4
 70
     0
  9
$USERI5
 70
     0
  9
$USERR1
 40
0.0
  9
$USERR2
 40
0.0
  9
$USERR3
 40
0.0
  9
$USERR4
 40
0.0
  9
$USERR5
 40
0.0
  9
$WORLDVIEW
 70
     1
  9
$SHADEDGE
 70
     3
  9
$SHADEDIF
 70
    70
  9
$TILEMODE
 70
     0
  9
$MAXACTVP
 70
    16
  9
$PINSBASE
 10
0.0
 20
0.0
 30
0.0
  9
$PLIMCHECK
 70
     0
  9
$PEXTMIN
 10
0.0
 20
0.0
 30
0.0
  9
$PEXTMAX
 10
10.0
 20
7.5
 30
0.0
  9
$PLIMMIN
 10
-0.187029
 20
-0.186938
  9
$PLIMMAX
 10
10.187518
 20
7.829757
  9
$UNITMODE
 70
     0
  9
$VISRETAIN
 70
     0
  9
$PLINEGEN
 70
     0
  9
$PSLTSCALE
 70
     1
  9
$TREEDEPTH
 70
  3020
  9
$PICKSTYLE
 70
     1
  9
$CMLSTYLE
  2
STANDARD
  9
$CMLJUST
 70
     0
  9
$CMLSCALE
 40
1.0
  9
$PROXYGRAPHICS
 70
     1
  9
$MEASUREMENT
 70
     0
  0
ENDSEC
  0
SECTION
  2
CLASSES
  0
CLASS
  1
DICTIONARYVAR
  2
AcDbDictionaryVar
  3
"AutoCAD"
 90
        0
280
     0
281
     0
  0
CLASS
  1
ACDBDICTIONARYWDFLT
  2
AcDbDictionaryWithDefault
  3
AutoCAD 2000
 90
        0
280
     0
281
     0
  0
CLASS
  1
ACDBPLACEHOLDER
  2
AcDbPlaceHolder
  3
AutoCAD 2000
 90
        0
280
     0
281
     0
  0
CLASS
  1
LAYOUT
  2
AcDbLayout
  3
AutoCAD 2000
 90
        0
280
     0
281
     0
  0
CLASS
  1
LONG_TRANSACTION
  2
AcDbLongTransaction
  3
AutoCAD 2000
 90
        0
280
     0
281
     0
  0
CLASS
  1
LWPOLYLINE
  2
AcDbPolyline
  3
"AutoCAD"
 90
        0
280
     0
281
     1
  0
CLASS
  1
HATCH
  2
AcDbHatch
  3
"ACAD_SEDONA"
 90
        0
280
     0
281
     1
  0
CLASS
  1
XRECORD
  2
AcDbXrecord
  3
"<Built In>"
 90
        0
280
     0
281
     0
  0
CLASS
  1
LONG_TRANSACTION
  2
AcDbLongTransaction
  3
AutoCAD 2000
 90
        0
280
     0
281
     0
  0
CLASS
  1
LWPOLYLINE
  2
AcDbPolyline
  3
"AutoCAD"
 90
        0
280
     0
281
     1
  0
CLASS
  1
HATCH
  2
AcDbHatch
  3
"ACAD_SEDONA"
 90
        0
280
     0
281
     1
  0
CLASS
  1
XRECORD
  2
AcDbXrecord
  3
"<Built In>"
 90
        0
280
     0
281
     0
  0
CLASS
  1
LONG_TRANSACTION
  2
AcDbLongTransaction
  3
AutoCAD 2000
 90
        0
280
     0
281
     0
  0
CLASS
  1
LWPOLYLINE
  2
AcDbPolyline
  3
"AutoCAD"
 90
        0
280
     0
281
     1
  0
CLASS
  1
HATCH
  2
AcDbHatch
  3
"ACAD_SEDONA"
 90
        0
280
     0
281
     1
  0
CLASS
  1
XRECORD
  2
AcDbXrecord
  3
"<Built In>"
 90
        0
280
     0
281
     0
  0
CLASS
  1
LONG_TRANSACTION
  2
AcDbLongTransaction
  3
AutoCAD 2000
 90
        0
280
     0
281
     0
  0
CLASS
  1
LWPOLYLINE
  2
AcDbPolyline
  3
"AutoCAD"
 90
        0
280
     0
281
     1
  0
CLASS
  1
HATCH
  2
AcDbHatch
  3
"ACAD_SEDONA"
 90
        0
280
     0
281
     1
  0
CLASS
  1
XRECORD
  2
AcDbXrecord
  3
"<Built In>"
 90
        0
280
     0
281
     0
  0
CLASS
  1
LONG_TRANSACTION
  2
AcDbLongTransaction
  3
AutoCAD 2000
 90
        0
280
     0
281
     0
  0
CLASS
  1
LWPOLYLINE
  2
AcDbPolyline
  3
"AutoCAD"
 90
        0
280
     0
281
     1
  0
CLASS
  1
HATCH
  2
AcDbHatch
  3
"ACAD_SEDONA"
 90
        0
280
     0
281
     1
  0
CLASS
  1
XRECORD
  2
AcDbXrecord
  3
"<Built In>"
 90
        0
280
     0
281
     0
  0
CLASS
  1
LONG_TRANSACTION
  2
AcDbLongTransaction
  3
AutoCAD 2000
 90
        0
280
     0
281
     0
  0
CLASS
  1
LWPOLYLINE
  2
AcDbPolyline
  3
"AutoCAD"
 90
        0
280
     0
281
     1
  0
CLASS
  1
HATCH
  2
AcDbHatch
  3
"ACAD_SEDONA"
 90
        0
280
     0
281
     1
  0
CLASS
  1
XRECORD
  2
AcDbXrecord
  3
"<Built In>"
 90
        0
280
     0
281
     0
  0
CLASS
  1
LONG_TRANSACTION
  2
AcDbLongTransaction
  3
AutoCAD 2000
 90
        0
280
     0
281
     0
  0
CLASS
  1
LWPOLYLINE
  2
AcDbPolyline
  3
"AutoCAD"
 90
        0
280
     0
281
     1
  0
CLASS
  1
HATCH
  2
AcDbHatch
  3
"ACAD_SEDONA"
 90
        0
280
     0
281
     1
  0
CLASS
  1
XRECORD
  2
AcDbXrecord
  3
"<Built In>"
 90
        0
280
     0
281
     0
  0
CLASS
  1
LONG_TRANSACTION
  2
AcDbLongTransaction
  3
AutoCAD 2000
 90
        0
280
     0
281
     0
  0
CLASS
  1
LWPOLYLINE
  2
AcDbPolyline
  3
"AutoCAD"
 90
        0
280
     0
281
     1
  0
CLASS
  1
HATCH
  2
AcDbHatch
  3
"ACAD_SEDONA"
 90
        0
280
     0
281
     1
  0
CLASS
  1
XRECORD
  2
AcDbXrecord
  3
"<Built In>"
 90
        0
280
     0
281
     0
  0
CLASS
  1
LONG_TRANSACTION
  2
AcDbLongTransaction
  3
AutoCAD 2000
 90
        0
280
     0
281
     0
  0
CLASS
  1
LWPOLYLINE
  2
AcDbPolyline
  3
"AutoCAD"
 90
        0
280
     0
281
     1
  0
CLASS
  1
HATCH
  2
AcDbHatch
  3
"ACAD_SEDONA"
 90
        0
280
     0
281
     1
  0
CLASS
  1
XRECORD
  2
AcDbXrecord
  3
"<Built In>"
 90
        0
280
     0
281
     0
  0
CLASS
  1
LONG_TRANSACTION
  2
AcDbLongTransaction
  3
AutoCAD 2000
 90
        0
280
     0
281
     0
  0
CLASS
  1
LWPOLYLINE
  2
AcDbPolyline
  3
"AutoCAD"
 90
        0
280
     0
281
     1
  0
CLASS
  1
HATCH
  2
AcDbHatch
  3
"ACAD_SEDONA"
 90
        0
280
     0
281
     1
  0
CLASS
  1
XRECORD
  2
AcDbXrecord
  3
"<Built In>"
 90
        0
280
     0
281
     0
  0
CLASS
  1
LONG_TRANSACTION
  2
AcDbLongTransaction
  3
AutoCAD 2000
 90
        0
280
     0
281
     0
  0
CLASS
  1
LWPOLYLINE
  2
AcDbPolyline
  3
"AutoCAD"
 90
        0
280
     0
281
     1
  0
CLASS
  1
HATCH
  2
AcDbHatch
  3
"ACAD_SEDONA"
 90
        0
280
     0
281
     1
  0
CLASS
  1
XRECORD
  2
AcDbXrecord
  3
"<Built In>"
 90
        0
280
     0
281
     0
  0
CLASS
  1
LONG_TRANSACTION
  2
AcDbLongTransaction
  3
AutoCAD 2000
 90
        0
280
     0
281
     0
  0
CLASS
  1
LWPOLYLINE
  2
AcDbPolyline
  3
"AutoCAD"
 90
        0
280
     0
281
     1
  0
CLASS
  1
HATCH
  2
AcDbHatch
  3
"ACAD_SEDONA"
 90
        0
280
     0
281
     1
  0
CLASS
  1
XRECORD
  2
AcDbXrecord
  3
"<Built In>"
 90
        0
280
     0
281
     0
  0
CLASS
  1
LONG_TRANSACTION
  2
AcDbLongTransaction
  3
AutoCAD 2000
 90
        0
280
     0
281
     0
  0
CLASS
  1
LWPOLYLINE
  2
AcDbPolyline
  3
"AutoCAD"
 90
        0
280
     0
281
     1
  0
CLASS
  1
HATCH
  2
AcDbHatch
  3
"ACAD_SEDONA"
 90
        0
280
     0
281
     1
  0
CLASS
  1
XRECORD
  2
AcDbXrecord
  3
"<Built In>"
 90
        0
280
     0
281
     0
  0
CLASS
  1
LONG_TRANSACTION
  2
AcDbLongTransaction
  3
AutoCAD 2000
 90
        0
280
     0
281
     0
  0
CLASS
  1
LWPOLYLINE
  2
AcDbPolyline
  3
"AutoCAD"
 90
        0
280
     0
281
     1
  0
CLASS
  1
HATCH
  2
AcDbHatch
  3
"ACAD_SEDONA"
 90
        0
280
     0
281
     1
  0
CLASS
  1
XRECORD
  2
AcDbXrecord
  3
"<Built In>"
 90
        0
280
     0
281
     0
  0
CLASS
  1
LONG_TRANSACTION
  2
AcDbLongTransaction
  3
AutoCAD 2000
 90
        0
280
     0
281
     0
  0
CLASS
  1
LWPOLYLINE
  2
AcDbPolyline
  3
"AutoCAD"
 90
        0
280
     0
281
     1
  0
CLASS
  1
HATCH
  2
AcDbHatch
  3
"ACAD_SEDONA"
 90
        0
280
     0
281
     1
  0
CLASS
  1
XRECORD
  2
AcDbXrecord
  3
"<Built In>"
 90
        0
280
     0
281
     0
  0
CLASS
  1
LONG_TRANSACTION
  2
AcDbLongTransaction
  3
AutoCAD 2000
 90
        0
280
     0
281
     0
  0
CLASS
  1
LWPOLYLINE
  2
AcDbPolyline
  3
"AutoCAD"
 90
        0
280
     0
281
     1
  0
CLASS
  1
HATCH
  2
AcDbHatch
  3
"ACAD_SEDONA"
 90
        0
280
     0
281
     1
  0
CLASS
  1
XRECORD
  2
AcDbXrecord
  3
"<Built In>"
 90
        0
280
     0
281
     0
  0
CLASS
  1
LONG_TRANSACTION
  2
AcDbLongTransaction
  3
AutoCAD 2000
 90
        0
280
     0
281
     0
  0
CLASS
  1
LWPOLYLINE
  2
AcDbPolyline
  3
"AutoCAD"
 90
        0
280
     0
281
     1
  0
CLASS
  1
HATCH
  2
AcDbHatch
  3
"ACAD_SEDONA"
 90
        0
280
     0
281
     1
  0
CLASS
  1
XRECORD
  2
AcDbXrecord
  3
"<Built In>"
 90
        0
280
     0
281
     0
  0
CLASS
  1
LONG_TRANSACTION
  2
AcDbLongTransaction
  3
AutoCAD 2000
 90
        0
280
     0
281
     0
  0
CLASS
  1
LWPOLYLINE
  2
AcDbPolyline
  3
"AutoCAD"
 90
        0
280
     0
281
     1
  0
CLASS
  1
HATCH
  2
AcDbHatch
  3
"ACAD_SEDONA"
 90
        0
280
     0
281
     1
  0
CLASS
  1
XRECORD
  2
AcDbXrecord
  3
"<Built In>"
 90
        0
280
     0
281
     0
  0
CLASS
  1
LONG_TRANSACTION
  2
AcDbLongTransaction
  3
AutoCAD 2000
 90
        0
280
     0
281
     0
  0
CLASS
  1
LWPOLYLINE
  2
AcDbPolyline
  3
"AutoCAD"
 90
        0
280
     0
281
     1
  0
CLASS
  1
HATCH
  2
AcDbHatch
  3
"ACAD_SEDONA"
 90
        0
280
     0
281
     1
  0
CLASS
  1
XRECORD
  2
AcDbXrecord
  3
"<Built In>"
 90
        0
280
     0
281
     0
  0
CLASS
  1
LONG_TRANSACTION
  2
AcDbLongTransaction
  3
AutoCAD 2000
 90
        0
280
     0
281
     0
  0
CLASS
  1
LWPOLYLINE
  2
AcDbPolyline
  3
"AutoCAD"
 90
        0
280
     0
281
     1
  0
CLASS
  1
HATCH
  2
AcDbHatch
  3
"ACAD_SEDONA"
 90
        0
280
     0
281
     1
  0
CLASS
  1
XRECORD
  2
AcDbXrecord
  3
"<Built In>"
 90
        0
280
     0
281
     0
  0
CLASS
  1
LONG_TRANSACTION
  2
AcDbLongTransaction
  3
AutoCAD 2000
 90
        0
280
     0
281
     0
  0
CLASS
  1
LWPOLYLINE
  2
AcDbPolyline
  3
"AutoCAD"
 90
        0
280
     0
281
     1
  0
CLASS
  1
HATCH
  2
AcDbHatch
  3
"ACAD_SEDONA"
 90
        0
280
     0
281
     1
  0
CLASS
  1
XRECORD
  2
AcDbXrecord
  3
"<Built In>"
 90
        0
280
     0
281
     0
  0
CLASS
  1
LONG_TRANSACTION
  2
AcDbLongTransaction
  3
AutoCAD 2000
 90
        0
280
     0
281
     0
  0
CLASS
  1
LWPOLYLINE
  2
AcDbPolyline
  3
"AutoCAD"
 90
        0
280
     0
281
     1
  0
CLASS
  1
HATCH
  2
AcDbHatch
  3
"ACAD_SEDONA"
 90
        0
280
     0
281
     1
  0
CLASS
  1
XRECORD
  2
AcDbXrecord
  3
"<Built In>"
 90
        0
280
     0
281
     0
  0
CLASS
  1
LONG_TRANSACTION
  2
AcDbLongTransaction
  3
AutoCAD 2000
 90
        0
280
     0
281
     0
  0
CLASS
  1
LWPOLYLINE
  2
AcDbPolyline
  3
"AutoCAD"
 90
        0
280
     0
281
     1
  0
CLASS
  1
HATCH
  2
AcDbHatch
  3
"ACAD_SEDONA"
 90
        0
280
     0
281
     1
  0
CLASS
  1
XRECORD
  2
AcDbXrecord
  3
"<Built In>"
 90
        0
280
     0
281
     0
  0
CLASS
  1
LONG_TRANSACTION
  2
AcDbLongTransaction
  3
AutoCAD 2000
 90
        0
280
     0
281
     0
  0
CLASS
  1
LWPOLYLINE
  2
AcDbPolyline
  3
"AutoCAD"
 90
        0
280
     0
281
     1
  0
CLASS
  1
HATCH
  2
AcDbHatch
  3
"ACAD_SEDONA"
 90
        0
280
     0
281
     1
  0
CLASS
  1
XRECORD
  2
AcDbXrecord
  3
"<Built In>"
 90
        0
280
     0
281
     0
  0
CLASS
  1
LONG_TRANSACTION
  2
AcDbLongTransaction
  3
AutoCAD 2000
 90
        0
280
     0
281
     0
  0
CLASS
  1
LWPOLYLINE
  2
AcDbPolyline
  3
"AutoCAD"
 90
        0
280
     0
281
     1
  0
CLASS
  1
HATCH
  2
AcDbHatch
  3
"ACAD_SEDONA"
 90
        0
280
     0
281
     1
  0
CLASS
  1
XRECORD
  2
AcDbXrecord
  3
"<Built In>"
 90
        0
280
     0
281
     0
  0
CLASS
  1
LONG_TRANSACTION
  2
AcDbLongTransaction
  3
AutoCAD 2000
 90
        0
280
     0
281
     0
  0
CLASS
  1
LWPOLYLINE
  2
AcDbPolyline
  3
"AutoCAD"
 90
        0
280
     0
281
     1
  0
CLASS
  1
HATCH
  2
AcDbHatch
  3
"ACAD_SEDONA"
 90
        0
280
     0
281
     1
  0
CLASS
  1
XRECORD
  2
AcDbXrecord
  3
"<Built In>"
 90
        0
280
     0
281
     0
  0
CLASS
  1
LONG_TRANSACTION
  2
AcDbLongTransaction
  3
AutoCAD 2000
 90
        0
280
     0
281
     0
  0
CLASS
  1
LWPOLYLINE
  2
AcDbPolyline
  3
"AutoCAD"
 90
        0
280
     0
281
     1
  0
CLASS
  1
HATCH
  2
AcDbHatch
  3
"ACAD_SEDONA"
 90
        0
280
     0
281
     1
  0
CLASS
  1
XRECORD
  2
AcDbXrecord
  3
"<Built In>"
 90
        0
280
     0
281
     0
  0
CLASS
  1
LONG_TRANSACTION
  2
AcDbLongTransaction
  3
AutoCAD 2000
 90
        0
280
     0
281
     0
  0
CLASS
  1
LWPOLYLINE
  2
AcDbPolyline
  3
"AutoCAD"
 90
        0
280
     0
281
     1
  0
CLASS
  1
HATCH
  2
AcDbHatch
  3
"ACAD_SEDONA"
 90
        0
280
     0
281
     1
  0
CLASS
  1
XRECORD
  2
AcDbXrecord
  3
"<Built In>"
 90
        0
280
     0
281
     0
  0
CLASS
  1
LONG_TRANSACTION
  2
AcDbLongTransaction
  3
AutoCAD 2000
 90
        0
280
     0
281
     0
  0
CLASS
  1
LWPOLYLINE
  2
AcDbPolyline
  3
"AutoCAD"
 90
        0
280
     0
281
     1
  0
CLASS
  1
HATCH
  2
AcDbHatch
  3
"ACAD_SEDONA"
 90
        0
280
     0
281
     1
  0
CLASS
  1
XRECORD
  2
AcDbXrecord
  3
"<Built In>"
 90
        0
280
     0
281
     0
  0
CLASS
  1
LONG_TRANSACTION
  2
AcDbLongTransaction
  3
AutoCAD 2000
 90
        0
280
     0
281
     0
  0
CLASS
  1
LWPOLYLINE
  2
AcDbPolyline
  3
"AutoCAD"
 90
        0
280
     0
281
     1
  0
CLASS
  1
HATCH
  2
AcDbHatch
  3
"ACAD_SEDONA"
 90
        0
280
     0
281
     1
  0
CLASS
  1
XRECORD
  2
AcDbXrecord
  3
"<Built In>"
 90
        0
280
     0
281
     0
  0
CLASS
  1
LONG_TRANSACTION
  2
AcDbLongTransaction
  3
AutoCAD 2000
 90
        0
280
     0
281
     0
  0
CLASS
  1
LWPOLYLINE
  2
AcDbPolyline
  3
"AutoCAD"
 90
        0
280
     0
281
     1
  0
CLASS
  1
HATCH
  2
AcDbHatch
  3
"ACAD_SEDONA"
 90
        0
280
     0
281
     1
  0
CLASS
  1
XRECORD
  2
AcDbXrecord
  3
"<Built In>"
 90
        0
280
     0
281
     0
  0
CLASS
  1
LONG_TRANSACTION
  2
AcDbLongTransaction
  3
AutoCAD 2000
 90
        0
280
     0
281
     0
  0
CLASS
  1
LWPOLYLINE
  2
AcDbPolyline
  3
"AutoCAD"
 90
        0
280
     0
281
     1
  0
CLASS
  1
HATCH
  2
AcDbHatch
  3
"ACAD_SEDONA"
 90
        0
280
     0
281
     1
  0
CLASS
  1
XRECORD
  2
AcDbXrecord
  3
"<Built In>"
 90
        0
280
     0
281
     0
  0
CLASS
  1
LONG_TRANSACTION
  2
AcDbLongTransaction
  3
AutoCAD 2000
 90
        0
280
     0
281
     0
  0
CLASS
  1
LWPOLYLINE
  2
AcDbPolyline
  3
"AutoCAD"
 90
        0
280
     0
281
     1
  0
CLASS
  1
HATCH
  2
AcDbHatch
  3
"ACAD_SEDONA"
 90
        0
280
     0
281
     1
  0
CLASS
  1
XRECORD
  2
AcDbXrecord
  3
"<Built In>"
 90
        0
280
     0
281
     0
  0
CLASS
  1
LONG_TRANSACTION
  2
AcDbLongTransaction
  3
AutoCAD 2000
 90
        0
280
     0
281
     0
  0
CLASS
  1
LWPOLYLINE
  2
AcDbPolyline
  3
"AutoCAD"
 90
        0
280
     0
281
     1
  0
CLASS
  1
HATCH
  2
AcDbHatch
  3
"ACAD_SEDONA"
 90
        0
280
     0
281
     1
  0
CLASS
  1
XRECORD
  2
AcDbXrecord
  3
"<Built In>"
 90
        0
280
     0
281
     0
  0
ENDSEC
  0
SECTION
  2
TABLES
  0
TABLE
  2
VPORT
  5
469
100
AcDbSymbolTable
 70
     1
  0
VPORT
  5
3958C
102
{ACAD_XDICTIONARY
360
3966E
102
}
100
AcDbSymbolTableRecord
100
AcDbViewportTableRecord
  2
*ACTIVE
 70
     0
 10
0.0
 20
0.0
 11
1.0
 21
1.0
 12
0.502862
 22
-5.310621
 13
0.0
 23
0.0
 14
1.0
 24
1.0
 15
0.0
 25
0.0
 16
0.0
 26
0.0
 36
1.0
 17
-0.084399
 27
0.843356
 37
0.0
 40
11.272071
 41
1.82218
 42
50.0
 43
0.0
 44
0.0
 50
0.0
 51
0.0
 71
     0
 72
   100
 73
     1
 74
     1
 75
     0
 76
     0
 77
     0
 78
     0
  0
ENDTAB
  0
TABLE
  2
LTYPE
  5
466
100
AcDbSymbolTable
 70
     1
  0
LTYPE
  5
472
100
AcDbSymbolTableRecord
100
AcDbLinetypeTableRecord
  2
BYBLOCK
 70
     0
  3

 72
    65
 73
     0
 40
0.0
  0
LTYPE
  5
473
100
AcDbSymbolTableRecord
100
AcDbLinetypeTableRecord
  2
BYLAYER
 70
     0
  3

 72
    65
 73
     0
 40
0.0
  0
LTYPE
  5
474
100
AcDbSymbolTableRecord
100
AcDbLinetypeTableRecord
  2
CONTINUOUS
 70
     0
  3
Solid line
 72
    65
 73
     0
 40
0.0
  0
ENDTAB
  0
TABLE
  2
LAYER
  5
463
100
AcDbSymbolTable
 70
     8
  0
LAYER
  5
46F
100
AcDbSymbolTableRecord
100
AcDbLayerTableRecord
  2
0
 70
     0
 62
     7
  6
CONTINUOUS
  0
LAYER
  5
485
100
AcDbSymbolTableRecord
100
AcDbLayerTableRecord
  2
AREA1
 70
     0
 62
     7
  6
CONTINUOUS
  0
LAYER
  5
486
100
AcDbSymbolTableRecord
100
AcDbLayerTableRecord
  2
AREA2
 70
     0
 62
     7
  6
CONTINUOUS
  0
LAYER
  5
494
102
{ACAD_XDICTIONARY
360
3969B
102
}
100
AcDbSymbolTableRecord
100
AcDbLayerTableRecord
  2
DEFPOINTS
 70
     0
 62
    -7
  6
CONTINUOUS
  0
LAYER
  5
495
100
AcDbSymbolTableRecord
100
AcDbLayerTableRecord
  2
DIMS-MTG-HOLES
 70
     0
 62
    -1
  6
CONTINUOUS
  0
LAYER
  5
4E6
100
AcDbSymbolTableRecord
100
AcDbLayerTableRecord
  2
SCALE
 70
     0
 62
    -7
  6
CONTINUOUS
  0
LAYER
  5
4ED
100
AcDbSymbolTableRecord
100
AcDbLayerTableRecord
  2
SNAP_POINTS
 70
     0
 62
    -1
  6
CONTINUOUS
  0
LAYER
  5
4F1
100
AcDbSymbolTableRecord
100
AcDbLayerTableRecord
  2
ATTRIBUTES
 70
     0
 62
    -7
  6
CONTINUOUS
  0
ENDTAB
  0
TABLE
  2
STYLE
  5
464
100
AcDbSymbolTable
 70
     1
  0
STYLE
  5
470
100
AcDbSymbolTableRecord
100
AcDbTextStyleTableRecord
  2
STANDARD
 70
     0
 40
0.0
 41
1.0
 50
0.0
 71
     0
 42
0.2
  3
txt
  4

  0
ENDTAB
  0
TABLE
  2
VIEW
  5
467
100
AcDbSymbolTable
 70
     0
  0
ENDTAB
  0
TABLE
  2
UCS
  5
468
100
AcDbSymbolTable
 70
     0
  0
ENDTAB
  0
TABLE
  2
APPID
  5
46A
100
AcDbSymbolTable
 70
     2
  0
APPID
  5
471
100
AcDbSymbolTableRecord
100
AcDbRegAppTableRecord
  2
ACAD
 70
     0
  0
APPID
  5
47E
100
AcDbSymbolTableRecord
100
AcDbRegAppTableRecord
  2
AVE_RENDER
 70
     0
  0
ENDTAB
  0
TABLE
  2
DIMSTYLE
  5
46B
100
AcDbSymbolTable
 70
     2
  0
DIMSTYLE
105
49A
102
{ACAD_XDICTIONARY
360
3969D
102
}
102
{ACAD_REACTORS
330
3957E
330
39530
330
3952F
102
}
100
AcDbSymbolTableRecord
100
AcDbDimStyleTableRecord
  2
ABECAD_3V
 70
     0
  3

  4

  5

  6

  7

 40
0.0
 41
0.125
 42
0.0625
 43
0.375
 44
0.0625
 45
0.0
 46
0.0
 47
0.0
 48
0.0
140
0.125
141
0.09
142
0.0
143
25.4
144
1.0
145
0.0
146
1.5
147
0.09
 71
     0
 72
     0
 73
     0
 74
     1
 75
     0
 76
     0
 77
     0
 78
     4
170
     1
171
     2
172
     0
173
     0
174
     0
175
     0
176
     0
177
     0
178
     0
270
     7
271
     6
272
     6
273
     2
274
     2
340
470
275
     0
280
     0
281
     0
282
     0
283
     1
284
     4
285
     4
286
     4
287
     5
288
     1
  0
DIMSTYLE
105
512
102
{ACAD_XDICTIONARY
360
396A1
102
}
100
AcDbSymbolTableRecord
100
AcDbDimStyleTableRecord
  2
ABECAD_3D
 70
     0
  3

  4

  5

  6

  7

 40
1.0
 41
0.18
 42
0.0625
 43
0.375
 44
0.18
 45
0.0
 46
0.0
 47
0.0
 48
0.0
140
0.18
141
0.09
142
0.0
143
25.4
144
1.0
145
0.0
146
1.5
147
0.09
 71
     0
 72
     0
 73
     0
 74
     1
 75
     0
 76
     0
 77
     0
 78
     4
170
     1
171
     2
172
     0
173
     0
174
     0
175
     0
176
     0
177
     0
178
     0
270
     7
271
     6
272
     6
273
     2
274
     2
340
470
275
     0
280
     0
281
     0
282
     0
283
     1
284
     4
285
     4
286
     4
287
     5
288
     1
  0
ENDTAB
  0
TABLE
  2
BLOCK_RECORD
  5
462
100
AcDbSymbolTable
 70
     3
  0
BLOCK_RECORD
  5
478
102
{ACAD_XDICTIONARY
360
4D2
102
}
100
AcDbSymbolTableRecord
100
AcDbBlockTableRecord
  2
*MODEL_SPACE
  0
BLOCK_RECORD
  5
475
102
{ACAD_XDICTIONARY
360
4D0
102
}
100
AcDbSymbolTableRecord
100
AcDbBlockTableRecord
  2
*PAPER_SPACE
  0
BLOCK_RECORD
  5
3953C
100
AcDbSymbolTableRecord
100
AcDbBlockTableRecord
  2
*D0
  0
BLOCK_RECORD
  5
39549
100
AcDbSymbolTableRecord
100
AcDbBlockTableRecord
  2
*D1
  0
BLOCK_RECORD
  5
3957F
100
AcDbSymbolTableRecord
100
AcDbBlockTableRecord
  2
*D2
  0
ENDTAB
  0
ENDSEC
  0
SECTION
  2
BLOCKS
  0
BLOCK
  5
48B
100
AcDbEntity
  8
0
100
AcDbBlockBegin
  2
*MODEL_SPACE
 70
     0
 10
0.0
 20
0.0
 30
0.0
  3
*MODEL_SPACE
  1

  0
ENDBLK
  5
48C
100
AcDbEntity
  8
0
100
AcDbBlockEnd
  0
BLOCK
  5
489
100
AcDbEntity
 67
     1
  8
0
100
AcDbBlockBegin
  2
*PAPER_SPACE
 70
     0
 10
0.0
 20
0.0
 30
0.0
  3
*PAPER_SPACE
  1

  0
ENDBLK
  5
48A
100
AcDbEntity
 67
     1
  8
0
100
AcDbBlockEnd
  0
BLOCK
  5
39547
100
AcDbEntity
  8
0
100
AcDbBlockBegin
  2
*D0
 70
     1
 10
0.0
 20
0.0
 30
0.0
  3
*D0
  1

  0
LINE
  5
395BC
100
AcDbEntity
  8
AREA1
 62
     0
100
AcDbLine
 10
-1.175947
 20
0.281
 30
0.0
 11
-4.351021
 21
0.281
 31
0.0
1001
ACAD
1000
RTLwPs
1070
   158
  0
LINE
  5
395BD
100
AcDbEntity
  8
AREA1
 62
     0
100
AcDbLine
 10
-3.198947
 20
-8.879
 30
0.0
 11
-4.351021
 21
-8.879
 31
0.0
1001
ACAD
1000
RTLwPs
1070
   158
  0
LINE
  5
395BE
100
AcDbEntity
  8
AREA1
 62
     0
100
AcDbLine
 10
-4.175074
 20
-0.070894
 30
0.0
 11
-4.175074
 21
-1.917818
 31
0.0
1001
ACAD
1000
RTLwPs
1070
   158
  0
LINE
  5
395BF
100
AcDbEntity
  8
AREA1
 62
     0
100
AcDbLine
 10
-4.175074
 20
-8.527106
 30
0.0
 11
-4.175074
 21
-7.11646
 31
0.0
1001
ACAD
1000
RTLwPs
1070
   158
  0
MTEXT
  5
395C0
100
AcDbEntity
  8
AREA1
 62
     0
100
AcDbMText
 10
-4.175074
 20
-4.517139
 30
0.0
 40
0.351894
 41
0.0
 71
     5
 72
     1
  1
\A1;9 5/32 [232.66]
 11
0.0
 21
1.0
 31
0.0
1001
ACAD
1000
MTEXTBEGIN
1070
    73
1070
     1
1070
    44
1040
1.0
1070
    74
1070
     0
1000
MTEXTEND
1000
MTEXTBEGIN
1070
    73
1070
     1
1070
    44
1040
1.0
1070
    74
1070
     0
1000
MTEXTEND
1000
MTEXTBEGIN
1070
    73
1070
     1
1070
    44
1040
1.0
1070
    74
1070
     0
1000
MTEXTEND
1000
MTEXTBEGIN
1070
    73
1070
     1
1070
    44
1040
1.0
1070
    74
1070
     0
1000
MTEXTEND
  0
SOLID
  5
395C1
100
AcDbEntity
  8
AREA1
 62
     0
100
AcDbTrace
 10
-4.233723
 20
-0.070894
 30
0.0
 11
-4.116425
 21
-0.070894
 31
0.0
 12
-4.175074
 22
0.281
 32
0.0
 13
-4.175074
 23
0.281
 33
0.0
  0
SOLID
  5
395C2
100
AcDbEntity
  8
AREA1
 62
     0
100
AcDbTrace
 10
-4.233723
 20
-8.527106
 30
0.0
 11
-4.116425
 21
-8.527106
 31
0.0
 12
-4.175074
 22
-8.879
 32
0.0
 13
-4.175074
 23
-8.879
 33
0.0
  0
POINT
  5
395C3
100
AcDbEntity
  8
DEFPOINTS
 62
     0
100
AcDbPoint
 10
-1.0
 20
0.281
 30
0.0
  0
POINT
  5
395C4
100
AcDbEntity
  8
DEFPOINTS
 62
     0
100
AcDbPoint
 10
-3.023
 20
-8.879
 30
0.0
  0
POINT
  5
395C5
100
AcDbEntity
  8
DEFPOINTS
 62
     0
100
AcDbPoint
 10
-4.175074
 20
-8.879
 30
0.0
  0
ENDBLK
  5
39548
100
AcDbEntity
  8
0
100
AcDbBlockEnd
  0
BLOCK
  5
39554
100
AcDbEntity
  8
0
100
AcDbBlockBegin
  2
*D1
 70
     1
 10
0.0
 20
0.0
 30
0.0
  3
*D1
  1

  0
LINE
  5
395B2
100
AcDbEntity
  8
AREA1
 62
     0
100
AcDbLine
 10
-3.153
 20
-0.853053
 30
0.0
 11
-3.153
 21
1.155913
 31
0.0
1001
ACAD
1000
RTLwPs
1070
   158
  0
LINE
  5
395B3
100
AcDbEntity
  8
AREA1
 62
     0
100
AcDbLine
 10
5.137
 20
-0.853053
 30
0.0
 11
5.137
 21
1.155913
 31
0.0
1001
ACAD
1000
RTLwPs
1070
   158
  0
LINE
  5
395B4
100
AcDbEntity
  8
AREA1
 62
     0
100
AcDbLine
 10
-2.801106
 20
0.979966
 30
0.0
 11
-1.505649
 21
0.979966
 31
0.0
1001
ACAD
1000
RTLwPs
1070
   158
  0
LINE
  5
395B5
100
AcDbEntity
  8
AREA1
 62
     0
100
AcDbLine
 10
4.785106
 20
0.979966
 30
0.0
 11
3.751642
 21
0.979966
 31
0.0
1001
ACAD
1000
RTLwPs
1070
   158
  0
MTEXT
  5
395B6
100
AcDbEntity
  8
AREA1
 62
     0
100
AcDbMText
 10
1.122996
 20
0.979966
 30
0.0
 40
0.351894
 41
0.0
 71
     5
 72
     1
  1
\A1;8 19/64 [210.57]
1001
ACAD
1000
MTEXTBEGIN
1070
    73
1070
     1
1070
    44
1040
1.0
1070
    74
1070
     0
1000
MTEXTEND
1000
MTEXTBEGIN
1070
    73
1070
     1
1070
    44
1040
1.0
1070
    74
1070
     0
1000
MTEXTEND
1000
MTEXTBEGIN
1070
    73
1070
     1
1070
    44
1040
1.0
1070
    74
1070
     0
1000
MTEXTEND
1000
MTEXTBEGIN
1070
    73
1070
     1
1070
    44
1040
1.0
1070
    74
1070
     0
1000
MTEXTEND
  0
SOLID
  5
395B7
100
AcDbEntity
  8
AREA1
 62
     0
100
AcDbTrace
 10
-2.801106
 20
1.038615
 30
0.0
 11
-2.801106
 21
0.921317
 31
0.0
 12
-3.153
 22
0.979966
 32
0.0
 13
-3.153
 23
0.979966
 33
0.0
  0
SOLID
  5
395B8
100
AcDbEntity
  8
AREA1
 62
     0
100
AcDbTrace
 10
4.785106
 20
1.038615
 30
0.0
 11
4.785106
 21
0.921317
 31
0.0
 12
5.137
 22
0.979966
 32
0.0
 13
5.137
 23
0.979966
 33
0.0
  0
POINT
  5
395B9
100
AcDbEntity
  8
DEFPOINTS
 62
     0
100
AcDbPoint
 10
-3.153
 20
-1.029
 30
0.0
  0
POINT
  5
395BA
100
AcDbEntity
  8
DEFPOINTS
 62
     0
100
AcDbPoint
 10
5.137
 20
-1.029
 30
0.0
  0
POINT
  5
395BB
100
AcDbEntity
  8
DEFPOINTS
 62
     0
100
AcDbPoint
 10
5.137
 20
0.979966
 30
0.0
  0
ENDBLK
  5
39555
100
AcDbEntity
  8
0
100
AcDbBlockEnd
  0
BLOCK
  5
3958A
100
AcDbEntity
  8
0
100
AcDbBlockBegin
  2
*D2
 70
     1
 10
0.0
 20
0.0
 30
0.0
  3
*D2
  1

  0
LINE
  5
395A8
100
AcDbEntity
  8
AREA2
 62
     0
100
AcDbLine
 10
1.812053
 20
4.747
 30
0.0
 11
-4.240754
 21
4.747
 31
0.0
1001
ACAD
1000
RTLwPs
1070
   158
  0
LINE
  5
395A9
100
AcDbEntity
  8
AREA2
 62
     0
100
AcDbLine
 10
-3.328947
 20
0.0
 30
0.0
 11
-4.240754
 21
0.0
 31
0.0
1001
ACAD
1000
RTLwPs
1070
   158
  0
LINE
  5
395AA
100
AcDbEntity
  8
AREA2
 62
     0
100
AcDbLine
 10
-4.064807
 20
5.098894
 30
0.0
 11
-4.064807
 21
5.450787
 31
0.0
1001
ACAD
1000
RTLwPs
1070
   158
  0
LINE
  5
395AB
100
AcDbEntity
  8
AREA2
 62
     0
100
AcDbLine
 10
-4.064807
 20
-0.351894
 30
0.0
 11
-4.064807
 21
-0.703787
 31
0.0
1001
ACAD
1000
RTLwPs
1070
   158
  0
MTEXT
  5
395AC
100
AcDbEntity
  8
AREA2
 62
     0
100
AcDbMText
 10
-4.064807
 20
2.271134
 30
0.0
 40
0.351894
 41
0.0
 71
     5
 72
     1
  1
\A1;4 3/4 [120.57]
 11
0.0
 21
1.0
 31
0.0
1001
ACAD
1000
MTEXTBEGIN
1070
    73
1070
     1
1070
    44
1040
1.0
1070
    74
1070
     0
1000
MTEXTEND
1000
MTEXTBEGIN
1070
    73
1070
     1
1070
    44
1040
1.0
1070
    74
1070
     0
1000
MTEXTEND
1000
MTEXTBEGIN
1070
    73
1070
     1
1070
    44
1040
1.0
1070
    74
1070
     0
1000
MTEXTEND
1000
MTEXTBEGIN
1070
    73
1070
     1
1070
    44
1040
1.0
1070
    74
1070
     0
1000
MTEXTEND
  0
SOLID
  5
395AD
100
AcDbEntity
  8
AREA2
 62
     0
100
AcDbTrace
 10
-4.123456
 20
5.098894
 30
0.0
 11
-4.006158
 21
5.098894
 31
0.0
 12
-4.064807
 22
4.747
 32
0.0
 13
-4.064807
 23
4.747
 33
0.0
  0
SOLID
  5
395AE
100
AcDbEntity
  8
AREA2
 62
     0
100
AcDbTrace
 10
-4.123456
 20
-0.351894
 30
0.0
 11
-4.006158
 21
-0.351894
 31
0.0
 12
-4.064807
 22
0.0
 32
0.0
 13
-4.064807
 23
0.0
 33
0.0
  0
POINT
  5
395AF
100
AcDbEntity
  8
DEFPOINTS
 62
     0
100
AcDbPoint
 10
1.988
 20
4.747
 30
5.79
  0
POINT
  5
395B0
100
AcDbEntity
  8
DEFPOINTS
 62
     0
100
AcDbPoint
 10
-3.153
 20
0.0
 30
-0.281
  0
POINT
  5
395B1
100
AcDbEntity
  8
DEFPOINTS
 62
     0
100
AcDbPoint
 10
-4.064807
 20
0.0
 30
0.0
  0
ENDBLK
  5
3958B
100
AcDbEntity
  8
0
100
AcDbBlockEnd
  0
ENDSEC
  0
SECTION
  2
ENTITIES
  0
3DFACE
  5
3915B
100
AcDbEntity
  8
0
100
AcDbFace
 10
-3.153
 20
-1.029
 30
0.197
 11
-2.753
 21
-0.629
 31
0.197
 12
4.737
 22
-0.629
 32
0.2
 13
5.137
 23
-1.029
 33
0.197
 70
    14
  0
3DFACE
  5
3915C
100
AcDbEntity
  8
0
100
AcDbFace
 10
4.237
 20
-8.879
 30
0.19
 11
4.237
 21
-8.658
 31
0.197
 12
-2.653
 22
-8.658
 32
0.197
 13
-2.653
 23
-8.879
 33
0.197
 70
    14
  0
LINE
  5
3915D
100
AcDbEntity
  8
0
100
AcDbLine
 10
0.486
 20
-3.1
 30
0.387
 11
1.216
 21
-3.1
 31
0.387
  0
LINE
  5
3915E
100
AcDbEntity
  8
0
100
AcDbLine
 10
0.388
 20
-3.1
 30
0.387
 11
1.118
 21
-3.1
 31
0.387
  0
LINE
  5
3915F
100
AcDbEntity
  8
0
100
AcDbLine
 10
4.237
 20
-8.879
 30
0.197
 11
-2.653
 21
-8.879
 31
0.197
  0
LINE
  5
39160
100
AcDbEntity
  8
0
100
AcDbLine
 10
-1.0
 20
0.281
 30
0.197
 11
1.0
 21
0.281
 31
0.197
  0
LINE
  5
39161
100
AcDbEntity
  8
0
100
AcDbLine
 10
-1.0
 20
0.281
 30
0.0
 11
1.0
 21
0.281
 31
0.0
  0
3DFACE
  5
39162
100
AcDbEntity
  8
0
100
AcDbFace
 10
-1.91
 20
-0.629
 30
0.197
 11
-1.0
 21
0.281
 31
0.197
 12
1.0
 22
0.281
 32
0.197
 13
1.91
 23
-0.629
 33
0.197
 70
    14
  0
3DFACE
  5
39163
100
AcDbEntity
  8
0
100
AcDbFace
 10
-1.0
 20
0.281
 30
0.197
 11
-1.0
 21
0.281
 31
0.0
 12
1.0
 22
0.281
 32
0.0
 13
1.0
 23
0.281
 33
0.197
 70
    14
  0
3DFACE
  5
39164
100
AcDbEntity
  8
0
100
AcDbFace
 10
-2.653
 20
-8.879
 30
0.197
 11
-2.653
 21
-8.879
 31
0.0
 12
4.237
 22
-8.879
 32
0.0
 13
4.437
 23
-8.658
 33
0.0
 70
    14
  0
LINE
  5
39165
100
AcDbEntity
  8
0
100
AcDbLine
 39
0.19
 10
4.237
 20
-8.879
 30
0.0
 11
-2.653
 21
-8.879
 31
0.0
  0
3DFACE
  5
39166
100
AcDbEntity
  8
0
100
AcDbFace
 10
-3.153
 20
-8.749
 30
0.197
 11
-3.153
 21
-1.029
 31
0.197
 12
-2.753
 22
-0.629
 32
0.197
 13
-2.853
 23
-8.879
 33
0.197
 70
    14
  0
LINE
  5
39167
100
AcDbEntity
  8
0
100
AcDbLine
 10
-3.153
 20
-8.749
 30
0.197
 11
-3.153
 21
-1.029
 31
0.197
  0
LINE
  5
39168
100
AcDbEntity
  8
0
100
AcDbLine
 10
-3.153
 20
-8.749
 30
0.0
 11
-3.153
 21
-1.029
 31
0.0
  0
3DFACE
  5
39169
100
AcDbEntity
  8
0
100
AcDbFace
 10
-2.753
 20
-0.629
 30
0.197
 11
-3.153
 21
-1.029
 31
0.197
 12
-3.153
 22
-8.749
 32
0.197
 13
-3.023
 23
-8.879
 33
0.197
 70
    14
  0
LINE
  5
3916A
100
AcDbEntity
  8
0
100
AcDbLine
 10
-2.853
 20
-8.879
 30
0.197
 11
-3.023
 21
-8.879
 31
0.197
  0
LINE
  5
3916B
100
AcDbEntity
  8
0
100
AcDbLine
 10
-2.853
 20
-8.879
 30
0.0
 11
-3.023
 21
-8.879
 31
0.0
  0
3DFACE
  5
3916C
100
AcDbEntity
  8
0
100
AcDbFace
 10
-2.853
 20
-8.879
 30
0.197
 11
-2.853
 21
-8.879
 31
0.0
 12
-3.023
 22
-8.879
 32
0.0
 13
-3.023
 23
-8.879
 33
0.197
 70
    14
  0
3DFACE
  5
3916D
100
AcDbEntity
  8
0
100
AcDbFace
 10
-2.853
 20
-8.658
 30
0.197
 11
-2.853
 21
-8.879
 31
0.197
 12
-3.023
 22
-8.879
 32
0.197
 13
-3.153
 23
-8.749
 33
0.197
 70
    14
  0
LINE
  5
3916E
100
AcDbEntity
  8
0
100
AcDbLine
 10
-3.023
 20
-8.879
 30
0.0
 11
-3.023
 21
-8.879
 31
0.197
  0
LINE
  5
3916F
100
AcDbEntity
  8
0
100
AcDbLine
 10
-3.153
 20
-8.749
 30
0.0
 11
-3.153
 21
-8.749
 31
0.197
  0
3DFACE
  5
39170
100
AcDbEntity
  8
0
100
AcDbFace
 10
-3.153
 20
-8.749
 30
0.0
 11
-3.023
 21
-8.879
 31
0.0
 12
-3.023
 22
-8.879
 32
0.197
 13
-3.153
 23
-8.749
 33
0.197
 70
    14
  0
LINE
  5
39171
100
AcDbEntity
  8
0
100
AcDbLine
 10
-3.023
 20
-8.879
 30
0.0
 11
-3.153
 21
-8.749
 31
0.0
  0
LINE
  5
39172
100
AcDbEntity
  8
0
100
AcDbLine
 10
-3.023
 20
-8.879
 30
0.197
 11
-3.153
 21
-8.749
 31
0.197
  0
ARC
  5
39173
100
AcDbEntity
  8
0
100
AcDbCircle
 10
-2.753
 20
-8.658
 30
0.0
 40
0.1
100
AcDbArc
 50
0.0
 51
179.999985
  0
ARC
  5
39174
100
AcDbEntity
  8
0
100
AcDbCircle
 10
-2.753
 20
-8.658
 30
0.197
 40
0.1
100
AcDbArc
 50
0.0
 51
179.999985
  0
LINE
  5
39175
100
AcDbEntity
  8
0
100
AcDbLine
 10
-2.653
 20
-8.879
 30
0.0
 11
-2.653
 21
-8.879
 31
0.197
  0
LINE
  5
39176
100
AcDbEntity
  8
0
100
AcDbLine
 10
-2.653
 20
-8.658
 30
0.0
 11
-2.653
 21
-8.658
 31
0.197
  0
LINE
  5
39177
100
AcDbEntity
  8
0
100
AcDbLine
 10
-2.853
 20
-8.658
 30
0.0
 11
-2.853
 21
-8.658
 31
0.197
  0
LINE
  5
39178
100
AcDbEntity
  8
0
100
AcDbLine
 10
-2.853
 20
-8.879
 30
0.0
 11
-2.853
 21
-8.879
 31
0.197
  0
LINE
  5
39179
100
AcDbEntity
  8
0
100
AcDbLine
 10
-2.853
 20
-8.658
 30
0.0
 11
-2.853
 21
-8.879
 31
0.0
  0
LINE
  5
3917A
100
AcDbEntity
  8
0
100
AcDbLine
 10
-2.653
 20
-8.879
 30
0.0
 11
-2.653
 21
-8.658
 31
0.0
  0
LINE
  5
3917B
100
AcDbEntity
  8
0
100
AcDbLine
 10
-2.853
 20
-8.658
 30
0.197
 11
-2.853
 21
-8.879
 31
0.197
  0
LINE
  5
3917C
100
AcDbEntity
  8
0
100
AcDbLine
 10
-2.653
 20
-8.879
 30
0.197
 11
-2.653
 21
-8.658
 31
0.197
  0
LINE
  5
3917D
100
AcDbEntity
  8
0
100
AcDbLine
 10
-1.91
 20
-0.629
 30
0.197
 11
-1.0
 21
0.281
 31
0.197
  0
LINE
  5
3917E
100
AcDbEntity
  8
0
100
AcDbLine
 10
-1.91
 20
-0.629
 30
0.0
 11
-1.0
 21
0.281
 31
0.0
  0
LINE
  5
3917F
100
AcDbEntity
  8
0
100
AcDbLine
 10
-3.153
 20
-1.029
 30
0.197
 11
-2.753
 21
-0.629
 31
0.197
  0
LINE
  5
39180
100
AcDbEntity
  8
0
100
AcDbLine
 10
-3.153
 20
-1.029
 30
0.0
 11
-2.753
 21
-0.629
 31
0.0
  0
LINE
  5
39181
100
AcDbEntity
  8
0
100
AcDbLine
 10
-3.153
 20
-1.029
 30
0.0
 11
-3.153
 21
-1.029
 31
0.197
  0
LINE
  5
39182
100
AcDbEntity
  8
0
100
AcDbLine
 39
0.2
 10
-2.753
 20
-0.629
 30
0.0
 11
-1.91
 21
-0.629
 31
0.0
  0
LINE
  5
39183
100
AcDbEntity
  8
0
100
AcDbLine
 10
-2.753
 20
-0.629
 30
0.0
 11
-2.753
 21
-0.629
 31
0.197
  0
LINE
  5
39184
100
AcDbEntity
  8
0
100
AcDbLine
 10
-1.91
 20
-0.629
 30
0.0
 11
-1.91
 21
-0.629
 31
0.197
  0
LINE
  5
39185
100
AcDbEntity
  8
0
100
AcDbLine
 10
-2.753
 20
-0.629
 30
0.197
 11
-1.91
 21
-0.629
 31
0.197
  0
LINE
  5
39186
100
AcDbEntity
  8
0
100
AcDbLine
 10
-1.0
 20
0.281
 30
0.0
 11
-1.0
 21
0.281
 31
0.197
  0
LINE
  5
39187
100
AcDbEntity
  8
0
100
AcDbLine
 10
0.1
 20
0.0
 30
0.197
 11
0.1
 21
-0.131891
 31
0.197
  0
LINE
  5
39188
100
AcDbEntity
  8
0
100
AcDbLine
 10
-0.1
 20
0.0
 30
0.197
 11
-0.1
 21
-0.131891
 31
0.197
  0
LINE
  5
39189
100
AcDbEntity
  8
0
100
AcDbLine
 10
0.1
 20
0.0
 30
0.0
 11
0.1
 21
-0.131891
 31
0.0
  0
LINE
  5
3918A
100
AcDbEntity
  8
0
100
AcDbLine
 10
-0.1
 20
0.0
 30
0.0
 11
-0.1
 21
-0.131891
 31
0.0
  0
LINE
  5
3918B
100
AcDbEntity
  8
0
100
AcDbLine
 10
-0.1
 20
-0.131891
 30
0.0
 11
-0.1
 21
-0.131891
 31
0.197
  0
LINE
  5
3918C
100
AcDbEntity
  8
0
100
AcDbLine
 10
0.1
 20
-0.131891
 30
0.0
 11
0.1
 21
-0.131891
 31
0.197
  0
ARC
  5
3918D
100
AcDbEntity
  8
0
100
AcDbCircle
 10
0.0
 20
-0.344
 30
0.0
 40
0.2345
100
AcDbArc
 50
115.241821
 51
64.758209
  0
ARC
  5
3918E
100
AcDbEntity
  8
0
100
AcDbCircle
 10
0.0
 20
-0.344
 30
0.197
 40
0.2345
100
AcDbArc
 50
115.241821
 51
64.758209
  0
LINE
  5
3918F
100
AcDbEntity
  8
0
100
AcDbLine
 10
0.1
 20
0.0
 30
0.0
 11
0.1
 21
0.0
 31
0.197
  0
LINE
  5
39190
100
AcDbEntity
  8
0
100
AcDbLine
 10
-0.1
 20
0.0
 30
0.0
 11
-0.1
 21
0.0
 31
0.197
  0
ARC
  5
39191
100
AcDbEntity
  8
0
100
AcDbCircle
 10
0.0
 20
0.0
 30
0.0
 40
0.1
100
AcDbArc
 50
0.0
 51
179.999985
  0
ARC
  5
39192
100
AcDbEntity
  8
0
100
AcDbCircle
 10
0.0
 20
0.0
 30
0.197
 40
0.1
100
AcDbArc
 50
0.0
 51
179.999985
  0
3DFACE
  5
39193
100
AcDbEntity
  8
0
100
AcDbFace
 10
5.137
 20
-8.749
 30
0.197
 11
5.137
 21
-1.029
 31
0.197
 12
4.737
 22
-0.629
 32
0.2
 13
5.007
 23
-8.879
 33
0.197
 70
    14
  0
LINE
  5
39194
100
AcDbEntity
  8
0
100
AcDbLine
 10
5.137
 20
-1.029
 30
0.197
 11
5.137
 21
-8.749
 31
0.197
  0
LINE
  5
39195
100
AcDbEntity
  8
0
100
AcDbLine
 10
5.137
 20
-1.029
 30
0.0
 11
5.137
 21
-8.749
 31
0.0
  0
3DFACE
  5
39196
100
AcDbEntity
  8
0
100
AcDbFace
 10
5.137
 20
-1.029
 30
0.197
 11
5.137
 21
-1.029
 31
0.0
 12
5.137
 22
-8.749
 32
0.0
 13
5.137
 23
-8.749
 33
0.197
 70
    14
  0
3DFACE
  5
39197
100
AcDbEntity
  8
0
100
AcDbFace
 10
5.137
 20
-1.029
 30
0.197
 11
5.137
 21
-8.749
 31
0.197
 12
5.007
 22
-8.879
 32
0.197
 13
4.437
 23
-8.879
 33
0.197
 70
    14
  0
3DFACE
  5
39198
100
AcDbEntity
  8
0
100
AcDbFace
 10
5.007
 20
-8.879
 30
0.197
 11
4.437
 21
-8.879
 31
0.197
 12
4.437
 22
-8.658
 32
0.197
 13
5.137
 23
-8.749
 33
0.197
 70
    14
  0
LINE
  5
39199
100
AcDbEntity
  8
0
100
AcDbLine
 10
5.007
 20
-8.879
 30
0.197
 11
4.437
 21
-8.879
 31
0.197
  0
LINE
  5
3919A
100
AcDbEntity
  8
0
100
AcDbLine
 10
5.007
 20
-8.879
 30
0.0
 11
4.437
 21
-8.879
 31
0.0
  0
3DFACE
  5
3919B
100
AcDbEntity
  8
0
100
AcDbFace
 10
4.437
 20
-8.879
 30
0.197
 11
4.437
 21
-8.879
 31
0.0
 12
5.007
 22
-8.879
 32
0.0
 13
5.007
 23
-8.879
 33
0.197
 70
    14
  0
ARC
  5
3919C
100
AcDbEntity
  8
0
100
AcDbCircle
 10
4.337
 20
-8.658
 30
0.0
 40
0.1
100
AcDbArc
 50
0.0
 51
179.999985
  0
ARC
  5
3919D
100
AcDbEntity
  8
0
100
AcDbCircle
 10
4.337
 20
-8.658
 30
0.197
 40
0.1
100
AcDbArc
 50
0.0
 51
179.999985
  0
LINE
  5
3919E
100
AcDbEntity
  8
0
100
AcDbLine
 10
4.437
 20
-8.879
 30
0.0
 11
4.437
 21
-8.879
 31
0.197
  0
LINE
  5
3919F
100
AcDbEntity
  8
0
100
AcDbLine
 10
4.437
 20
-8.658
 30
0.0
 11
4.437
 21
-8.658
 31
0.197
  0
LINE
  5
391A0
100
AcDbEntity
  8
0
100
AcDbLine
 10
4.237
 20
-8.658
 30
0.0
 11
4.237
 21
-8.658
 31
0.197
  0
LINE
  5
391A1
100
AcDbEntity
  8
0
100
AcDbLine
 10
4.237
 20
-8.879
 30
0.0
 11
4.237
 21
-8.879
 31
0.197
  0
LINE
  5
391A2
100
AcDbEntity
  8
0
100
AcDbLine
 10
4.237
 20
-8.658
 30
0.0
 11
4.237
 21
-8.879
 31
0.0
  0
LINE
  5
391A3
100
AcDbEntity
  8
0
100
AcDbLine
 10
4.437
 20
-8.879
 30
0.0
 11
4.437
 21
-8.658
 31
0.0
  0
LINE
  5
391A4
100
AcDbEntity
  8
0
100
AcDbLine
 10
4.237
 20
-8.658
 30
0.197
 11
4.237
 21
-8.879
 31
0.197
  0
LINE
  5
391A5
100
AcDbEntity
  8
0
100
AcDbLine
 10
4.437
 20
-8.879
 30
0.197
 11
4.437
 21
-8.658
 31
0.197
  0
LINE
  5
391A6
100
AcDbEntity
  8
0
100
AcDbLine
 39
0.2
 10
5.137
 20
-8.749
 30
0.0
 11
5.007
 21
-8.879
 31
0.0
  0
LINE
  5
391A7
100
AcDbEntity
  8
0
100
AcDbLine
 10
5.137
 20
-8.749
 30
0.0
 11
5.137
 21
-8.749
 31
0.197
  0
LINE
  5
391A8
100
AcDbEntity
  8
0
100
AcDbLine
 10
5.007
 20
-8.879
 30
0.0
 11
5.007
 21
-8.879
 31
0.197
  0
LINE
  5
391A9
100
AcDbEntity
  8
0
100
AcDbLine
 10
5.137
 20
-8.749
 30
0.197
 11
5.007
 21
-8.879
 31
0.197
  0
LINE
  5
391AA
100
AcDbEntity
  8
0
100
AcDbLine
 39
0.2
 10
1.91
 20
-0.629
 30
0.0
 11
4.737
 21
-0.629
 31
0.0
  0
LINE
  5
391AB
100
AcDbEntity
  8
0
100
AcDbLine
 10
1.91
 20
-0.629
 30
0.197
 11
4.737
 21
-0.629
 31
0.197
  0
LINE
  5
391AC
100
AcDbEntity
  8
0
100
AcDbLine
 10
1.0
 20
0.281
 30
0.197
 11
1.91
 21
-0.629
 31
0.197
  0
LINE
  5
391AD
100
AcDbEntity
  8
0
100
AcDbLine
 10
1.0
 20
0.281
 30
0.0
 11
1.91
 21
-0.629
 31
0.0
  0
LINE
  5
391AE
100
AcDbEntity
  8
0
100
AcDbLine
 10
1.91
 20
-0.629
 30
0.0
 11
1.91
 21
-0.629
 31
0.197
  0
LINE
  5
391AF
100
AcDbEntity
  8
0
100
AcDbLine
 10
1.0
 20
0.281
 30
0.0
 11
1.0
 21
0.281
 31
0.197
  0
LINE
  5
391B0
100
AcDbEntity
  8
0
100
AcDbLine
 10
4.737
 20
-0.629
 30
0.0
 11
4.737
 21
-0.629
 31
0.197
  0
LINE
  5
391B1
100
AcDbEntity
  8
0
100
AcDbLine
 10
5.137
 20
-1.029
 30
0.0
 11
5.137
 21
-1.029
 31
0.197
  0
LINE
  5
391B2
100
AcDbEntity
  8
0
100
AcDbLine
 10
-2.972
 20
-5.79
 30
1.817
 11
-2.972
 21
-5.79
 31
3.047
  0
LINE
  5
391B3
100
AcDbEntity
  8
0
100
AcDbLine
 10
-2.572
 20
-6.690001
 30
0.197
 11
-2.572
 21
-6.440001
 31
0.197
  0
LINE
  5
391B4
100
AcDbEntity
  8
0
100
AcDbLine
 10
-2.572
 20
-6.690001
 30
0.387
 11
-2.572
 21
-6.440001
 31
0.387
  0
LINE
  5
391B5
100
AcDbEntity
  8
0
100
AcDbLine
 10
-2.772
 20
-6.440001
 30
0.197
 11
-2.772
 21
-6.690001
 31
0.197
  0
LINE
  5
391B6
100
AcDbEntity
  8
0
100
AcDbLine
 10
-2.772
 20
-6.440001
 30
0.387
 11
-2.772
 21
-6.690001
 31
0.387
  0
LINE
  5
391B7
100
AcDbEntity
  8
0
100
AcDbLine
 10
-2.772
 20
-6.690001
 30
0.197
 11
-2.772
 21
-6.690001
 31
0.387
  0
LINE
  5
391B8
100
AcDbEntity
  8
0
100
AcDbLine
 10
-2.572
 20
-6.440001
 30
0.197
 11
-2.572
 21
-6.440001
 31
0.387
  0
LINE
  5
391B9
100
AcDbEntity
  8
0
100
AcDbLine
 10
-2.772
 20
-6.440001
 30
0.197
 11
-2.772
 21
-6.440001
 31
0.387
  0
ARC
  5
391BA
100
AcDbEntity
  8
0
100
AcDbCircle
 10
-2.672
 20
-6.440001
 30
0.197
 40
0.1
100
AcDbArc
 50
0.0
 51
179.999985
  0
ARC
  5
391BB
100
AcDbEntity
  8
0
100
AcDbCircle
 10
-2.672
 20
-6.440001
 30
0.387
 40
0.1
100
AcDbArc
 50
0.0
 51
179.999985
  0
3DFACE
  5
391BC
100
AcDbEntity
  8
0
100
AcDbFace
 10
0.178
 20
-6.440001
 30
0.387
 11
0.178
 21
-6.440001
 31
0.197
 12
0.178
 22
-6.690001
 32
0.197
 13
0.178
 23
-6.690001
 33
0.387
 70
    14
  0
LINE
  5
391BD
100
AcDbEntity
  8
0
100
AcDbLine
 10
-0.022
 20
-6.440001
 30
0.197
 11
-0.022
 21
-6.690001
 31
0.197
  0
LINE
  5
391BE
100
AcDbEntity
  8
0
100
AcDbLine
 10
0.178
 20
-6.690001
 30
0.197
 11
0.178
 21
-6.440001
 31
0.197
  0
LINE
  5
391BF
100
AcDbEntity
  8
0
100
AcDbLine
 10
-0.022
 20
-6.440001
 30
0.387
 11
-0.022
 21
-6.690001
 31
0.387
  0
LINE
  5
391C0
100
AcDbEntity
  8
0
100
AcDbLine
 10
0.178
 20
-6.690001
 30
0.387
 11
0.178
 21
-6.440001
 31
0.387
  0
LINE
  5
391C1
100
AcDbEntity
  8
0
100
AcDbLine
 10
-0.022
 20
-6.690001
 30
0.197
 11
-0.022
 21
-6.690001
 31
0.387
  0
LINE
  5
391C2
100
AcDbEntity
  8
0
100
AcDbLine
 10
0.178
 20
-6.690001
 30
0.197
 11
0.178
 21
-6.690001
 31
0.387
  0
LINE
  5
391C3
100
AcDbEntity
  8
0
100
AcDbLine
 10
-0.022
 20
-6.440001
 30
0.197
 11
-0.022
 21
-6.440001
 31
0.387
  0
LINE
  5
391C4
100
AcDbEntity
  8
0
100
AcDbLine
 10
0.178
 20
-6.440001
 30
0.197
 11
0.178
 21
-6.440001
 31
0.387
  0
ARC
  5
391C5
100
AcDbEntity
  8
0
100
AcDbCircle
 10
0.078
 20
-6.440001
 30
0.197
 40
0.1
100
AcDbArc
 50
0.0
 51
179.999985
  0
ARC
  5
391C6
100
AcDbEntity
  8
0
100
AcDbCircle
 10
0.078
 20
-6.440001
 30
0.387
 40
0.1
100
AcDbArc
 50
0.0
 51
179.999985
  0
CIRCLE
  5
391C7
100
AcDbEntity
  8
0
100
AcDbCircle
 10
-0.912
 20
-0.97
 30
0.387
 40
0.1
  0
CIRCLE
  5
391C8
100
AcDbEntity
  8
0
100
AcDbCircle
 10
-0.912
 20
-0.97
 30
0.387
 40
0.1
  0
LINE
  5
391C9
100
AcDbEntity
  8
0
100
AcDbLine
 10
-1.577
 20
-0.69
 30
0.197
 11
-0.137
 21
-0.69
 31
0.197
  0
LINE
  5
391CA
100
AcDbEntity
  8
0
100
AcDbLine
 10
-1.577
 20
-0.69
 30
0.387
 11
-0.137
 21
-0.69
 31
0.387
  0
3DFACE
  5
391CB
100
AcDbEntity
  8
0
100
AcDbFace
 10
-2.267
 20
-0.69
 30
0.387
 11
-2.457
 21
-0.69
 31
0.387
 12
-2.457
 22
-0.69
 32
0.197
 13
-2.267
 23
-0.69
 33
0.197
 70
    14
  0
LINE
  5
391CC
100
AcDbEntity
  8
0
100
AcDbLine
 10
-2.457
 20
-0.69
 30
0.197
 11
-2.267
 21
-0.69
 31
0.197
  0
LINE
  5
391CD
100
AcDbEntity
  8
0
100
AcDbLine
 10
-2.457
 20
-0.69
 30
0.387
 11
-2.267
 21
-0.69
 31
0.387
  0
ARC
  5
391CE
100
AcDbEntity
  8
0
100
AcDbCircle
 10
-1.292
 20
-0.97
 30
0.387
 40
0.1015
100
AcDbArc
 50
0.0
 51
179.999985
  0
ARC
  5
391CF
100
AcDbEntity
  8
0
100
AcDbCircle
 10
-1.292
 20
-0.97
 30
0.387
 40
0.1015
100
AcDbArc
 50
0.0
 51
179.999985
  0
LINE
  5
391D0
100
AcDbEntity
  8
0
100
AcDbLine
 10
-1.1905
 20
-1.102159
 30
0.197
 11
-1.1905
 21
-1.102159
 31
0.387
  0
LINE
  5
391D1
100
AcDbEntity
  8
0
100
AcDbLine
 10
-1.1905
 20
-0.97
 30
0.197
 11
-1.1905
 21
-0.97
 31
0.387
  0
LINE
  5
391D2
100
AcDbEntity
  8
0
100
AcDbLine
 10
-1.3935
 20
-0.97
 30
0.197
 11
-1.3935
 21
-0.97
 31
0.387
  0
ARC
  5
391D3
100
AcDbEntity
  8
0
100
AcDbCircle
 10
-1.292
 20
-1.313
 30
0.387
 40
0.234
100
AcDbArc
 50
115.70649
 51
64.293579
  0
ARC
  5
391D4
100
AcDbEntity
  8
0
100
AcDbCircle
 10
-1.292
 20
-1.313
 30
0.387
 40
0.234
100
AcDbArc
 50
115.70649
 51
64.293579
  0
LINE
  5
391D5
100
AcDbEntity
  8
0
100
AcDbLine
 10
-1.3935
 20
-0.97
 30
0.387
 11
-1.3935
 21
-1.102159
 31
0.387
  0
LINE
  5
391D6
100
AcDbEntity
  8
0
100
AcDbLine
 10
-1.3935
 20
-0.97
 30
0.387
 11
-1.3935
 21
-1.102159
 31
0.387
  0
LINE
  5
391D7
100
AcDbEntity
  8
0
100
AcDbLine
 10
-1.1905
 20
-0.97
 30
0.387
 11
-1.1905
 21
-1.102159
 31
0.387
  0
LINE
  5
391D8
100
AcDbEntity
  8
0
100
AcDbLine
 10
-1.1905
 20
-0.97
 30
0.387
 11
-1.1905
 21
-1.102159
 31
0.387
  0
LINE
  5
391D9
100
AcDbEntity
  8
0
100
AcDbLine
 10
-0.137
 20
-0.69
 30
0.197
 11
0.483
 21
-1.31
 31
0.197
  0
LINE
  5
391DA
100
AcDbEntity
  8
0
100
AcDbLine
 10
-0.137
 20
-0.69
 30
0.387
 11
0.483
 21
-1.31
 31
0.387
  0
LINE
  5
391DB
100
AcDbEntity
  8
0
100
AcDbLine
 10
-0.812
 20
-0.97
 30
0.197
 11
-0.812
 21
-0.97
 31
0.387
  0
CIRCLE
  5
391DC
100
AcDbEntity
  8
0
100
AcDbCircle
 10
-0.912
 20
-0.97
 30
0.197
 40
0.1
  0
ARC
  5
391DD
100
AcDbEntity
  8
0
100
AcDbCircle
 10
-1.292
 20
-1.313
 30
0.197
 40
0.234
100
AcDbArc
 50
115.70649
 51
64.293579
  0
LINE
  5
391DE
100
AcDbEntity
  8
0
100
AcDbLine
 10
-1.1905
 20
-0.97
 30
0.197
 11
-1.1905
 21
-1.102159
 31
0.197
  0
ARC
  5
391DF
100
AcDbEntity
  8
0
100
AcDbCircle
 10
-1.292
 20
-0.97
 30
0.197
 40
0.1015
100
AcDbArc
 50
0.0
 51
179.999985
  0
LINE
  5
391E0
100
AcDbEntity
  8
0
100
AcDbLine
 10
-1.3935
 20
-0.97
 30
0.197
 11
-1.3935
 21
-1.102159
 31
0.197
  0
LINE
  5
391E1
100
AcDbEntity
  8
0
100
AcDbLine
 10
-1.3935
 20
-1.102159
 30
0.197
 11
-1.3935
 21
-1.102159
 31
0.387
  0
LINE
  5
391E6
100
AcDbEntity
  8
0
100
AcDbLine
 10
-1.871326
 20
-3.825015
 30
4.667
 11
-1.75671
 21
-3.975138
 31
4.667
  0
LINE
  5
391E7
100
AcDbEntity
  8
0
100
AcDbLine
 10
-1.887515
 20
-3.841205
 30
4.667
 11
-1.772899
 21
-3.991327
 31
4.667
  0
CIRCLE
  5
391E8
100
AcDbEntity
  8
0
100
AcDbCircle
 10
-1.822
 20
-3.91
 30
4.667
 40
0.095
  0
LINE
  5
391E9
100
AcDbEntity
  8
0
100
AcDbLine
 10
-0.811326
 20
-3.825015
 30
4.667
 11
-0.69671
 21
-3.975138
 31
4.667
  0
LINE
  5
391EA
100
AcDbEntity
  8
0
100
AcDbLine
 10
-0.827515
 20
-3.841205
 30
4.667
 11
-0.7129
 21
-3.991327
 31
4.667
  0
CIRCLE
  5
391EB
100
AcDbEntity
  8
0
100
AcDbCircle
 10
-0.762
 20
-3.91
 30
4.667
 40
0.095
  0
POLYLINE
  5
391EC
100
AcDbEntity
  8
0
100
AcDbPolygonMesh
 66
     1
 10
0.0
 20
0.0
 30
0.0
 70
    16
 71
     6
 72
     3
  0
VERTEX
  5
391ED
100
AcDbEntity
  8
0
100
AcDbVertex
100
AcDbPolygonMeshVertex
 10
-0.352
 20
-4.44
 30
4.197
 70
    64
  0
VERTEX
  5
391EE
100
AcDbEntity
  8
0
100
AcDbVertex
100
AcDbPolygonMeshVertex
 10
-0.352
 20
-4.44
 30
3.827
 70
    64
  0
VERTEX
  5
391EF
100
AcDbEntity
  8
0
100
AcDbVertex
100
AcDbPolygonMeshVertex
 10
-0.352
 20
-4.44
 30
3.827
 70
    64
  0
VERTEX
  5
391F0
100
AcDbEntity
  8
0
100
AcDbVertex
100
AcDbPolygonMeshVertex
 10
-2.232
 20
-4.44
 30
4.197
 70
    64
  0
VERTEX
  5
391F1
100
AcDbEntity
  8
0
100
AcDbVertex
100
AcDbPolygonMeshVertex
 10
-2.232
 20
-4.44
 30
3.827
 70
    64
  0
VERTEX
  5
391F2
100
AcDbEntity
  8
0
100
AcDbVertex
100
AcDbPolygonMeshVertex
 10
-2.232
 20
-4.44
 30
3.827
 70
    64
  0
VERTEX
  5
391F3
100
AcDbEntity
  8
0
100
AcDbVertex
100
AcDbPolygonMeshVertex
 10
-2.232
 20
-3.6
 30
4.197
 70
    64
  0
VERTEX
  5
391F4
100
AcDbEntity
  8
0
100
AcDbVertex
100
AcDbPolygonMeshVertex
 10
-2.232
 20
-3.6
 30
3.827
 70
    64
  0
VERTEX
  5
391F5
100
AcDbEntity
  8
0
100
AcDbVertex
100
AcDbPolygonMeshVertex
 10
-2.232
 20
-4.44
 30
3.827
 70
    64
  0
VERTEX
  5
391F6
100
AcDbEntity
  8
0
100
AcDbVertex
100
AcDbPolygonMeshVertex
 10
-0.352
 20
-3.6
 30
4.197
 70
    64
  0
VERTEX
  5
391F7
100
AcDbEntity
  8
0
100
AcDbVertex
100
AcDbPolygonMeshVertex
 10
-0.352
 20
-3.6
 30
3.827
 70
    64
  0
VERTEX
  5
391F8
100
AcDbEntity
  8
0
100
AcDbVertex
100
AcDbPolygonMeshVertex
 10
-0.352
 20
-4.44
 30
3.827
 70
    64
  0
VERTEX
  5
391F9
100
AcDbEntity
  8
0
100
AcDbVertex
100
AcDbPolygonMeshVertex
 10
-0.352
 20
-3.6
 30
4.197
 70
    64
  0
VERTEX
  5
391FA
100
AcDbEntity
  8
0
100
AcDbVertex
100
AcDbPolygonMeshVertex
 10
-0.352
 20
-3.6
 30
4.197
 70
    64
  0
VERTEX
  5
391FB
100
AcDbEntity
  8
0
100
AcDbVertex
100
AcDbPolygonMeshVertex
 10
-0.352
 20
-4.44
 30
4.197
 70
    64
  0
VERTEX
  5
391FC
100
AcDbEntity
  8
0
100
AcDbVertex
100
AcDbPolygonMeshVertex
 10
-2.232
 20
-3.6
 30
4.197
 70
    64
  0
VERTEX
  5
391FD
100
AcDbEntity
  8
0
100
AcDbVertex
100
AcDbPolygonMeshVertex
 10
-2.232
 20
-3.6
 30
4.197
 70
    64
  0
VERTEX
  5
391FE
100
AcDbEntity
  8
0
100
AcDbVertex
100
AcDbPolygonMeshVertex
 10
-2.232
 20
-4.44
 30
4.197
 70
    64
  0
SEQEND
  5
391FF
100
AcDbEntity
  8
0
  0
POLYLINE
  5
39200
100
AcDbEntity
  8
0
100
AcDbPolygonMesh
 66
     1
 10
0.0
 20
0.0
 30
0.0
 70
    16
 71
     6
 72
     3
  0
VERTEX
  5
39201
100
AcDbEntity
  8
0
100
AcDbVertex
100
AcDbPolygonMeshVertex
 10
-0.542
 20
-4.04
 30
4.667
 70
    64
  0
VERTEX
  5
39202
100
AcDbEntity
  8
0
100
AcDbVertex
100
AcDbPolygonMeshVertex
 10
-0.542
 20
-4.04
 30
4.197
 70
    64
  0
VERTEX
  5
39203
100
AcDbEntity
  8
0
100
AcDbVertex
100
AcDbPolygonMeshVertex
 10
-0.542
 20
-4.04
 30
4.197
 70
    64
  0
VERTEX
  5
39204
100
AcDbEntity
  8
0
100
AcDbVertex
100
AcDbPolygonMeshVertex
 10
-0.982
 20
-4.04
 30
4.667
 70
    64
  0
VERTEX
  5
39205
100
AcDbEntity
  8
0
100
AcDbVertex
100
AcDbPolygonMeshVertex
 10
-0.982
 20
-4.04
 30
4.197
 70
    64
  0
VERTEX
  5
39206
100
AcDbEntity
  8
0
100
AcDbVertex
100
AcDbPolygonMeshVertex
 10
-0.982
 20
-4.04
 30
4.197
 70
    64
  0
VERTEX
  5
39207
100
AcDbEntity
  8
0
100
AcDbVertex
100
AcDbPolygonMeshVertex
 10
-0.982
 20
-3.66
 30
4.667
 70
    64
  0
VERTEX
  5
39208
100
AcDbEntity
  8
0
100
AcDbVertex
100
AcDbPolygonMeshVertex
 10
-0.982
 20
-3.66
 30
4.197
 70
    64
  0
VERTEX
  5
39209
100
AcDbEntity
  8
0
100
AcDbVertex
100
AcDbPolygonMeshVertex
 10
-0.982
 20
-4.04
 30
4.197
 70
    64
  0
VERTEX
  5
3920A
100
AcDbEntity
  8
0
100
AcDbVertex
100
AcDbPolygonMeshVertex
 10
-0.542
 20
-3.66
 30
4.667
 70
    64
  0
VERTEX
  5
3920B
100
AcDbEntity
  8
0
100
AcDbVertex
100
AcDbPolygonMeshVertex
 10
-0.542
 20
-3.66
 30
4.197
 70
    64
  0
VERTEX
  5
3920C
100
AcDbEntity
  8
0
100
AcDbVertex
100
AcDbPolygonMeshVertex
 10
-0.542
 20
-4.04
 30
4.197
 70
    64
  0
VERTEX
  5
3920D
100
AcDbEntity
  8
0
100
AcDbVertex
100
AcDbPolygonMeshVertex
 10
-0.542
 20
-3.66
 30
4.667
 70
    64
  0
VERTEX
  5
3920E
100
AcDbEntity
  8
0
100
AcDbVertex
100
AcDbPolygonMeshVertex
 10
-0.542
 20
-3.66
 30
4.667
 70
    64
  0
VERTEX
  5
3920F
100
AcDbEntity
  8
0
100
AcDbVertex
100
AcDbPolygonMeshVertex
 10
-0.542
 20
-4.04
 30
4.667
 70
    64
  0
VERTEX
  5
39210
100
AcDbEntity
  8
0
100
AcDbVertex
100
AcDbPolygonMeshVertex
 10
-0.982
 20
-3.66
 30
4.667
 70
    64
  0
VERTEX
  5
39211
100
AcDbEntity
  8
0
100
AcDbVertex
100
AcDbPolygonMeshVertex
 10
-0.982
 20
-3.66
 30
4.667
 70
    64
  0
VERTEX
  5
39212
100
AcDbEntity
  8
0
100
AcDbVertex
100
AcDbPolygonMeshVertex
 10
-0.982
 20
-4.04
 30
4.667
 70
    64
  0
SEQEND
  5
39213
100
AcDbEntity
  8
0
  0
POLYLINE
  5
39214
100
AcDbEntity
  8
0
100
AcDbPolygonMesh
 66
     1
 10
0.0
 20
0.0
 30
0.0
 70
    16
 71
     6
 72
     3
  0
VERTEX
  5
39215
100
AcDbEntity
  8
0
100
AcDbVertex
100
AcDbPolygonMeshVertex
 10
-1.602
 20
-4.04
 30
4.667
 70
    64
  0
VERTEX
  5
39216
100
AcDbEntity
  8
0
100
AcDbVertex
100
AcDbPolygonMeshVertex
 10
-1.602
 20
-4.04
 30
4.197
 70
    64
  0
VERTEX
  5
39217
100
AcDbEntity
  8
0
100
AcDbVertex
100
AcDbPolygonMeshVertex
 10
-1.602
 20
-4.04
 30
4.197
 70
    64
  0
VERTEX
  5
39218
100
AcDbEntity
  8
0
100
AcDbVertex
100
AcDbPolygonMeshVertex
 10
-2.042
 20
-4.04
 30
4.667
 70
    64
  0
VERTEX
  5
39219
100
AcDbEntity
  8
0
100
AcDbVertex
100
AcDbPolygonMeshVertex
 10
-2.042
 20
-4.04
 30
4.197
 70
    64
  0
VERTEX
  5
3921A
100
AcDbEntity
  8
0
100
AcDbVertex
100
AcDbPolygonMeshVertex
 10
-2.042
 20
-4.04
 30
4.197
 70
    64
  0
VERTEX
  5
3921B
100
AcDbEntity
  8
0
100
AcDbVertex
100
AcDbPolygonMeshVertex
 10
-2.042
 20
-3.66
 30
4.667
 70
    64
  0
VERTEX
  5
3921C
100
AcDbEntity
  8
0
100
AcDbVertex
100
AcDbPolygonMeshVertex
 10
-2.042
 20
-3.66
 30
4.197
 70
    64
  0
VERTEX
  5
3921D
100
AcDbEntity
  8
0
100
AcDbVertex
100
AcDbPolygonMeshVertex
 10
-2.042
 20
-4.04
 30
4.197
 70
    64
  0
VERTEX
  5
3921E
100
AcDbEntity
  8
0
100
AcDbVertex
100
AcDbPolygonMeshVertex
 10
-1.602
 20
-3.66
 30
4.667
 70
    64
  0
VERTEX
  5
3921F
100
AcDbEntity
  8
0
100
AcDbVertex
100
AcDbPolygonMeshVertex
 10
-1.602
 20
-3.66
 30
4.197
 70
    64
  0
VERTEX
  5
39220
100
AcDbEntity
  8
0
100
AcDbVertex
100
AcDbPolygonMeshVertex
 10
-1.602
 20
-4.04
 30
4.197
 70
    64
  0
VERTEX
  5
39221
100
AcDbEntity
  8
0
100
AcDbVertex
100
AcDbPolygonMeshVertex
 10
-1.602
 20
-3.66
 30
4.667
 70
    64
  0
VERTEX
  5
39222
100
AcDbEntity
  8
0
100
AcDbVertex
100
AcDbPolygonMeshVertex
 10
-1.602
 20
-3.66
 30
4.667
 70
    64
  0
VERTEX
  5
39223
100
AcDbEntity
  8
0
100
AcDbVertex
100
AcDbPolygonMeshVertex
 10
-1.602
 20
-4.04
 30
4.667
 70
    64
  0
VERTEX
  5
39224
100
AcDbEntity
  8
0
100
AcDbVertex
100
AcDbPolygonMeshVertex
 10
-2.042
 20
-3.66
 30
4.667
 70
    64
  0
VERTEX
  5
39225
100
AcDbEntity
  8
0
100
AcDbVertex
100
AcDbPolygonMeshVertex
 10
-2.042
 20
-3.66
 30
4.667
 70
    64
  0
VERTEX
  5
39226
100
AcDbEntity
  8
0
100
AcDbVertex
100
AcDbPolygonMeshVertex
 10
-2.042
 20
-4.04
 30
4.667
 70
    64
  0
SEQEND
  5
39227
100
AcDbEntity
  8
0
  0
LINE
  5
39228
100
AcDbEntity
  8
0
100
AcDbLine
 10
-2.972
 20
-2.15
 30
3.827
 11
-2.972
 21
-2.15
 31
0.387
  0
POLYLINE
  5
39229
100
AcDbEntity
  8
0
100
AcDbPolygonMesh
 66
     1
 10
0.0
 20
0.0
 30
0.0
 70
    16
 71
     6
 72
     3
  0
VERTEX
  5
3922A
100
AcDbEntity
  8
0
100
AcDbVertex
100
AcDbPolygonMeshVertex
 10
0.388
 20
-5.54
 30
3.827
 70
    64
  0
VERTEX
  5
3922B
100
AcDbEntity
  8
0
100
AcDbVertex
100
AcDbPolygonMeshVertex
 10
0.388
 20
-5.54
 30
0.387
 70
    64
  0
VERTEX
  5
3922C
100
AcDbEntity
  8
0
100
AcDbVertex
100
AcDbPolygonMeshVertex
 10
0.388
 20
-5.54
 30
0.387
 70
    64
  0
VERTEX
  5
3922D
100
AcDbEntity
  8
0
100
AcDbVertex
100
AcDbPolygonMeshVertex
 10
-2.972
 20
-5.54
 30
3.827
 70
    64
  0
VERTEX
  5
3922E
100
AcDbEntity
  8
0
100
AcDbVertex
100
AcDbPolygonMeshVertex
 10
-2.972
 20
-5.54
 30
0.387
 70
    64
  0
VERTEX
  5
3922F
100
AcDbEntity
  8
0
100
AcDbVertex
100
AcDbPolygonMeshVertex
 10
-2.972
 20
-5.54
 30
0.387
 70
    64
  0
VERTEX
  5
39230
100
AcDbEntity
  8
0
100
AcDbVertex
100
AcDbPolygonMeshVertex
 10
-2.972
 20
-2.15
 30
3.827
 70
    64
  0
VERTEX
  5
39231
100
AcDbEntity
  8
0
100
AcDbVertex
100
AcDbPolygonMeshVertex
 10
-2.972
 20
-2.15
 30
0.387
 70
    64
  0
VERTEX
  5
39232
100
AcDbEntity
  8
0
100
AcDbVertex
100
AcDbPolygonMeshVertex
 10
-2.972
 20
-5.54
 30
0.387
 70
    64
  0
VERTEX
  5
39233
100
AcDbEntity
  8
0
100
AcDbVertex
100
AcDbPolygonMeshVertex
 10
0.388
 20
-2.15
 30
3.827
 70
    64
  0
VERTEX
  5
39234
100
AcDbEntity
  8
0
100
AcDbVertex
100
AcDbPolygonMeshVertex
 10
0.388
 20
-2.15
 30
0.387
 70
    64
  0
VERTEX
  5
39235
100
AcDbEntity
  8
0
100
AcDbVertex
100
AcDbPolygonMeshVertex
 10
0.388
 20
-5.54
 30
0.387
 70
    64
  0
VERTEX
  5
39236
100
AcDbEntity
  8
0
100
AcDbVertex
100
AcDbPolygonMeshVertex
 10
0.388
 20
-2.15
 30
3.827
 70
    64
  0
VERTEX
  5
39237
100
AcDbEntity
  8
0
100
AcDbVertex
100
AcDbPolygonMeshVertex
 10
0.388
 20
-2.15
 30
3.827
 70
    64
  0
VERTEX
  5
39238
100
AcDbEntity
  8
0
100
AcDbVertex
100
AcDbPolygonMeshVertex
 10
0.388
 20
-5.54
 30
3.827
 70
    64
  0
VERTEX
  5
39239
100
AcDbEntity
  8
0
100
AcDbVertex
100
AcDbPolygonMeshVertex
 10
-2.972
 20
-2.15
 30
3.827
 70
    64
  0
VERTEX
  5
3923A
100
AcDbEntity
  8
0
100
AcDbVertex
100
AcDbPolygonMeshVertex
 10
-2.972
 20
-2.15
 30
3.827
 70
    64
  0
VERTEX
  5
3923B
100
AcDbEntity
  8
0
100
AcDbVertex
100
AcDbPolygonMeshVertex
 10
-2.972
 20
-5.54
 30
3.827
 70
    64
  0
SEQEND
  5
3923C
100
AcDbEntity
  8
0
  0
POLYLINE
  5
3923D
100
AcDbEntity
  8
0
100
AcDbPolygonMesh
 66
     1
 10
0.0
 20
0.0
 30
0.0
 70
    16
 71
     6
 72
     3
  0
VERTEX
  5
3923E
100
AcDbEntity
  8
0
100
AcDbVertex
100
AcDbPolygonMeshVertex
 10
0.388
 20
-5.79
 30
3.047
 70
    64
  0
VERTEX
  5
3923F
100
AcDbEntity
  8
0
100
AcDbVertex
100
AcDbPolygonMeshVertex
 10
0.388
 20
-5.79
 30
1.817
 70
    64
  0
VERTEX
  5
39240
100
AcDbEntity
  8
0
100
AcDbVertex
100
AcDbPolygonMeshVertex
 10
0.388
 20
-5.79
 30
1.817
 70
    64
  0
VERTEX
  5
39241
100
AcDbEntity
  8
0
100
AcDbVertex
100
AcDbPolygonMeshVertex
 10
-2.972
 20
-5.79
 30
3.047
 70
    64
  0
VERTEX
  5
39242
100
AcDbEntity
  8
0
100
AcDbVertex
100
AcDbPolygonMeshVertex
 10
-2.972
 20
-5.79
 30
1.817
 70
    64
  0
VERTEX
  5
39243
100
AcDbEntity
  8
0
100
AcDbVertex
100
AcDbPolygonMeshVertex
 10
-2.972
 20
-5.79
 30
1.817
 70
    64
  0
VERTEX
  5
39244
100
AcDbEntity
  8
0
100
AcDbVertex
100
AcDbPolygonMeshVertex
 10
-2.972
 20
-5.54
 30
3.047
 70
    64
  0
VERTEX
  5
39245
100
AcDbEntity
  8
0
100
AcDbVertex
100
AcDbPolygonMeshVertex
 10
-2.972
 20
-5.54
 30
1.817
 70
    64
  0
VERTEX
  5
39246
100
AcDbEntity
  8
0
100
AcDbVertex
100
AcDbPolygonMeshVertex
 10
-2.972
 20
-5.79
 30
1.817
 70
    64
  0
VERTEX
  5
39247
100
AcDbEntity
  8
0
100
AcDbVertex
100
AcDbPolygonMeshVertex
 10
0.388
 20
-5.54
 30
3.047
 70
    64
  0
VERTEX
  5
39248
100
AcDbEntity
  8
0
100
AcDbVertex
100
AcDbPolygonMeshVertex
 10
0.388
 20
-5.54
 30
1.817
 70
    64
  0
VERTEX
  5
39249
100
AcDbEntity
  8
0
100
AcDbVertex
100
AcDbPolygonMeshVertex
 10
0.388
 20
-5.79
 30
1.817
 70
    64
  0
VERTEX
  5
3924A
100
AcDbEntity
  8
0
100
AcDbVertex
100
AcDbPolygonMeshVertex
 10
0.388
 20
-5.54
 30
3.047
 70
    64
  0
VERTEX
  5
3924B
100
AcDbEntity
  8
0
100
AcDbVertex
100
AcDbPolygonMeshVertex
 10
0.388
 20
-5.54
 30
3.047
 70
    64
  0
VERTEX
  5
3924C
100
AcDbEntity
  8
0
100
AcDbVertex
100
AcDbPolygonMeshVertex
 10
0.388
 20
-5.79
 30
3.047
 70
    64
  0
VERTEX
  5
3924D
100
AcDbEntity
  8
0
100
AcDbVertex
100
AcDbPolygonMeshVertex
 10
-2.972
 20
-5.54
 30
3.047
 70
    64
  0
VERTEX
  5
3924E
100
AcDbEntity
  8
0
100
AcDbVertex
100
AcDbPolygonMeshVertex
 10
-2.972
 20
-5.54
 30
3.047
 70
    64
  0
VERTEX
  5
3924F
100
AcDbEntity
  8
0
100
AcDbVertex
100
AcDbPolygonMeshVertex
 10
-2.972
 20
-5.79
 30
3.047
 70
    64
  0
SEQEND
  5
39250
100
AcDbEntity
  8
0
  0
POLYLINE
  5
39251
100
AcDbEntity
  8
0
100
AcDbPolygonMesh
 66
     1
 10
0.0
 20
0.0
 30
0.0
 70
    16
 71
     6
 72
     3
  0
VERTEX
  5
39252
100
AcDbEntity
  8
0
100
AcDbVertex
100
AcDbPolygonMeshVertex
 10
-2.972
 20
-5.54
 30
0.387
 70
    64
  0
VERTEX
  5
39253
100
AcDbEntity
  8
0
100
AcDbVertex
100
AcDbPolygonMeshVertex
 10
-2.972
 20
-5.54
 30
0.387
 70
    64
  0
VERTEX
  5
39254
100
AcDbEntity
  8
0
100
AcDbVertex
100
AcDbPolygonMeshVertex
 10
-2.972
 20
-5.54
 30
0.387
 70
    64
  0
VERTEX
  5
39255
100
AcDbEntity
  8
0
100
AcDbVertex
100
AcDbPolygonMeshVertex
 10
-2.972
 20
-5.79
 30
1.817
 70
    64
  0
VERTEX
  5
39256
100
AcDbEntity
  8
0
100
AcDbVertex
100
AcDbPolygonMeshVertex
 10
-2.972
 20
-5.54
 30
1.817
 70
    64
  0
VERTEX
  5
39257
100
AcDbEntity
  8
0
100
AcDbVertex
100
AcDbPolygonMeshVertex
 10
-2.972
 20
-5.54
 30
1.817
 70
    64
  0
VERTEX
  5
39258
100
AcDbEntity
  8
0
100
AcDbVertex
100
AcDbPolygonMeshVertex
 10
0.388
 20
-5.79
 30
1.817
 70
    64
  0
VERTEX
  5
39259
100
AcDbEntity
  8
0
100
AcDbVertex
100
AcDbPolygonMeshVertex
 10
0.388
 20
-5.54
 30
1.817
 70
    64
  0
VERTEX
  5
3925A
100
AcDbEntity
  8
0
100
AcDbVertex
100
AcDbPolygonMeshVertex
 10
-2.972
 20
-5.54
 30
1.817
 70
    64
  0
VERTEX
  5
3925B
100
AcDbEntity
  8
0
100
AcDbVertex
100
AcDbPolygonMeshVertex
 10
0.388
 20
-5.54
 30
0.387
 70
    64
  0
VERTEX
  5
3925C
100
AcDbEntity
  8
0
100
AcDbVertex
100
AcDbPolygonMeshVertex
 10
0.388
 20
-5.54
 30
0.387
 70
    64
  0
VERTEX
  5
3925D
100
AcDbEntity
  8
0
100
AcDbVertex
100
AcDbPolygonMeshVertex
 10
-2.972
 20
-5.54
 30
0.387
 70
    64
  0
VERTEX
  5
3925E
100
AcDbEntity
  8
0
100
AcDbVertex
100
AcDbPolygonMeshVertex
 10
0.388
 20
-5.54
 30
0.387
 70
    64
  0
VERTEX
  5
3925F
100
AcDbEntity
  8
0
100
AcDbVertex
100
AcDbPolygonMeshVertex
 10
0.388
 20
-5.54
 30
0.387
 70
    64
  0
VERTEX
  5
39260
100
AcDbEntity
  8
0
100
AcDbVertex
100
AcDbPolygonMeshVertex
 10
-2.972
 20
-5.54
 30
0.387
 70
    64
  0
VERTEX
  5
39261
100
AcDbEntity
  8
0
100
AcDbVertex
100
AcDbPolygonMeshVertex
 10
0.388
 20
-5.79
 30
1.817
 70
    64
  0
VERTEX
  5
39262
100
AcDbEntity
  8
0
100
AcDbVertex
100
AcDbPolygonMeshVertex
 10
0.388
 20
-5.79
 30
1.817
 70
    64
  0
VERTEX
  5
39263
100
AcDbEntity
  8
0
100
AcDbVertex
100
AcDbPolygonMeshVertex
 10
-2.972
 20
-5.79
 30
1.817
 70
    64
  0
SEQEND
  5
39264
100
AcDbEntity
  8
0
  0
POLYLINE
  5
39265
100
AcDbEntity
  8
0
100
AcDbPolygonMesh
 66
     1
 10
0.0
 20
0.0
 30
0.0
 70
    16
 71
     6
 72
     3
  0
VERTEX
  5
39266
100
AcDbEntity
  8
0
100
AcDbVertex
100
AcDbPolygonMeshVertex
 10
0.388
 20
-2.15
 30
4.287
 70
    64
  0
VERTEX
  5
39267
100
AcDbEntity
  8
0
100
AcDbVertex
100
AcDbPolygonMeshVertex
 10
0.388
 20
-2.15
 30
0.387
 70
    64
  0
VERTEX
  5
39268
100
AcDbEntity
  8
0
100
AcDbVertex
100
AcDbPolygonMeshVertex
 10
0.388
 20
-2.15
 30
0.387
 70
    64
  0
VERTEX
  5
39269
100
AcDbEntity
  8
0
100
AcDbVertex
100
AcDbPolygonMeshVertex
 10
-2.972
 20
-2.15
 30
4.287
 70
    64
  0
VERTEX
  5
3926A
100
AcDbEntity
  8
0
100
AcDbVertex
100
AcDbPolygonMeshVertex
 10
-2.972
 20
-2.15
 30
0.387
 70
    64
  0
VERTEX
  5
3926B
100
AcDbEntity
  8
0
100
AcDbVertex
100
AcDbPolygonMeshVertex
 10
-2.972
 20
-2.15
 30
0.387
 70
    64
  0
VERTEX
  5
3926C
100
AcDbEntity
  8
0
100
AcDbVertex
100
AcDbPolygonMeshVertex
 10
-2.972
 20
-1.47
 30
4.287
 70
    64
  0
VERTEX
  5
3926D
100
AcDbEntity
  8
0
100
AcDbVertex
100
AcDbPolygonMeshVertex
 10
-2.972
 20
-1.47
 30
0.387
 70
    64
  0
VERTEX
  5
3926E
100
AcDbEntity
  8
0
100
AcDbVertex
100
AcDbPolygonMeshVertex
 10
-2.972
 20
-2.15
 30
0.387
 70
    64
  0
VERTEX
  5
3926F
100
AcDbEntity
  8
0
100
AcDbVertex
100
AcDbPolygonMeshVertex
 10
0.388
 20
-1.47
 30
4.287
 70
    64
  0
VERTEX
  5
39270
100
AcDbEntity
  8
0
100
AcDbVertex
100
AcDbPolygonMeshVertex
 10
0.388
 20
-1.47
 30
0.387
 70
    64
  0
VERTEX
  5
39271
100
AcDbEntity
  8
0
100
AcDbVertex
100
AcDbPolygonMeshVertex
 10
0.388
 20
-2.15
 30
0.387
 70
    64
  0
VERTEX
  5
39272
100
AcDbEntity
  8
0
100
AcDbVertex
100
AcDbPolygonMeshVertex
 10
0.388
 20
-1.47
 30
4.287
 70
    64
  0
VERTEX
  5
39273
100
AcDbEntity
  8
0
100
AcDbVertex
100
AcDbPolygonMeshVertex
 10
0.388
 20
-1.47
 30
4.287
 70
    64
  0
VERTEX
  5
39274
100
AcDbEntity
  8
0
100
AcDbVertex
100
AcDbPolygonMeshVertex
 10
0.388
 20
-2.15
 30
4.287
 70
    64
  0
VERTEX
  5
39275
100
AcDbEntity
  8
0
100
AcDbVertex
100
AcDbPolygonMeshVertex
 10
-2.972
 20
-1.47
 30
4.287
 70
    64
  0
VERTEX
  5
39276
100
AcDbEntity
  8
0
100
AcDbVertex
100
AcDbPolygonMeshVertex
 10
-2.972
 20
-1.47
 30
4.287
 70
    64
  0
VERTEX
  5
39277
100
AcDbEntity
  8
0
100
AcDbVertex
100
AcDbPolygonMeshVertex
 10
-2.972
 20
-2.15
 30
4.287
 70
    64
  0
SEQEND
  5
39278
100
AcDbEntity
  8
0
  0
LINE
  5
39279
100
AcDbEntity
  8
0
100
AcDbLine
 10
-0.672
 20
-1.47
 30
4.287
 11
-0.672
 21
-1.34
 31
4.287
  0
LINE
  5
3927A
100
AcDbEntity
  8
0
100
AcDbLine
 10
-0.672
 20
-1.34
 30
4.287
 11
-0.852
 21
-1.34
 31
4.287
  0
POLYLINE
  5
3927B
100
AcDbEntity
  8
0
100
AcDbPolygonMesh
 66
     1
 10
0.0
 20
0.0
 30
0.0
 70
    16
 71
     6
 72
     3
  0
VERTEX
  5
3927C
100
AcDbEntity
  8
0
100
AcDbVertex
100
AcDbPolygonMeshVertex
 10
-0.852
 20
-1.34
 30
4.667
 70
    64
  0
VERTEX
  5
3927D
100
AcDbEntity
  8
0
100
AcDbVertex
100
AcDbPolygonMeshVertex
 10
-0.852
 20
-1.34
 30
4.287
 70
    64
  0
VERTEX
  5
3927E
100
AcDbEntity
  8
0
100
AcDbVertex
100
AcDbPolygonMeshVertex
 10
-0.852
 20
-1.34
 30
4.287
 70
    64
  0
VERTEX
  5
3927F
100
AcDbEntity
  8
0
100
AcDbVertex
100
AcDbPolygonMeshVertex
 10
-0.672
 20
-1.34
 30
4.667
 70
    64
  0
VERTEX
  5
39280
100
AcDbEntity
  8
0
100
AcDbVertex
100
AcDbPolygonMeshVertex
 10
-0.672
 20
-1.34
 30
4.287
 70
    64
  0
VERTEX
  5
39281
100
AcDbEntity
  8
0
100
AcDbVertex
100
AcDbPolygonMeshVertex
 10
-0.672
 20
-1.34
 30
4.287
 70
    64
  0
VERTEX
  5
39282
100
AcDbEntity
  8
0
100
AcDbVertex
100
AcDbPolygonMeshVertex
 10
-0.672
 20
-2.15
 30
4.667
 70
    64
  0
VERTEX
  5
39283
100
AcDbEntity
  8
0
100
AcDbVertex
100
AcDbPolygonMeshVertex
 10
-0.672
 20
-2.15
 30
4.287
 70
    64
  0
VERTEX
  5
39284
100
AcDbEntity
  8
0
100
AcDbVertex
100
AcDbPolygonMeshVertex
 10
-0.672
 20
-1.34
 30
4.287
 70
    64
  0
VERTEX
  5
39285
100
AcDbEntity
  8
0
100
AcDbVertex
100
AcDbPolygonMeshVertex
 10
-0.852
 20
-2.15
 30
4.667
 70
    64
  0
VERTEX
  5
39286
100
AcDbEntity
  8
0
100
AcDbVertex
100
AcDbPolygonMeshVertex
 10
-0.852
 20
-2.15
 30
4.287
 70
    64
  0
VERTEX
  5
39287
100
AcDbEntity
  8
0
100
AcDbVertex
100
AcDbPolygonMeshVertex
 10
-0.852
 20
-1.34
 30
4.287
 70
    64
  0
VERTEX
  5
39288
100
AcDbEntity
  8
0
100
AcDbVertex
100
AcDbPolygonMeshVertex
 10
-0.852
 20
-2.15
 30
4.667
 70
    64
  0
VERTEX
  5
39289
100
AcDbEntity
  8
0
100
AcDbVertex
100
AcDbPolygonMeshVertex
 10
-0.852
 20
-2.15
 30
4.667
 70
    64
  0
VERTEX
  5
3928A
100
AcDbEntity
  8
0
100
AcDbVertex
100
AcDbPolygonMeshVertex
 10
-0.852
 20
-1.34
 30
4.667
 70
    64
  0
VERTEX
  5
3928B
100
AcDbEntity
  8
0
100
AcDbVertex
100
AcDbPolygonMeshVertex
 10
-0.672
 20
-2.15
 30
4.667
 70
    64
  0
VERTEX
  5
3928C
100
AcDbEntity
  8
0
100
AcDbVertex
100
AcDbPolygonMeshVertex
 10
-0.672
 20
-2.15
 30
4.667
 70
    64
  0
VERTEX
  5
3928D
100
AcDbEntity
  8
0
100
AcDbVertex
100
AcDbPolygonMeshVertex
 10
-0.672
 20
-1.34
 30
4.667
 70
    64
  0
SEQEND
  5
3928E
100
AcDbEntity
  8
0
  0
POLYLINE
  5
3928F
100
AcDbEntity
  8
0
100
AcDbPolygonMesh
 66
     1
 10
0.0
 20
0.0
 30
0.0
 70
    16
 71
     6
 72
     3
  0
VERTEX
  5
39290
100
AcDbEntity
  8
0
100
AcDbVertex
100
AcDbPolygonMeshVertex
 10
-0.852
 20
-1.34
 30
4.287
 70
    64
  0
VERTEX
  5
39291
100
AcDbEntity
  8
0
100
AcDbVertex
100
AcDbPolygonMeshVertex
 10
-0.852
 20
-1.34
 30
3.167
 70
    64
  0
VERTEX
  5
39292
100
AcDbEntity
  8
0
100
AcDbVertex
100
AcDbPolygonMeshVertex
 10
-0.852
 20
-1.34
 30
3.167
 70
    64
  0
VERTEX
  5
39293
100
AcDbEntity
  8
0
100
AcDbVertex
100
AcDbPolygonMeshVertex
 10
-0.672
 20
-1.34
 30
4.287
 70
    64
  0
VERTEX
  5
39294
100
AcDbEntity
  8
0
100
AcDbVertex
100
AcDbPolygonMeshVertex
 10
-0.672
 20
-1.34
 30
3.167
 70
    64
  0
VERTEX
  5
39295
100
AcDbEntity
  8
0
100
AcDbVertex
100
AcDbPolygonMeshVertex
 10
-0.672
 20
-1.34
 30
3.167
 70
    64
  0
VERTEX
  5
39296
100
AcDbEntity
  8
0
100
AcDbVertex
100
AcDbPolygonMeshVertex
 10
-0.672
 20
-1.47
 30
4.287
 70
    64
  0
VERTEX
  5
39297
100
AcDbEntity
  8
0
100
AcDbVertex
100
AcDbPolygonMeshVertex
 10
-0.672
 20
-1.47
 30
3.167
 70
    64
  0
VERTEX
  5
39298
100
AcDbEntity
  8
0
100
AcDbVertex
100
AcDbPolygonMeshVertex
 10
-0.672
 20
-1.34
 30
3.167
 70
    64
  0
VERTEX
  5
39299
100
AcDbEntity
  8
0
100
AcDbVertex
100
AcDbPolygonMeshVertex
 10
-0.852
 20
-1.47
 30
4.287
 70
    64
  0
VERTEX
  5
3929A
100
AcDbEntity
  8
0
100
AcDbVertex
100
AcDbPolygonMeshVertex
 10
-0.852
 20
-1.47
 30
3.167
 70
    64
  0
VERTEX
  5
3929B
100
AcDbEntity
  8
0
100
AcDbVertex
100
AcDbPolygonMeshVertex
 10
-0.852
 20
-1.34
 30
3.167
 70
    64
  0
VERTEX
  5
3929C
100
AcDbEntity
  8
0
100
AcDbVertex
100
AcDbPolygonMeshVertex
 10
-0.852
 20
-1.47
 30
4.287
 70
    64
  0
VERTEX
  5
3929D
100
AcDbEntity
  8
0
100
AcDbVertex
100
AcDbPolygonMeshVertex
 10
-0.852
 20
-1.47
 30
4.287
 70
    64
  0
VERTEX
  5
3929E
100
AcDbEntity
  8
0
100
AcDbVertex
100
AcDbPolygonMeshVertex
 10
-0.852
 20
-1.34
 30
4.287
 70
    64
  0
VERTEX
  5
3929F
100
AcDbEntity
  8
0
100
AcDbVertex
100
AcDbPolygonMeshVertex
 10
-0.672
 20
-1.47
 30
4.287
 70
    64
  0
VERTEX
  5
392A0
100
AcDbEntity
  8
0
100
AcDbVertex
100
AcDbPolygonMeshVertex
 10
-0.672
 20
-1.47
 30
4.287
 70
    64
  0
VERTEX
  5
392A1
100
AcDbEntity
  8
0
100
AcDbVertex
100
AcDbPolygonMeshVertex
 10
-0.672
 20
-1.34
 30
4.287
 70
    64
  0
SEQEND
  5
392A2
100
AcDbEntity
  8
0
  0
POLYLINE
  5
392A3
100
AcDbEntity
  8
0
100
AcDbPolygonMesh
 66
     1
 10
0.0
 20
0.0
 30
0.0
 70
    16
 71
     6
 72
     3
  0
VERTEX
  5
392A4
100
AcDbEntity
  8
0
100
AcDbVertex
100
AcDbPolygonMeshVertex
 10
-1.912
 20
-1.34
 30
4.667
 70
    64
  0
VERTEX
  5
392A5
100
AcDbEntity
  8
0
100
AcDbVertex
100
AcDbPolygonMeshVertex
 10
-1.912
 20
-1.34
 30
4.287
 70
    64
  0
VERTEX
  5
392A6
100
AcDbEntity
  8
0
100
AcDbVertex
100
AcDbPolygonMeshVertex
 10
-1.912
 20
-1.34
 30
4.287
 70
    64
  0
VERTEX
  5
392A7
100
AcDbEntity
  8
0
100
AcDbVertex
100
AcDbPolygonMeshVertex
 10
-1.732
 20
-1.34
 30
4.667
 70
    64
  0
VERTEX
  5
392A8
100
AcDbEntity
  8
0
100
AcDbVertex
100
AcDbPolygonMeshVertex
 10
-1.732
 20
-1.34
 30
4.287
 70
    64
  0
VERTEX
  5
392A9
100
AcDbEntity
  8
0
100
AcDbVertex
100
AcDbPolygonMeshVertex
 10
-1.732
 20
-1.34
 30
4.287
 70
    64
  0
VERTEX
  5
392AA
100
AcDbEntity
  8
0
100
AcDbVertex
100
AcDbPolygonMeshVertex
 10
-1.732
 20
-2.15
 30
4.667
 70
    64
  0
VERTEX
  5
392AB
100
AcDbEntity
  8
0
100
AcDbVertex
100
AcDbPolygonMeshVertex
 10
-1.732
 20
-2.15
 30
4.287
 70
    64
  0
VERTEX
  5
392AC
100
AcDbEntity
  8
0
100
AcDbVertex
100
AcDbPolygonMeshVertex
 10
-1.732
 20
-1.34
 30
4.287
 70
    64
  0
VERTEX
  5
392AD
100
AcDbEntity
  8
0
100
AcDbVertex
100
AcDbPolygonMeshVertex
 10
-1.912
 20
-2.15
 30
4.667
 70
    64
  0
VERTEX
  5
392AE
100
AcDbEntity
  8
0
100
AcDbVertex
100
AcDbPolygonMeshVertex
 10
-1.912
 20
-2.15
 30
4.287
 70
    64
  0
VERTEX
  5
392AF
100
AcDbEntity
  8
0
100
AcDbVertex
100
AcDbPolygonMeshVertex
 10
-1.912
 20
-1.34
 30
4.287
 70
    64
  0
VERTEX
  5
392B0
100
AcDbEntity
  8
0
100
AcDbVertex
100
AcDbPolygonMeshVertex
 10
-1.912
 20
-2.15
 30
4.667
 70
    64
  0
VERTEX
  5
392B1
100
AcDbEntity
  8
0
100
AcDbVertex
100
AcDbPolygonMeshVertex
 10
-1.912
 20
-2.15
 30
4.667
 70
    64
  0
VERTEX
  5
392B2
100
AcDbEntity
  8
0
100
AcDbVertex
100
AcDbPolygonMeshVertex
 10
-1.912
 20
-1.34
 30
4.667
 70
    64
  0
VERTEX
  5
392B3
100
AcDbEntity
  8
0
100
AcDbVertex
100
AcDbPolygonMeshVertex
 10
-1.732
 20
-2.15
 30
4.667
 70
    64
  0
VERTEX
  5
392B4
100
AcDbEntity
  8
0
100
AcDbVertex
100
AcDbPolygonMeshVertex
 10
-1.732
 20
-2.15
 30
4.667
 70
    64
  0
VERTEX
  5
392B5
100
AcDbEntity
  8
0
100
AcDbVertex
100
AcDbPolygonMeshVertex
 10
-1.732
 20
-1.34
 30
4.667
 70
    64
  0
SEQEND
  5
392B6
100
AcDbEntity
  8
0
  0
POLYLINE
  5
392B7
100
AcDbEntity
  8
0
100
AcDbPolygonMesh
 66
     1
 10
0.0
 20
0.0
 30
0.0
 70
    16
 71
     6
 72
     3
  0
VERTEX
  5
392B8
100
AcDbEntity
  8
0
100
AcDbVertex
100
AcDbPolygonMeshVertex
 10
-1.912
 20
-1.34
 30
4.287
 70
    64
  0
VERTEX
  5
392B9
100
AcDbEntity
  8
0
100
AcDbVertex
100
AcDbPolygonMeshVertex
 10
-1.912
 20
-1.34
 30
3.167
 70
    64
  0
VERTEX
  5
392BA
100
AcDbEntity
  8
0
100
AcDbVertex
100
AcDbPolygonMeshVertex
 10
-1.912
 20
-1.34
 30
3.167
 70
    64
  0
VERTEX
  5
392BB
100
AcDbEntity
  8
0
100
AcDbVertex
100
AcDbPolygonMeshVertex
 10
-1.732
 20
-1.34
 30
4.287
 70
    64
  0
VERTEX
  5
392BC
100
AcDbEntity
  8
0
100
AcDbVertex
100
AcDbPolygonMeshVertex
 10
-1.732
 20
-1.34
 30
3.167
 70
    64
  0
VERTEX
  5
392BD
100
AcDbEntity
  8
0
100
AcDbVertex
100
AcDbPolygonMeshVertex
 10
-1.732
 20
-1.34
 30
3.167
 70
    64
  0
VERTEX
  5
392BE
100
AcDbEntity
  8
0
100
AcDbVertex
100
AcDbPolygonMeshVertex
 10
-1.732
 20
-1.47
 30
4.287
 70
    64
  0
VERTEX
  5
392BF
100
AcDbEntity
  8
0
100
AcDbVertex
100
AcDbPolygonMeshVertex
 10
-1.732
 20
-1.47
 30
3.167
 70
    64
  0
VERTEX
  5
392C0
100
AcDbEntity
  8
0
100
AcDbVertex
100
AcDbPolygonMeshVertex
 10
-1.732
 20
-1.34
 30
3.167
 70
    64
  0
VERTEX
  5
392C1
100
AcDbEntity
  8
0
100
AcDbVertex
100
AcDbPolygonMeshVertex
 10
-1.912
 20
-1.47
 30
4.287
 70
    64
  0
VERTEX
  5
392C2
100
AcDbEntity
  8
0
100
AcDbVertex
100
AcDbPolygonMeshVertex
 10
-1.912
 20
-1.47
 30
3.167
 70
    64
  0
VERTEX
  5
392C3
100
AcDbEntity
  8
0
100
AcDbVertex
100
AcDbPolygonMeshVertex
 10
-1.912
 20
-1.34
 30
3.167
 70
    64
  0
VERTEX
  5
392C4
100
AcDbEntity
  8
0
100
AcDbVertex
100
AcDbPolygonMeshVertex
 10
-1.912
 20
-1.47
 30
4.287
 70
    64
  0
VERTEX
  5
392C5
100
AcDbEntity
  8
0
100
AcDbVertex
100
AcDbPolygonMeshVertex
 10
-1.912
 20
-1.47
 30
4.287
 70
    64
  0
VERTEX
  5
392C6
100
AcDbEntity
  8
0
100
AcDbVertex
100
AcDbPolygonMeshVertex
 10
-1.912
 20
-1.34
 30
4.287
 70
    64
  0
VERTEX
  5
392C7
100
AcDbEntity
  8
0
100
AcDbVertex
100
AcDbPolygonMeshVertex
 10
-1.732
 20
-1.47
 30
4.287
 70
    64
  0
VERTEX
  5
392C8
100
AcDbEntity
  8
0
100
AcDbVertex
100
AcDbPolygonMeshVertex
 10
-1.732
 20
-1.47
 30
4.287
 70
    64
  0
VERTEX
  5
392C9
100
AcDbEntity
  8
0
100
AcDbVertex
100
AcDbPolygonMeshVertex
 10
-1.732
 20
-1.34
 30
4.287
 70
    64
  0
SEQEND
  5
392CA
100
AcDbEntity
  8
0
  0
LINE
  5
392CB
100
AcDbEntity
  8
0
100
AcDbLine
 10
-2.572
 20
-6.690001
 30
0.387
 11
-2.572
 21
-6.690001
 31
0.197
  0
3DFACE
  5
392CC
100
AcDbEntity
  8
0
100
AcDbFace
 10
0.483
 20
-1.31
 30
0.387
 11
-0.137
 21
-0.69
 31
0.387
 12
-1.577
 22
-0.69
 32
0.387
 13
-1.677
 23
-0.97
 33
0.387
 70
     8
  0
3DFACE
  5
392CD
100
AcDbEntity
  8
0
100
AcDbFace
 10
-2.167
 20
-0.97
 30
0.387
 11
-2.267
 21
-0.69
 31
0.387
 12
-2.457
 22
-0.69
 32
0.387
 13
-3.077
 23
-1.31
 33
0.387
 70
     8
  0
3DFACE
  5
392CE
100
AcDbEntity
  8
0
100
AcDbFace
 10
-2.167
 20
-0.97
 30
0.387
 11
-3.077
 21
-1.31
 31
0.387
 12
0.483
 22
-1.31
 32
0.387
 13
-1.677
 23
-0.97
 33
0.387
 70
    15
  0
3DFACE
  5
392CF
100
AcDbEntity
  8
0
100
AcDbFace
 10
-2.167
 20
-0.97
 30
0.197
 11
-3.077
 21
-1.31
 31
0.197
 12
0.483
 22
-1.31
 32
0.197
 13
-1.677
 23
-0.97
 33
0.197
 70
    15
  0
3DFACE
  5
392D0
100
AcDbEntity
  8
0
100
AcDbFace
 10
0.483
 20
-1.31
 30
0.197
 11
-0.137
 21
-0.69
 31
0.197
 12
-1.577
 22
-0.69
 32
0.197
 13
-1.677
 23
-0.97
 33
0.197
 70
     8
  0
3DFACE
  5
392D1
100
AcDbEntity
  8
0
100
AcDbFace
 10
-2.167
 20
-0.97
 30
0.197
 11
-2.267
 21
-0.69
 31
0.197
 12
-2.457
 22
-0.69
 32
0.197
 13
-3.077
 23
-1.31
 33
0.197
 70
     8
  0
3DFACE
  5
392D2
100
AcDbEntity
  8
0
100
AcDbFace
 10
0.483
 20
-1.31
 30
0.197
 11
0.483
 21
-1.31
 31
0.387
 12
-0.137
 22
-0.69
 32
0.387
 13
-0.137
 23
-0.69
 33
0.197
  0
3DFACE
  5
392D3
100
AcDbEntity
  8
0
100
AcDbFace
 10
-0.137
 20
-0.69
 30
0.387
 11
-1.577
 21
-0.69
 31
0.387
 12
-1.577
 22
-0.69
 32
0.197
 13
-0.137
 23
-0.69
 33
0.197
  0
3DFACE
  5
392D4
100
AcDbEntity
  8
0
100
AcDbFace
 10
-2.167
 20
-0.97
 30
0.387
 11
-2.167
 21
-0.97
 31
0.197
 12
-2.267
 22
-0.69
 32
0.197
 13
-2.267
 23
-0.69
 33
0.387
  0
3DFACE
  5
392D5
100
AcDbEntity
  8
0
100
AcDbFace
 10
-1.677
 20
-0.97
 30
0.387
 11
-1.677
 21
-0.97
 31
0.197
 12
-2.167
 22
-0.97
 32
0.197
 13
-2.167
 23
-0.97
 33
0.387
  0
3DFACE
  5
392D6
100
AcDbEntity
  8
0
100
AcDbFace
 10
-2.267
 20
-0.69
 30
0.387
 11
-2.267
 21
-0.69
 31
0.197
 12
-2.457
 22
-0.69
 32
0.197
 13
-2.457
 23
-0.69
 33
0.387
  0
3DFACE
  5
392D7
100
AcDbEntity
  8
0
100
AcDbFace
 10
-1.677
 20
-0.97
 30
0.387
 11
-1.677
 21
-0.97
 31
0.197
 12
-1.577
 22
-0.69
 32
0.197
 13
-1.577
 23
-0.69
 33
0.387
  0
3DFACE
  5
392D8
100
AcDbEntity
  8
0
100
AcDbFace
 10
-2.457
 20
-0.69
 30
0.197
 11
-2.457
 21
-0.69
 31
0.387
 12
-3.077
 22
-1.31
 32
0.387
 13
-3.077
 23
-1.31
 33
0.197
  0
LINE
  5
392D9
100
AcDbEntity
  8
0
100
AcDbLine
 10
1.216
 20
-5.79
 30
1.817
 11
1.216
 21
-5.79
 31
3.047
  0
LINE
  5
392DA
100
AcDbEntity
  8
0
100
AcDbLine
 10
1.616
 20
-8.31
 30
0.197
 11
1.616
 21
-8.06
 31
0.197
  0
LINE
  5
392DB
100
AcDbEntity
  8
0
100
AcDbLine
 10
1.616
 20
-8.31
 30
0.387
 11
1.616
 21
-8.06
 31
0.387
  0
LINE
  5
392DC
100
AcDbEntity
  8
0
100
AcDbLine
 10
1.416
 20
-8.06
 30
0.197
 11
1.416
 21
-8.31
 31
0.197
  0
LINE
  5
392DD
100
AcDbEntity
  8
0
100
AcDbLine
 10
1.416
 20
-8.06
 30
0.387
 11
1.416
 21
-8.31
 31
0.387
  0
LINE
  5
392DE
100
AcDbEntity
  8
0
100
AcDbLine
 10
1.416
 20
-8.31
 30
0.197
 11
1.416
 21
-8.31
 31
0.387
  0
LINE
  5
392DF
100
AcDbEntity
  8
0
100
AcDbLine
 10
1.616
 20
-8.06
 30
0.197
 11
1.616
 21
-8.06
 31
0.387
  0
LINE
  5
392E0
100
AcDbEntity
  8
0
100
AcDbLine
 10
1.416
 20
-8.06
 30
0.197
 11
1.416
 21
-8.06
 31
0.387
  0
ARC
  5
392E1
100
AcDbEntity
  8
0
100
AcDbCircle
 10
1.516
 20
-8.06
 30
0.197
 40
0.1
100
AcDbArc
 50
0.0
 51
179.999985
  0
ARC
  5
392E2
100
AcDbEntity
  8
0
100
AcDbCircle
 10
1.516
 20
-8.06
 30
0.387
 40
0.1
100
AcDbArc
 50
0.0
 51
179.999985
  0
3DFACE
  5
392E3
100
AcDbEntity
  8
0
100
AcDbFace
 10
4.366
 20
-8.06
 30
0.387
 11
4.366
 21
-8.06
 31
0.197
 12
4.366
 22
-8.31
 32
0.197
 13
4.366
 23
-8.31
 33
0.387
 70
    14
  0
LINE
  5
392E4
100
AcDbEntity
  8
0
100
AcDbLine
 10
4.166
 20
-8.06
 30
0.197
 11
4.166
 21
-8.31
 31
0.197
  0
LINE
  5
392E5
100
AcDbEntity
  8
0
100
AcDbLine
 10
4.366
 20
-8.31
 30
0.197
 11
4.366
 21
-8.06
 31
0.197
  0
LINE
  5
392E6
100
AcDbEntity
  8
0
100
AcDbLine
 10
4.166
 20
-8.06
 30
0.387
 11
4.166
 21
-8.31
 31
0.387
  0
LINE
  5
392E7
100
AcDbEntity
  8
0
100
AcDbLine
 10
4.366
 20
-8.31
 30
0.387
 11
4.366
 21
-8.06
 31
0.387
  0
LINE
  5
392E8
100
AcDbEntity
  8
0
100
AcDbLine
 10
4.166
 20
-8.31
 30
0.197
 11
4.166
 21
-8.31
 31
0.387
  0
LINE
  5
392E9
100
AcDbEntity
  8
0
100
AcDbLine
 10
4.366
 20
-8.31
 30
0.197
 11
4.366
 21
-8.31
 31
0.387
  0
LINE
  5
392EA
100
AcDbEntity
  8
0
100
AcDbLine
 10
4.166
 20
-8.06
 30
0.197
 11
4.166
 21
-8.06
 31
0.387
  0
LINE
  5
392EB
100
AcDbEntity
  8
0
100
AcDbLine
 10
4.366
 20
-8.06
 30
0.197
 11
4.366
 21
-8.06
 31
0.387
  0
ARC
  5
392EC
100
AcDbEntity
  8
0
100
AcDbCircle
 10
4.266
 20
-8.06
 30
0.197
 40
0.1
100
AcDbArc
 50
0.0
 51
179.999985
  0
ARC
  5
392ED
100
AcDbEntity
  8
0
100
AcDbCircle
 10
4.266
 20
-8.06
 30
0.387
 40
0.1
100
AcDbArc
 50
0.0
 51
179.999985
  0
CIRCLE
  5
392EE
100
AcDbEntity
  8
0
100
AcDbCircle
 10
1.766
 20
-6.128219
 30
5.178531
 40
0.155
210
0.0
220
-0.3163624652213708
230
0.9486383876899864
  0
LINE
  5
392EF
100
AcDbEntity
  8
0
100
AcDbLine
 10
1.745925
 20
-7.597557
 30
2.925192
 11
1.766414
 21
-7.304718
 31
3.022851
210
0.0
220
-0.3163624652213708
230
0.9486383876899864
  0
LINE
  5
392F0
100
AcDbEntity
  8
0
100
AcDbLine
 10
1.765042
 20
-7.598819
 30
2.924771
 11
1.785531
 21
-7.30598
 31
3.02243
210
0.0
220
-0.3163624652213708
230
0.9486383876899864
  0
CIRCLE
  5
392F1
100
AcDbEntity
  8
0
100
AcDbCircle
 10
2.826
 20
-6.128219
 30
5.178531
 40
0.155
210
0.0
220
-0.3163624652213708
230
0.9486383876899864
  0
LINE
  5
392F2
100
AcDbEntity
  8
0
100
AcDbLine
 10
2.825042
 20
-7.598819
 30
2.924771
 11
2.845531
 21
-7.30598
 31
3.02243
210
0.0
220
-0.3163624652213708
230
0.9486383876899864
  0
LINE
  5
392F3
100
AcDbEntity
  8
0
100
AcDbLine
 10
2.805925
 20
-7.597557
 30
2.925192
 11
2.826414
 21
-7.304718
 31
3.022851
210
0.0
220
-0.3163624652213708
230
0.9486383876899864
  0
LINE
  5
392F4
100
AcDbEntity
  8
0
100
AcDbLine
 10
2.173
 20
-6.29
 30
4.157
 11
2.173
 21
-6.29
 31
3.837
  0
LINE
  5
392F5
100
AcDbEntity
  8
0
100
AcDbLine
 10
2.423
 20
-6.29
 30
4.157
 11
2.423
 21
-6.29
 31
3.837
  0
LINE
  5
392F6
100
AcDbEntity
  8
0
100
AcDbLine
 10
2.423
 20
-6.04
 30
4.157
 11
2.423
 21
-6.04
 31
3.837
  0
LINE
  5
392F7
100
AcDbEntity
  8
0
100
AcDbLine
 10
2.173
 20
-6.04
 30
4.157
 11
2.173
 21
-6.04
 31
3.837
  0
LINE
  5
392F8
100
AcDbEntity
  8
0
100
AcDbLine
 10
2.423
 20
-6.04
 30
4.157
 11
2.423
 21
-6.04
 31
3.837
  0
3DFACE
  5
392F9
100
AcDbEntity
  8
0
100
AcDbFace
 10
2.423
 20
-6.29
 30
4.157
 11
2.423
 21
-6.29
 31
3.837
 12
2.423
 22
-6.04
 32
3.837
 13
2.423
 23
-6.04
 33
4.157
 70
    14
  0
3DFACE
  5
392FA
100
AcDbEntity
  8
0
100
AcDbFace
 10
2.423
 20
-6.04
 30
3.837
 11
2.423
 21
-6.04
 31
4.157
 12
2.423
 22
-6.29
 32
4.157
 13
2.423
 23
-6.29
 33
3.837
 70
     3
  0
3DFACE
  5
392FB
100
AcDbEntity
  8
0
100
AcDbFace
 10
2.423
 20
-6.29
 30
4.157
 11
2.423
 21
-6.29
 31
3.837
 12
2.423
 22
-6.04
 32
3.837
 13
2.423
 23
-6.04
 33
3.837
 70
    14
  0
3DFACE
  5
392FC
100
AcDbEntity
  8
0
100
AcDbFace
 10
2.423
 20
-6.04
 30
3.837
 11
2.173
 21
-6.04
 31
3.837
 12
2.173
 22
-6.04
 32
4.157
 13
2.423
 23
-6.04
 33
4.157
 70
    14
  0
3DFACE
  5
392FD
100
AcDbEntity
  8
0
100
AcDbFace
 10
2.173
 20
-6.04
 30
4.157
 11
2.173
 21
-6.29
 31
4.157
 12
2.173
 22
-6.29
 32
3.837
 13
2.173
 23
-6.04
 33
3.837
 70
    14
  0
3DFACE
  5
392FE
100
AcDbEntity
  8
0
100
AcDbFace
 10
2.173
 20
-6.29
 30
4.157
 11
2.173
 21
-6.29
 31
3.837
 12
2.423
 22
-6.29
 32
3.837
 13
2.423
 23
-6.29
 33
4.157
 70
    14
  0
LINE
  5
392FF
100
AcDbEntity
  8
0
100
AcDbLine
 10
2.423
 20
-6.29
 30
3.837
 11
2.173
 21
-6.29
 31
3.837
  0
LINE
  5
39300
100
AcDbEntity
  8
0
100
AcDbLine
 10
2.173
 20
-6.04
 30
3.837
 11
2.423
 21
-6.04
 31
3.837
  0
LINE
  5
39301
100
AcDbEntity
  8
0
100
AcDbLine
 10
2.173
 20
-6.29
 30
3.837
 11
2.173
 21
-6.04
 31
3.837
  0
LINE
  5
39302
100
AcDbEntity
  8
0
100
AcDbLine
 10
2.423
 20
-6.04
 30
3.837
 11
2.423
 21
-6.29
 31
3.837
  0
3DFACE
  5
39303
100
AcDbEntity
  8
0
100
AcDbFace
 10
1.988
 20
-5.79
 30
4.747
 11
2.608
 21
-5.79
 31
4.747
 12
2.608
 22
-5.79
 32
4.622
 13
1.988
 23
-5.79
 33
4.622
 70
    14
  0
LINE
  5
39304
100
AcDbEntity
  8
0
100
AcDbLine
 10
1.988
 20
-5.79
 30
4.747
 11
2.608
 21
-5.79
 31
4.747
  0
LINE
  5
39305
100
AcDbEntity
  8
0
100
AcDbLine
 10
1.988
 20
-5.79
 30
4.622
 11
2.608
 21
-5.79
 31
4.622
  0
LINE
  5
39306
100
AcDbEntity
  8
0
100
AcDbLine
 10
2.048
 20
-5.915
 30
4.157
 11
2.548
 21
-5.915
 31
4.157
  0
3DFACE
  5
39307
100
AcDbEntity
  8
0
100
AcDbFace
 10
2.608
 20
-5.79
 30
4.622
 11
1.988
 21
-5.79
 31
4.622
 12
2.048
 22
-5.915
 32
4.157
 13
2.548
 23
-5.915
 33
4.157
 70
    14
  0
LINE
  5
39308
100
AcDbEntity
  8
0
100
AcDbLine
 10
2.608
 20
-6.54
 30
4.622
 11
1.988
 21
-6.54
 31
4.622
  0
3DFACE
  5
39309
100
AcDbEntity
  8
0
100
AcDbFace
 10
1.988
 20
-6.54
 30
4.747
 11
2.608
 21
-6.54
 31
4.747
 12
2.608
 22
-6.54
 32
4.622
 13
1.988
 23
-6.54
 33
4.622
 70
    14
  0
LINE
  5
3930A
100
AcDbEntity
  8
0
100
AcDbLine
 10
2.608
 20
-6.54
 30
4.747
 11
1.988
 21
-6.54
 31
4.747
  0
LINE
  5
3930B
100
AcDbEntity
  8
0
100
AcDbLine
 10
2.548
 20
-6.415
 30
4.157
 11
2.048
 21
-6.415
 31
4.157
  0
3DFACE
  5
3930C
100
AcDbEntity
  8
0
100
AcDbFace
 10
1.988
 20
-6.54
 30
4.622
 11
2.608
 21
-6.54
 31
4.622
 12
2.548
 22
-6.415
 32
4.157
 13
2.048
 23
-6.415
 33
4.157
 70
    14
  0
3DFACE
  5
3930D
100
AcDbEntity
  8
0
100
AcDbFace
 10
1.988
 20
-5.79
 30
4.747
 11
2.608
 21
-5.79
 31
4.747
 12
2.608
 22
-6.54
 32
4.747
 13
1.988
 23
-6.54
 33
4.747
 70
    14
  0
LINE
  5
3930E
100
AcDbEntity
  8
0
100
AcDbLine
 10
2.173
 20
-6.29
 30
4.157
 11
2.423
 21
-6.29
 31
4.157
  0
LINE
  5
3930F
100
AcDbEntity
  8
0
100
AcDbLine
 10
2.173
 20
-6.04
 30
4.157
 11
2.423
 21
-6.04
 31
4.157
  0
LINE
  5
39310
100
AcDbEntity
  8
0
100
AcDbLine
 10
1.988
 20
-6.54
 30
4.622
 11
1.988
 21
-5.79
 31
4.622
  0
3DFACE
  5
39311
100
AcDbEntity
  8
0
100
AcDbFace
 10
1.988
 20
-5.79
 30
4.747
 11
1.988
 21
-5.79
 31
4.622
 12
1.988
 22
-6.54
 32
4.622
 13
1.988
 23
-6.54
 33
4.747
 70
    14
  0
LINE
  5
39312
100
AcDbEntity
  8
0
100
AcDbLine
 10
1.988
 20
-6.54
 30
4.747
 11
1.988
 21
-5.79
 31
4.747
  0
LINE
  5
39313
100
AcDbEntity
  8
0
100
AcDbLine
 10
2.048
 20
-5.915
 30
4.157
 11
2.048
 21
-6.415
 31
4.157
  0
LINE
  5
39314
100
AcDbEntity
  8
0
100
AcDbLine
 10
2.173
 20
-6.29
 30
4.157
 11
2.173
 21
-6.04
 31
4.157
  0
3DFACE
  5
39315
100
AcDbEntity
  8
0
100
AcDbFace
 10
1.988
 20
-5.79
 30
4.622
 11
2.048
 21
-5.915
 31
4.157
 12
2.048
 22
-6.415
 32
4.157
 13
1.988
 23
-6.54
 33
4.622
 70
    14
  0
LINE
  5
39316
100
AcDbEntity
  8
0
100
AcDbLine
 10
2.048
 20
-6.415
 30
4.157
 11
1.988
 21
-6.54
 31
4.622
  0
LINE
  5
39317
100
AcDbEntity
  8
0
100
AcDbLine
 10
1.988
 20
-6.54
 30
4.622
 11
1.988
 21
-6.54
 31
4.747
  0
LINE
  5
39318
100
AcDbEntity
  8
0
100
AcDbLine
 10
1.988
 20
-5.79
 30
4.622
 11
2.048
 21
-5.915
 31
4.157
  0
LINE
  5
39319
100
AcDbEntity
  8
0
100
AcDbLine
 10
1.988
 20
-5.79
 30
4.747
 11
1.988
 21
-5.79
 31
4.622
  0
3DFACE
  5
3931A
100
AcDbEntity
  8
0
100
AcDbFace
 10
2.608
 20
-5.79
 30
4.747
 11
2.608
 21
-6.54
 31
4.747
 12
2.608
 22
-6.54
 32
4.622
 13
2.608
 23
-5.79
 33
4.622
 70
    14
  0
LINE
  5
3931B
100
AcDbEntity
  8
0
100
AcDbLine
 10
2.608
 20
-5.79
 30
4.747
 11
2.608
 21
-6.54
 31
4.747
  0
LINE
  5
3931C
100
AcDbEntity
  8
0
100
AcDbLine
 10
2.608
 20
-5.79
 30
4.622
 11
2.608
 21
-6.54
 31
4.622
  0
LINE
  5
3931D
100
AcDbEntity
  8
0
100
AcDbLine
 10
2.423
 20
-6.04
 30
4.157
 11
2.423
 21
-6.29
 31
4.157
  0
LINE
  5
3931E
100
AcDbEntity
  8
0
100
AcDbLine
 10
2.548
 20
-5.915
 30
4.157
 11
2.548
 21
-6.415
 31
4.157
  0
3DFACE
  5
3931F
100
AcDbEntity
  8
0
100
AcDbFace
 10
2.608
 20
-6.54
 30
4.622
 11
2.548
 21
-6.415
 31
4.157
 12
2.548
 22
-5.915
 32
4.157
 13
2.608
 23
-5.79
 33
4.622
 70
    14
  0
LINE
  5
39320
100
AcDbEntity
  8
0
100
AcDbLine
 10
2.608
 20
-6.54
 30
4.622
 11
2.548
 21
-6.415
 31
4.157
  0
LINE
  5
39321
100
AcDbEntity
  8
0
100
AcDbLine
 10
2.608
 20
-6.54
 30
4.747
 11
2.608
 21
-6.54
 31
4.622
  0
LINE
  5
39322
100
AcDbEntity
  8
0
100
AcDbLine
 10
2.608
 20
-5.79
 30
4.622
 11
2.548
 21
-5.915
 31
4.157
  0
LINE
  5
39323
100
AcDbEntity
  8
0
100
AcDbLine
 10
2.608
 20
-5.79
 30
4.747
 11
2.608
 21
-5.79
 31
4.622
  0
CIRCLE
  5
39324
100
AcDbEntity
  8
0
100
AcDbCircle
 10
3.886
 20
-6.128219
 30
5.178531
 40
0.155
210
0.0
220
-0.3163624652213708
230
0.9486383876899864
  0
LINE
  5
39325
100
AcDbEntity
  8
0
100
AcDbLine
 10
3.885042
 20
-7.598819
 30
2.924771
 11
3.905531
 21
-7.30598
 31
3.02243
210
0.0
220
-0.3163624652213708
230
0.9486383876899864
  0
LINE
  5
39326
100
AcDbEntity
  8
0
100
AcDbLine
 10
3.865925
 20
-7.597557
 30
2.925192
 11
3.886414
 21
-7.304718
 31
3.022851
210
0.0
220
-0.3163624652213708
230
0.9486383876899864
  0
CIRCLE
  5
39327
100
AcDbEntity
  8
0
100
AcDbCircle
 10
3.276
 20
-0.97
 30
0.387
 40
0.1
  0
CIRCLE
  5
39328
100
AcDbEntity
  8
0
100
AcDbCircle
 10
3.276
 20
-0.97
 30
0.387
 40
0.1
  0
LINE
  5
39329
100
AcDbEntity
  8
0
100
AcDbLine
 10
2.611
 20
-0.69
 30
0.197
 11
4.051
 21
-0.69
 31
0.197
  0
LINE
  5
3932A
100
AcDbEntity
  8
0
100
AcDbLine
 10
2.611
 20
-0.69
 30
0.387
 11
4.051
 21
-0.69
 31
0.387
  0
3DFACE
  5
3932B
100
AcDbEntity
  8
0
100
AcDbFace
 10
1.921
 20
-0.69
 30
0.387
 11
1.731
 21
-0.69
 31
0.387
 12
1.731
 22
-0.69
 32
0.197
 13
1.921
 23
-0.69
 33
0.197
 70
    14
  0
LINE
  5
3932C
100
AcDbEntity
  8
0
100
AcDbLine
 10
1.731
 20
-0.69
 30
0.197
 11
1.921
 21
-0.69
 31
0.197
  0
LINE
  5
3932D
100
AcDbEntity
  8
0
100
AcDbLine
 10
1.731
 20
-0.69
 30
0.387
 11
1.921
 21
-0.69
 31
0.387
  0
ARC
  5
3932E
100
AcDbEntity
  8
0
100
AcDbCircle
 10
2.896
 20
-0.97
 30
0.387
 40
0.1015
100
AcDbArc
 50
0.0
 51
179.999985
  0
ARC
  5
3932F
100
AcDbEntity
  8
0
100
AcDbCircle
 10
2.896
 20
-0.97
 30
0.387
 40
0.1015
100
AcDbArc
 50
0.0
 51
179.999985
  0
LINE
  5
39330
100
AcDbEntity
  8
0
100
AcDbLine
 10
2.9975
 20
-1.102159
 30
0.197
 11
2.9975
 21
-1.102159
 31
0.387
  0
LINE
  5
39331
100
AcDbEntity
  8
0
100
AcDbLine
 10
2.9975
 20
-0.97
 30
0.197
 11
2.9975
 21
-0.97
 31
0.387
  0
LINE
  5
39332
100
AcDbEntity
  8
0
100
AcDbLine
 10
2.7945
 20
-0.97
 30
0.197
 11
2.7945
 21
-0.97
 31
0.387
  0
ARC
  5
39333
100
AcDbEntity
  8
0
100
AcDbCircle
 10
2.896
 20
-1.313
 30
0.387
 40
0.234
100
AcDbArc
 50
115.70649
 51
64.293579
  0
ARC
  5
39334
100
AcDbEntity
  8
0
100
AcDbCircle
 10
2.896
 20
-1.313
 30
0.387
 40
0.234
100
AcDbArc
 50
115.70649
 51
64.293579
  0
LINE
  5
39335
100
AcDbEntity
  8
0
100
AcDbLine
 10
2.7945
 20
-0.97
 30
0.387
 11
2.7945
 21
-1.102159
 31
0.387
  0
LINE
  5
39336
100
AcDbEntity
  8
0
100
AcDbLine
 10
2.7945
 20
-0.97
 30
0.387
 11
2.7945
 21
-1.102159
 31
0.387
  0
LINE
  5
39337
100
AcDbEntity
  8
0
100
AcDbLine
 10
2.9975
 20
-0.97
 30
0.387
 11
2.9975
 21
-1.102159
 31
0.387
  0
LINE
  5
39338
100
AcDbEntity
  8
0
100
AcDbLine
 10
2.9975
 20
-0.97
 30
0.387
 11
2.9975
 21
-1.102159
 31
0.387
  0
LINE
  5
39339
100
AcDbEntity
  8
0
100
AcDbLine
 10
4.051
 20
-0.69
 30
0.197
 11
4.671
 21
-1.31
 31
0.197
  0
LINE
  5
3933A
100
AcDbEntity
  8
0
100
AcDbLine
 10
4.051
 20
-0.69
 30
0.387
 11
4.671
 21
-1.31
 31
0.387
  0
LINE
  5
3933B
100
AcDbEntity
  8
0
100
AcDbLine
 10
3.376
 20
-0.97
 30
0.197
 11
3.376
 21
-0.97
 31
0.387
  0
CIRCLE
  5
3933C
100
AcDbEntity
  8
0
100
AcDbCircle
 10
3.276
 20
-0.97
 30
0.197
 40
0.1
  0
ARC
  5
3933D
100
AcDbEntity
  8
0
100
AcDbCircle
 10
2.896
 20
-1.313
 30
0.197
 40
0.234
100
AcDbArc
 50
115.70649
 51
64.293579
  0
LINE
  5
3933E
100
AcDbEntity
  8
0
100
AcDbLine
 10
2.9975
 20
-0.97
 30
0.197
 11
2.9975
 21
-1.102159
 31
0.197
  0
ARC
  5
3933F
100
AcDbEntity
  8
0
100
AcDbCircle
 10
2.896
 20
-0.97
 30
0.197
 40
0.1015
100
AcDbArc
 50
0.0
 51
179.999985
  0
LINE
  5
39340
100
AcDbEntity
  8
0
100
AcDbLine
 10
2.7945
 20
-0.97
 30
0.197
 11
2.7945
 21
-1.102159
 31
0.197
  0
LINE
  5
39341
100
AcDbEntity
  8
0
100
AcDbLine
 10
2.7945
 20
-1.102159
 30
0.197
 11
2.7945
 21
-1.102159
 31
0.387
  0
LINE
  5
39346
100
AcDbEntity
  8
0
100
AcDbLine
 10
1.216
 20
-7.2
 30
3.047
 11
1.216
 21
-7.2
 31
0.387
  0
LINE
  5
39347
100
AcDbEntity
  8
0
100
AcDbLine
 10
4.576
 20
-5.79
 30
1.817
 11
4.576
 21
-7.592911
 31
1.817
  0
LINE
  5
39348
100
AcDbEntity
  8
0
100
AcDbLine
 10
1.216
 20
-7.61
 30
1.967
 11
1.216
 21
-7.61
 31
1.817
  0
LINE
  5
39349
100
AcDbEntity
  8
0
100
AcDbLine
 10
1.216
 20
-7.61
 30
1.817
 11
1.216
 21
-7.61
 31
0.387
  0
POLYLINE
  5
3934A
100
AcDbEntity
  8
0
100
AcDbPolygonMesh
 66
     1
 10
0.0
 20
0.0
 30
0.0
 70
    16
 71
     6
 72
     3
  0
VERTEX
  5
3934B
100
AcDbEntity
  8
0
100
AcDbVertex
100
AcDbPolygonMeshVertex
 10
4.576
 20
-7.61
 30
2.897
 70
    64
  0
VERTEX
  5
3934C
100
AcDbEntity
  8
0
100
AcDbVertex
100
AcDbPolygonMeshVertex
 10
4.576
 20
-7.61
 30
0.387
 70
    64
  0
VERTEX
  5
3934D
100
AcDbEntity
  8
0
100
AcDbVertex
100
AcDbPolygonMeshVertex
 10
4.576
 20
-7.61
 30
0.387
 70
    64
  0
VERTEX
  5
3934E
100
AcDbEntity
  8
0
100
AcDbVertex
100
AcDbPolygonMeshVertex
 10
1.216
 20
-7.61
 30
2.897
 70
    64
  0
VERTEX
  5
3934F
100
AcDbEntity
  8
0
100
AcDbVertex
100
AcDbPolygonMeshVertex
 10
1.216
 20
-7.61
 30
0.387
 70
    64
  0
VERTEX
  5
39350
100
AcDbEntity
  8
0
100
AcDbVertex
100
AcDbPolygonMeshVertex
 10
1.216
 20
-7.61
 30
0.387
 70
    64
  0
VERTEX
  5
39351
100
AcDbEntity
  8
0
100
AcDbVertex
100
AcDbPolygonMeshVertex
 10
1.216
 20
-7.2
 30
2.897
 70
    64
  0
VERTEX
  5
39352
100
AcDbEntity
  8
0
100
AcDbVertex
100
AcDbPolygonMeshVertex
 10
1.216
 20
-7.2
 30
0.387
 70
    64
  0
VERTEX
  5
39353
100
AcDbEntity
  8
0
100
AcDbVertex
100
AcDbPolygonMeshVertex
 10
1.216
 20
-7.61
 30
0.387
 70
    64
  0
VERTEX
  5
39354
100
AcDbEntity
  8
0
100
AcDbVertex
100
AcDbPolygonMeshVertex
 10
4.576
 20
-7.2
 30
2.897
 70
    64
  0
VERTEX
  5
39355
100
AcDbEntity
  8
0
100
AcDbVertex
100
AcDbPolygonMeshVertex
 10
4.576
 20
-7.2
 30
0.387
 70
    64
  0
VERTEX
  5
39356
100
AcDbEntity
  8
0
100
AcDbVertex
100
AcDbPolygonMeshVertex
 10
4.576
 20
-7.61
 30
0.387
 70
    64
  0
VERTEX
  5
39357
100
AcDbEntity
  8
0
100
AcDbVertex
100
AcDbPolygonMeshVertex
 10
4.576
 20
-7.2
 30
2.897
 70
    64
  0
VERTEX
  5
39358
100
AcDbEntity
  8
0
100
AcDbVertex
100
AcDbPolygonMeshVertex
 10
4.576
 20
-7.2
 30
2.897
 70
    64
  0
VERTEX
  5
39359
100
AcDbEntity
  8
0
100
AcDbVertex
100
AcDbPolygonMeshVertex
 10
4.576
 20
-7.61
 30
2.897
 70
    64
  0
VERTEX
  5
3935A
100
AcDbEntity
  8
0
100
AcDbVertex
100
AcDbPolygonMeshVertex
 10
1.216
 20
-7.2
 30
2.897
 70
    64
  0
VERTEX
  5
3935B
100
AcDbEntity
  8
0
100
AcDbVertex
100
AcDbPolygonMeshVertex
 10
1.216
 20
-7.2
 30
2.897
 70
    64
  0
VERTEX
  5
3935C
100
AcDbEntity
  8
0
100
AcDbVertex
100
AcDbPolygonMeshVertex
 10
1.216
 20
-7.61
 30
2.897
 70
    64
  0
SEQEND
  5
3935D
100
AcDbEntity
  8
0
  0
POLYLINE
  5
3935E
100
AcDbEntity
  8
0
100
AcDbPolygonMesh
 66
     1
 10
0.0
 20
0.0
 30
0.0
 70
    16
 71
     6
 72
     3
  0
VERTEX
  5
3935F
100
AcDbEntity
  8
0
100
AcDbVertex
100
AcDbPolygonMeshVertex
 10
2.386
 20
-8.04
 30
0.697
 70
    64
  0
VERTEX
  5
39360
100
AcDbEntity
  8
0
100
AcDbVertex
100
AcDbPolygonMeshVertex
 10
2.386
 20
-8.04
 30
0.387
 70
    64
  0
VERTEX
  5
39361
100
AcDbEntity
  8
0
100
AcDbVertex
100
AcDbPolygonMeshVertex
 10
2.386
 20
-8.04
 30
0.387
 70
    64
  0
VERTEX
  5
39362
100
AcDbEntity
  8
0
100
AcDbVertex
100
AcDbPolygonMeshVertex
 10
1.886
 20
-8.04
 30
0.697
 70
    64
  0
VERTEX
  5
39363
100
AcDbEntity
  8
0
100
AcDbVertex
100
AcDbPolygonMeshVertex
 10
1.886
 20
-8.04
 30
0.387
 70
    64
  0
VERTEX
  5
39364
100
AcDbEntity
  8
0
100
AcDbVertex
100
AcDbPolygonMeshVertex
 10
1.886
 20
-8.04
 30
0.387
 70
    64
  0
VERTEX
  5
39365
100
AcDbEntity
  8
0
100
AcDbVertex
100
AcDbPolygonMeshVertex
 10
1.886
 20
-7.61
 30
0.697
 70
    64
  0
VERTEX
  5
39366
100
AcDbEntity
  8
0
100
AcDbVertex
100
AcDbPolygonMeshVertex
 10
1.886
 20
-7.61
 30
0.387
 70
    64
  0
VERTEX
  5
39367
100
AcDbEntity
  8
0
100
AcDbVertex
100
AcDbPolygonMeshVertex
 10
1.886
 20
-8.04
 30
0.387
 70
    64
  0
VERTEX
  5
39368
100
AcDbEntity
  8
0
100
AcDbVertex
100
AcDbPolygonMeshVertex
 10
2.386
 20
-7.61
 30
0.697
 70
    64
  0
VERTEX
  5
39369
100
AcDbEntity
  8
0
100
AcDbVertex
100
AcDbPolygonMeshVertex
 10
2.386
 20
-7.61
 30
0.387
 70
    64
  0
VERTEX
  5
3936A
100
AcDbEntity
  8
0
100
AcDbVertex
100
AcDbPolygonMeshVertex
 10
2.386
 20
-8.04
 30
0.387
 70
    64
  0
VERTEX
  5
3936B
100
AcDbEntity
  8
0
100
AcDbVertex
100
AcDbPolygonMeshVertex
 10
2.386
 20
-7.61
 30
0.697
 70
    64
  0
VERTEX
  5
3936C
100
AcDbEntity
  8
0
100
AcDbVertex
100
AcDbPolygonMeshVertex
 10
2.386
 20
-7.61
 30
0.697
 70
    64
  0
VERTEX
  5
3936D
100
AcDbEntity
  8
0
100
AcDbVertex
100
AcDbPolygonMeshVertex
 10
2.386
 20
-8.04
 30
0.697
 70
    64
  0
VERTEX
  5
3936E
100
AcDbEntity
  8
0
100
AcDbVertex
100
AcDbPolygonMeshVertex
 10
1.886
 20
-7.61
 30
0.697
 70
    64
  0
VERTEX
  5
3936F
100
AcDbEntity
  8
0
100
AcDbVertex
100
AcDbPolygonMeshVertex
 10
1.886
 20
-7.61
 30
0.697
 70
    64
  0
VERTEX
  5
39370
100
AcDbEntity
  8
0
100
AcDbVertex
100
AcDbPolygonMeshVertex
 10
1.886
 20
-8.04
 30
0.697
 70
    64
  0
SEQEND
  5
39371
100
AcDbEntity
  8
0
  0
POLYLINE
  5
39372
100
AcDbEntity
  8
0
100
AcDbPolygonMesh
 66
     1
 10
0.0
 20
0.0
 30
0.0
 70
    16
 71
     6
 72
     3
  0
VERTEX
  5
39373
100
AcDbEntity
  8
0
100
AcDbVertex
100
AcDbPolygonMeshVertex
 10
3.763
 20
-8.04
 30
0.697
 70
    64
  0
VERTEX
  5
39374
100
AcDbEntity
  8
0
100
AcDbVertex
100
AcDbPolygonMeshVertex
 10
3.763
 20
-8.04
 30
0.387
 70
    64
  0
VERTEX
  5
39375
100
AcDbEntity
  8
0
100
AcDbVertex
100
AcDbPolygonMeshVertex
 10
3.763
 20
-8.04
 30
0.387
 70
    64
  0
VERTEX
  5
39376
100
AcDbEntity
  8
0
100
AcDbVertex
100
AcDbPolygonMeshVertex
 10
3.263
 20
-8.04
 30
0.697
 70
    64
  0
VERTEX
  5
39377
100
AcDbEntity
  8
0
100
AcDbVertex
100
AcDbPolygonMeshVertex
 10
3.263
 20
-8.04
 30
0.387
 70
    64
  0
VERTEX
  5
39378
100
AcDbEntity
  8
0
100
AcDbVertex
100
AcDbPolygonMeshVertex
 10
3.263
 20
-8.04
 30
0.387
 70
    64
  0
VERTEX
  5
39379
100
AcDbEntity
  8
0
100
AcDbVertex
100
AcDbPolygonMeshVertex
 10
3.263
 20
-7.61
 30
0.697
 70
    64
  0
VERTEX
  5
3937A
100
AcDbEntity
  8
0
100
AcDbVertex
100
AcDbPolygonMeshVertex
 10
3.263
 20
-7.61
 30
0.387
 70
    64
  0
VERTEX
  5
3937B
100
AcDbEntity
  8
0
100
AcDbVertex
100
AcDbPolygonMeshVertex
 10
3.263
 20
-8.04
 30
0.387
 70
    64
  0
VERTEX
  5
3937C
100
AcDbEntity
  8
0
100
AcDbVertex
100
AcDbPolygonMeshVertex
 10
3.763
 20
-7.61
 30
0.697
 70
    64
  0
VERTEX
  5
3937D
100
AcDbEntity
  8
0
100
AcDbVertex
100
AcDbPolygonMeshVertex
 10
3.763
 20
-7.61
 30
0.387
 70
    64
  0
VERTEX
  5
3937E
100
AcDbEntity
  8
0
100
AcDbVertex
100
AcDbPolygonMeshVertex
 10
3.763
 20
-8.04
 30
0.387
 70
    64
  0
VERTEX
  5
3937F
100
AcDbEntity
  8
0
100
AcDbVertex
100
AcDbPolygonMeshVertex
 10
3.763
 20
-7.61
 30
0.697
 70
    64
  0
VERTEX
  5
39380
100
AcDbEntity
  8
0
100
AcDbVertex
100
AcDbPolygonMeshVertex
 10
3.763
 20
-7.61
 30
0.697
 70
    64
  0
VERTEX
  5
39381
100
AcDbEntity
  8
0
100
AcDbVertex
100
AcDbPolygonMeshVertex
 10
3.763
 20
-8.04
 30
0.697
 70
    64
  0
VERTEX
  5
39382
100
AcDbEntity
  8
0
100
AcDbVertex
100
AcDbPolygonMeshVertex
 10
3.263
 20
-7.61
 30
0.697
 70
    64
  0
VERTEX
  5
39383
100
AcDbEntity
  8
0
100
AcDbVertex
100
AcDbPolygonMeshVertex
 10
3.263
 20
-7.61
 30
0.697
 70
    64
  0
VERTEX
  5
39384
100
AcDbEntity
  8
0
100
AcDbVertex
100
AcDbPolygonMeshVertex
 10
3.263
 20
-8.04
 30
0.697
 70
    64
  0
SEQEND
  5
39385
100
AcDbEntity
  8
0
  0
POLYLINE
  5
39386
100
AcDbEntity
  8
0
100
AcDbPolygonMesh
 66
     1
 10
0.0
 20
0.0
 30
0.0
 70
    16
 71
     6
 72
     3
  0
VERTEX
  5
39387
100
AcDbEntity
  8
0
100
AcDbVertex
100
AcDbPolygonMeshVertex
 10
1.216
 20
-7.61
 30
2.897
 70
    64
  0
VERTEX
  5
39388
100
AcDbEntity
  8
0
100
AcDbVertex
100
AcDbPolygonMeshVertex
 10
1.216
 20
-7.61
 30
2.897
 70
    64
  0
VERTEX
  5
39389
100
AcDbEntity
  8
0
100
AcDbVertex
100
AcDbPolygonMeshVertex
 10
1.216
 20
-7.61
 30
2.897
 70
    64
  0
VERTEX
  5
3938A
100
AcDbEntity
  8
0
100
AcDbVertex
100
AcDbPolygonMeshVertex
 10
1.216
 20
-7.2
 30
3.047
 70
    64
  0
VERTEX
  5
3938B
100
AcDbEntity
  8
0
100
AcDbVertex
100
AcDbPolygonMeshVertex
 10
1.216
 20
-7.2
 30
2.897
 70
    64
  0
VERTEX
  5
3938C
100
AcDbEntity
  8
0
100
AcDbVertex
100
AcDbPolygonMeshVertex
 10
1.216
 20
-7.2
 30
2.897
 70
    64
  0
VERTEX
  5
3938D
100
AcDbEntity
  8
0
100
AcDbVertex
100
AcDbPolygonMeshVertex
 10
4.576
 20
-7.2
 30
3.047
 70
    64
  0
VERTEX
  5
3938E
100
AcDbEntity
  8
0
100
AcDbVertex
100
AcDbPolygonMeshVertex
 10
4.576
 20
-7.2
 30
2.897
 70
    64
  0
VERTEX
  5
3938F
100
AcDbEntity
  8
0
100
AcDbVertex
100
AcDbPolygonMeshVertex
 10
1.216
 20
-7.2
 30
2.897
 70
    64
  0
VERTEX
  5
39390
100
AcDbEntity
  8
0
100
AcDbVertex
100
AcDbPolygonMeshVertex
 10
4.576
 20
-7.61
 30
2.897
 70
    64
  0
VERTEX
  5
39391
100
AcDbEntity
  8
0
100
AcDbVertex
100
AcDbPolygonMeshVertex
 10
4.576
 20
-7.61
 30
2.897
 70
    64
  0
VERTEX
  5
39392
100
AcDbEntity
  8
0
100
AcDbVertex
100
AcDbPolygonMeshVertex
 10
1.216
 20
-7.61
 30
2.897
 70
    64
  0
VERTEX
  5
39393
100
AcDbEntity
  8
0
100
AcDbVertex
100
AcDbPolygonMeshVertex
 10
4.576
 20
-7.61
 30
2.897
 70
    64
  0
VERTEX
  5
39394
100
AcDbEntity
  8
0
100
AcDbVertex
100
AcDbPolygonMeshVertex
 10
4.576
 20
-7.61
 30
2.897
 70
    64
  0
VERTEX
  5
39395
100
AcDbEntity
  8
0
100
AcDbVertex
100
AcDbPolygonMeshVertex
 10
1.216
 20
-7.61
 30
2.897
 70
    64
  0
VERTEX
  5
39396
100
AcDbEntity
  8
0
100
AcDbVertex
100
AcDbPolygonMeshVertex
 10
4.576
 20
-7.2
 30
3.047
 70
    64
  0
VERTEX
  5
39397
100
AcDbEntity
  8
0
100
AcDbVertex
100
AcDbPolygonMeshVertex
 10
4.576
 20
-7.2
 30
3.047
 70
    64
  0
VERTEX
  5
39398
100
AcDbEntity
  8
0
100
AcDbVertex
100
AcDbPolygonMeshVertex
 10
1.216
 20
-7.2
 30
3.047
 70
    64
  0
SEQEND
  5
39399
100
AcDbEntity
  8
0
  0
POLYLINE
  5
3939A
100
AcDbEntity
  8
0
100
AcDbPolygonMesh
 66
     1
 10
0.0
 20
0.0
 30
0.0
 70
    16
 71
     6
 72
     3
  0
VERTEX
  5
3939B
100
AcDbEntity
  8
0
100
AcDbVertex
100
AcDbPolygonMeshVertex
 10
4.576
 20
-7.2
 30
3.837
 70
    64
  0
VERTEX
  5
3939C
100
AcDbEntity
  8
0
100
AcDbVertex
100
AcDbPolygonMeshVertex
 10
4.576
 20
-7.2
 30
0.387
 70
    64
  0
VERTEX
  5
3939D
100
AcDbEntity
  8
0
100
AcDbVertex
100
AcDbPolygonMeshVertex
 10
4.576
 20
-7.2
 30
0.387
 70
    64
  0
VERTEX
  5
3939E
100
AcDbEntity
  8
0
100
AcDbVertex
100
AcDbPolygonMeshVertex
 10
1.216
 20
-7.2
 30
3.837
 70
    64
  0
VERTEX
  5
3939F
100
AcDbEntity
  8
0
100
AcDbVertex
100
AcDbPolygonMeshVertex
 10
1.216
 20
-7.2
 30
0.387
 70
    64
  0
VERTEX
  5
393A0
100
AcDbEntity
  8
0
100
AcDbVertex
100
AcDbPolygonMeshVertex
 10
1.216
 20
-7.2
 30
0.387
 70
    64
  0
VERTEX
  5
393A1
100
AcDbEntity
  8
0
100
AcDbVertex
100
AcDbPolygonMeshVertex
 10
1.216
 20
-5.79
 30
3.837
 70
    64
  0
VERTEX
  5
393A2
100
AcDbEntity
  8
0
100
AcDbVertex
100
AcDbPolygonMeshVertex
 10
1.216
 20
-5.79
 30
0.387
 70
    64
  0
VERTEX
  5
393A3
100
AcDbEntity
  8
0
100
AcDbVertex
100
AcDbPolygonMeshVertex
 10
1.216
 20
-7.2
 30
0.387
 70
    64
  0
VERTEX
  5
393A4
100
AcDbEntity
  8
0
100
AcDbVertex
100
AcDbPolygonMeshVertex
 10
4.576
 20
-5.79
 30
3.837
 70
    64
  0
VERTEX
  5
393A5
100
AcDbEntity
  8
0
100
AcDbVertex
100
AcDbPolygonMeshVertex
 10
4.576
 20
-5.79
 30
0.387
 70
    64
  0
VERTEX
  5
393A6
100
AcDbEntity
  8
0
100
AcDbVertex
100
AcDbPolygonMeshVertex
 10
4.576
 20
-7.2
 30
0.387
 70
    64
  0
VERTEX
  5
393A7
100
AcDbEntity
  8
0
100
AcDbVertex
100
AcDbPolygonMeshVertex
 10
4.576
 20
-5.79
 30
3.837
 70
    64
  0
VERTEX
  5
393A8
100
AcDbEntity
  8
0
100
AcDbVertex
100
AcDbPolygonMeshVertex
 10
4.576
 20
-5.79
 30
3.837
 70
    64
  0
VERTEX
  5
393A9
100
AcDbEntity
  8
0
100
AcDbVertex
100
AcDbPolygonMeshVertex
 10
4.576
 20
-7.2
 30
3.837
 70
    64
  0
VERTEX
  5
393AA
100
AcDbEntity
  8
0
100
AcDbVertex
100
AcDbPolygonMeshVertex
 10
1.216
 20
-5.79
 30
3.837
 70
    64
  0
VERTEX
  5
393AB
100
AcDbEntity
  8
0
100
AcDbVertex
100
AcDbPolygonMeshVertex
 10
1.216
 20
-5.79
 30
3.837
 70
    64
  0
VERTEX
  5
393AC
100
AcDbEntity
  8
0
100
AcDbVertex
100
AcDbPolygonMeshVertex
 10
1.216
 20
-7.2
 30
3.837
 70
    64
  0
SEQEND
  5
393AD
100
AcDbEntity
  8
0
  0
LINE
  5
393AE
100
AcDbEntity
  8
0
100
AcDbLine
 10
2.316674
 20
-3.825015
 30
4.667
 11
2.43129
 21
-3.975138
 31
4.667
  0
LINE
  5
393AF
100
AcDbEntity
  8
0
100
AcDbLine
 10
2.300485
 20
-3.841205
 30
4.667
 11
2.415101
 21
-3.991327
 31
4.667
  0
CIRCLE
  5
393B0
100
AcDbEntity
  8
0
100
AcDbCircle
 10
2.366
 20
-3.91
 30
4.667
 40
0.095
  0
LINE
  5
393B1
100
AcDbEntity
  8
0
100
AcDbLine
 10
3.376674
 20
-3.825015
 30
4.667
 11
3.49129
 21
-3.975138
 31
4.667
  0
LINE
  5
393B2
100
AcDbEntity
  8
0
100
AcDbLine
 10
3.360485
 20
-3.841205
 30
4.667
 11
3.4751
 21
-3.991327
 31
4.667
  0
CIRCLE
  5
393B3
100
AcDbEntity
  8
0
100
AcDbCircle
 10
3.426
 20
-3.91
 30
4.667
 40
0.095
  0
CIRCLE
  5
393B4
100
AcDbEntity
  8
0
100
AcDbCircle
 10
3.956
 20
-1.765
 30
4.477
 40
0.19
  0
POLYLINE
  5
393B5
100
AcDbEntity
  8
0
100
AcDbPolygonMesh
 66
     1
 10
0.0
 20
0.0
 30
0.0
 70
    16
 71
     6
 72
     3
  0
VERTEX
  5
393B6
100
AcDbEntity
  8
0
100
AcDbVertex
100
AcDbPolygonMeshVertex
 10
3.836
 20
-4.44
 30
4.197
 70
    64
  0
VERTEX
  5
393B7
100
AcDbEntity
  8
0
100
AcDbVertex
100
AcDbPolygonMeshVertex
 10
3.836
 20
-4.44
 30
3.827
 70
    64
  0
VERTEX
  5
393B8
100
AcDbEntity
  8
0
100
AcDbVertex
100
AcDbPolygonMeshVertex
 10
3.836
 20
-4.44
 30
3.827
 70
    64
  0
VERTEX
  5
393B9
100
AcDbEntity
  8
0
100
AcDbVertex
100
AcDbPolygonMeshVertex
 10
1.956
 20
-4.44
 30
4.197
 70
    64
  0
VERTEX
  5
393BA
100
AcDbEntity
  8
0
100
AcDbVertex
100
AcDbPolygonMeshVertex
 10
1.956
 20
-4.44
 30
3.827
 70
    64
  0
VERTEX
  5
393BB
100
AcDbEntity
  8
0
100
AcDbVertex
100
AcDbPolygonMeshVertex
 10
1.956
 20
-4.44
 30
3.827
 70
    64
  0
VERTEX
  5
393BC
100
AcDbEntity
  8
0
100
AcDbVertex
100
AcDbPolygonMeshVertex
 10
1.956
 20
-3.6
 30
4.197
 70
    64
  0
VERTEX
  5
393BD
100
AcDbEntity
  8
0
100
AcDbVertex
100
AcDbPolygonMeshVertex
 10
1.956
 20
-3.6
 30
3.827
 70
    64
  0
VERTEX
  5
393BE
100
AcDbEntity
  8
0
100
AcDbVertex
100
AcDbPolygonMeshVertex
 10
1.956
 20
-4.44
 30
3.827
 70
    64
  0
VERTEX
  5
393BF
100
AcDbEntity
  8
0
100
AcDbVertex
100
AcDbPolygonMeshVertex
 10
3.836
 20
-3.6
 30
4.197
 70
    64
  0
VERTEX
  5
393C0
100
AcDbEntity
  8
0
100
AcDbVertex
100
AcDbPolygonMeshVertex
 10
3.836
 20
-3.6
 30
3.827
 70
    64
  0
VERTEX
  5
393C1
100
AcDbEntity
  8
0
100
AcDbVertex
100
AcDbPolygonMeshVertex
 10
3.836
 20
-4.44
 30
3.827
 70
    64
  0
VERTEX
  5
393C2
100
AcDbEntity
  8
0
100
AcDbVertex
100
AcDbPolygonMeshVertex
 10
3.836
 20
-3.6
 30
4.197
 70
    64
  0
VERTEX
  5
393C3
100
AcDbEntity
  8
0
100
AcDbVertex
100
AcDbPolygonMeshVertex
 10
3.836
 20
-3.6
 30
4.197
 70
    64
  0
VERTEX
  5
393C4
100
AcDbEntity
  8
0
100
AcDbVertex
100
AcDbPolygonMeshVertex
 10
3.836
 20
-4.44
 30
4.197
 70
    64
  0
VERTEX
  5
393C5
100
AcDbEntity
  8
0
100
AcDbVertex
100
AcDbPolygonMeshVertex
 10
1.956
 20
-3.6
 30
4.197
 70
    64
  0
VERTEX
  5
393C6
100
AcDbEntity
  8
0
100
AcDbVertex
100
AcDbPolygonMeshVertex
 10
1.956
 20
-3.6
 30
4.197
 70
    64
  0
VERTEX
  5
393C7
100
AcDbEntity
  8
0
100
AcDbVertex
100
AcDbPolygonMeshVertex
 10
1.956
 20
-4.44
 30
4.197
 70
    64
  0
SEQEND
  5
393C8
100
AcDbEntity
  8
0
  0
POLYLINE
  5
393C9
100
AcDbEntity
  8
0
100
AcDbPolygonMesh
 66
     1
 10
0.0
 20
0.0
 30
0.0
 70
    16
 71
     6
 72
     3
  0
VERTEX
  5
393CA
100
AcDbEntity
  8
0
100
AcDbVertex
100
AcDbPolygonMeshVertex
 10
3.646
 20
-4.04
 30
4.667
 70
    64
  0
VERTEX
  5
393CB
100
AcDbEntity
  8
0
100
AcDbVertex
100
AcDbPolygonMeshVertex
 10
3.646
 20
-4.04
 30
4.197
 70
    64
  0
VERTEX
  5
393CC
100
AcDbEntity
  8
0
100
AcDbVertex
100
AcDbPolygonMeshVertex
 10
3.646
 20
-4.04
 30
4.197
 70
    64
  0
VERTEX
  5
393CD
100
AcDbEntity
  8
0
100
AcDbVertex
100
AcDbPolygonMeshVertex
 10
3.206
 20
-4.04
 30
4.667
 70
    64
  0
VERTEX
  5
393CE
100
AcDbEntity
  8
0
100
AcDbVertex
100
AcDbPolygonMeshVertex
 10
3.206
 20
-4.04
 30
4.197
 70
    64
  0
VERTEX
  5
393CF
100
AcDbEntity
  8
0
100
AcDbVertex
100
AcDbPolygonMeshVertex
 10
3.206
 20
-4.04
 30
4.197
 70
    64
  0
VERTEX
  5
393D0
100
AcDbEntity
  8
0
100
AcDbVertex
100
AcDbPolygonMeshVertex
 10
3.206
 20
-3.66
 30
4.667
 70
    64
  0
VERTEX
  5
393D1
100
AcDbEntity
  8
0
100
AcDbVertex
100
AcDbPolygonMeshVertex
 10
3.206
 20
-3.66
 30
4.197
 70
    64
  0
VERTEX
  5
393D2
100
AcDbEntity
  8
0
100
AcDbVertex
100
AcDbPolygonMeshVertex
 10
3.206
 20
-4.04
 30
4.197
 70
    64
  0
VERTEX
  5
393D3
100
AcDbEntity
  8
0
100
AcDbVertex
100
AcDbPolygonMeshVertex
 10
3.646
 20
-3.66
 30
4.667
 70
    64
  0
VERTEX
  5
393D4
100
AcDbEntity
  8
0
100
AcDbVertex
100
AcDbPolygonMeshVertex
 10
3.646
 20
-3.66
 30
4.197
 70
    64
  0
VERTEX
  5
393D5
100
AcDbEntity
  8
0
100
AcDbVertex
100
AcDbPolygonMeshVertex
 10
3.646
 20
-4.04
 30
4.197
 70
    64
  0
VERTEX
  5
393D6
100
AcDbEntity
  8
0
100
AcDbVertex
100
AcDbPolygonMeshVertex
 10
3.646
 20
-3.66
 30
4.667
 70
    64
  0
VERTEX
  5
393D7
100
AcDbEntity
  8
0
100
AcDbVertex
100
AcDbPolygonMeshVertex
 10
3.646
 20
-3.66
 30
4.667
 70
    64
  0
VERTEX
  5
393D8
100
AcDbEntity
  8
0
100
AcDbVertex
100
AcDbPolygonMeshVertex
 10
3.646
 20
-4.04
 30
4.667
 70
    64
  0
VERTEX
  5
393D9
100
AcDbEntity
  8
0
100
AcDbVertex
100
AcDbPolygonMeshVertex
 10
3.206
 20
-3.66
 30
4.667
 70
    64
  0
VERTEX
  5
393DA
100
AcDbEntity
  8
0
100
AcDbVertex
100
AcDbPolygonMeshVertex
 10
3.206
 20
-3.66
 30
4.667
 70
    64
  0
VERTEX
  5
393DB
100
AcDbEntity
  8
0
100
AcDbVertex
100
AcDbPolygonMeshVertex
 10
3.206
 20
-4.04
 30
4.667
 70
    64
  0
SEQEND
  5
393DC
100
AcDbEntity
  8
0
  0
POLYLINE
  5
393DD
100
AcDbEntity
  8
0
100
AcDbPolygonMesh
 66
     1
 10
0.0
 20
0.0
 30
0.0
 70
    16
 71
     6
 72
     3
  0
VERTEX
  5
393DE
100
AcDbEntity
  8
0
100
AcDbVertex
100
AcDbPolygonMeshVertex
 10
2.586
 20
-4.04
 30
4.667
 70
    64
  0
VERTEX
  5
393DF
100
AcDbEntity
  8
0
100
AcDbVertex
100
AcDbPolygonMeshVertex
 10
2.586
 20
-4.04
 30
4.197
 70
    64
  0
VERTEX
  5
393E0
100
AcDbEntity
  8
0
100
AcDbVertex
100
AcDbPolygonMeshVertex
 10
2.586
 20
-4.04
 30
4.197
 70
    64
  0
VERTEX
  5
393E1
100
AcDbEntity
  8
0
100
AcDbVertex
100
AcDbPolygonMeshVertex
 10
2.146
 20
-4.04
 30
4.667
 70
    64
  0
VERTEX
  5
393E2
100
AcDbEntity
  8
0
100
AcDbVertex
100
AcDbPolygonMeshVertex
 10
2.146
 20
-4.04
 30
4.197
 70
    64
  0
VERTEX
  5
393E3
100
AcDbEntity
  8
0
100
AcDbVertex
100
AcDbPolygonMeshVertex
 10
2.146
 20
-4.04
 30
4.197
 70
    64
  0
VERTEX
  5
393E4
100
AcDbEntity
  8
0
100
AcDbVertex
100
AcDbPolygonMeshVertex
 10
2.146
 20
-3.66
 30
4.667
 70
    64
  0
VERTEX
  5
393E5
100
AcDbEntity
  8
0
100
AcDbVertex
100
AcDbPolygonMeshVertex
 10
2.146
 20
-3.66
 30
4.197
 70
    64
  0
VERTEX
  5
393E6
100
AcDbEntity
  8
0
100
AcDbVertex
100
AcDbPolygonMeshVertex
 10
2.146
 20
-4.04
 30
4.197
 70
    64
  0
VERTEX
  5
393E7
100
AcDbEntity
  8
0
100
AcDbVertex
100
AcDbPolygonMeshVertex
 10
2.586
 20
-3.66
 30
4.667
 70
    64
  0
VERTEX
  5
393E8
100
AcDbEntity
  8
0
100
AcDbVertex
100
AcDbPolygonMeshVertex
 10
2.586
 20
-3.66
 30
4.197
 70
    64
  0
VERTEX
  5
393E9
100
AcDbEntity
  8
0
100
AcDbVertex
100
AcDbPolygonMeshVertex
 10
2.586
 20
-4.04
 30
4.197
 70
    64
  0
VERTEX
  5
393EA
100
AcDbEntity
  8
0
100
AcDbVertex
100
AcDbPolygonMeshVertex
 10
2.586
 20
-3.66
 30
4.667
 70
    64
  0
VERTEX
  5
393EB
100
AcDbEntity
  8
0
100
AcDbVertex
100
AcDbPolygonMeshVertex
 10
2.586
 20
-3.66
 30
4.667
 70
    64
  0
VERTEX
  5
393EC
100
AcDbEntity
  8
0
100
AcDbVertex
100
AcDbPolygonMeshVertex
 10
2.586
 20
-4.04
 30
4.667
 70
    64
  0
VERTEX
  5
393ED
100
AcDbEntity
  8
0
100
AcDbVertex
100
AcDbPolygonMeshVertex
 10
2.146
 20
-3.66
 30
4.667
 70
    64
  0
VERTEX
  5
393EE
100
AcDbEntity
  8
0
100
AcDbVertex
100
AcDbPolygonMeshVertex
 10
2.146
 20
-3.66
 30
4.667
 70
    64
  0
VERTEX
  5
393EF
100
AcDbEntity
  8
0
100
AcDbVertex
100
AcDbPolygonMeshVertex
 10
2.146
 20
-4.04
 30
4.667
 70
    64
  0
SEQEND
  5
393F0
100
AcDbEntity
  8
0
  0
LINE
  5
393F1
100
AcDbEntity
  8
0
100
AcDbLine
 10
1.216
 20
-2.15
 30
3.827
 11
1.216
 21
-2.15
 31
0.387
  0
POLYLINE
  5
393F2
100
AcDbEntity
  8
0
100
AcDbPolygonMesh
 66
     1
 10
0.0
 20
0.0
 30
0.0
 70
    16
 71
     6
 72
     3
  0
VERTEX
  5
393F3
100
AcDbEntity
  8
0
100
AcDbVertex
100
AcDbPolygonMeshVertex
 10
4.576
 20
-5.54
 30
3.827
 70
    64
  0
VERTEX
  5
393F4
100
AcDbEntity
  8
0
100
AcDbVertex
100
AcDbPolygonMeshVertex
 10
4.576
 20
-5.54
 30
0.387
 70
    64
  0
VERTEX
  5
393F5
100
AcDbEntity
  8
0
100
AcDbVertex
100
AcDbPolygonMeshVertex
 10
4.576
 20
-5.54
 30
0.387
 70
    64
  0
VERTEX
  5
393F6
100
AcDbEntity
  8
0
100
AcDbVertex
100
AcDbPolygonMeshVertex
 10
1.216
 20
-5.54
 30
3.827
 70
    64
  0
VERTEX
  5
393F7
100
AcDbEntity
  8
0
100
AcDbVertex
100
AcDbPolygonMeshVertex
 10
1.216
 20
-5.54
 30
0.387
 70
    64
  0
VERTEX
  5
393F8
100
AcDbEntity
  8
0
100
AcDbVertex
100
AcDbPolygonMeshVertex
 10
1.216
 20
-5.54
 30
0.387
 70
    64
  0
VERTEX
  5
393F9
100
AcDbEntity
  8
0
100
AcDbVertex
100
AcDbPolygonMeshVertex
 10
1.216
 20
-2.15
 30
3.827
 70
    64
  0
VERTEX
  5
393FA
100
AcDbEntity
  8
0
100
AcDbVertex
100
AcDbPolygonMeshVertex
 10
1.216
 20
-2.15
 30
0.387
 70
    64
  0
VERTEX
  5
393FB
100
AcDbEntity
  8
0
100
AcDbVertex
100
AcDbPolygonMeshVertex
 10
1.216
 20
-5.54
 30
0.387
 70
    64
  0
VERTEX
  5
393FC
100
AcDbEntity
  8
0
100
AcDbVertex
100
AcDbPolygonMeshVertex
 10
4.576
 20
-2.15
 30
3.827
 70
    64
  0
VERTEX
  5
393FD
100
AcDbEntity
  8
0
100
AcDbVertex
100
AcDbPolygonMeshVertex
 10
4.576
 20
-2.15
 30
0.387
 70
    64
  0
VERTEX
  5
393FE
100
AcDbEntity
  8
0
100
AcDbVertex
100
AcDbPolygonMeshVertex
 10
4.576
 20
-5.54
 30
0.387
 70
    64
  0
VERTEX
  5
393FF
100
AcDbEntity
  8
0
100
AcDbVertex
100
AcDbPolygonMeshVertex
 10
4.576
 20
-2.15
 30
3.827
 70
    64
  0
VERTEX
  5
39400
100
AcDbEntity
  8
0
100
AcDbVertex
100
AcDbPolygonMeshVertex
 10
4.576
 20
-2.15
 30
3.827
 70
    64
  0
VERTEX
  5
39401
100
AcDbEntity
  8
0
100
AcDbVertex
100
AcDbPolygonMeshVertex
 10
4.576
 20
-5.54
 30
3.827
 70
    64
  0
VERTEX
  5
39402
100
AcDbEntity
  8
0
100
AcDbVertex
100
AcDbPolygonMeshVertex
 10
1.216
 20
-2.15
 30
3.827
 70
    64
  0
VERTEX
  5
39403
100
AcDbEntity
  8
0
100
AcDbVertex
100
AcDbPolygonMeshVertex
 10
1.216
 20
-2.15
 30
3.827
 70
    64
  0
VERTEX
  5
39404
100
AcDbEntity
  8
0
100
AcDbVertex
100
AcDbPolygonMeshVertex
 10
1.216
 20
-5.54
 30
3.827
 70
    64
  0
SEQEND
  5
39405
100
AcDbEntity
  8
0
  0
POLYLINE
  5
39406
100
AcDbEntity
  8
0
100
AcDbPolygonMesh
 66
     1
 10
0.0
 20
0.0
 30
0.0
 70
    16
 71
     6
 72
     3
  0
VERTEX
  5
39407
100
AcDbEntity
  8
0
100
AcDbVertex
100
AcDbPolygonMeshVertex
 10
4.576
 20
-5.79
 30
3.047
 70
    64
  0
VERTEX
  5
39408
100
AcDbEntity
  8
0
100
AcDbVertex
100
AcDbPolygonMeshVertex
 10
4.576
 20
-5.79
 30
1.817
 70
    64
  0
VERTEX
  5
39409
100
AcDbEntity
  8
0
100
AcDbVertex
100
AcDbPolygonMeshVertex
 10
4.576
 20
-5.79
 30
1.817
 70
    64
  0
VERTEX
  5
3940A
100
AcDbEntity
  8
0
100
AcDbVertex
100
AcDbPolygonMeshVertex
 10
1.216
 20
-5.79
 30
3.047
 70
    64
  0
VERTEX
  5
3940B
100
AcDbEntity
  8
0
100
AcDbVertex
100
AcDbPolygonMeshVertex
 10
1.216
 20
-5.79
 30
1.817
 70
    64
  0
VERTEX
  5
3940C
100
AcDbEntity
  8
0
100
AcDbVertex
100
AcDbPolygonMeshVertex
 10
1.216
 20
-5.79
 30
1.817
 70
    64
  0
VERTEX
  5
3940D
100
AcDbEntity
  8
0
100
AcDbVertex
100
AcDbPolygonMeshVertex
 10
1.216
 20
-5.54
 30
3.047
 70
    64
  0
VERTEX
  5
3940E
100
AcDbEntity
  8
0
100
AcDbVertex
100
AcDbPolygonMeshVertex
 10
1.216
 20
-5.54
 30
1.817
 70
    64
  0
VERTEX
  5
3940F
100
AcDbEntity
  8
0
100
AcDbVertex
100
AcDbPolygonMeshVertex
 10
1.216
 20
-5.79
 30
1.817
 70
    64
  0
VERTEX
  5
39410
100
AcDbEntity
  8
0
100
AcDbVertex
100
AcDbPolygonMeshVertex
 10
4.576
 20
-5.54
 30
3.047
 70
    64
  0
VERTEX
  5
39411
100
AcDbEntity
  8
0
100
AcDbVertex
100
AcDbPolygonMeshVertex
 10
4.576
 20
-5.54
 30
1.817
 70
    64
  0
VERTEX
  5
39412
100
AcDbEntity
  8
0
100
AcDbVertex
100
AcDbPolygonMeshVertex
 10
4.576
 20
-5.79
 30
1.817
 70
    64
  0
VERTEX
  5
39413
100
AcDbEntity
  8
0
100
AcDbVertex
100
AcDbPolygonMeshVertex
 10
4.576
 20
-5.54
 30
3.047
 70
    64
  0
VERTEX
  5
39414
100
AcDbEntity
  8
0
100
AcDbVertex
100
AcDbPolygonMeshVertex
 10
4.576
 20
-5.54
 30
3.047
 70
    64
  0
VERTEX
  5
39415
100
AcDbEntity
  8
0
100
AcDbVertex
100
AcDbPolygonMeshVertex
 10
4.576
 20
-5.79
 30
3.047
 70
    64
  0
VERTEX
  5
39416
100
AcDbEntity
  8
0
100
AcDbVertex
100
AcDbPolygonMeshVertex
 10
1.216
 20
-5.54
 30
3.047
 70
    64
  0
VERTEX
  5
39417
100
AcDbEntity
  8
0
100
AcDbVertex
100
AcDbPolygonMeshVertex
 10
1.216
 20
-5.54
 30
3.047
 70
    64
  0
VERTEX
  5
39418
100
AcDbEntity
  8
0
100
AcDbVertex
100
AcDbPolygonMeshVertex
 10
1.216
 20
-5.79
 30
3.047
 70
    64
  0
SEQEND
  5
39419
100
AcDbEntity
  8
0
  0
POLYLINE
  5
3941A
100
AcDbEntity
  8
0
100
AcDbPolygonMesh
 66
     1
 10
0.0
 20
0.0
 30
0.0
 70
    16
 71
     6
 72
     3
  0
VERTEX
  5
3941B
100
AcDbEntity
  8
0
100
AcDbVertex
100
AcDbPolygonMeshVertex
 10
1.216
 20
-5.54
 30
0.387
 70
    64
  0
VERTEX
  5
3941C
100
AcDbEntity
  8
0
100
AcDbVertex
100
AcDbPolygonMeshVertex
 10
1.216
 20
-5.54
 30
0.387
 70
    64
  0
VERTEX
  5
3941D
100
AcDbEntity
  8
0
100
AcDbVertex
100
AcDbPolygonMeshVertex
 10
1.216
 20
-5.54
 30
0.387
 70
    64
  0
VERTEX
  5
3941E
100
AcDbEntity
  8
0
100
AcDbVertex
100
AcDbPolygonMeshVertex
 10
1.216
 20
-5.79
 30
1.817
 70
    64
  0
VERTEX
  5
3941F
100
AcDbEntity
  8
0
100
AcDbVertex
100
AcDbPolygonMeshVertex
 10
1.216
 20
-5.54
 30
1.817
 70
    64
  0
VERTEX
  5
39420
100
AcDbEntity
  8
0
100
AcDbVertex
100
AcDbPolygonMeshVertex
 10
1.216
 20
-5.54
 30
1.817
 70
    64
  0
VERTEX
  5
39421
100
AcDbEntity
  8
0
100
AcDbVertex
100
AcDbPolygonMeshVertex
 10
4.576
 20
-5.79
 30
1.817
 70
    64
  0
VERTEX
  5
39422
100
AcDbEntity
  8
0
100
AcDbVertex
100
AcDbPolygonMeshVertex
 10
4.576
 20
-5.54
 30
1.817
 70
    64
  0
VERTEX
  5
39423
100
AcDbEntity
  8
0
100
AcDbVertex
100
AcDbPolygonMeshVertex
 10
1.216
 20
-5.54
 30
1.817
 70
    64
  0
VERTEX
  5
39424
100
AcDbEntity
  8
0
100
AcDbVertex
100
AcDbPolygonMeshVertex
 10
4.576
 20
-5.54
 30
0.387
 70
    64
  0
VERTEX
  5
39425
100
AcDbEntity
  8
0
100
AcDbVertex
100
AcDbPolygonMeshVertex
 10
4.576
 20
-5.54
 30
0.387
 70
    64
  0
VERTEX
  5
39426
100
AcDbEntity
  8
0
100
AcDbVertex
100
AcDbPolygonMeshVertex
 10
1.216
 20
-5.54
 30
0.387
 70
    64
  0
VERTEX
  5
39427
100
AcDbEntity
  8
0
100
AcDbVertex
100
AcDbPolygonMeshVertex
 10
4.576
 20
-5.54
 30
0.387
 70
    64
  0
VERTEX
  5
39428
100
AcDbEntity
  8
0
100
AcDbVertex
100
AcDbPolygonMeshVertex
 10
4.576
 20
-5.54
 30
0.387
 70
    64
  0
VERTEX
  5
39429
100
AcDbEntity
  8
0
100
AcDbVertex
100
AcDbPolygonMeshVertex
 10
1.216
 20
-5.54
 30
0.387
 70
    64
  0
VERTEX
  5
3942A
100
AcDbEntity
  8
0
100
AcDbVertex
100
AcDbPolygonMeshVertex
 10
4.576
 20
-5.79
 30
1.817
 70
    64
  0
VERTEX
  5
3942B
100
AcDbEntity
  8
0
100
AcDbVertex
100
AcDbPolygonMeshVertex
 10
4.576
 20
-5.79
 30
1.817
 70
    64
  0
VERTEX
  5
3942C
100
AcDbEntity
  8
0
100
AcDbVertex
100
AcDbPolygonMeshVertex
 10
1.216
 20
-5.79
 30
1.817
 70
    64
  0
SEQEND
  5
3942D
100
AcDbEntity
  8
0
  0
POLYLINE
  5
3942E
100
AcDbEntity
  8
0
100
AcDbPolygonMesh
 66
     1
 10
0.0
 20
0.0
 30
0.0
 70
    16
 71
     6
 72
     3
  0
VERTEX
  5
3942F
100
AcDbEntity
  8
0
100
AcDbVertex
100
AcDbPolygonMeshVertex
 10
4.576
 20
-2.15
 30
4.287
 70
    64
  0
VERTEX
  5
39430
100
AcDbEntity
  8
0
100
AcDbVertex
100
AcDbPolygonMeshVertex
 10
4.576
 20
-2.15
 30
0.387
 70
    64
  0
VERTEX
  5
39431
100
AcDbEntity
  8
0
100
AcDbVertex
100
AcDbPolygonMeshVertex
 10
4.576
 20
-2.15
 30
0.387
 70
    64
  0
VERTEX
  5
39432
100
AcDbEntity
  8
0
100
AcDbVertex
100
AcDbPolygonMeshVertex
 10
1.216
 20
-2.15
 30
4.287
 70
    64
  0
VERTEX
  5
39433
100
AcDbEntity
  8
0
100
AcDbVertex
100
AcDbPolygonMeshVertex
 10
1.216
 20
-2.15
 30
0.387
 70
    64
  0
VERTEX
  5
39434
100
AcDbEntity
  8
0
100
AcDbVertex
100
AcDbPolygonMeshVertex
 10
1.216
 20
-2.15
 30
0.387
 70
    64
  0
VERTEX
  5
39435
100
AcDbEntity
  8
0
100
AcDbVertex
100
AcDbPolygonMeshVertex
 10
1.216
 20
-1.47
 30
4.287
 70
    64
  0
VERTEX
  5
39436
100
AcDbEntity
  8
0
100
AcDbVertex
100
AcDbPolygonMeshVertex
 10
1.216
 20
-1.47
 30
0.387
 70
    64
  0
VERTEX
  5
39437
100
AcDbEntity
  8
0
100
AcDbVertex
100
AcDbPolygonMeshVertex
 10
1.216
 20
-2.15
 30
0.387
 70
    64
  0
VERTEX
  5
39438
100
AcDbEntity
  8
0
100
AcDbVertex
100
AcDbPolygonMeshVertex
 10
4.576
 20
-1.47
 30
4.287
 70
    64
  0
VERTEX
  5
39439
100
AcDbEntity
  8
0
100
AcDbVertex
100
AcDbPolygonMeshVertex
 10
4.576
 20
-1.47
 30
0.387
 70
    64
  0
VERTEX
  5
3943A
100
AcDbEntity
  8
0
100
AcDbVertex
100
AcDbPolygonMeshVertex
 10
4.576
 20
-2.15
 30
0.387
 70
    64
  0
VERTEX
  5
3943B
100
AcDbEntity
  8
0
100
AcDbVertex
100
AcDbPolygonMeshVertex
 10
4.576
 20
-1.47
 30
4.287
 70
    64
  0
VERTEX
  5
3943C
100
AcDbEntity
  8
0
100
AcDbVertex
100
AcDbPolygonMeshVertex
 10
4.576
 20
-1.47
 30
4.287
 70
    64
  0
VERTEX
  5
3943D
100
AcDbEntity
  8
0
100
AcDbVertex
100
AcDbPolygonMeshVertex
 10
4.576
 20
-2.15
 30
4.287
 70
    64
  0
VERTEX
  5
3943E
100
AcDbEntity
  8
0
100
AcDbVertex
100
AcDbPolygonMeshVertex
 10
1.216
 20
-1.47
 30
4.287
 70
    64
  0
VERTEX
  5
3943F
100
AcDbEntity
  8
0
100
AcDbVertex
100
AcDbPolygonMeshVertex
 10
1.216
 20
-1.47
 30
4.287
 70
    64
  0
VERTEX
  5
39440
100
AcDbEntity
  8
0
100
AcDbVertex
100
AcDbPolygonMeshVertex
 10
1.216
 20
-2.15
 30
4.287
 70
    64
  0
SEQEND
  5
39441
100
AcDbEntity
  8
0
  0
LINE
  5
39442
100
AcDbEntity
  8
0
100
AcDbLine
 10
3.516
 20
-1.47
 30
4.287
 11
3.516
 21
-1.34
 31
4.287
  0
LINE
  5
39443
100
AcDbEntity
  8
0
100
AcDbLine
 10
3.516
 20
-1.34
 30
4.287
 11
3.336
 21
-1.34
 31
4.287
  0
POLYLINE
  5
39444
100
AcDbEntity
  8
0
100
AcDbPolygonMesh
 66
     1
 10
0.0
 20
0.0
 30
0.0
 70
    16
 71
     6
 72
     3
  0
VERTEX
  5
39445
100
AcDbEntity
  8
0
100
AcDbVertex
100
AcDbPolygonMeshVertex
 10
3.336
 20
-1.34
 30
4.667
 70
    64
  0
VERTEX
  5
39446
100
AcDbEntity
  8
0
100
AcDbVertex
100
AcDbPolygonMeshVertex
 10
3.336
 20
-1.34
 30
4.287
 70
    64
  0
VERTEX
  5
39447
100
AcDbEntity
  8
0
100
AcDbVertex
100
AcDbPolygonMeshVertex
 10
3.336
 20
-1.34
 30
4.287
 70
    64
  0
VERTEX
  5
39448
100
AcDbEntity
  8
0
100
AcDbVertex
100
AcDbPolygonMeshVertex
 10
3.516
 20
-1.34
 30
4.667
 70
    64
  0
VERTEX
  5
39449
100
AcDbEntity
  8
0
100
AcDbVertex
100
AcDbPolygonMeshVertex
 10
3.516
 20
-1.34
 30
4.287
 70
    64
  0
VERTEX
  5
3944A
100
AcDbEntity
  8
0
100
AcDbVertex
100
AcDbPolygonMeshVertex
 10
3.516
 20
-1.34
 30
4.287
 70
    64
  0
VERTEX
  5
3944B
100
AcDbEntity
  8
0
100
AcDbVertex
100
AcDbPolygonMeshVertex
 10
3.516
 20
-2.15
 30
4.667
 70
    64
  0
VERTEX
  5
3944C
100
AcDbEntity
  8
0
100
AcDbVertex
100
AcDbPolygonMeshVertex
 10
3.516
 20
-2.15
 30
4.287
 70
    64
  0
VERTEX
  5
3944D
100
AcDbEntity
  8
0
100
AcDbVertex
100
AcDbPolygonMeshVertex
 10
3.516
 20
-1.34
 30
4.287
 70
    64
  0
VERTEX
  5
3944E
100
AcDbEntity
  8
0
100
AcDbVertex
100
AcDbPolygonMeshVertex
 10
3.336
 20
-2.15
 30
4.667
 70
    64
  0
VERTEX
  5
3944F
100
AcDbEntity
  8
0
100
AcDbVertex
100
AcDbPolygonMeshVertex
 10
3.336
 20
-2.15
 30
4.287
 70
    64
  0
VERTEX
  5
39450
100
AcDbEntity
  8
0
100
AcDbVertex
100
AcDbPolygonMeshVertex
 10
3.336
 20
-1.34
 30
4.287
 70
    64
  0
VERTEX
  5
39451
100
AcDbEntity
  8
0
100
AcDbVertex
100
AcDbPolygonMeshVertex
 10
3.336
 20
-2.15
 30
4.667
 70
    64
  0
VERTEX
  5
39452
100
AcDbEntity
  8
0
100
AcDbVertex
100
AcDbPolygonMeshVertex
 10
3.336
 20
-2.15
 30
4.667
 70
    64
  0
VERTEX
  5
39453
100
AcDbEntity
  8
0
100
AcDbVertex
100
AcDbPolygonMeshVertex
 10
3.336
 20
-1.34
 30
4.667
 70
    64
  0
VERTEX
  5
39454
100
AcDbEntity
  8
0
100
AcDbVertex
100
AcDbPolygonMeshVertex
 10
3.516
 20
-2.15
 30
4.667
 70
    64
  0
VERTEX
  5
39455
100
AcDbEntity
  8
0
100
AcDbVertex
100
AcDbPolygonMeshVertex
 10
3.516
 20
-2.15
 30
4.667
 70
    64
  0
VERTEX
  5
39456
100
AcDbEntity
  8
0
100
AcDbVertex
100
AcDbPolygonMeshVertex
 10
3.516
 20
-1.34
 30
4.667
 70
    64
  0
SEQEND
  5
39457
100
AcDbEntity
  8
0
  0
POLYLINE
  5
39458
100
AcDbEntity
  8
0
100
AcDbPolygonMesh
 66
     1
 10
0.0
 20
0.0
 30
0.0
 70
    16
 71
     6
 72
     3
  0
VERTEX
  5
39459
100
AcDbEntity
  8
0
100
AcDbVertex
100
AcDbPolygonMeshVertex
 10
3.336
 20
-1.34
 30
4.287
 70
    64
  0
VERTEX
  5
3945A
100
AcDbEntity
  8
0
100
AcDbVertex
100
AcDbPolygonMeshVertex
 10
3.336
 20
-1.34
 30
3.167
 70
    64
  0
VERTEX
  5
3945B
100
AcDbEntity
  8
0
100
AcDbVertex
100
AcDbPolygonMeshVertex
 10
3.336
 20
-1.34
 30
3.167
 70
    64
  0
VERTEX
  5
3945C
100
AcDbEntity
  8
0
100
AcDbVertex
100
AcDbPolygonMeshVertex
 10
3.516
 20
-1.34
 30
4.287
 70
    64
  0
VERTEX
  5
3945D
100
AcDbEntity
  8
0
100
AcDbVertex
100
AcDbPolygonMeshVertex
 10
3.516
 20
-1.34
 30
3.167
 70
    64
  0
VERTEX
  5
3945E
100
AcDbEntity
  8
0
100
AcDbVertex
100
AcDbPolygonMeshVertex
 10
3.516
 20
-1.34
 30
3.167
 70
    64
  0
VERTEX
  5
3945F
100
AcDbEntity
  8
0
100
AcDbVertex
100
AcDbPolygonMeshVertex
 10
3.516
 20
-1.47
 30
4.287
 70
    64
  0
VERTEX
  5
39460
100
AcDbEntity
  8
0
100
AcDbVertex
100
AcDbPolygonMeshVertex
 10
3.516
 20
-1.47
 30
3.167
 70
    64
  0
VERTEX
  5
39461
100
AcDbEntity
  8
0
100
AcDbVertex
100
AcDbPolygonMeshVertex
 10
3.516
 20
-1.34
 30
3.167
 70
    64
  0
VERTEX
  5
39462
100
AcDbEntity
  8
0
100
AcDbVertex
100
AcDbPolygonMeshVertex
 10
3.336
 20
-1.47
 30
4.287
 70
    64
  0
VERTEX
  5
39463
100
AcDbEntity
  8
0
100
AcDbVertex
100
AcDbPolygonMeshVertex
 10
3.336
 20
-1.47
 30
3.167
 70
    64
  0
VERTEX
  5
39464
100
AcDbEntity
  8
0
100
AcDbVertex
100
AcDbPolygonMeshVertex
 10
3.336
 20
-1.34
 30
3.167
 70
    64
  0
VERTEX
  5
39465
100
AcDbEntity
  8
0
100
AcDbVertex
100
AcDbPolygonMeshVertex
 10
3.336
 20
-1.47
 30
4.287
 70
    64
  0
VERTEX
  5
39466
100
AcDbEntity
  8
0
100
AcDbVertex
100
AcDbPolygonMeshVertex
 10
3.336
 20
-1.47
 30
4.287
 70
    64
  0
VERTEX
  5
39467
100
AcDbEntity
  8
0
100
AcDbVertex
100
AcDbPolygonMeshVertex
 10
3.336
 20
-1.34
 30
4.287
 70
    64
  0
VERTEX
  5
39468
100
AcDbEntity
  8
0
100
AcDbVertex
100
AcDbPolygonMeshVertex
 10
3.516
 20
-1.47
 30
4.287
 70
    64
  0
VERTEX
  5
39469
100
AcDbEntity
  8
0
100
AcDbVertex
100
AcDbPolygonMeshVertex
 10
3.516
 20
-1.47
 30
4.287
 70
    64
  0
VERTEX
  5
3946A
100
AcDbEntity
  8
0
100
AcDbVertex
100
AcDbPolygonMeshVertex
 10
3.516
 20
-1.34
 30
4.287
 70
    64
  0
SEQEND
  5
3946B
100
AcDbEntity
  8
0
  0
POLYLINE
  5
3946C
100
AcDbEntity
  8
0
100
AcDbPolygonMesh
 66
     1
 10
0.0
 20
0.0
 30
0.0
 70
    16
 71
     6
 72
     3
  0
VERTEX
  5
3946D
100
AcDbEntity
  8
0
100
AcDbVertex
100
AcDbPolygonMeshVertex
 10
2.276
 20
-1.34
 30
4.667
 70
    64
  0
VERTEX
  5
3946E
100
AcDbEntity
  8
0
100
AcDbVertex
100
AcDbPolygonMeshVertex
 10
2.276
 20
-1.34
 30
4.287
 70
    64
  0
VERTEX
  5
3946F
100
AcDbEntity
  8
0
100
AcDbVertex
100
AcDbPolygonMeshVertex
 10
2.276
 20
-1.34
 30
4.287
 70
    64
  0
VERTEX
  5
39470
100
AcDbEntity
  8
0
100
AcDbVertex
100
AcDbPolygonMeshVertex
 10
2.456
 20
-1.34
 30
4.667
 70
    64
  0
VERTEX
  5
39471
100
AcDbEntity
  8
0
100
AcDbVertex
100
AcDbPolygonMeshVertex
 10
2.456
 20
-1.34
 30
4.287
 70
    64
  0
VERTEX
  5
39472
100
AcDbEntity
  8
0
100
AcDbVertex
100
AcDbPolygonMeshVertex
 10
2.456
 20
-1.34
 30
4.287
 70
    64
  0
VERTEX
  5
39473
100
AcDbEntity
  8
0
100
AcDbVertex
100
AcDbPolygonMeshVertex
 10
2.456
 20
-2.15
 30
4.667
 70
    64
  0
VERTEX
  5
39474
100
AcDbEntity
  8
0
100
AcDbVertex
100
AcDbPolygonMeshVertex
 10
2.456
 20
-2.15
 30
4.287
 70
    64
  0
VERTEX
  5
39475
100
AcDbEntity
  8
0
100
AcDbVertex
100
AcDbPolygonMeshVertex
 10
2.456
 20
-1.34
 30
4.287
 70
    64
  0
VERTEX
  5
39476
100
AcDbEntity
  8
0
100
AcDbVertex
100
AcDbPolygonMeshVertex
 10
2.276
 20
-2.15
 30
4.667
 70
    64
  0
VERTEX
  5
39477
100
AcDbEntity
  8
0
100
AcDbVertex
100
AcDbPolygonMeshVertex
 10
2.276
 20
-2.15
 30
4.287
 70
    64
  0
VERTEX
  5
39478
100
AcDbEntity
  8
0
100
AcDbVertex
100
AcDbPolygonMeshVertex
 10
2.276
 20
-1.34
 30
4.287
 70
    64
  0
VERTEX
  5
39479
100
AcDbEntity
  8
0
100
AcDbVertex
100
AcDbPolygonMeshVertex
 10
2.276
 20
-2.15
 30
4.667
 70
    64
  0
VERTEX
  5
3947A
100
AcDbEntity
  8
0
100
AcDbVertex
100
AcDbPolygonMeshVertex
 10
2.276
 20
-2.15
 30
4.667
 70
    64
  0
VERTEX
  5
3947B
100
AcDbEntity
  8
0
100
AcDbVertex
100
AcDbPolygonMeshVertex
 10
2.276
 20
-1.34
 30
4.667
 70
    64
  0
VERTEX
  5
3947C
100
AcDbEntity
  8
0
100
AcDbVertex
100
AcDbPolygonMeshVertex
 10
2.456
 20
-2.15
 30
4.667
 70
    64
  0
VERTEX
  5
3947D
100
AcDbEntity
  8
0
100
AcDbVertex
100
AcDbPolygonMeshVertex
 10
2.456
 20
-2.15
 30
4.667
 70
    64
  0
VERTEX
  5
3947E
100
AcDbEntity
  8
0
100
AcDbVertex
100
AcDbPolygonMeshVertex
 10
2.456
 20
-1.34
 30
4.667
 70
    64
  0
SEQEND
  5
3947F
100
AcDbEntity
  8
0
  0
POLYLINE
  5
39480
100
AcDbEntity
  8
0
100
AcDbPolygonMesh
 66
     1
 10
0.0
 20
0.0
 30
0.0
 70
    16
 71
     6
 72
     3
  0
VERTEX
  5
39481
100
AcDbEntity
  8
0
100
AcDbVertex
100
AcDbPolygonMeshVertex
 10
2.276
 20
-1.34
 30
4.287
 70
    64
  0
VERTEX
  5
39482
100
AcDbEntity
  8
0
100
AcDbVertex
100
AcDbPolygonMeshVertex
 10
2.276
 20
-1.34
 30
3.167
 70
    64
  0
VERTEX
  5
39483
100
AcDbEntity
  8
0
100
AcDbVertex
100
AcDbPolygonMeshVertex
 10
2.276
 20
-1.34
 30
3.167
 70
    64
  0
VERTEX
  5
39484
100
AcDbEntity
  8
0
100
AcDbVertex
100
AcDbPolygonMeshVertex
 10
2.456
 20
-1.34
 30
4.287
 70
    64
  0
VERTEX
  5
39485
100
AcDbEntity
  8
0
100
AcDbVertex
100
AcDbPolygonMeshVertex
 10
2.456
 20
-1.34
 30
3.167
 70
    64
  0
VERTEX
  5
39486
100
AcDbEntity
  8
0
100
AcDbVertex
100
AcDbPolygonMeshVertex
 10
2.456
 20
-1.34
 30
3.167
 70
    64
  0
VERTEX
  5
39487
100
AcDbEntity
  8
0
100
AcDbVertex
100
AcDbPolygonMeshVertex
 10
2.456
 20
-1.47
 30
4.287
 70
    64
  0
VERTEX
  5
39488
100
AcDbEntity
  8
0
100
AcDbVertex
100
AcDbPolygonMeshVertex
 10
2.456
 20
-1.47
 30
3.167
 70
    64
  0
VERTEX
  5
39489
100
AcDbEntity
  8
0
100
AcDbVertex
100
AcDbPolygonMeshVertex
 10
2.456
 20
-1.34
 30
3.167
 70
    64
  0
VERTEX
  5
3948A
100
AcDbEntity
  8
0
100
AcDbVertex
100
AcDbPolygonMeshVertex
 10
2.276
 20
-1.47
 30
4.287
 70
    64
  0
VERTEX
  5
3948B
100
AcDbEntity
  8
0
100
AcDbVertex
100
AcDbPolygonMeshVertex
 10
2.276
 20
-1.47
 30
3.167
 70
    64
  0
VERTEX
  5
3948C
100
AcDbEntity
  8
0
100
AcDbVertex
100
AcDbPolygonMeshVertex
 10
2.276
 20
-1.34
 30
3.167
 70
    64
  0
VERTEX
  5
3948D
100
AcDbEntity
  8
0
100
AcDbVertex
100
AcDbPolygonMeshVertex
 10
2.276
 20
-1.47
 30
4.287
 70
    64
  0
VERTEX
  5
3948E
100
AcDbEntity
  8
0
100
AcDbVertex
100
AcDbPolygonMeshVertex
 10
2.276
 20
-1.47
 30
4.287
 70
    64
  0
VERTEX
  5
3948F
100
AcDbEntity
  8
0
100
AcDbVertex
100
AcDbPolygonMeshVertex
 10
2.276
 20
-1.34
 30
4.287
 70
    64
  0
VERTEX
  5
39490
100
AcDbEntity
  8
0
100
AcDbVertex
100
AcDbPolygonMeshVertex
 10
2.456
 20
-1.47
 30
4.287
 70
    64
  0
VERTEX
  5
39491
100
AcDbEntity
  8
0
100
AcDbVertex
100
AcDbPolygonMeshVertex
 10
2.456
 20
-1.47
 30
4.287
 70
    64
  0
VERTEX
  5
39492
100
AcDbEntity
  8
0
100
AcDbVertex
100
AcDbPolygonMeshVertex
 10
2.456
 20
-1.34
 30
4.287
 70
    64
  0
SEQEND
  5
39493
100
AcDbEntity
  8
0
  0
POLYLINE
  5
39494
100
AcDbEntity
  8
0
100
AcDbPolygonMesh
 66
     1
 10
0.0
 20
0.0
 30
0.0
 70
    16
 71
     6
 72
     3
  0
VERTEX
  5
39495
100
AcDbEntity
  8
0
100
AcDbVertex
100
AcDbPolygonMeshVertex
 10
3.706
 20
-1.56
 30
4.477
 70
    64
  0
VERTEX
  5
39496
100
AcDbEntity
  8
0
100
AcDbVertex
100
AcDbPolygonMeshVertex
 10
3.706
 20
-1.56
 30
4.287
 70
    64
  0
VERTEX
  5
39497
100
AcDbEntity
  8
0
100
AcDbVertex
100
AcDbPolygonMeshVertex
 10
3.706
 20
-1.56
 30
4.287
 70
    64
  0
VERTEX
  5
39498
100
AcDbEntity
  8
0
100
AcDbVertex
100
AcDbPolygonMeshVertex
 10
4.206
 20
-1.56
 30
4.477
 70
    64
  0
VERTEX
  5
39499
100
AcDbEntity
  8
0
100
AcDbVertex
100
AcDbPolygonMeshVertex
 10
4.206
 20
-1.56
 30
4.287
 70
    64
  0
VERTEX
  5
3949A
100
AcDbEntity
  8
0
100
AcDbVertex
100
AcDbPolygonMeshVertex
 10
4.206
 20
-1.56
 30
4.287
 70
    64
  0
VERTEX
  5
3949B
100
AcDbEntity
  8
0
100
AcDbVertex
100
AcDbPolygonMeshVertex
 10
4.206
 20
-1.97
 30
4.477
 70
    64
  0
VERTEX
  5
3949C
100
AcDbEntity
  8
0
100
AcDbVertex
100
AcDbPolygonMeshVertex
 10
4.206
 20
-1.97
 30
4.287
 70
    64
  0
VERTEX
  5
3949D
100
AcDbEntity
  8
0
100
AcDbVertex
100
AcDbPolygonMeshVertex
 10
4.206
 20
-1.56
 30
4.287
 70
    64
  0
VERTEX
  5
3949E
100
AcDbEntity
  8
0
100
AcDbVertex
100
AcDbPolygonMeshVertex
 10
3.706
 20
-1.97
 30
4.477
 70
    64
  0
VERTEX
  5
3949F
100
AcDbEntity
  8
0
100
AcDbVertex
100
AcDbPolygonMeshVertex
 10
3.706
 20
-1.97
 30
4.287
 70
    64
  0
VERTEX
  5
394A0
100
AcDbEntity
  8
0
100
AcDbVertex
100
AcDbPolygonMeshVertex
 10
3.706
 20
-1.56
 30
4.287
 70
    64
  0
VERTEX
  5
394A1
100
AcDbEntity
  8
0
100
AcDbVertex
100
AcDbPolygonMeshVertex
 10
3.706
 20
-1.97
 30
4.477
 70
    64
  0
VERTEX
  5
394A2
100
AcDbEntity
  8
0
100
AcDbVertex
100
AcDbPolygonMeshVertex
 10
3.706
 20
-1.97
 30
4.477
 70
    64
  0
VERTEX
  5
394A3
100
AcDbEntity
  8
0
100
AcDbVertex
100
AcDbPolygonMeshVertex
 10
3.706
 20
-1.56
 30
4.477
 70
    64
  0
VERTEX
  5
394A4
100
AcDbEntity
  8
0
100
AcDbVertex
100
AcDbPolygonMeshVertex
 10
4.206
 20
-1.97
 30
4.477
 70
    64
  0
VERTEX
  5
394A5
100
AcDbEntity
  8
0
100
AcDbVertex
100
AcDbPolygonMeshVertex
 10
4.206
 20
-1.97
 30
4.477
 70
    64
  0
VERTEX
  5
394A6
100
AcDbEntity
  8
0
100
AcDbVertex
100
AcDbPolygonMeshVertex
 10
4.206
 20
-1.56
 30
4.477
 70
    64
  0
SEQEND
  5
394A7
100
AcDbEntity
  8
0
  0
CIRCLE
  5
394A8
100
AcDbEntity
  8
0
100
AcDbCircle
 10
2.896
 20
-1.765
 30
4.477
 40
0.19
  0
POLYLINE
  5
394A9
100
AcDbEntity
  8
0
100
AcDbPolygonMesh
 66
     1
 10
0.0
 20
0.0
 30
0.0
 70
    16
 71
     6
 72
     3
  0
VERTEX
  5
394AA
100
AcDbEntity
  8
0
100
AcDbVertex
100
AcDbPolygonMeshVertex
 10
2.646
 20
-1.56
 30
4.477
 70
    64
  0
VERTEX
  5
394AB
100
AcDbEntity
  8
0
100
AcDbVertex
100
AcDbPolygonMeshVertex
 10
2.646
 20
-1.56
 30
4.287
 70
    64
  0
VERTEX
  5
394AC
100
AcDbEntity
  8
0
100
AcDbVertex
100
AcDbPolygonMeshVertex
 10
2.646
 20
-1.56
 30
4.287
 70
    64
  0
VERTEX
  5
394AD
100
AcDbEntity
  8
0
100
AcDbVertex
100
AcDbPolygonMeshVertex
 10
3.146
 20
-1.56
 30
4.477
 70
    64
  0
VERTEX
  5
394AE
100
AcDbEntity
  8
0
100
AcDbVertex
100
AcDbPolygonMeshVertex
 10
3.146
 20
-1.56
 30
4.287
 70
    64
  0
VERTEX
  5
394AF
100
AcDbEntity
  8
0
100
AcDbVertex
100
AcDbPolygonMeshVertex
 10
3.146
 20
-1.56
 30
4.287
 70
    64
  0
VERTEX
  5
394B0
100
AcDbEntity
  8
0
100
AcDbVertex
100
AcDbPolygonMeshVertex
 10
3.146
 20
-1.97
 30
4.477
 70
    64
  0
VERTEX
  5
394B1
100
AcDbEntity
  8
0
100
AcDbVertex
100
AcDbPolygonMeshVertex
 10
3.146
 20
-1.97
 30
4.287
 70
    64
  0
VERTEX
  5
394B2
100
AcDbEntity
  8
0
100
AcDbVertex
100
AcDbPolygonMeshVertex
 10
3.146
 20
-1.56
 30
4.287
 70
    64
  0
VERTEX
  5
394B3
100
AcDbEntity
  8
0
100
AcDbVertex
100
AcDbPolygonMeshVertex
 10
2.646
 20
-1.97
 30
4.477
 70
    64
  0
VERTEX
  5
394B4
100
AcDbEntity
  8
0
100
AcDbVertex
100
AcDbPolygonMeshVertex
 10
2.646
 20
-1.97
 30
4.287
 70
    64
  0
VERTEX
  5
394B5
100
AcDbEntity
  8
0
100
AcDbVertex
100
AcDbPolygonMeshVertex
 10
2.646
 20
-1.56
 30
4.287
 70
    64
  0
VERTEX
  5
394B6
100
AcDbEntity
  8
0
100
AcDbVertex
100
AcDbPolygonMeshVertex
 10
2.646
 20
-1.97
 30
4.477
 70
    64
  0
VERTEX
  5
394B7
100
AcDbEntity
  8
0
100
AcDbVertex
100
AcDbPolygonMeshVertex
 10
2.646
 20
-1.97
 30
4.477
 70
    64
  0
VERTEX
  5
394B8
100
AcDbEntity
  8
0
100
AcDbVertex
100
AcDbPolygonMeshVertex
 10
2.646
 20
-1.56
 30
4.477
 70
    64
  0
VERTEX
  5
394B9
100
AcDbEntity
  8
0
100
AcDbVertex
100
AcDbPolygonMeshVertex
 10
3.146
 20
-1.97
 30
4.477
 70
    64
  0
VERTEX
  5
394BA
100
AcDbEntity
  8
0
100
AcDbVertex
100
AcDbPolygonMeshVertex
 10
3.146
 20
-1.97
 30
4.477
 70
    64
  0
VERTEX
  5
394BB
100
AcDbEntity
  8
0
100
AcDbVertex
100
AcDbPolygonMeshVertex
 10
3.146
 20
-1.56
 30
4.477
 70
    64
  0
SEQEND
  5
394BC
100
AcDbEntity
  8
0
  0
CIRCLE
  5
394BD
100
AcDbEntity
  8
0
100
AcDbCircle
 10
1.836
 20
-1.765
 30
4.477
 40
0.19
  0
POLYLINE
  5
394BE
100
AcDbEntity
  8
0
100
AcDbPolygonMesh
 66
     1
 10
0.0
 20
0.0
 30
0.0
 70
    16
 71
     6
 72
     3
  0
VERTEX
  5
394BF
100
AcDbEntity
  8
0
100
AcDbVertex
100
AcDbPolygonMeshVertex
 10
1.586
 20
-1.56
 30
4.477
 70
    64
  0
VERTEX
  5
394C0
100
AcDbEntity
  8
0
100
AcDbVertex
100
AcDbPolygonMeshVertex
 10
1.586
 20
-1.56
 30
4.287
 70
    64
  0
VERTEX
  5
394C1
100
AcDbEntity
  8
0
100
AcDbVertex
100
AcDbPolygonMeshVertex
 10
1.586
 20
-1.56
 30
4.287
 70
    64
  0
VERTEX
  5
394C2
100
AcDbEntity
  8
0
100
AcDbVertex
100
AcDbPolygonMeshVertex
 10
2.086
 20
-1.56
 30
4.477
 70
    64
  0
VERTEX
  5
394C3
100
AcDbEntity
  8
0
100
AcDbVertex
100
AcDbPolygonMeshVertex
 10
2.086
 20
-1.56
 30
4.287
 70
    64
  0
VERTEX
  5
394C4
100
AcDbEntity
  8
0
100
AcDbVertex
100
AcDbPolygonMeshVertex
 10
2.086
 20
-1.56
 30
4.287
 70
    64
  0
VERTEX
  5
394C5
100
AcDbEntity
  8
0
100
AcDbVertex
100
AcDbPolygonMeshVertex
 10
2.086
 20
-1.97
 30
4.477
 70
    64
  0
VERTEX
  5
394C6
100
AcDbEntity
  8
0
100
AcDbVertex
100
AcDbPolygonMeshVertex
 10
2.086
 20
-1.97
 30
4.287
 70
    64
  0
VERTEX
  5
394C7
100
AcDbEntity
  8
0
100
AcDbVertex
100
AcDbPolygonMeshVertex
 10
2.086
 20
-1.56
 30
4.287
 70
    64
  0
VERTEX
  5
394C8
100
AcDbEntity
  8
0
100
AcDbVertex
100
AcDbPolygonMeshVertex
 10
1.586
 20
-1.97
 30
4.477
 70
    64
  0
VERTEX
  5
394C9
100
AcDbEntity
  8
0
100
AcDbVertex
100
AcDbPolygonMeshVertex
 10
1.586
 20
-1.97
 30
4.287
 70
    64
  0
VERTEX
  5
394CA
100
AcDbEntity
  8
0
100
AcDbVertex
100
AcDbPolygonMeshVertex
 10
1.586
 20
-1.56
 30
4.287
 70
    64
  0
VERTEX
  5
394CB
100
AcDbEntity
  8
0
100
AcDbVertex
100
AcDbPolygonMeshVertex
 10
1.586
 20
-1.97
 30
4.477
 70
    64
  0
VERTEX
  5
394CC
100
AcDbEntity
  8
0
100
AcDbVertex
100
AcDbPolygonMeshVertex
 10
1.586
 20
-1.97
 30
4.477
 70
    64
  0
VERTEX
  5
394CD
100
AcDbEntity
  8
0
100
AcDbVertex
100
AcDbPolygonMeshVertex
 10
1.586
 20
-1.56
 30
4.477
 70
    64
  0
VERTEX
  5
394CE
100
AcDbEntity
  8
0
100
AcDbVertex
100
AcDbPolygonMeshVertex
 10
2.086
 20
-1.97
 30
4.477
 70
    64
  0
VERTEX
  5
394CF
100
AcDbEntity
  8
0
100
AcDbVertex
100
AcDbPolygonMeshVertex
 10
2.086
 20
-1.97
 30
4.477
 70
    64
  0
VERTEX
  5
394D0
100
AcDbEntity
  8
0
100
AcDbVertex
100
AcDbPolygonMeshVertex
 10
2.086
 20
-1.56
 30
4.477
 70
    64
  0
SEQEND
  5
394D1
100
AcDbEntity
  8
0
  0
POLYLINE
  5
394D2
100
AcDbEntity
  8
0
100
AcDbPolygonMesh
 66
     1
 10
0.0
 20
0.0
 30
0.0
 70
    16
 71
     6
 72
     3
  0
VERTEX
  5
394D3
100
AcDbEntity
  8
0
100
AcDbVertex
100
AcDbPolygonMeshVertex
 10
4.671
 20
-8.31
 30
0.387
 70
    64
  0
VERTEX
  5
394D4
100
AcDbEntity
  8
0
100
AcDbVertex
100
AcDbPolygonMeshVertex
 10
4.671
 20
-8.31
 30
0.197
 70
    64
  0
VERTEX
  5
394D5
100
AcDbEntity
  8
0
100
AcDbVertex
100
AcDbPolygonMeshVertex
 10
4.671
 20
-8.31
 30
0.197
 70
    64
  0
VERTEX
  5
394D6
100
AcDbEntity
  8
0
100
AcDbVertex
100
AcDbPolygonMeshVertex
 10
1.111
 20
-8.31
 30
0.387
 70
    64
  0
VERTEX
  5
394D7
100
AcDbEntity
  8
0
100
AcDbVertex
100
AcDbPolygonMeshVertex
 10
1.111
 20
-8.31
 30
0.197
 70
    64
  0
VERTEX
  5
394D8
100
AcDbEntity
  8
0
100
AcDbVertex
100
AcDbPolygonMeshVertex
 10
1.111
 20
-8.31
 30
0.197
 70
    64
  0
VERTEX
  5
394D9
100
AcDbEntity
  8
0
100
AcDbVertex
100
AcDbPolygonMeshVertex
 10
1.111
 20
-1.31
 30
0.387
 70
    64
  0
VERTEX
  5
394DA
100
AcDbEntity
  8
0
100
AcDbVertex
100
AcDbPolygonMeshVertex
 10
1.111
 20
-1.31
 30
0.197
 70
    64
  0
VERTEX
  5
394DB
100
AcDbEntity
  8
0
100
AcDbVertex
100
AcDbPolygonMeshVertex
 10
1.111
 20
-8.31
 30
0.197
 70
    64
  0
VERTEX
  5
394DC
100
AcDbEntity
  8
0
100
AcDbVertex
100
AcDbPolygonMeshVertex
 10
4.671
 20
-1.31
 30
0.387
 70
    64
  0
VERTEX
  5
394DD
100
AcDbEntity
  8
0
100
AcDbVertex
100
AcDbPolygonMeshVertex
 10
4.671
 20
-1.31
 30
0.197
 70
    64
  0
VERTEX
  5
394DE
100
AcDbEntity
  8
0
100
AcDbVertex
100
AcDbPolygonMeshVertex
 10
4.671
 20
-8.31
 30
0.197
 70
    64
  0
VERTEX
  5
394DF
100
AcDbEntity
  8
0
100
AcDbVertex
100
AcDbPolygonMeshVertex
 10
4.671
 20
-1.31
 30
0.387
 70
    64
  0
VERTEX
  5
394E0
100
AcDbEntity
  8
0
100
AcDbVertex
100
AcDbPolygonMeshVertex
 10
4.671
 20
-1.31
 30
0.387
 70
    64
  0
VERTEX
  5
394E1
100
AcDbEntity
  8
0
100
AcDbVertex
100
AcDbPolygonMeshVertex
 10
4.671
 20
-8.31
 30
0.387
 70
    64
  0
VERTEX
  5
394E2
100
AcDbEntity
  8
0
100
AcDbVertex
100
AcDbPolygonMeshVertex
 10
1.111
 20
-1.31
 30
0.387
 70
    64
  0
VERTEX
  5
394E3
100
AcDbEntity
  8
0
100
AcDbVertex
100
AcDbPolygonMeshVertex
 10
1.111
 20
-1.31
 30
0.387
 70
    64
  0
VERTEX
  5
394E4
100
AcDbEntity
  8
0
100
AcDbVertex
100
AcDbPolygonMeshVertex
 10
1.111
 20
-8.31
 30
0.387
 70
    64
  0
SEQEND
  5
394E5
100
AcDbEntity
  8
0
  0
LINE
  5
394E6
100
AcDbEntity
  8
0
100
AcDbLine
 10
1.616
 20
-8.31
 30
0.387
 11
1.616
 21
-8.31
 31
0.197
  0
3DFACE
  5
394E7
100
AcDbEntity
  8
0
100
AcDbFace
 10
4.671
 20
-1.31
 30
0.387
 11
4.051
 21
-0.69
 31
0.387
 12
2.611
 22
-0.69
 32
0.387
 13
2.511
 23
-0.97
 33
0.387
 70
     8
  0
3DFACE
  5
394E8
100
AcDbEntity
  8
0
100
AcDbFace
 10
2.021
 20
-0.97
 30
0.387
 11
1.921
 21
-0.69
 31
0.387
 12
1.731
 22
-0.69
 32
0.387
 13
1.111
 23
-1.31
 33
0.387
 70
     8
  0
3DFACE
  5
394E9
100
AcDbEntity
  8
0
100
AcDbFace
 10
2.021
 20
-0.97
 30
0.387
 11
1.111
 21
-1.31
 31
0.387
 12
4.671
 22
-1.31
 32
0.387
 13
2.511
 23
-0.97
 33
0.387
 70
    15
  0
3DFACE
  5
394EA
100
AcDbEntity
  8
0
100
AcDbFace
 10
2.021
 20
-0.97
 30
0.197
 11
1.111
 21
-1.31
 31
0.197
 12
4.671
 22
-1.31
 32
0.197
 13
2.511
 23
-0.97
 33
0.197
 70
    15
  0
3DFACE
  5
394EB
100
AcDbEntity
  8
0
100
AcDbFace
 10
4.671
 20
-1.31
 30
0.197
 11
4.051
 21
-0.69
 31
0.197
 12
2.611
 22
-0.69
 32
0.197
 13
2.511
 23
-0.97
 33
0.197
 70
     8
  0
3DFACE
  5
394EC
100
AcDbEntity
  8
0
100
AcDbFace
 10
2.021
 20
-0.97
 30
0.197
 11
1.921
 21
-0.69
 31
0.197
 12
1.731
 22
-0.69
 32
0.197
 13
1.111
 23
-1.31
 33
0.197
 70
     8
  0
3DFACE
  5
394ED
100
AcDbEntity
  8
0
100
AcDbFace
 10
4.671
 20
-1.31
 30
0.197
 11
4.671
 21
-1.31
 31
0.387
 12
4.051
 22
-0.69
 32
0.387
 13
4.051
 23
-0.69
 33
0.197
  0
3DFACE
  5
394EE
100
AcDbEntity
  8
0
100
AcDbFace
 10
4.051
 20
-0.69
 30
0.387
 11
2.611
 21
-0.69
 31
0.387
 12
2.611
 22
-0.69
 32
0.197
 13
4.051
 23
-0.69
 33
0.197
  0
3DFACE
  5
394EF
100
AcDbEntity
  8
0
100
AcDbFace
 10
2.021
 20
-0.97
 30
0.387
 11
2.021
 21
-0.97
 31
0.197
 12
1.921
 22
-0.69
 32
0.197
 13
1.921
 23
-0.69
 33
0.387
  0
3DFACE
  5
394F0
100
AcDbEntity
  8
0
100
AcDbFace
 10
2.511
 20
-0.97
 30
0.387
 11
2.511
 21
-0.97
 31
0.197
 12
2.021
 22
-0.97
 32
0.197
 13
2.021
 23
-0.97
 33
0.387
  0
3DFACE
  5
394F1
100
AcDbEntity
  8
0
100
AcDbFace
 10
1.921
 20
-0.69
 30
0.387
 11
1.921
 21
-0.69
 31
0.197
 12
1.731
 22
-0.69
 32
0.197
 13
1.731
 23
-0.69
 33
0.387
  0
3DFACE
  5
394F2
100
AcDbEntity
  8
0
100
AcDbFace
 10
2.511
 20
-0.97
 30
0.387
 11
2.511
 21
-0.97
 31
0.197
 12
2.611
 22
-0.69
 32
0.197
 13
2.611
 23
-0.69
 33
0.387
  0
3DFACE
  5
394F3
100
AcDbEntity
  8
0
100
AcDbFace
 10
1.731
 20
-0.69
 30
0.197
 11
1.731
 21
-0.69
 31
0.387
 12
1.111
 22
-1.31
 32
0.387
 13
1.111
 23
-1.31
 33
0.197
  0
TEXT
  5
394F4
100
AcDbEntity
  8
0
100
AcDbText
 10
1.744085
 20
-1.83698
 30
4.477
 40
0.182402
  1
L1
100
AcDbText
  0
TEXT
  5
394F5
100
AcDbEntity
  8
0
100
AcDbText
 10
2.769212
 20
-1.858324
 30
4.477
 40
0.182402
  1
L2
100
AcDbText
  0
TEXT
  5
394F6
100
AcDbEntity
  8
0
100
AcDbText
 10
3.829688
 20
-1.867891
 30
4.477
 40
0.182402
  1
L3
100
AcDbText
  0
TEXT
  5
394F7
100
AcDbEntity
  8
0
100
AcDbText
 10
1.644367
 20
-7.159352
 30
3.837
 40
0.182402
  1
T1
100
AcDbText
  0
TEXT
  5
394F8
100
AcDbEntity
  8
0
100
AcDbText
 10
2.681277
 20
-7.168919
 30
3.837
 40
0.182402
  1
T2
100
AcDbText
  0
TEXT
  5
394F9
100
AcDbEntity
  8
0
100
AcDbText
 10
3.741752
 20
-7.178486
 30
3.837
 40
0.182402
  1
T3
100
AcDbText
  0
3DFACE
  5
394FA
100
AcDbEntity
  8
0
100
AcDbFace
 10
5.137
 20
-1.029
 30
0.197
 11
4.737
 21
-0.629
 31
0.197
 12
4.737
 22
-0.629
 32
0.0
 13
5.137
 23
-1.029
 33
0.0
  0
POLYLINE
  5
394FB
100
AcDbEntity
  8
0
100
AcDbPolygonMesh
 66
     1
 10
0.0
 20
0.0
 30
0.0
 70
    16
 71
     6
 72
     3
  0
VERTEX
  5
394FC
100
AcDbEntity
  8
0
100
AcDbVertex
100
AcDbPolygonMeshVertex
 10
0.483
 20
-6.690001
 30
0.387
 70
    64
  0
VERTEX
  5
394FD
100
AcDbEntity
  8
0
100
AcDbVertex
100
AcDbPolygonMeshVertex
 10
0.483
 20
-6.690001
 30
0.197
 70
    64
  0
VERTEX
  5
394FE
100
AcDbEntity
  8
0
100
AcDbVertex
100
AcDbPolygonMeshVertex
 10
0.483
 20
-6.690001
 30
0.197
 70
    64
  0
VERTEX
  5
394FF
100
AcDbEntity
  8
0
100
AcDbVertex
100
AcDbPolygonMeshVertex
 10
-3.077
 20
-6.690001
 30
0.387
 70
    64
  0
VERTEX
  5
39500
100
AcDbEntity
  8
0
100
AcDbVertex
100
AcDbPolygonMeshVertex
 10
-3.077
 20
-6.690001
 30
0.197
 70
    64
  0
VERTEX
  5
39501
100
AcDbEntity
  8
0
100
AcDbVertex
100
AcDbPolygonMeshVertex
 10
-3.077
 20
-6.690001
 30
0.197
 70
    64
  0
VERTEX
  5
39502
100
AcDbEntity
  8
0
100
AcDbVertex
100
AcDbPolygonMeshVertex
 10
-3.077
 20
-1.31
 30
0.387
 70
    64
  0
VERTEX
  5
39503
100
AcDbEntity
  8
0
100
AcDbVertex
100
AcDbPolygonMeshVertex
 10
-3.077
 20
-1.31
 30
0.197
 70
    64
  0
VERTEX
  5
39504
100
AcDbEntity
  8
0
100
AcDbVertex
100
AcDbPolygonMeshVertex
 10
-3.077
 20
-6.690001
 30
0.197
 70
    64
  0
VERTEX
  5
39505
100
AcDbEntity
  8
0
100
AcDbVertex
100
AcDbPolygonMeshVertex
 10
0.483
 20
-1.31
 30
0.387
 70
    64
  0
VERTEX
  5
39506
100
AcDbEntity
  8
0
100
AcDbVertex
100
AcDbPolygonMeshVertex
 10
0.483
 20
-1.31
 30
0.197
 70
    64
  0
VERTEX
  5
39507
100
AcDbEntity
  8
0
100
AcDbVertex
100
AcDbPolygonMeshVertex
 10
0.483
 20
-6.690001
 30
0.197
 70
    64
  0
VERTEX
  5
39508
100
AcDbEntity
  8
0
100
AcDbVertex
100
AcDbPolygonMeshVertex
 10
0.483
 20
-1.31
 30
0.387
 70
    64
  0
VERTEX
  5
39509
100
AcDbEntity
  8
0
100
AcDbVertex
100
AcDbPolygonMeshVertex
 10
0.483
 20
-1.31
 30
0.387
 70
    64
  0
VERTEX
  5
3950A
100
AcDbEntity
  8
0
100
AcDbVertex
100
AcDbPolygonMeshVertex
 10
0.483
 20
-6.690001
 30
0.387
 70
    64
  0
VERTEX
  5
3950B
100
AcDbEntity
  8
0
100
AcDbVertex
100
AcDbPolygonMeshVertex
 10
-3.077
 20
-1.31
 30
0.387
 70
    64
  0
VERTEX
  5
3950C
100
AcDbEntity
  8
0
100
AcDbVertex
100
AcDbPolygonMeshVertex
 10
-3.077
 20
-1.31
 30
0.387
 70
    64
  0
VERTEX
  5
3950D
100
AcDbEntity
  8
0
100
AcDbVertex
100
AcDbPolygonMeshVertex
 10
-3.077
 20
-6.690001
 30
0.387
 70
    64
  0
SEQEND
  5
3950E
100
AcDbEntity
  8
0
  0
POLYLINE
  5
3950F
100
AcDbEntity
  8
0
100
AcDbPolygonMesh
 66
     1
 10
0.0
 20
0.0
 30
0.0
 70
    16
 71
     6
 72
     3
  0
VERTEX
  5
39510
100
AcDbEntity
  8
0
100
AcDbVertex
100
AcDbPolygonMeshVertex
 10
1.216
 20
-5.16
 30
4.667
 70
    64
  0
VERTEX
  5
39511
100
AcDbEntity
  8
0
100
AcDbVertex
100
AcDbPolygonMeshVertex
 10
1.216
 20
-5.16
 30
0.387
 70
    64
  0
VERTEX
  5
39512
100
AcDbEntity
  8
0
100
AcDbVertex
100
AcDbPolygonMeshVertex
 10
1.216
 20
-5.16
 30
0.387
 70
    64
  0
VERTEX
  5
39513
100
AcDbEntity
  8
0
100
AcDbVertex
100
AcDbPolygonMeshVertex
 10
0.388
 20
-5.16
 30
4.667
 70
    64
  0
VERTEX
  5
39514
100
AcDbEntity
  8
0
100
AcDbVertex
100
AcDbPolygonMeshVertex
 10
0.388
 20
-5.16
 30
0.387
 70
    64
  0
VERTEX
  5
39515
100
AcDbEntity
  8
0
100
AcDbVertex
100
AcDbPolygonMeshVertex
 10
0.388
 20
-5.16
 30
0.387
 70
    64
  0
VERTEX
  5
39516
100
AcDbEntity
  8
0
100
AcDbVertex
100
AcDbPolygonMeshVertex
 10
0.388
 20
-3.1
 30
4.667
 70
    64
  0
VERTEX
  5
39517
100
AcDbEntity
  8
0
100
AcDbVertex
100
AcDbPolygonMeshVertex
 10
0.388
 20
-3.1
 30
0.387
 70
    64
  0
VERTEX
  5
39518
100
AcDbEntity
  8
0
100
AcDbVertex
100
AcDbPolygonMeshVertex
 10
0.388
 20
-5.16
 30
0.387
 70
    64
  0
VERTEX
  5
39519
100
AcDbEntity
  8
0
100
AcDbVertex
100
AcDbPolygonMeshVertex
 10
1.216
 20
-3.1
 30
4.667
 70
    64
  0
VERTEX
  5
3951A
100
AcDbEntity
  8
0
100
AcDbVertex
100
AcDbPolygonMeshVertex
 10
1.216
 20
-3.1
 30
0.387
 70
    64
  0
VERTEX
  5
3951B
100
AcDbEntity
  8
0
100
AcDbVertex
100
AcDbPolygonMeshVertex
 10
1.216
 20
-5.16
 30
0.387
 70
    64
  0
VERTEX
  5
3951C
100
AcDbEntity
  8
0
100
AcDbVertex
100
AcDbPolygonMeshVertex
 10
1.216
 20
-3.1
 30
4.667
 70
    64
  0
VERTEX
  5
3951D
100
AcDbEntity
  8
0
100
AcDbVertex
100
AcDbPolygonMeshVertex
 10
1.216
 20
-3.1
 30
4.667
 70
    64
  0
VERTEX
  5
3951E
100
AcDbEntity
  8
0
100
AcDbVertex
100
AcDbPolygonMeshVertex
 10
1.216
 20
-5.16
 30
4.667
 70
    64
  0
VERTEX
  5
3951F
100
AcDbEntity
  8
0
100
AcDbVertex
100
AcDbPolygonMeshVertex
 10
0.388
 20
-3.1
 30
4.667
 70
    64
  0
VERTEX
  5
39520
100
AcDbEntity
  8
0
100
AcDbVertex
100
AcDbPolygonMeshVertex
 10
0.388
 20
-3.1
 30
4.667
 70
    64
  0
VERTEX
  5
39521
100
AcDbEntity
  8
0
100
AcDbVertex
100
AcDbPolygonMeshVertex
 10
0.388
 20
-5.16
 30
4.667
 70
    64
  0
SEQEND
  5
39522
100
AcDbEntity
  8
0
  0
ATTDEF
  5
39523
100
AcDbEntity
  8
ATTRIBUTES
100
AcDbText
 10
-2.780842
 20
-5.983614
 30
0.0
 40
0.147608
  1
ALLEN-BRADLEY
100
AcDbAttributeDefinition
  3
MANUFACTURER NAME?
  2
AC_VND_LABEL
 70
     1
  0
ATTDEF
  5
39524
100
AcDbEntity
  8
ATTRIBUTES
100
AcDbText
 10
-2.780842
 20
-6.291132
 30
0.0
 40
0.147608
  1
505-A
100
AcDbAttributeDefinition
  3
CATALOG NUMBER?
  2
AC_PART_NO
 70
     1
  0
ATTDEF
  5
39525
100
AcDbEntity
  8
ATTRIBUTES
100
AcDbText
 10
-2.780842
 20
-6.598649
 30
0.0
 40
0.147608
  1
REVERSING STARTER W/ EUTECTIC ALLOY OLR; SIZE 0 & 1
100
AcDbAttributeDefinition
  3
PART DESCRIPTION?
  2
AC_DESCRIPTION
 70
     1
  0
ATTDEF
  5
39526
100
AcDbEntity
  8
ATTRIBUTES
100
AcDbText
 10
-2.780842
 20
-6.906167
 30
0.0
 40
0.147608
  1

100
AcDbAttributeDefinition
  3
DEVICE ID?
  2
DEVICE_ID
 70
     1
  0
ATTDEF
  5
39527
100
AcDbEntity
  8
ATTRIBUTES
100
AcDbText
 10
-2.780842
 20
-7.213684
 30
0.0
 40
0.147608
  1

100
AcDbAttributeDefinition
  3
CUSTOMER PART NUMBER?
  2
AC_CPART_NO
 70
     1
  0
ATTDEF
  5
39528
100
AcDbEntity
  8
ATTRIBUTES
100
AcDbText
 10
-2.780842
 20
-7.521202
 30
0.0
 40
0.147608
  1

100
AcDbAttributeDefinition
  3
CUSTOMER NOTE?
  2
AC_NOTE
 70
     1
  0
ATTDEF
  5
39529
100
AcDbEntity
  8
ATTRIBUTES
100
AcDbText
 10
-2.780842
 20
-7.828719
 30
0.0
 40
0.147608
  1

100
AcDbAttributeDefinition
  3
FASTENER DATA?
  2
FASTENER
 70
     1
  0
ATTDEF
  5
3952A
100
AcDbEntity
  8
ATTRIBUTES
100
AcDbText
 10
-2.780842
 20
-8.136237
 30
0.0
 40
0.147608
  1
INCH
100
AcDbAttributeDefinition
  3
UNIT OF SCALE?
  2
AC_SCALE_UNIT
 70
     1
  0
ATTDEF
  5
3952B
100
AcDbEntity
  8
ATTRIBUTES
100
AcDbText
 10
-2.780842
 20
-8.443754
 30
0.0
 40
0.147608
  1
0
100
AcDbAttributeDefinition
  3
VIEW CODE?
  2
AC_VIEW_CODE
 70
     1
  0
POINT
  5
3952C
100
AcDbEntity
  8
DIMS-MTG-HOLES
100
AcDbPoint
 10
-2.753
 20
-8.658
 30
0.0
  0
POINT
  5
3952D
100
AcDbEntity
  8
DIMS-MTG-HOLES
100
AcDbPoint
 10
4.337
 20
-8.658
 30
0.0
  0
POINT
  5
3952E
100
AcDbEntity
  8
DIMS-MTG-HOLES
100
AcDbPoint
 10
0.0
 20
0.0
 30
0.0
  0
DIMENSION
  5
3952F
100
AcDbEntity
  8
AREA1
100
AcDbDimension
  2
*D0
 10
-4.175074
 20
-8.879
 30
0.0
 11
-4.175074
 21
-4.517139
 31
0.0
 70
   160
  3
ABECAD_3V
100
AcDbAlignedDimension
 13
-1.0
 23
0.281
 33
0.0
 14
-3.023
 24
-8.879
 34
0.0
 50
90.0
100
AcDbRotatedDimension
1001
ACAD
1000
DSTYLE
1002
{
1070
    40
1040
2.815149
1002
}
  0
DIMENSION
  5
39530
100
AcDbEntity
  8
AREA1
100
AcDbDimension
  2
*D1
 10
5.137
 20
0.979966
 30
0.0
 11
1.122996
 21
0.979966
 31
0.0
 70
   160
  3
ABECAD_3V
100
AcDbAlignedDimension
 13
-3.153
 23
-1.029
 33
0.0
 14
5.137
 24
-1.029
 34
0.0
100
AcDbRotatedDimension
1001
ACAD
1000
DSTYLE
1002
{
1070
    40
1040
2.815149
1002
}
  0
LWPOLYLINE
  5
39531
100
AcDbEntity
  8
SCALE
100
AcDbPolyline
 90
        4
 70
     1
 43
0.0
 10
0.424571
 20
-9.197888
 10
1.5602
 20
-9.197888
 10
1.5602
 20
-10.039497
 10
0.424571
 20
-10.039497
  0
LINE
  5
39532
100
AcDbEntity
  8
SCALE
100
AcDbLine
 10
0.48257
 20
-9.577966
 30
0.0
 11
1.48257
 21
-9.577966
 31
0.0
  0
LINE
  5
39533
100
AcDbEntity
  8
SCALE
100
AcDbLine
 10
0.48257
 20
-9.877966
 30
0.0
 11
0.87627
 21
-9.877966
 31
0.0
  0
LINE
  5
39534
100
AcDbEntity
  8
SCALE
100
AcDbLine
 10
0.48257
 20
-9.677966
 30
0.0
 11
0.48257
 21
-9.477966
 31
0.0
  0
TEXT
  5
39535
100
AcDbEntity
  8
SCALE
100
AcDbText
 10
0.538546
 20
-9.830281
 30
0.0
 40
0.0625
  1
[10mm]
100
AcDbText
  0
LINE
  5
39536
100
AcDbEntity
  8
SCALE
100
AcDbLine
 10
0.48257
 20
-9.977966
 30
0.0
 11
0.48257
 21
-9.777966
 31
0.0
  0
TEXT
  5
39537
100
AcDbEntity
  8
SCALE
100
AcDbText
 10
0.4841
 20
-9.303089
 30
0.0
 40
0.0625
  1
SCALE:
100
AcDbText
  0
LINE
  5
39538
100
AcDbEntity
  8
SCALE
100
AcDbLine
 10
0.87627
 20
-9.977966
 30
0.0
 11
0.87627
 21
-9.777966
 31
0.0
  0
TEXT
  5
39539
100
AcDbEntity
  8
SCALE
100
AcDbText
 10
0.845853
 20
-9.508917
 30
0.0
 40
0.0625
  1
1 Inch
100
AcDbText
  0
LINE
  5
3953A
100
AcDbEntity
  8
SCALE
100
AcDbLine
 10
1.48257
 20
-9.577966
 30
0.0
 11
1.48257
 21
-9.677966
 31
0.0
  0
LINE
  5
3953B
100
AcDbEntity
  8
SCALE
100
AcDbLine
 10
1.48257
 20
-9.677966
 30
0.0
 11
1.48257
 21
-9.477966
 31
0.0
  0
DIMENSION
  5
3957E
100
AcDbEntity
  8
AREA2
100
AcDbDimension
  2
*D2
 10
-4.064807
 20
0.0
 30
0.0
 11
-4.064807
 21
2.271134
 31
0.0
 70
   160
210
0.0
220
-1.0
230
0.0
  3
ABECAD_3V
100
AcDbAlignedDimension
 13
1.988
 23
-5.79
 33
4.747
 14
-3.153
 24
0.281
 34
0.0
 50
90.0
100
AcDbRotatedDimension
1001
ACAD
1000
DSTYLE
1002
{
1070
    40
1040
2.815149
1002
}
  0
VIEWPORT
  5
2C
102
{ACAD_XDICTIONARY
360
39691
102
}
100
AcDbEntity
 67
     1
  8
0
100
AcDbViewport
 10
4.999849
 20
3.750155
 30
0.0
 40
14.996891
 41
7.611204
 68
     1
 69
     1
1001
ACAD
1000
MVIEW
1002
{
1070
    16
1010
0.0
1020
0.0
1030
0.0
1010
0.0
1020
0.0
1030
1.0
1040
0.0
1040
7.611204
1040
4.999849
1040
3.750155
1040
50.0
1040
0.0
1040
0.0
1070
     0
1070
   100
1070
     1
1070
     1
1070
     0
1070
     0
1070
     0
1070
     0
1040
0.0
1040
0.0
1040
0.0
1040
1.0
1040
1.0
1040
0.0
1040
0.0
1070
     0
1002
{
1002
}
1002
}
  0
VIEWPORT
  5
2D
102
{ACAD_XDICTIONARY
360
39693
102
}
100
AcDbEntity
 67
     1
  8
0
100
AcDbViewport
 10
2.5
 20
5.625
 30
0.0
 40
5.0
 41
3.75
 68
     3
 69
     2
1001
ACAD
1000
MVIEW
1002
{
1070
    16
1010
0.0
1020
0.0
1030
0.0
1010
0.0
1020
0.0
1030
1.0
1040
0.0
1040
10.506064
1040
0.418463
1040
-3.858824
1040
50.0
1040
0.0
1040
0.0
1070
     0
1070
   100
1070
     1
1070
     0
1070
     0
1070
     0
1070
     0
1070
     0
1040
0.0
1040
0.0
1040
0.0
1040
1.0
1040
1.0
1040
0.0
1040
0.0
1070
     0
1002
{
1003
AREA2
1002
}
1002
}
  0
VIEWPORT
  5
2E
102
{ACAD_XDICTIONARY
360
39695
102
}
100
AcDbEntity
 67
     1
  8
0
100
AcDbViewport
 10
2.5
 20
1.875
 30
0.0
 40
5.0
 41
3.75
 68
     2
 69
     3
1001
ACAD
1000
MVIEW
1002
{
1070
    16
1010
0.0
1020
0.0
1030
0.0
1010
0.0
1020
-1.0
1030
0.0
1040
0.0
1040
10.556809
1040
0.418463
1040
2.3735
1040
50.0
1040
0.0
1040
0.0
1070
     0
1070
   100
1070
     1
1070
     0
1070
     0
1070
     0
1070
     0
1070
     0
1040
0.0
1040
0.0
1040
0.0
1040
1.0
1040
1.0
1040
0.0
1040
0.0
1070
     0
1002
{
1003
AREA1
1002
}
1002
}
  0
VIEWPORT
  5
2F
102
{ACAD_XDICTIONARY
360
39697
102
}
100
AcDbEntity
 67
     1
  8
0
100
AcDbViewport
 10
7.5
 20
3.75
 30
0.0
 40
5.0
 41
7.5
 68
     4
 69
     4
1001
ACAD
1000
MVIEW
1002
{
1070
    16
1010
0.0
1020
0.0
1030
0.0
1010
-1.0
1020
-1.0
1030
1.0
1040
0.0
1040
17.678596
1040
4.213939
1040
1.082036
1040
50.0
1040
0.0
1040
0.0
1070
     0
1070
   100
1070
     1
1070
     0
1070
     0
1070
     0
1070
     0
1070
     0
1040
0.0
1040
0.0
1040
0.0
1040
1.0
1040
1.0
1040
0.0
1040
0.0
1070
     0
1002
{
1003
AREA1
1003
AREA2
1002
}
1002
}
  0
TEXT
  5
42D
100
AcDbEntity
 67
     1
  8
0
100
AcDbText
 10
5.253785
 20
7.092701
 30
0.0
 40
0.2
  1

100
AcDbText
  0
TEXT
  5
431
100
AcDbEntity
 67
     1
  8
0
100
AcDbText
 10
5.253785
 20
6.759368
 30
0.0
 40
0.2
  1

100
AcDbText
1001
ACAD
1000
R13OBJECT
1002
{
1005
42D
1002
}
  0
TEXT
  5
11D16
100
AcDbEntity
 67
     1
  8
AREA2
100
AcDbText
 10
5.101109
 20
7.152637
 30
0.0
 40
0.2
  1
505-A
100
AcDbText
  0
TEXT
  5
24C0A
100
AcDbEntity
 67
     1
  8
AREA2
100
AcDbText
 10
5.101109
 20
6.881437
 30
0.0
 40
0.2
  1
REVERSING STARTER 
100
AcDbText
  0
TEXT
  5
2F662
100
AcDbEntity
 67
     1
  8
AREA2
100
AcDbText
 10
5.101109
 20
6.599834
 30
0.0
 40
0.2
  1
W/ EUTECTIC ALLOY OLR; 
100
AcDbText
  0
TEXT
  5
38CE3
100
AcDbEntity
 67
     1
  8
AREA2
100
AcDbText
 10
5.101109
 20
6.324204
 30
0.0
 40
0.2
  1
SIZE 0 & 1
100
AcDbText
  0
ENDSEC
  0
SECTION
  2
OBJECTS
  0
DICTIONARY
  5
46D
100
AcDbDictionary
  3
ACAD_GROUP
350
46E
  3
ACAD_LAYOUT
350
49E
  3
ACAD_MLINESTYLE
350
47B
  3
ACAD_PLOTSETTINGS
350
49F
  3
ACAD_PLOTSTYLENAME
350
49C
  3
ACDBHEADERROUNDTRIPXREC
350
39670
  3
ACDBVARIABLEDICTIONARY
350
48D
  0
DICTIONARY
  5
3966E
100
AcDbDictionary
280
     1
  3
ACAD_XREC_ROUNDTRIP
360
3966F
  0
DICTIONARY
  5
3969B
100
AcDbDictionary
280
     1
  3
ACAD_XREC_ROUNDTRIP
360
3969C
  0
DICTIONARY
  5
3969D
100
AcDbDictionary
280
     1
  3
ACAD_XREC_ROUNDTRIP
360
3969E
  0
DICTIONARY
  5
396A1
100
AcDbDictionary
280
     1
  3
ACAD_XREC_ROUNDTRIP
360
396A2
  0
DICTIONARY
  5
4D2
100
AcDbDictionary
280
     1
  3
ACAD_LAYOUTSELFREF
360
3969A
  0
DICTIONARY
  5
4D0
100
AcDbDictionary
280
     1
  3
ACAD_LAYOUTSELFREF
360
39699
  0
DICTIONARY
  5
39691
100
AcDbDictionary
280
     1
  3
ACAD_XREC_ROUNDTRIP
360
39692
  0
DICTIONARY
  5
39693
100
AcDbDictionary
280
     1
  3
ACAD_XREC_ROUNDTRIP
360
39694
  0
DICTIONARY
  5
39695
100
AcDbDictionary
280
     1
  3
ACAD_XREC_ROUNDTRIP
360
39696
  0
DICTIONARY
  5
39697
100
AcDbDictionary
280
     1
  3
ACAD_XREC_ROUNDTRIP
360
39698
  0
DICTIONARY
  5
46E
102
{ACAD_REACTORS
330
46D
102
}
100
AcDbDictionary
  0
DICTIONARY
  5
49E
102
{ACAD_XDICTIONARY
360
3969F
102
}
102
{ACAD_REACTORS
330
46D
102
}
100
AcDbDictionary
  3
LAYOUT1
350
4A1
  3
MODEL
350
4A0
  0
DICTIONARY
  5
47B
102
{ACAD_REACTORS
330
46D
102
}
100
AcDbDictionary
  3
STANDARD
350
47C
  0
DICTIONARY
  5
49F
102
{ACAD_REACTORS
330
46D
102
}
100
AcDbDictionary
  0
ACAD_PROXY_OBJECT
  5
49C
102
{ACAD_REACTORS
330
46D
102
}
100
AcDbProxyObject
 90
      499
 91
      501
 93
       86
310
405010041939BDC9B585B0
350
49D
340
49D
 94
        0
  0
DICTIONARY
  5
39670
102
{ACAD_REACTORS
330
46D
102
}
100
AcDbDictionary
  3
CEPSNTYPE
350
3967A
  3
DIMSTYLEDATA
350
3967E
  3
FINGERPRINTGUID
350
3967B
  3
HYPERLINKBASE
350
39673
  3
INSUNITS
350
39679
  3
LAYOUTDICT
350
39675
  3
LWETCUNION
350
39678
  3
PLOTSETDICT
350
39676
  3
PLOTSTYLNAMDICT
350
39677
  3
PSVPSCALE
350
3967D
  3
PUCSBASE
350
39681
  3
PUCSORGBACK
350
39687
  3
PUCSORGBOTTOM
350
39683
  3
PUCSORGFRONT
350
39686
  3
PUCSORGLEFT
350
39684
  3
PUCSORGRIGHT
350
39685
  3
PUCSORGTOP
350
39682
  3
PUCSORTHOREF
350
3967F
  3
PUCSORTHOVIEW
350
39680
  3
STYLESHEET
350
39674
  3
TSTACKALIGN
350
39671
  3
TSTACKSIZE
350
39672
  3
UCSBASE
350
3968A
  3
UCSORGBACK
350
39690
  3
UCSORGBOTTOM
350
3968C
  3
UCSORGFRONT
350
3968F
  3
UCSORGLEFT
350
3968D
  3
UCSORGRIGHT
350
3968E
  3
UCSORGTOP
350
3968B
  3
UCSORTHOREF
350
39688
  3
UCSORTHOVIEW
350
39689
  3
VERSIONGUID
350
3967C
  0
DICTIONARY
  5
48D
102
{ACAD_REACTORS
330
46D
102
}
100
AcDbDictionary
  3
DIMADEC
350
48E
  0
XRECORD
  5
3966F
102
{ACAD_REACTORS
330
3966E
102
}
100
AcDbXrecord
102
EXTNAMES
  1
*ACTIVE
  2
*Active
102
UCS
 74
     0
 71
     1
 10
0.0
 20
0.0
 30
0.0
 10
1.0
 20
0.0
 30
0.0
 10
0.0
 20
1.0
 30
0.0
146
0.0
 79
     1
102
VIEW
281
     1
  0
XRECORD
  5
3969C
102
{ACAD_REACTORS
330
3969B
102
}
100
AcDbXrecord
102
PLOTBIT
280
     0
  0
XRECORD
  5
3969E
102
{ACAD_REACTORS
330
3969D
102
}
100
AcDbXrecord
102
ACADR14ROUNDTRIP
1000
DSTYLE
1002
{
1070
   276
 70
     2
1070
   277
 70
     5
1070
   279
 70
     2
1002
}
  0
XRECORD
  5
396A2
102
{ACAD_REACTORS
330
396A1
102
}
100
AcDbXrecord
102
ACADR14ROUNDTRIP
1000
DSTYLE
1002
{
1070
   276
 70
     2
1070
   277
 70
     5
1070
   279
 70
     2
1070
   289
 70
     2
1002
}
  0
XRECORD
  5
3969A
102
{ACAD_REACTORS
330
4D2
102
}
100
AcDbXrecord
340
478
  0
XRECORD
  5
39699
102
{ACAD_REACTORS
330
4D0
102
}
100
AcDbXrecord
340
475
  0
XRECORD
  5
39692
102
{ACAD_REACTORS
330
39691
102
}
100
AcDbXrecord
102
UCS
 74
     0
 71
     1
 10
0.0
 20
0.0
 30
0.0
 10
1.0
 20
0.0
 30
0.0
 10
0.0
 20
1.0
 30
0.0
146
0.0
 79
     0
102
VIEW
281
     0
102
NEWVIEWCONTROL
280
     4
  0
XRECORD
  5
39694
102
{ACAD_REACTORS
330
39693
102
}
100
AcDbXrecord
102
UCS
 74
     0
 71
     1
 10
0.0
 20
0.0
 30
0.0
 10
1.0
 20
0.0
 30
0.0
 10
0.0
 20
1.0
 30
0.0
146
0.0
 79
     1
102
VIEW
281
     0
102
NEWVIEWCONTROL
280
     4
  0
XRECORD
  5
39696
102
{ACAD_REACTORS
330
39695
102
}
100
AcDbXrecord
102
UCS
 74
     0
 71
     1
 10
0.0
 20
0.0
 30
0.0
 10
1.0
 20
0.0
 30
0.0
 10
0.0
 20
0.0
 30
1.0
146
0.0
 79
     3
102
VIEW
281
     0
102
NEWVIEWCONTROL
280
     4
  0
XRECORD
  5
39698
102
{ACAD_REACTORS
330
39697
102
}
100
AcDbXrecord
102
UCS
 74
     0
 71
     1
 10
0.0
 20
0.0
 30
0.0
 10
1.0
 20
0.0
 30
0.0
 10
0.0
 20
1.0
 30
0.0
146
0.0
 79
     0
102
VIEW
281
     0
102
NEWVIEWCONTROL
280
     4
  0
DICTIONARY
  5
3969F
100
AcDbDictionary
280
     1
  3
ACAD_XREC_ROUNDTRIP
360
396A0
  0
ACAD_PROXY_OBJECT
  5
4A1
102
{ACAD_REACTORS
330
49E
102
}
100
AcDbProxyObject
 90
      499
 91
      503
 93
     2044
310
91D4850204C617365724A65742035303030205365726965732050434C20362C008000000C0BB1B1440000000102F06C510000000000BC1B1440000000002E06C5100000000C0CCFC6A4000000018199D9C501064C6574746572A901406AA427D84144352EEE3F47D11959985D5B1D08148C4D081C195B88185CDCDA59DB9B5
310
95B9D1CCB98DD18A30EDE3B1BBFDBC0FC1D572C8D6D0C833F1A2B3054E9249F0FD074C61796F75743140501A97D7DB4AA43C31EFF91E46EBA53B71EFD1B32A15809809100B2537F8EAD447D02A6A6A00200C0093BD106FC0000F06EE366FABE0000032E846F6A2F44424FF2920002440160B7F435600079000000D00CEECC5
310
43D0
330
475
330
2C
340
0
340
0
 94
        0
  0
ACAD_PROXY_OBJECT
  5
4A0
102
{ACAD_REACTORS
330
49E
102
}
100
AcDbProxyObject
 90
      499
 91
      503
 93
      924
310
91D4850204C617365724A65742035303030205365726965732050434C20362C01AAAAAAAAA547D11959985D5B1D08148C4D081C195B88185CDCDA59DB9B595B9D1CCB98DD18A69054D6F64656C901A800000000000000000000000000000000000000000000A1000000000000008902A6A6AAAA0
330
478
330
0
340
0
340
0
 94
        0
  0
MLINESTYLE
  5
47C
102
{ACAD_REACTORS
330
47B
102
}
100
AcDbMlineStyle
  2
STANDARD
 70
     0
  3

 62
   256
 51
90.0
 52
90.0
 71
     2
 49
0.5
 62
   256
  6
BYLAYER
 49
-0.5
 62
   256
  6
BYLAYER
  0
ACAD_PROXY_OBJECT
  5
49D
102
{ACAD_REACTORS
330
49C
102
}
100
AcDbProxyObject
 90
      499
 91
      502
 93
        0
 94
        0
  0
XRECORD
  5
3967A
102
{ACAD_REACTORS
330
39670
102
}
100
AcDbXrecord
 90
        0
  0
XRECORD
  5
3967E
102
{ACAD_REACTORS
330
39670
102
}
100
AcDbXrecord
1000
DSTYLE
1002
{
1070
   276
 70
     2
1070
   277
 70
     5
1070
   279
 70
     2
1002
}
  0
XRECORD
  5
3967B
102
{ACAD_REACTORS
330
39670
102
}
100
AcDbXrecord
  1
{6E0CF4B5-225E-11D4-A150-00A0CC3303EC}
  0
XRECORD
  5
39673
102
{ACAD_REACTORS
330
39670
102
}
100
AcDbXrecord
  1

  0
XRECORD
  5
39679
102
{ACAD_REACTORS
330
39670
102
}
100
AcDbXrecord
 90
        0
  0
XRECORD
  5
39675
102
{ACAD_REACTORS
330
39670
102
}
100
AcDbXrecord
340
49E
  0
XRECORD
  5
39678
102
{ACAD_REACTORS
330
39670
102
}
100
AcDbXrecord
 90
    14877
  0
XRECORD
  5
39676
102
{ACAD_REACTORS
330
39670
102
}
100
AcDbXrecord
340
49F
  0
XRECORD
  5
39677
102
{ACAD_REACTORS
330
39670
102
}
100
AcDbXrecord
340
49C
  0
XRECORD
  5
3967D
102
{ACAD_REACTORS
330
39670
102
}
100
AcDbXrecord
 40
0.0
  0
XRECORD
  5
39681
102
{ACAD_REACTORS
330
39670
102
}
100
AcDbXrecord
340
0
  0
XRECORD
  5
39687
102
{ACAD_REACTORS
330
39670
102
}
100
AcDbXrecord
 10
0.0
 20
0.0
 30
0.0
  0
XRECORD
  5
39683
102
{ACAD_REACTORS
330
39670
102
}
100
AcDbXrecord
 10
0.0
 20
0.0
 30
0.0
  0
XRECORD
  5
39686
102
{ACAD_REACTORS
330
39670
102
}
100
AcDbXrecord
 10
0.0
 20
0.0
 30
0.0
  0
XRECORD
  5
39684
102
{ACAD_REACTORS
330
39670
102
}
100
AcDbXrecord
 10
0.0
 20
0.0
 30
0.0
  0
XRECORD
  5
39685
102
{ACAD_REACTORS
330
39670
102
}
100
AcDbXrecord
 10
0.0
 20
0.0
 30
0.0
  0
XRECORD
  5
39682
102
{ACAD_REACTORS
330
39670
102
}
100
AcDbXrecord
 10
0.0
 20
0.0
 30
0.0
  0
XRECORD
  5
3967F
102
{ACAD_REACTORS
330
39670
102
}
100
AcDbXrecord
340
0
  0
XRECORD
  5
39680
102
{ACAD_REACTORS
330
39670
102
}
100
AcDbXrecord
 70
     0
  0
XRECORD
  5
39674
102
{ACAD_REACTORS
330
39670
102
}
100
AcDbXrecord
  1

  0
XRECORD
  5
39671
102
{ACAD_REACTORS
330
39670
102
}
100
AcDbXrecord
 90
        1
  0
XRECORD
  5
39672
102
{ACAD_REACTORS
330
39670
102
}
100
AcDbXrecord
 90
       70
  0
XRECORD
  5
3968A
102
{ACAD_REACTORS
330
39670
102
}
100
AcDbXrecord
340
0
  0
XRECORD
  5
39690
102
{ACAD_REACTORS
330
39670
102
}
100
AcDbXrecord
 10
0.0
 20
0.0
 30
0.0
  0
XRECORD
  5
3968C
102
{ACAD_REACTORS
330
39670
102
}
100
AcDbXrecord
 10
0.0
 20
0.0
 30
0.0
  0
XRECORD
  5
3968F
102
{ACAD_REACTORS
330
39670
102
}
100
AcDbXrecord
 10
0.0
 20
0.0
 30
0.0
  0
XRECORD
  5
3968D
102
{ACAD_REACTORS
330
39670
102
}
100
AcDbXrecord
 10
0.0
 20
0.0
 30
0.0
  0
XRECORD
  5
3968E
102
{ACAD_REACTORS
330
39670
102
}
100
AcDbXrecord
 10
0.0
 20
0.0
 30
0.0
  0
XRECORD
  5
3968B
102
{ACAD_REACTORS
330
39670
102
}
100
AcDbXrecord
 10
0.0
 20
0.0
 30
0.0
  0
XRECORD
  5
39688
102
{ACAD_REACTORS
330
39670
102
}
100
AcDbXrecord
340
0
  0
XRECORD
  5
39689
102
{ACAD_REACTORS
330
39670
102
}
100
AcDbXrecord
 70
     3
  0
XRECORD
  5
3967C
102
{ACAD_REACTORS
330
39670
102
}
100
AcDbXrecord
  1
{1C969558-1887-4906-818D-C5499BA3C7F6}
  0
DICTIONARYVAR
  5
48E
102
{ACAD_REACTORS
330
48D
102
}
100
DictionaryVariables
280
     0
  1
0
  0
XRECORD
  5
396A0
102
{ACAD_REACTORS
330
3969F
102
}
100
AcDbXrecord
102
EXTNAMES
  1
LAYOUT1
  2
Layout1
  1
MODEL
  2
Model
  0
ENDSEC
  0
EOF
