  0
SECTION
  2
HEADER
  9
$ACADVER
  1
AC1014
  9
$ACADMAINTVER
 70
     8
  9
$DWGCODEPAGE
  3
ANSI_1252
  9
$INSBASE
 10
0.0
 20
0.0
 30
0.0
  9
$EXTMIN
 10
-4.606339
 20
-8.297649
 30
-0.005106
  9
$EXTMAX
 10
4.727
 20
1.404818
 30
4.857
  9
$LIMMIN
 10
0.0
 20
0.0
  9
$LIMMAX
 10
12.0
 20
9.0
  9
$ORTHOMODE
 70
     0
  9
$REGENMODE
 70
     1
  9
$FILLMODE
 70
     1
  9
$QTEXTMODE
 70
     0
  9
$MIRRTEXT
 70
     1
  9
$DRAGMODE
 70
     2
  9
$LTSCALE
 40
1.0
  9
$OSMODE
 70
    37
  9
$ATTMODE
 70
     0
  9
$TEXTSIZE
 40
0.2
  9
$TRACEWID
 40
0.05
  9
$TEXTSTYLE
  7
STANDARD
  9
$CLAYER
  8
0
  9
$CELTYPE
  6
BYLAYER
  9
$CECOLOR
 62
   256
  9
$CELTSCALE
 40
1.0
  9
$DELOBJ
 70
     1
  9
$DISPSILH
 70
     0
  9
$DIMSCALE
 40
0.0
  9
$DIMASZ
 40
0.125
  9
$DIMEXO
 40
0.0625
  9
$DIMDLI
 40
0.375
  9
$DIMRND
 40
0.0
  9
$DIMDLE
 40
0.0
  9
$DIMEXE
 40
0.0625
  9
$DIMTP
 40
0.0
  9
$DIMTM
 40
0.0
  9
$DIMTXT
 40
0.125
  9
$DIMCEN
 40
0.09
  9
$DIMTSZ
 40
0.0
  9
$DIMTOL
 70
     0
  9
$DIMLIM
 70
     0
  9
$DIMTIH
 70
     0
  9
$DIMTOH
 70
     1
  9
$DIMSE1
 70
     0
  9
$DIMSE2
 70
     0
  9
$DIMTAD
 70
     0
  9
$DIMZIN
 70
     4
  9
$DIMBLK
  1

  9
$DIMASO
 70
     1
  9
$DIMSHO
 70
     1
  9
$DIMPOST
  1

  9
$DIMAPOST
  1

  9
$DIMALT
 70
     1
  9
$DIMALTD
 70
     2
  9
$DIMALTF
 40
25.4
  9
$DIMLFAC
 40
1.0
  9
$DIMTOFL
 70
     0
  9
$DIMTVP
 40
0.0
  9
$DIMTIX
 70
     0
  9
$DIMSOXD
 70
     0
  9
$DIMSAH
 70
     0
  9
$DIMBLK1
  1

  9
$DIMBLK2
  1

  9
$DIMSTYLE
  2
ABECAD_3V
  9
$DIMCLRD
 70
     0
  9
$DIMCLRE
 70
     0
  9
$DIMCLRT
 70
     0
  9
$DIMTFAC
 40
1.5
  9
$DIMGAP
 40
0.09
  9
$DIMJUST
 70
     0
  9
$DIMSD1
 70
     0
  9
$DIMSD2
 70
     0
  9
$DIMTOLJ
 70
     1
  9
$DIMTZIN
 70
     4
  9
$DIMALTZ
 70
     4
  9
$DIMALTTZ
 70
     4
  9
$DIMFIT
 70
     5
  9
$DIMUPT
 70
     1
  9
$DIMUNIT
 70
     7
  9
$DIMDEC
 70
     6
  9
$DIMTDEC
 70
     6
  9
$DIMALTU
 70
     2
  9
$DIMALTTD
 70
     2
  9
$DIMTXSTY
  7
STANDARD
  9
$DIMAUNIT
 70
     0
  9
$LUNITS
 70
     2
  9
$LUPREC
 70
     6
  9
$SKETCHINC
 40
0.1
  9
$FILLETRAD
 40
0.0
  9
$AUNITS
 70
     0
  9
$AUPREC
 70
     0
  9
$MENU
  1
acad
  9
$ELEVATION
 40
0.0
  9
$PELEVATION
 40
0.0
  9
$THICKNESS
 40
0.0
  9
$LIMCHECK
 70
     0
  9
$BLIPMODE
 70
     0
  9
$CHAMFERA
 40
0.0
  9
$CHAMFERB
 40
0.0
  9
$CHAMFERC
 40
0.0
  9
$CHAMFERD
 40
0.0
  9
$SKPOLY
 70
     0
  9
$TDCREATE
 40
2451726.438362384
  9
$TDUPDATE
 40
2452010.725144213
  9
$TDINDWG
 40
1.0955482639
  9
$TDUSRTIMER
 40
1.0955482639
  9
$USRTIMER
 70
     1
  9
$ANGBASE
 50
0.0
  9
$ANGDIR
 70
     0
  9
$PDMODE
 70
     3
  9
$PDSIZE
 40
0.18
  9
$PLINEWID
 40
0.0
  9
$COORDS
 70
     1
  9
$SPLFRAME
 70
     0
  9
$SPLINETYPE
 70
     6
  9
$SPLINESEGS
 70
     8
  9
$ATTDIA
 70
     0
  9
$ATTREQ
 70
     1
  9
$HANDLING
 70
     1
  9
$HANDSEED
  5
494CC
  9
$SURFTAB1
 70
     6
  9
$SURFTAB2
 70
     6
  9
$SURFTYPE
 70
     6
  9
$SURFU
 70
     6
  9
$SURFV
 70
     6
  9
$UCSNAME
  2

  9
$UCSORG
 10
0.0
 20
0.0
 30
0.0
  9
$UCSXDIR
 10
1.0
 20
0.0
 30
0.0
  9
$UCSYDIR
 10
0.0
 20
0.0
 30
1.0
  9
$PUCSNAME
  2

  9
$PUCSORG
 10
0.0
 20
0.0
 30
0.0
  9
$PUCSXDIR
 10
1.0
 20
0.0
 30
0.0
  9
$PUCSYDIR
 10
0.0
 20
1.0
 30
0.0
  9
$USERI1
 70
     0
  9
$USERI2
 70
     0
  9
$USERI3
 70
     0
  9
$USERI4
 70
     0
  9
$USERI5
 70
     0
  9
$USERR1
 40
0.0
  9
$USERR2
 40
0.0
  9
$USERR3
 40
0.0
  9
$USERR4
 40
0.0
  9
$USERR5
 40
0.0
  9
$WORLDVIEW
 70
     1
  9
$SHADEDGE
 70
     3
  9
$SHADEDIF
 70
    70
  9
$TILEMODE
 70
     0
  9
$MAXACTVP
 70
    16
  9
$PINSBASE
 10
0.0
 20
0.0
 30
0.0
  9
$PLIMCHECK
 70
     0
  9
$PEXTMIN
 10
0.0
 20
0.0
 30
0.0
  9
$PEXTMAX
 10
10.0
 20
7.5
 30
0.0
  9
$PLIMMIN
 10
-0.187029
 20
-0.186938
  9
$PLIMMAX
 10
10.187518
 20
7.829757
  9
$UNITMODE
 70
     0
  9
$VISRETAIN
 70
     0
  9
$PLINEGEN
 70
     0
  9
$PSLTSCALE
 70
     1
  9
$TREEDEPTH
 70
  3020
  9
$PICKSTYLE
 70
     1
  9
$CMLSTYLE
  2
STANDARD
  9
$CMLJUST
 70
     0
  9
$CMLSCALE
 40
1.0
  9
$PROXYGRAPHICS
 70
     1
  9
$MEASUREMENT
 70
     0
  0
ENDSEC
  0
SECTION
  2
CLASSES
  0
CLASS
  1
DICTIONARYVAR
  2
AcDbDictionaryVar
  3
"AutoCAD"
 90
        0
280
     0
281
     0
  0
CLASS
  1
ACDBDICTIONARYWDFLT
  2
AcDbDictionaryWithDefault
  3
AutoCAD 2000
 90
        0
280
     0
281
     0
  0
CLASS
  1
ACDBPLACEHOLDER
  2
AcDbPlaceHolder
  3
AutoCAD 2000
 90
        0
280
     0
281
     0
  0
CLASS
  1
LAYOUT
  2
AcDbLayout
  3
AutoCAD 2000
 90
        0
280
     0
281
     0
  0
CLASS
  1
LONG_TRANSACTION
  2
AcDbLongTransaction
  3
AutoCAD 2000
 90
        0
280
     0
281
     0
  0
CLASS
  1
LWPOLYLINE
  2
AcDbPolyline
  3
"AutoCAD"
 90
        0
280
     0
281
     1
  0
CLASS
  1
HATCH
  2
AcDbHatch
  3
"ACAD_SEDONA"
 90
        0
280
     0
281
     1
  0
CLASS
  1
XRECORD
  2
AcDbXrecord
  3
"<Built In>"
 90
        0
280
     0
281
     0
  0
CLASS
  1
LONG_TRANSACTION
  2
AcDbLongTransaction
  3
AutoCAD 2000
 90
        0
280
     0
281
     0
  0
CLASS
  1
LWPOLYLINE
  2
AcDbPolyline
  3
"AutoCAD"
 90
        0
280
     0
281
     1
  0
CLASS
  1
HATCH
  2
AcDbHatch
  3
"ACAD_SEDONA"
 90
        0
280
     0
281
     1
  0
CLASS
  1
XRECORD
  2
AcDbXrecord
  3
"<Built In>"
 90
        0
280
     0
281
     0
  0
CLASS
  1
LONG_TRANSACTION
  2
AcDbLongTransaction
  3
AutoCAD 2000
 90
        0
280
     0
281
     0
  0
CLASS
  1
LWPOLYLINE
  2
AcDbPolyline
  3
"AutoCAD"
 90
        0
280
     0
281
     1
  0
CLASS
  1
HATCH
  2
AcDbHatch
  3
"ACAD_SEDONA"
 90
        0
280
     0
281
     1
  0
CLASS
  1
XRECORD
  2
AcDbXrecord
  3
"<Built In>"
 90
        0
280
     0
281
     0
  0
CLASS
  1
LONG_TRANSACTION
  2
AcDbLongTransaction
  3
AutoCAD 2000
 90
        0
280
     0
281
     0
  0
CLASS
  1
LWPOLYLINE
  2
AcDbPolyline
  3
"AutoCAD"
 90
        0
280
     0
281
     1
  0
CLASS
  1
HATCH
  2
AcDbHatch
  3
"ACAD_SEDONA"
 90
        0
280
     0
281
     1
  0
CLASS
  1
XRECORD
  2
AcDbXrecord
  3
"<Built In>"
 90
        0
280
     0
281
     0
  0
CLASS
  1
LONG_TRANSACTION
  2
AcDbLongTransaction
  3
AutoCAD 2000
 90
        0
280
     0
281
     0
  0
CLASS
  1
LWPOLYLINE
  2
AcDbPolyline
  3
"AutoCAD"
 90
        0
280
     0
281
     1
  0
CLASS
  1
HATCH
  2
AcDbHatch
  3
"ACAD_SEDONA"
 90
        0
280
     0
281
     1
  0
CLASS
  1
XRECORD
  2
AcDbXrecord
  3
"<Built In>"
 90
        0
280
     0
281
     0
  0
CLASS
  1
LONG_TRANSACTION
  2
AcDbLongTransaction
  3
AutoCAD 2000
 90
        0
280
     0
281
     0
  0
CLASS
  1
LWPOLYLINE
  2
AcDbPolyline
  3
"AutoCAD"
 90
        0
280
     0
281
     1
  0
CLASS
  1
HATCH
  2
AcDbHatch
  3
"ACAD_SEDONA"
 90
        0
280
     0
281
     1
  0
CLASS
  1
XRECORD
  2
AcDbXrecord
  3
"<Built In>"
 90
        0
280
     0
281
     0
  0
CLASS
  1
LONG_TRANSACTION
  2
AcDbLongTransaction
  3
AutoCAD 2000
 90
        0
280
     0
281
     0
  0
CLASS
  1
LWPOLYLINE
  2
AcDbPolyline
  3
"AutoCAD"
 90
        0
280
     0
281
     1
  0
CLASS
  1
HATCH
  2
AcDbHatch
  3
"ACAD_SEDONA"
 90
        0
280
     0
281
     1
  0
CLASS
  1
XRECORD
  2
AcDbXrecord
  3
"<Built In>"
 90
        0
280
     0
281
     0
  0
CLASS
  1
LONG_TRANSACTION
  2
AcDbLongTransaction
  3
AutoCAD 2000
 90
        0
280
     0
281
     0
  0
CLASS
  1
LWPOLYLINE
  2
AcDbPolyline
  3
"AutoCAD"
 90
        0
280
     0
281
     1
  0
CLASS
  1
HATCH
  2
AcDbHatch
  3
"ACAD_SEDONA"
 90
        0
280
     0
281
     1
  0
CLASS
  1
XRECORD
  2
AcDbXrecord
  3
"<Built In>"
 90
        0
280
     0
281
     0
  0
CLASS
  1
LONG_TRANSACTION
  2
AcDbLongTransaction
  3
AutoCAD 2000
 90
        0
280
     0
281
     0
  0
CLASS
  1
LWPOLYLINE
  2
AcDbPolyline
  3
"AutoCAD"
 90
        0
280
     0
281
     1
  0
CLASS
  1
HATCH
  2
AcDbHatch
  3
"ACAD_SEDONA"
 90
        0
280
     0
281
     1
  0
CLASS
  1
XRECORD
  2
AcDbXrecord
  3
"<Built In>"
 90
        0
280
     0
281
     0
  0
CLASS
  1
LONG_TRANSACTION
  2
AcDbLongTransaction
  3
AutoCAD 2000
 90
        0
280
     0
281
     0
  0
CLASS
  1
LWPOLYLINE
  2
AcDbPolyline
  3
"AutoCAD"
 90
        0
280
     0
281
     1
  0
CLASS
  1
HATCH
  2
AcDbHatch
  3
"ACAD_SEDONA"
 90
        0
280
     0
281
     1
  0
CLASS
  1
XRECORD
  2
AcDbXrecord
  3
"<Built In>"
 90
        0
280
     0
281
     0
  0
CLASS
  1
LONG_TRANSACTION
  2
AcDbLongTransaction
  3
AutoCAD 2000
 90
        0
280
     0
281
     0
  0
CLASS
  1
LWPOLYLINE
  2
AcDbPolyline
  3
"AutoCAD"
 90
        0
280
     0
281
     1
  0
CLASS
  1
HATCH
  2
AcDbHatch
  3
"ACAD_SEDONA"
 90
        0
280
     0
281
     1
  0
CLASS
  1
XRECORD
  2
AcDbXrecord
  3
"<Built In>"
 90
        0
280
     0
281
     0
  0
CLASS
  1
LONG_TRANSACTION
  2
AcDbLongTransaction
  3
AutoCAD 2000
 90
        0
280
     0
281
     0
  0
CLASS
  1
LWPOLYLINE
  2
AcDbPolyline
  3
"AutoCAD"
 90
        0
280
     0
281
     1
  0
CLASS
  1
HATCH
  2
AcDbHatch
  3
"ACAD_SEDONA"
 90
        0
280
     0
281
     1
  0
CLASS
  1
XRECORD
  2
AcDbXrecord
  3
"<Built In>"
 90
        0
280
     0
281
     0
  0
CLASS
  1
LONG_TRANSACTION
  2
AcDbLongTransaction
  3
AutoCAD 2000
 90
        0
280
     0
281
     0
  0
CLASS
  1
LWPOLYLINE
  2
AcDbPolyline
  3
"AutoCAD"
 90
        0
280
     0
281
     1
  0
CLASS
  1
HATCH
  2
AcDbHatch
  3
"ACAD_SEDONA"
 90
        0
280
     0
281
     1
  0
CLASS
  1
XRECORD
  2
AcDbXrecord
  3
"<Built In>"
 90
        0
280
     0
281
     0
  0
CLASS
  1
LONG_TRANSACTION
  2
AcDbLongTransaction
  3
AutoCAD 2000
 90
        0
280
     0
281
     0
  0
CLASS
  1
LWPOLYLINE
  2
AcDbPolyline
  3
"AutoCAD"
 90
        0
280
     0
281
     1
  0
CLASS
  1
HATCH
  2
AcDbHatch
  3
"ACAD_SEDONA"
 90
        0
280
     0
281
     1
  0
CLASS
  1
XRECORD
  2
AcDbXrecord
  3
"<Built In>"
 90
        0
280
     0
281
     0
  0
CLASS
  1
LONG_TRANSACTION
  2
AcDbLongTransaction
  3
AutoCAD 2000
 90
        0
280
     0
281
     0
  0
CLASS
  1
LWPOLYLINE
  2
AcDbPolyline
  3
"AutoCAD"
 90
        0
280
     0
281
     1
  0
CLASS
  1
HATCH
  2
AcDbHatch
  3
"ACAD_SEDONA"
 90
        0
280
     0
281
     1
  0
CLASS
  1
XRECORD
  2
AcDbXrecord
  3
"<Built In>"
 90
        0
280
     0
281
     0
  0
CLASS
  1
LONG_TRANSACTION
  2
AcDbLongTransaction
  3
AutoCAD 2000
 90
        0
280
     0
281
     0
  0
CLASS
  1
LWPOLYLINE
  2
AcDbPolyline
  3
"AutoCAD"
 90
        0
280
     0
281
     1
  0
CLASS
  1
HATCH
  2
AcDbHatch
  3
"ACAD_SEDONA"
 90
        0
280
     0
281
     1
  0
CLASS
  1
XRECORD
  2
AcDbXrecord
  3
"<Built In>"
 90
        0
280
     0
281
     0
  0
CLASS
  1
LONG_TRANSACTION
  2
AcDbLongTransaction
  3
AutoCAD 2000
 90
        0
280
     0
281
     0
  0
CLASS
  1
LWPOLYLINE
  2
AcDbPolyline
  3
"AutoCAD"
 90
        0
280
     0
281
     1
  0
CLASS
  1
HATCH
  2
AcDbHatch
  3
"ACAD_SEDONA"
 90
        0
280
     0
281
     1
  0
CLASS
  1
XRECORD
  2
AcDbXrecord
  3
"<Built In>"
 90
        0
280
     0
281
     0
  0
CLASS
  1
LONG_TRANSACTION
  2
AcDbLongTransaction
  3
AutoCAD 2000
 90
        0
280
     0
281
     0
  0
CLASS
  1
LWPOLYLINE
  2
AcDbPolyline
  3
"AutoCAD"
 90
        0
280
     0
281
     1
  0
CLASS
  1
HATCH
  2
AcDbHatch
  3
"ACAD_SEDONA"
 90
        0
280
     0
281
     1
  0
CLASS
  1
XRECORD
  2
AcDbXrecord
  3
"<Built In>"
 90
        0
280
     0
281
     0
  0
CLASS
  1
LONG_TRANSACTION
  2
AcDbLongTransaction
  3
AutoCAD 2000
 90
        0
280
     0
281
     0
  0
CLASS
  1
LWPOLYLINE
  2
AcDbPolyline
  3
"AutoCAD"
 90
        0
280
     0
281
     1
  0
CLASS
  1
HATCH
  2
AcDbHatch
  3
"ACAD_SEDONA"
 90
        0
280
     0
281
     1
  0
CLASS
  1
XRECORD
  2
AcDbXrecord
  3
"<Built In>"
 90
        0
280
     0
281
     0
  0
CLASS
  1
LONG_TRANSACTION
  2
AcDbLongTransaction
  3
AutoCAD 2000
 90
        0
280
     0
281
     0
  0
CLASS
  1
LWPOLYLINE
  2
AcDbPolyline
  3
"AutoCAD"
 90
        0
280
     0
281
     1
  0
CLASS
  1
HATCH
  2
AcDbHatch
  3
"ACAD_SEDONA"
 90
        0
280
     0
281
     1
  0
CLASS
  1
XRECORD
  2
AcDbXrecord
  3
"<Built In>"
 90
        0
280
     0
281
     0
  0
CLASS
  1
LONG_TRANSACTION
  2
AcDbLongTransaction
  3
AutoCAD 2000
 90
        0
280
     0
281
     0
  0
CLASS
  1
LWPOLYLINE
  2
AcDbPolyline
  3
"AutoCAD"
 90
        0
280
     0
281
     1
  0
CLASS
  1
HATCH
  2
AcDbHatch
  3
"ACAD_SEDONA"
 90
        0
280
     0
281
     1
  0
CLASS
  1
XRECORD
  2
AcDbXrecord
  3
"<Built In>"
 90
        0
280
     0
281
     0
  0
CLASS
  1
LONG_TRANSACTION
  2
AcDbLongTransaction
  3
AutoCAD 2000
 90
        0
280
     0
281
     0
  0
CLASS
  1
LWPOLYLINE
  2
AcDbPolyline
  3
"AutoCAD"
 90
        0
280
     0
281
     1
  0
CLASS
  1
HATCH
  2
AcDbHatch
  3
"ACAD_SEDONA"
 90
        0
280
     0
281
     1
  0
CLASS
  1
XRECORD
  2
AcDbXrecord
  3
"<Built In>"
 90
        0
280
     0
281
     0
  0
CLASS
  1
LONG_TRANSACTION
  2
AcDbLongTransaction
  3
AutoCAD 2000
 90
        0
280
     0
281
     0
  0
CLASS
  1
LWPOLYLINE
  2
AcDbPolyline
  3
"AutoCAD"
 90
        0
280
     0
281
     1
  0
CLASS
  1
HATCH
  2
AcDbHatch
  3
"ACAD_SEDONA"
 90
        0
280
     0
281
     1
  0
CLASS
  1
XRECORD
  2
AcDbXrecord
  3
"<Built In>"
 90
        0
280
     0
281
     0
  0
CLASS
  1
LONG_TRANSACTION
  2
AcDbLongTransaction
  3
AutoCAD 2000
 90
        0
280
     0
281
     0
  0
CLASS
  1
LWPOLYLINE
  2
AcDbPolyline
  3
"AutoCAD"
 90
        0
280
     0
281
     1
  0
CLASS
  1
HATCH
  2
AcDbHatch
  3
"ACAD_SEDONA"
 90
        0
280
     0
281
     1
  0
CLASS
  1
XRECORD
  2
AcDbXrecord
  3
"<Built In>"
 90
        0
280
     0
281
     0
  0
CLASS
  1
LONG_TRANSACTION
  2
AcDbLongTransaction
  3
AutoCAD 2000
 90
        0
280
     0
281
     0
  0
CLASS
  1
LWPOLYLINE
  2
AcDbPolyline
  3
"AutoCAD"
 90
        0
280
     0
281
     1
  0
CLASS
  1
HATCH
  2
AcDbHatch
  3
"ACAD_SEDONA"
 90
        0
280
     0
281
     1
  0
CLASS
  1
XRECORD
  2
AcDbXrecord
  3
"<Built In>"
 90
        0
280
     0
281
     0
  0
CLASS
  1
LONG_TRANSACTION
  2
AcDbLongTransaction
  3
AutoCAD 2000
 90
        0
280
     0
281
     0
  0
CLASS
  1
LWPOLYLINE
  2
AcDbPolyline
  3
"AutoCAD"
 90
        0
280
     0
281
     1
  0
CLASS
  1
HATCH
  2
AcDbHatch
  3
"ACAD_SEDONA"
 90
        0
280
     0
281
     1
  0
CLASS
  1
XRECORD
  2
AcDbXrecord
  3
"<Built In>"
 90
        0
280
     0
281
     0
  0
CLASS
  1
LONG_TRANSACTION
  2
AcDbLongTransaction
  3
AutoCAD 2000
 90
        0
280
     0
281
     0
  0
CLASS
  1
LWPOLYLINE
  2
AcDbPolyline
  3
"AutoCAD"
 90
        0
280
     0
281
     1
  0
CLASS
  1
HATCH
  2
AcDbHatch
  3
"ACAD_SEDONA"
 90
        0
280
     0
281
     1
  0
CLASS
  1
XRECORD
  2
AcDbXrecord
  3
"<Built In>"
 90
        0
280
     0
281
     0
  0
CLASS
  1
LONG_TRANSACTION
  2
AcDbLongTransaction
  3
AutoCAD 2000
 90
        0
280
     0
281
     0
  0
CLASS
  1
LWPOLYLINE
  2
AcDbPolyline
  3
"AutoCAD"
 90
        0
280
     0
281
     1
  0
CLASS
  1
HATCH
  2
AcDbHatch
  3
"ACAD_SEDONA"
 90
        0
280
     0
281
     1
  0
CLASS
  1
XRECORD
  2
AcDbXrecord
  3
"<Built In>"
 90
        0
280
     0
281
     0
  0
CLASS
  1
LONG_TRANSACTION
  2
AcDbLongTransaction
  3
AutoCAD 2000
 90
        0
280
     0
281
     0
  0
CLASS
  1
LWPOLYLINE
  2
AcDbPolyline
  3
"AutoCAD"
 90
        0
280
     0
281
     1
  0
CLASS
  1
HATCH
  2
AcDbHatch
  3
"ACAD_SEDONA"
 90
        0
280
     0
281
     1
  0
CLASS
  1
XRECORD
  2
AcDbXrecord
  3
"<Built In>"
 90
        0
280
     0
281
     0
  0
CLASS
  1
LONG_TRANSACTION
  2
AcDbLongTransaction
  3
AutoCAD 2000
 90
        0
280
     0
281
     0
  0
CLASS
  1
LWPOLYLINE
  2
AcDbPolyline
  3
"AutoCAD"
 90
        0
280
     0
281
     1
  0
CLASS
  1
HATCH
  2
AcDbHatch
  3
"ACAD_SEDONA"
 90
        0
280
     0
281
     1
  0
CLASS
  1
XRECORD
  2
AcDbXrecord
  3
"<Built In>"
 90
        0
280
     0
281
     0
  0
CLASS
  1
LONG_TRANSACTION
  2
AcDbLongTransaction
  3
AutoCAD 2000
 90
        0
280
     0
281
     0
  0
CLASS
  1
LWPOLYLINE
  2
AcDbPolyline
  3
"AutoCAD"
 90
        0
280
     0
281
     1
  0
CLASS
  1
HATCH
  2
AcDbHatch
  3
"ACAD_SEDONA"
 90
        0
280
     0
281
     1
  0
CLASS
  1
XRECORD
  2
AcDbXrecord
  3
"<Built In>"
 90
        0
280
     0
281
     0
  0
CLASS
  1
LONG_TRANSACTION
  2
AcDbLongTransaction
  3
AutoCAD 2000
 90
        0
280
     0
281
     0
  0
CLASS
  1
LWPOLYLINE
  2
AcDbPolyline
  3
"AutoCAD"
 90
        0
280
     0
281
     1
  0
CLASS
  1
HATCH
  2
AcDbHatch
  3
"ACAD_SEDONA"
 90
        0
280
     0
281
     1
  0
CLASS
  1
XRECORD
  2
AcDbXrecord
  3
"<Built In>"
 90
        0
280
     0
281
     0
  0
CLASS
  1
LONG_TRANSACTION
  2
AcDbLongTransaction
  3
AutoCAD 2000
 90
        0
280
     0
281
     0
  0
CLASS
  1
LWPOLYLINE
  2
AcDbPolyline
  3
"AutoCAD"
 90
        0
280
     0
281
     1
  0
CLASS
  1
HATCH
  2
AcDbHatch
  3
"ACAD_SEDONA"
 90
        0
280
     0
281
     1
  0
CLASS
  1
XRECORD
  2
AcDbXrecord
  3
"<Built In>"
 90
        0
280
     0
281
     0
  0
CLASS
  1
LONG_TRANSACTION
  2
AcDbLongTransaction
  3
AutoCAD 2000
 90
        0
280
     0
281
     0
  0
CLASS
  1
LWPOLYLINE
  2
AcDbPolyline
  3
"AutoCAD"
 90
        0
280
     0
281
     1
  0
CLASS
  1
HATCH
  2
AcDbHatch
  3
"ACAD_SEDONA"
 90
        0
280
     0
281
     1
  0
CLASS
  1
XRECORD
  2
AcDbXrecord
  3
"<Built In>"
 90
        0
280
     0
281
     0
  0
CLASS
  1
LONG_TRANSACTION
  2
AcDbLongTransaction
  3
AutoCAD 2000
 90
        0
280
     0
281
     0
  0
CLASS
  1
LWPOLYLINE
  2
AcDbPolyline
  3
"AutoCAD"
 90
        0
280
     0
281
     1
  0
CLASS
  1
HATCH
  2
AcDbHatch
  3
"ACAD_SEDONA"
 90
        0
280
     0
281
     1
  0
CLASS
  1
XRECORD
  2
AcDbXrecord
  3
"<Built In>"
 90
        0
280
     0
281
     0
  0
CLASS
  1
LONG_TRANSACTION
  2
AcDbLongTransaction
  3
AutoCAD 2000
 90
        0
280
     0
281
     0
  0
CLASS
  1
LWPOLYLINE
  2
AcDbPolyline
  3
"AutoCAD"
 90
        0
280
     0
281
     1
  0
CLASS
  1
HATCH
  2
AcDbHatch
  3
"ACAD_SEDONA"
 90
        0
280
     0
281
     1
  0
CLASS
  1
XRECORD
  2
AcDbXrecord
  3
"<Built In>"
 90
        0
280
     0
281
     0
  0
ENDSEC
  0
SECTION
  2
TABLES
  0
TABLE
  2
VPORT
  5
469
100
AcDbSymbolTable
 70
     1
  0
VPORT
  5
493C5
102
{ACAD_XDICTIONARY
360
49494
102
}
100
AcDbSymbolTableRecord
100
AcDbViewportTableRecord
  2
*ACTIVE
 70
     0
 10
0.0
 20
0.0
 11
1.0
 21
1.0
 12
-2.20231
 22
-2.281772
 13
0.0
 23
0.0
 14
1.0
 24
1.0
 15
0.0
 25
0.0
 16
0.0
 26
0.0
 36
1.0
 17
2.363971
 27
-1.157606
 37
0.0
 40
9.8278
 41
1.82218
 42
50.0
 43
0.0
 44
0.0
 50
0.0
 51
0.0
 71
     0
 72
   100
 73
     1
 74
     1
 75
     0
 76
     0
 77
     0
 78
     0
  0
ENDTAB
  0
TABLE
  2
LTYPE
  5
466
100
AcDbSymbolTable
 70
     1
  0
LTYPE
  5
472
100
AcDbSymbolTableRecord
100
AcDbLinetypeTableRecord
  2
BYBLOCK
 70
     0
  3

 72
    65
 73
     0
 40
0.0
  0
LTYPE
  5
473
100
AcDbSymbolTableRecord
100
AcDbLinetypeTableRecord
  2
BYLAYER
 70
     0
  3

 72
    65
 73
     0
 40
0.0
  0
LTYPE
  5
474
100
AcDbSymbolTableRecord
100
AcDbLinetypeTableRecord
  2
CONTINUOUS
 70
     0
  3
Solid line
 72
    65
 73
     0
 40
0.0
  0
ENDTAB
  0
TABLE
  2
LAYER
  5
463
100
AcDbSymbolTable
 70
     8
  0
LAYER
  5
46F
100
AcDbSymbolTableRecord
100
AcDbLayerTableRecord
  2
0
 70
     0
 62
     7
  6
CONTINUOUS
  0
LAYER
  5
485
100
AcDbSymbolTableRecord
100
AcDbLayerTableRecord
  2
AREA1
 70
     0
 62
     7
  6
CONTINUOUS
  0
LAYER
  5
486
100
AcDbSymbolTableRecord
100
AcDbLayerTableRecord
  2
AREA2
 70
     0
 62
     7
  6
CONTINUOUS
  0
LAYER
  5
494
102
{ACAD_XDICTIONARY
360
494C1
102
}
100
AcDbSymbolTableRecord
100
AcDbLayerTableRecord
  2
DEFPOINTS
 70
     0
 62
    -7
  6
CONTINUOUS
  0
LAYER
  5
495
100
AcDbSymbolTableRecord
100
AcDbLayerTableRecord
  2
DIMS-MTG-HOLES
 70
     0
 62
    -1
  6
CONTINUOUS
  0
LAYER
  5
4E6
100
AcDbSymbolTableRecord
100
AcDbLayerTableRecord
  2
SCALE
 70
     0
 62
    -7
  6
CONTINUOUS
  0
LAYER
  5
4ED
100
AcDbSymbolTableRecord
100
AcDbLayerTableRecord
  2
SNAP_POINTS
 70
     0
 62
    -1
  6
CONTINUOUS
  0
LAYER
  5
4F1
100
AcDbSymbolTableRecord
100
AcDbLayerTableRecord
  2
ATTRIBUTES
 70
     0
 62
    -7
  6
CONTINUOUS
  0
ENDTAB
  0
TABLE
  2
STYLE
  5
464
100
AcDbSymbolTable
 70
     1
  0
STYLE
  5
470
100
AcDbSymbolTableRecord
100
AcDbTextStyleTableRecord
  2
STANDARD
 70
     0
 40
0.0
 41
1.0
 50
0.0
 71
     0
 42
0.2
  3
txt
  4

  0
ENDTAB
  0
TABLE
  2
VIEW
  5
467
100
AcDbSymbolTable
 70
     0
  0
ENDTAB
  0
TABLE
  2
UCS
  5
468
100
AcDbSymbolTable
 70
     0
  0
ENDTAB
  0
TABLE
  2
APPID
  5
46A
100
AcDbSymbolTable
 70
     2
  0
APPID
  5
471
100
AcDbSymbolTableRecord
100
AcDbRegAppTableRecord
  2
ACAD
 70
     0
  0
APPID
  5
47E
100
AcDbSymbolTableRecord
100
AcDbRegAppTableRecord
  2
AVE_RENDER
 70
     0
  0
ENDTAB
  0
TABLE
  2
DIMSTYLE
  5
46B
100
AcDbSymbolTable
 70
     2
  0
DIMSTYLE
105
49A
102
{ACAD_XDICTIONARY
360
494C3
102
}
102
{ACAD_REACTORS
330
493B6
330
4937C
330
4937B
102
}
100
AcDbSymbolTableRecord
100
AcDbDimStyleTableRecord
  2
ABECAD_3V
 70
     0
  3

  4

  5

  6

  7

 40
0.0
 41
0.125
 42
0.0625
 43
0.375
 44
0.0625
 45
0.0
 46
0.0
 47
0.0
 48
0.0
140
0.125
141
0.09
142
0.0
143
25.4
144
1.0
145
0.0
146
1.5
147
0.09
 71
     0
 72
     0
 73
     0
 74
     1
 75
     0
 76
     0
 77
     0
 78
     4
170
     1
171
     2
172
     0
173
     0
174
     0
175
     0
176
     0
177
     0
178
     0
270
     7
271
     6
272
     6
273
     2
274
     2
340
470
275
     0
280
     0
281
     0
282
     0
283
     1
284
     4
285
     4
286
     4
287
     5
288
     1
  0
DIMSTYLE
105
512
102
{ACAD_XDICTIONARY
360
494C7
102
}
100
AcDbSymbolTableRecord
100
AcDbDimStyleTableRecord
  2
ABECAD_3D
 70
     0
  3

  4

  5

  6

  7

 40
1.0
 41
0.18
 42
0.0625
 43
0.375
 44
0.18
 45
0.0
 46
0.0
 47
0.0
 48
0.0
140
0.18
141
0.09
142
0.0
143
25.4
144
1.0
145
0.0
146
1.5
147
0.09
 71
     0
 72
     0
 73
     0
 74
     1
 75
     0
 76
     0
 77
     0
 78
     4
170
     1
171
     2
172
     0
173
     0
174
     0
175
     0
176
     0
177
     0
178
     0
270
     7
271
     6
272
     6
273
     2
274
     2
340
470
275
     0
280
     0
281
     0
282
     0
283
     1
284
     4
285
     4
286
     4
287
     5
288
     1
  0
ENDTAB
  0
TABLE
  2
BLOCK_RECORD
  5
462
100
AcDbSymbolTable
 70
     3
  0
BLOCK_RECORD
  5
478
102
{ACAD_XDICTIONARY
360
4D2
102
}
100
AcDbSymbolTableRecord
100
AcDbBlockTableRecord
  2
*MODEL_SPACE
  0
BLOCK_RECORD
  5
475
102
{ACAD_XDICTIONARY
360
4D0
102
}
100
AcDbSymbolTableRecord
100
AcDbBlockTableRecord
  2
*PAPER_SPACE
  0
BLOCK_RECORD
  5
49388
100
AcDbSymbolTableRecord
100
AcDbBlockTableRecord
  2
*D0
  0
BLOCK_RECORD
  5
49395
100
AcDbSymbolTableRecord
100
AcDbBlockTableRecord
  2
*D1
  0
BLOCK_RECORD
  5
493B7
100
AcDbSymbolTableRecord
100
AcDbBlockTableRecord
  2
*D2
  0
ENDTAB
  0
ENDSEC
  0
SECTION
  2
BLOCKS
  0
BLOCK
  5
48B
100
AcDbEntity
  8
0
100
AcDbBlockBegin
  2
*MODEL_SPACE
 70
     0
 10
0.0
 20
0.0
 30
0.0
  3
*MODEL_SPACE
  1

  0
ENDBLK
  5
48C
100
AcDbEntity
  8
0
100
AcDbBlockEnd
  0
BLOCK
  5
489
100
AcDbEntity
 67
     1
  8
0
100
AcDbBlockBegin
  2
*PAPER_SPACE
 70
     0
 10
0.0
 20
0.0
 30
0.0
  3
*PAPER_SPACE
  1

  0
ENDBLK
  5
48A
100
AcDbEntity
 67
     1
  8
0
100
AcDbBlockEnd
  0
BLOCK
  5
49393
100
AcDbEntity
  8
0
100
AcDbBlockBegin
  2
*D0
 70
     1
 10
0.0
 20
0.0
 30
0.0
  3
*D0
  1

  0
LINE
  5
493D9
100
AcDbEntity
  8
AREA1
 62
     0
100
AcDbLine
 10
-1.165925
 20
0.281
 30
0.0
 11
-4.389602
 21
0.281
 31
0.0
1001
ACAD
1000
RTLwPs
1070
   158
  0
LINE
  5
493DA
100
AcDbEntity
  8
AREA1
 62
     0
100
AcDbLine
 10
-3.308925
 20
-7.309
 30
0.0
 11
-4.389602
 21
-7.309
 31
0.0
1001
ACAD
1000
RTLwPs
1070
   158
  0
LINE
  5
493DB
100
AcDbEntity
  8
AREA1
 62
     0
100
AcDbLine
 10
-4.223678
 20
-0.050849
 30
0.0
 11
-4.223678
 21
-1.107947
 31
0.0
1001
ACAD
1000
RTLwPs
1070
   158
  0
LINE
  5
493DC
100
AcDbEntity
  8
AREA1
 62
     0
100
AcDbLine
 10
-4.223678
 20
-6.977151
 30
0.0
 11
-4.223678
 21
-6.121081
 31
0.0
1001
ACAD
1000
RTLwPs
1070
   158
  0
MTEXT
  5
493DD
100
AcDbEntity
  8
AREA1
 62
     0
100
AcDbMText
 10
-4.223678
 20
-3.614514
 30
0.0
 40
0.331849
 41
0.0
 71
     5
 72
     1
  1
\A1;7 19/32 [192.79]
 11
0.0
 21
1.0
 31
0.0
1001
ACAD
1000
MTEXTBEGIN
1070
    73
1070
     1
1070
    44
1040
1.0
1070
    74
1070
     0
1000
MTEXTEND
1000
MTEXTBEGIN
1070
    73
1070
     1
1070
    44
1040
1.0
1070
    74
1070
     0
1000
MTEXTEND
1000
MTEXTBEGIN
1070
    73
1070
     1
1070
    44
1040
1.0
1070
    74
1070
     0
1000
MTEXTEND
1000
MTEXTBEGIN
1070
    73
1070
     1
1070
    44
1040
1.0
1070
    74
1070
     0
1000
MTEXTEND
  0
SOLID
  5
493DE
100
AcDbEntity
  8
AREA1
 62
     0
100
AcDbTrace
 10
-4.278986
 20
-0.050849
 30
0.0
 11
-4.168369
 21
-0.050849
 31
0.0
 12
-4.223678
 22
0.281
 32
0.0
 13
-4.223678
 23
0.281
 33
0.0
  0
SOLID
  5
493DF
100
AcDbEntity
  8
AREA1
 62
     0
100
AcDbTrace
 10
-4.278986
 20
-6.977151
 30
0.0
 11
-4.168369
 21
-6.977151
 31
0.0
 12
-4.223678
 22
-7.309
 32
0.0
 13
-4.223678
 23
-7.309
 33
0.0
  0
POINT
  5
493E0
100
AcDbEntity
  8
DEFPOINTS
 62
     0
100
AcDbPoint
 10
-1.0
 20
0.281
 30
0.0
  0
POINT
  5
493E1
100
AcDbEntity
  8
DEFPOINTS
 62
     0
100
AcDbPoint
 10
-3.143
 20
-7.309
 30
0.0
  0
POINT
  5
493E2
100
AcDbEntity
  8
DEFPOINTS
 62
     0
100
AcDbPoint
 10
-4.223678
 20
-7.309
 30
0.0
  0
ENDBLK
  5
49394
100
AcDbEntity
  8
0
100
AcDbBlockEnd
  0
BLOCK
  5
493A0
100
AcDbEntity
  8
0
100
AcDbBlockBegin
  2
*D1
 70
     1
 10
0.0
 20
0.0
 30
0.0
  3
*D1
  1

  0
LINE
  5
493CF
100
AcDbEntity
  8
AREA1
 62
     0
100
AcDbLine
 10
-3.143
 20
-0.463075
 30
0.0
 11
-3.143
 21
1.404818
 31
0.0
1001
ACAD
1000
RTLwPs
1070
   158
  0
LINE
  5
493D0
100
AcDbEntity
  8
AREA1
 62
     0
100
AcDbLine
 10
4.727
 20
-0.463075
 30
0.0
 11
4.727
 21
1.404818
 31
0.0
1001
ACAD
1000
RTLwPs
1070
   158
  0
LINE
  5
493D1
100
AcDbEntity
  8
AREA1
 62
     0
100
AcDbLine
 10
-2.811151
 20
1.238893
 30
0.0
 11
-1.453487
 21
1.238893
 31
0.0
1001
ACAD
1000
RTLwPs
1070
   158
  0
LINE
  5
493D2
100
AcDbEntity
  8
AREA1
 62
     0
100
AcDbLine
 10
4.395151
 20
1.238893
 30
0.0
 11
2.951257
 21
1.238893
 31
0.0
1001
ACAD
1000
RTLwPs
1070
   158
  0
MTEXT
  5
493D3
100
AcDbEntity
  8
AREA1
 62
     0
100
AcDbMText
 10
0.748885
 20
1.238893
 30
0.0
 40
0.331849
 41
0.0
 71
     5
 72
     1
  1
\A1;7 7/8 [199.90]
1001
ACAD
1000
MTEXTBEGIN
1070
    73
1070
     1
1070
    44
1040
1.0
1070
    74
1070
     0
1000
MTEXTEND
1000
MTEXTBEGIN
1070
    73
1070
     1
1070
    44
1040
1.0
1070
    74
1070
     0
1000
MTEXTEND
1000
MTEXTBEGIN
1070
    73
1070
     1
1070
    44
1040
1.0
1070
    74
1070
     0
1000
MTEXTEND
1000
MTEXTBEGIN
1070
    73
1070
     1
1070
    44
1040
1.0
1070
    74
1070
     0
1000
MTEXTEND
  0
SOLID
  5
493D4
100
AcDbEntity
  8
AREA1
 62
     0
100
AcDbTrace
 10
-2.811151
 20
1.294201
 30
0.0
 11
-2.811151
 21
1.183585
 31
0.0
 12
-3.143
 22
1.238893
 32
0.0
 13
-3.143
 23
1.238893
 33
0.0
  0
SOLID
  5
493D5
100
AcDbEntity
  8
AREA1
 62
     0
100
AcDbTrace
 10
4.395151
 20
1.294201
 30
0.0
 11
4.395151
 21
1.183585
 31
0.0
 12
4.727
 22
1.238893
 32
0.0
 13
4.727
 23
1.238893
 33
0.0
  0
POINT
  5
493D6
100
AcDbEntity
  8
DEFPOINTS
 62
     0
100
AcDbPoint
 10
-3.143
 20
-0.629
 30
0.0
  0
POINT
  5
493D7
100
AcDbEntity
  8
DEFPOINTS
 62
     0
100
AcDbPoint
 10
4.727
 20
-0.629
 30
0.0
  0
POINT
  5
493D8
100
AcDbEntity
  8
DEFPOINTS
 62
     0
100
AcDbPoint
 10
4.727
 20
1.238893
 30
0.0
  0
ENDBLK
  5
493A1
100
AcDbEntity
  8
0
100
AcDbBlockEnd
  0
BLOCK
  5
493C2
100
AcDbEntity
  8
0
100
AcDbBlockBegin
  2
*D2
 70
     1
 10
0.0
 20
0.0
 30
0.0
  3
*D2
  1

  0
LINE
  5
493E3
100
AcDbEntity
  8
AREA2
 62
     0
100
AcDbLine
 10
-2.207925
 20
4.857
 30
0.0
 11
-4.073418
 21
4.857
 31
0.0
1001
ACAD
1000
RTLwPs
1070
   158
  0
LINE
  5
493E4
100
AcDbEntity
  8
AREA2
 62
     0
100
AcDbLine
 10
-3.308925
 20
0.0
 30
0.0
 11
-4.073418
 21
0.0
 31
0.0
1001
ACAD
1000
RTLwPs
1070
   158
  0
LINE
  5
493E5
100
AcDbEntity
  8
AREA2
 62
     0
100
AcDbLine
 10
-3.907494
 20
4.525151
 30
0.0
 11
-3.907494
 21
0.331849
 31
0.0
1001
ACAD
1000
RTLwPs
1070
   158
  0
MTEXT
  5
493E6
100
AcDbEntity
  8
AREA2
 62
     0
100
AcDbMText
 10
-4.440414
 20
2.317837
 30
0.0
 40
0.331849
 41
0.0
 71
     5
 72
     1
  1
\A1;4 55/64 [123.37]
 11
0.0
 21
1.0
 31
0.0
1001
ACAD
1000
MTEXTBEGIN
1070
    73
1070
     1
1070
    44
1040
1.0
1070
    74
1070
     0
1000
MTEXTEND
1000
MTEXTBEGIN
1070
    73
1070
     1
1070
    44
1040
1.0
1070
    74
1070
     0
1000
MTEXTEND
1000
MTEXTBEGIN
1070
    73
1070
     1
1070
    44
1040
1.0
1070
    74
1070
     0
1000
MTEXTEND
1000
MTEXTBEGIN
1070
    73
1070
     1
1070
    44
1040
1.0
1070
    74
1070
     0
1000
MTEXTEND
  0
SOLID
  5
493E7
100
AcDbEntity
  8
AREA2
 62
     0
100
AcDbTrace
 10
-3.962802
 20
4.525151
 30
0.0
 11
-3.852185
 21
4.525151
 31
0.0
 12
-3.907494
 22
4.857
 32
0.0
 13
-3.907494
 23
4.857
 33
0.0
  0
SOLID
  5
493E8
100
AcDbEntity
  8
AREA2
 62
     0
100
AcDbTrace
 10
-3.962802
 20
0.331849
 30
0.0
 11
-3.852185
 21
0.331849
 31
0.0
 12
-3.907494
 22
0.0
 32
0.0
 13
-3.907494
 23
0.0
 33
0.0
  0
POINT
  5
493E9
100
AcDbEntity
  8
DEFPOINTS
 62
     0
100
AcDbPoint
 10
-2.042
 20
4.857
 30
3.66
  0
POINT
  5
493EA
100
AcDbEntity
  8
DEFPOINTS
 62
     0
100
AcDbPoint
 10
-3.143
 20
0.0
 30
-0.281
  0
POINT
  5
493EB
100
AcDbEntity
  8
DEFPOINTS
 62
     0
100
AcDbPoint
 10
-3.907494
 20
0.0
 30
0.0
  0
ENDBLK
  5
493C3
100
AcDbEntity
  8
0
100
AcDbBlockEnd
  0
ENDSEC
  0
SECTION
  2
ENTITIES
  0
3DFACE
  5
4904A
100
AcDbEntity
  8
0
100
AcDbFace
 10
-2.853
 20
-7.309
 30
0.197
 11
-2.853
 21
-7.309
 31
0.0
 12
-3.013
 22
-7.309
 32
0.0
 13
-3.013
 23
-7.309
 33
0.197
 70
    14
  0
ARC
  5
4904B
100
AcDbEntity
  8
0
100
AcDbCircle
 10
-2.753
 20
-7.09
 30
0.0
 40
0.1
100
AcDbArc
 50
0.0
 51
179.999985
  0
ARC
  5
4904C
100
AcDbEntity
  8
0
100
AcDbCircle
 10
-2.753
 20
-7.09
 30
0.197
 40
0.1
100
AcDbArc
 50
0.0
 51
179.999985
  0
LINE
  5
4904D
100
AcDbEntity
  8
0
100
AcDbLine
 10
-2.653
 20
-7.309
 30
0.0
 11
-2.653
 21
-7.309
 31
0.197
  0
LINE
  5
4904E
100
AcDbEntity
  8
0
100
AcDbLine
 10
-2.853
 20
-7.309
 30
0.0
 11
-2.853
 21
-7.309
 31
0.197
  0
LINE
  5
4904F
100
AcDbEntity
  8
0
100
AcDbLine
 10
-2.653
 20
-7.09
 30
0.0
 11
-2.653
 21
-7.09
 31
0.197
  0
LINE
  5
49050
100
AcDbEntity
  8
0
100
AcDbLine
 10
-2.853
 20
-7.09
 30
0.0
 11
-2.853
 21
-7.09
 31
0.197
  0
LINE
  5
49051
100
AcDbEntity
  8
0
100
AcDbLine
 10
-2.853
 20
-7.09
 30
0.0
 11
-2.853
 21
-7.309
 31
0.0
  0
LINE
  5
49052
100
AcDbEntity
  8
0
100
AcDbLine
 10
-2.653
 20
-7.309
 30
0.0
 11
-2.653
 21
-7.09
 31
0.0
  0
LINE
  5
49053
100
AcDbEntity
  8
0
100
AcDbLine
 10
-2.853
 20
-7.09
 30
0.197
 11
-2.853
 21
-7.309
 31
0.197
  0
LINE
  5
49054
100
AcDbEntity
  8
0
100
AcDbLine
 10
-2.653
 20
-7.309
 30
0.197
 11
-2.653
 21
-7.09
 31
0.197
  0
ARC
  5
49055
100
AcDbEntity
  8
0
100
AcDbCircle
 10
0.0
 20
0.0
 30
0.0
 40
0.1
100
AcDbArc
 50
0.0
 51
179.999985
  0
ARC
  5
49056
100
AcDbEntity
  8
0
100
AcDbCircle
 10
0.0
 20
0.0
 30
0.197
 40
0.1
100
AcDbArc
 50
0.0
 51
179.999985
  0
LINE
  5
49057
100
AcDbEntity
  8
0
100
AcDbLine
 10
-0.1
 20
-0.131891
 30
0.0
 11
-0.1
 21
-0.131891
 31
0.197
  0
LINE
  5
49058
100
AcDbEntity
  8
0
100
AcDbLine
 10
0.1
 20
-0.131891
 30
0.0
 11
0.1
 21
-0.131891
 31
0.197
  0
LINE
  5
49059
100
AcDbEntity
  8
0
100
AcDbLine
 10
0.1
 20
0.0
 30
0.0
 11
0.1
 21
0.0
 31
0.197
  0
LINE
  5
4905A
100
AcDbEntity
  8
0
100
AcDbLine
 10
-0.1
 20
0.0
 30
0.0
 11
-0.1
 21
0.0
 31
0.197
  0
ARC
  5
4905B
100
AcDbEntity
  8
0
100
AcDbCircle
 10
0.0
 20
-0.344
 30
0.0
 40
0.2345
100
AcDbArc
 50
115.241821
 51
64.758209
  0
LINE
  5
4905C
100
AcDbEntity
  8
0
100
AcDbLine
 10
-0.1
 20
0.0
 30
0.0
 11
-0.1
 21
-0.131891
 31
0.0
  0
LINE
  5
4905D
100
AcDbEntity
  8
0
100
AcDbLine
 10
0.1
 20
0.0
 30
0.0
 11
0.1
 21
-0.131891
 31
0.0
  0
ARC
  5
4905E
100
AcDbEntity
  8
0
100
AcDbCircle
 10
0.0
 20
-0.344
 30
0.197
 40
0.2345
100
AcDbArc
 50
115.241821
 51
64.758209
  0
LINE
  5
4905F
100
AcDbEntity
  8
0
100
AcDbLine
 10
-0.1
 20
0.0
 30
0.197
 11
-0.1
 21
-0.131891
 31
0.197
  0
LINE
  5
49060
100
AcDbEntity
  8
0
100
AcDbLine
 10
0.1
 20
0.0
 30
0.197
 11
0.1
 21
-0.131891
 31
0.197
  0
3DFACE
  5
49061
100
AcDbEntity
  8
0
100
AcDbFace
 10
4.437
 20
-7.309
 30
0.197
 11
4.437
 21
-7.309
 31
0.0
 12
4.597
 22
-7.309
 32
0.0
 13
4.597
 23
-7.309
 33
0.197
 70
    14
  0
ARC
  5
49062
100
AcDbEntity
  8
0
100
AcDbCircle
 10
4.337
 20
-7.09
 30
0.0
 40
0.1
100
AcDbArc
 50
0.0
 51
179.999985
  0
ARC
  5
49063
100
AcDbEntity
  8
0
100
AcDbCircle
 10
4.337
 20
-7.09
 30
0.197
 40
0.1
100
AcDbArc
 50
0.0
 51
179.999985
  0
LINE
  5
49064
100
AcDbEntity
  8
0
100
AcDbLine
 10
4.437
 20
-7.309
 30
0.0
 11
4.437
 21
-7.309
 31
0.197
  0
LINE
  5
49065
100
AcDbEntity
  8
0
100
AcDbLine
 10
4.237
 20
-7.309
 30
0.0
 11
4.237
 21
-7.309
 31
0.197
  0
LINE
  5
49066
100
AcDbEntity
  8
0
100
AcDbLine
 10
4.437
 20
-7.09
 30
0.0
 11
4.437
 21
-7.09
 31
0.197
  0
LINE
  5
49067
100
AcDbEntity
  8
0
100
AcDbLine
 10
4.237
 20
-7.09
 30
0.0
 11
4.237
 21
-7.09
 31
0.197
  0
LINE
  5
49068
100
AcDbEntity
  8
0
100
AcDbLine
 10
4.237
 20
-7.09
 30
0.0
 11
4.237
 21
-7.309
 31
0.0
  0
LINE
  5
49069
100
AcDbEntity
  8
0
100
AcDbLine
 10
4.437
 20
-7.309
 30
0.0
 11
4.437
 21
-7.09
 31
0.0
  0
LINE
  5
4906A
100
AcDbEntity
  8
0
100
AcDbLine
 10
4.237
 20
-7.09
 30
0.197
 11
4.237
 21
-7.309
 31
0.197
  0
LINE
  5
4906B
100
AcDbEntity
  8
0
100
AcDbLine
 10
4.437
 20
-7.309
 30
0.197
 11
4.437
 21
-7.09
 31
0.197
  0
POLYLINE
  5
4906C
100
AcDbEntity
  8
0
100
AcDbPolygonMesh
 66
     1
 10
0.0
 20
0.0
 30
0.0
 70
    16
 71
     6
 72
     3
  0
VERTEX
  5
4906D
100
AcDbEntity
  8
0
100
AcDbVertex
100
AcDbPolygonMeshVertex
 10
4.727
 20
-7.309
 30
0.197
 70
    64
  0
VERTEX
  5
4906E
100
AcDbEntity
  8
0
100
AcDbVertex
100
AcDbPolygonMeshVertex
 10
4.727
 20
-7.309
 30
0.0
 70
    64
  0
VERTEX
  5
4906F
100
AcDbEntity
  8
0
100
AcDbVertex
100
AcDbPolygonMeshVertex
 10
4.727
 20
-7.309
 30
0.0
 70
    64
  0
VERTEX
  5
49070
100
AcDbEntity
  8
0
100
AcDbVertex
100
AcDbPolygonMeshVertex
 10
-3.143
 20
-7.309
 30
0.197
 70
    64
  0
VERTEX
  5
49071
100
AcDbEntity
  8
0
100
AcDbVertex
100
AcDbPolygonMeshVertex
 10
-3.143
 20
-7.309
 30
0.0
 70
    64
  0
VERTEX
  5
49072
100
AcDbEntity
  8
0
100
AcDbVertex
100
AcDbPolygonMeshVertex
 10
-3.143
 20
-7.309
 30
0.0
 70
    64
  0
VERTEX
  5
49073
100
AcDbEntity
  8
0
100
AcDbVertex
100
AcDbPolygonMeshVertex
 10
-3.143
 20
-0.629
 30
0.197
 70
    64
  0
VERTEX
  5
49074
100
AcDbEntity
  8
0
100
AcDbVertex
100
AcDbPolygonMeshVertex
 10
-3.143
 20
-0.629
 30
0.0
 70
    64
  0
VERTEX
  5
49075
100
AcDbEntity
  8
0
100
AcDbVertex
100
AcDbPolygonMeshVertex
 10
-3.143
 20
-7.309
 30
0.0
 70
    64
  0
VERTEX
  5
49076
100
AcDbEntity
  8
0
100
AcDbVertex
100
AcDbPolygonMeshVertex
 10
4.727
 20
-0.629
 30
0.197
 70
    64
  0
VERTEX
  5
49077
100
AcDbEntity
  8
0
100
AcDbVertex
100
AcDbPolygonMeshVertex
 10
4.727
 20
-0.629
 30
0.0
 70
    64
  0
VERTEX
  5
49078
100
AcDbEntity
  8
0
100
AcDbVertex
100
AcDbPolygonMeshVertex
 10
4.727
 20
-7.309
 30
0.0
 70
    64
  0
VERTEX
  5
49079
100
AcDbEntity
  8
0
100
AcDbVertex
100
AcDbPolygonMeshVertex
 10
4.727
 20
-0.629
 30
0.197
 70
    64
  0
VERTEX
  5
4907A
100
AcDbEntity
  8
0
100
AcDbVertex
100
AcDbPolygonMeshVertex
 10
4.727
 20
-0.629
 30
0.197
 70
    64
  0
VERTEX
  5
4907B
100
AcDbEntity
  8
0
100
AcDbVertex
100
AcDbPolygonMeshVertex
 10
4.727
 20
-7.309
 30
0.197
 70
    64
  0
VERTEX
  5
4907C
100
AcDbEntity
  8
0
100
AcDbVertex
100
AcDbPolygonMeshVertex
 10
-3.143
 20
-0.629
 30
0.197
 70
    64
  0
VERTEX
  5
4907D
100
AcDbEntity
  8
0
100
AcDbVertex
100
AcDbPolygonMeshVertex
 10
-3.143
 20
-0.629
 30
0.197
 70
    64
  0
VERTEX
  5
4907E
100
AcDbEntity
  8
0
100
AcDbVertex
100
AcDbPolygonMeshVertex
 10
-3.143
 20
-7.309
 30
0.197
 70
    64
  0
SEQEND
  5
4907F
100
AcDbEntity
  8
0
  0
POLYLINE
  5
49080
100
AcDbEntity
  8
0
100
AcDbPolygonMesh
 66
     1
 10
0.0
 20
0.0
 30
0.0
 70
    16
 71
     6
 72
     3
  0
VERTEX
  5
49081
100
AcDbEntity
  8
0
100
AcDbVertex
100
AcDbPolygonMeshVertex
 10
1.118
 20
-5.16
 30
4.667
 70
    64
  0
VERTEX
  5
49082
100
AcDbEntity
  8
0
100
AcDbVertex
100
AcDbPolygonMeshVertex
 10
1.118
 20
-5.16
 30
0.387
 70
    64
  0
VERTEX
  5
49083
100
AcDbEntity
  8
0
100
AcDbVertex
100
AcDbPolygonMeshVertex
 10
1.118
 20
-5.16
 30
0.387
 70
    64
  0
VERTEX
  5
49084
100
AcDbEntity
  8
0
100
AcDbVertex
100
AcDbPolygonMeshVertex
 10
0.486
 20
-5.16
 30
4.667
 70
    64
  0
VERTEX
  5
49085
100
AcDbEntity
  8
0
100
AcDbVertex
100
AcDbPolygonMeshVertex
 10
0.486
 20
-5.16
 30
0.387
 70
    64
  0
VERTEX
  5
49086
100
AcDbEntity
  8
0
100
AcDbVertex
100
AcDbPolygonMeshVertex
 10
0.486
 20
-5.16
 30
0.387
 70
    64
  0
VERTEX
  5
49087
100
AcDbEntity
  8
0
100
AcDbVertex
100
AcDbPolygonMeshVertex
 10
0.486
 20
-3.1
 30
4.667
 70
    64
  0
VERTEX
  5
49088
100
AcDbEntity
  8
0
100
AcDbVertex
100
AcDbPolygonMeshVertex
 10
0.486
 20
-3.1
 30
0.387
 70
    64
  0
VERTEX
  5
49089
100
AcDbEntity
  8
0
100
AcDbVertex
100
AcDbPolygonMeshVertex
 10
0.486
 20
-5.16
 30
0.387
 70
    64
  0
VERTEX
  5
4908A
100
AcDbEntity
  8
0
100
AcDbVertex
100
AcDbPolygonMeshVertex
 10
1.118
 20
-3.1
 30
4.667
 70
    64
  0
VERTEX
  5
4908B
100
AcDbEntity
  8
0
100
AcDbVertex
100
AcDbPolygonMeshVertex
 10
1.118
 20
-3.1
 30
0.387
 70
    64
  0
VERTEX
  5
4908C
100
AcDbEntity
  8
0
100
AcDbVertex
100
AcDbPolygonMeshVertex
 10
1.118
 20
-5.16
 30
0.387
 70
    64
  0
VERTEX
  5
4908D
100
AcDbEntity
  8
0
100
AcDbVertex
100
AcDbPolygonMeshVertex
 10
1.118
 20
-3.1
 30
4.667
 70
    64
  0
VERTEX
  5
4908E
100
AcDbEntity
  8
0
100
AcDbVertex
100
AcDbPolygonMeshVertex
 10
1.118
 20
-3.1
 30
4.667
 70
    64
  0
VERTEX
  5
4908F
100
AcDbEntity
  8
0
100
AcDbVertex
100
AcDbPolygonMeshVertex
 10
1.118
 20
-5.16
 30
4.667
 70
    64
  0
VERTEX
  5
49090
100
AcDbEntity
  8
0
100
AcDbVertex
100
AcDbPolygonMeshVertex
 10
0.486
 20
-3.1
 30
4.667
 70
    64
  0
VERTEX
  5
49091
100
AcDbEntity
  8
0
100
AcDbVertex
100
AcDbPolygonMeshVertex
 10
0.486
 20
-3.1
 30
4.667
 70
    64
  0
VERTEX
  5
49092
100
AcDbEntity
  8
0
100
AcDbVertex
100
AcDbPolygonMeshVertex
 10
0.486
 20
-5.16
 30
4.667
 70
    64
  0
SEQEND
  5
49093
100
AcDbEntity
  8
0
  0
3DFACE
  5
49094
100
AcDbEntity
  8
0
100
AcDbFace
 10
-1.91
 20
-0.629
 30
0.197
 11
-1.0
 21
0.281
 31
0.197
 12
1.0
 22
0.281
 32
0.197
 13
1.91
 23
-0.629
 33
0.197
  0
3DFACE
  5
49095
100
AcDbEntity
  8
0
100
AcDbFace
 10
-1.91
 20
-0.629
 30
0.0
 11
-1.0
 21
0.281
 31
0.0
 12
1.0
 22
0.281
 32
0.0
 13
1.91
 23
-0.629
 33
0.0
  0
3DFACE
  5
49096
100
AcDbEntity
  8
0
100
AcDbFace
 10
1.0
 20
0.281
 30
0.197
 11
1.0
 21
0.281
 31
0.0
 12
1.91
 22
-0.629
 32
0.0
 13
1.91
 23
-0.629
 33
0.197
  0
3DFACE
  5
49097
100
AcDbEntity
  8
0
100
AcDbFace
 10
-1.0
 20
0.281
 30
0.0
 11
-1.0
 21
0.281
 31
0.197
 12
1.0
 22
0.281
 32
0.197
 13
1.0
 23
0.281
 33
0.0
  0
3DFACE
  5
49098
100
AcDbEntity
  8
0
100
AcDbFace
 10
-1.0
 20
0.281
 30
0.197
 11
-1.0
 21
0.281
 31
0.0
 12
-1.91
 22
-0.629
 32
0.0
 13
-1.91
 23
-0.629
 33
0.197
  0
LINE
  5
49099
100
AcDbEntity
  8
0
100
AcDbLine
 10
-2.452
 20
-0.69
 30
0.577
 11
-2.262
 21
-0.69
 31
0.577
  0
LINE
  5
4909A
100
AcDbEntity
  8
0
100
AcDbLine
 10
-2.452
 20
-0.69
 30
0.387
 11
-2.262
 21
-0.69
 31
0.387
  0
3DFACE
  5
4909B
100
AcDbEntity
  8
0
100
AcDbFace
 10
-2.262
 20
-0.69
 30
0.577
 11
-2.452
 21
-0.69
 31
0.577
 12
-2.452
 22
-0.69
 32
0.387
 13
-2.262
 23
-0.69
 33
0.387
 70
    14
  0
POLYLINE
  5
4909C
100
AcDbEntity
  8
0
100
AcDbPolygonMesh
 66
     1
 10
0.0
 20
0.0
 30
0.0
 70
    16
 71
     6
 72
     3
  0
VERTEX
  5
4909D
100
AcDbEntity
  8
0
100
AcDbVertex
100
AcDbPolygonMeshVertex
 10
0.488
 20
-6.69
 30
0.577
 70
    64
  0
VERTEX
  5
4909E
100
AcDbEntity
  8
0
100
AcDbVertex
100
AcDbPolygonMeshVertex
 10
0.488
 20
-6.69
 30
0.387
 70
    64
  0
VERTEX
  5
4909F
100
AcDbEntity
  8
0
100
AcDbVertex
100
AcDbPolygonMeshVertex
 10
0.488
 20
-6.69
 30
0.387
 70
    64
  0
VERTEX
  5
490A0
100
AcDbEntity
  8
0
100
AcDbVertex
100
AcDbPolygonMeshVertex
 10
-3.072
 20
-6.69
 30
0.577
 70
    64
  0
VERTEX
  5
490A1
100
AcDbEntity
  8
0
100
AcDbVertex
100
AcDbPolygonMeshVertex
 10
-3.072
 20
-6.69
 30
0.387
 70
    64
  0
VERTEX
  5
490A2
100
AcDbEntity
  8
0
100
AcDbVertex
100
AcDbPolygonMeshVertex
 10
-3.072
 20
-6.69
 30
0.387
 70
    64
  0
VERTEX
  5
490A3
100
AcDbEntity
  8
0
100
AcDbVertex
100
AcDbPolygonMeshVertex
 10
-3.072
 20
-1.31
 30
0.577
 70
    64
  0
VERTEX
  5
490A4
100
AcDbEntity
  8
0
100
AcDbVertex
100
AcDbPolygonMeshVertex
 10
-3.072
 20
-1.31
 30
0.387
 70
    64
  0
VERTEX
  5
490A5
100
AcDbEntity
  8
0
100
AcDbVertex
100
AcDbPolygonMeshVertex
 10
-3.072
 20
-6.69
 30
0.387
 70
    64
  0
VERTEX
  5
490A6
100
AcDbEntity
  8
0
100
AcDbVertex
100
AcDbPolygonMeshVertex
 10
0.488
 20
-1.31
 30
0.577
 70
    64
  0
VERTEX
  5
490A7
100
AcDbEntity
  8
0
100
AcDbVertex
100
AcDbPolygonMeshVertex
 10
0.488
 20
-1.31
 30
0.387
 70
    64
  0
VERTEX
  5
490A8
100
AcDbEntity
  8
0
100
AcDbVertex
100
AcDbPolygonMeshVertex
 10
0.488
 20
-6.69
 30
0.387
 70
    64
  0
VERTEX
  5
490A9
100
AcDbEntity
  8
0
100
AcDbVertex
100
AcDbPolygonMeshVertex
 10
0.488
 20
-1.31
 30
0.577
 70
    64
  0
VERTEX
  5
490AA
100
AcDbEntity
  8
0
100
AcDbVertex
100
AcDbPolygonMeshVertex
 10
0.488
 20
-1.31
 30
0.577
 70
    64
  0
VERTEX
  5
490AB
100
AcDbEntity
  8
0
100
AcDbVertex
100
AcDbPolygonMeshVertex
 10
0.488
 20
-6.69
 30
0.577
 70
    64
  0
VERTEX
  5
490AC
100
AcDbEntity
  8
0
100
AcDbVertex
100
AcDbPolygonMeshVertex
 10
-3.072
 20
-1.31
 30
0.577
 70
    64
  0
VERTEX
  5
490AD
100
AcDbEntity
  8
0
100
AcDbVertex
100
AcDbPolygonMeshVertex
 10
-3.072
 20
-1.31
 30
0.577
 70
    64
  0
VERTEX
  5
490AE
100
AcDbEntity
  8
0
100
AcDbVertex
100
AcDbPolygonMeshVertex
 10
-3.072
 20
-6.69
 30
0.577
 70
    64
  0
SEQEND
  5
490AF
100
AcDbEntity
  8
0
  0
LINE
  5
490B0
100
AcDbEntity
  8
0
100
AcDbLine
 10
0.488
 20
-1.31
 30
0.577
 11
-3.072
 21
-1.31
 31
0.577
  0
POLYLINE
  5
490B1
100
AcDbEntity
  8
0
100
AcDbPolygonMesh
 66
     1
 10
0.0
 20
0.0
 30
0.0
 70
    16
 71
     6
 72
     3
  0
VERTEX
  5
490B2
100
AcDbEntity
  8
0
100
AcDbVertex
100
AcDbPolygonMeshVertex
 10
-2.972
 20
-5.54
 30
0.577
 70
    64
  0
VERTEX
  5
490B3
100
AcDbEntity
  8
0
100
AcDbVertex
100
AcDbPolygonMeshVertex
 10
-2.972
 20
-5.54
 30
0.577
 70
    64
  0
VERTEX
  5
490B4
100
AcDbEntity
  8
0
100
AcDbVertex
100
AcDbPolygonMeshVertex
 10
-2.972
 20
-5.54
 30
0.577
 70
    64
  0
VERTEX
  5
490B5
100
AcDbEntity
  8
0
100
AcDbVertex
100
AcDbPolygonMeshVertex
 10
-2.972
 20
-5.79
 30
2.007
 70
    64
  0
VERTEX
  5
490B6
100
AcDbEntity
  8
0
100
AcDbVertex
100
AcDbPolygonMeshVertex
 10
-2.972
 20
-5.54
 30
2.007
 70
    64
  0
VERTEX
  5
490B7
100
AcDbEntity
  8
0
100
AcDbVertex
100
AcDbPolygonMeshVertex
 10
-2.972
 20
-5.54
 30
2.007
 70
    64
  0
VERTEX
  5
490B8
100
AcDbEntity
  8
0
100
AcDbVertex
100
AcDbPolygonMeshVertex
 10
0.388
 20
-5.79
 30
2.007
 70
    64
  0
VERTEX
  5
490B9
100
AcDbEntity
  8
0
100
AcDbVertex
100
AcDbPolygonMeshVertex
 10
0.388
 20
-5.54
 30
2.007
 70
    64
  0
VERTEX
  5
490BA
100
AcDbEntity
  8
0
100
AcDbVertex
100
AcDbPolygonMeshVertex
 10
-2.972
 20
-5.54
 30
2.007
 70
    64
  0
VERTEX
  5
490BB
100
AcDbEntity
  8
0
100
AcDbVertex
100
AcDbPolygonMeshVertex
 10
0.388
 20
-5.54
 30
0.577
 70
    64
  0
VERTEX
  5
490BC
100
AcDbEntity
  8
0
100
AcDbVertex
100
AcDbPolygonMeshVertex
 10
0.388
 20
-5.54
 30
0.577
 70
    64
  0
VERTEX
  5
490BD
100
AcDbEntity
  8
0
100
AcDbVertex
100
AcDbPolygonMeshVertex
 10
-2.972
 20
-5.54
 30
0.577
 70
    64
  0
VERTEX
  5
490BE
100
AcDbEntity
  8
0
100
AcDbVertex
100
AcDbPolygonMeshVertex
 10
0.388
 20
-5.54
 30
0.577
 70
    64
  0
VERTEX
  5
490BF
100
AcDbEntity
  8
0
100
AcDbVertex
100
AcDbPolygonMeshVertex
 10
0.388
 20
-5.54
 30
0.577
 70
    64
  0
VERTEX
  5
490C0
100
AcDbEntity
  8
0
100
AcDbVertex
100
AcDbPolygonMeshVertex
 10
-2.972
 20
-5.54
 30
0.577
 70
    64
  0
VERTEX
  5
490C1
100
AcDbEntity
  8
0
100
AcDbVertex
100
AcDbPolygonMeshVertex
 10
0.388
 20
-5.79
 30
2.007
 70
    64
  0
VERTEX
  5
490C2
100
AcDbEntity
  8
0
100
AcDbVertex
100
AcDbPolygonMeshVertex
 10
0.388
 20
-5.79
 30
2.007
 70
    64
  0
VERTEX
  5
490C3
100
AcDbEntity
  8
0
100
AcDbVertex
100
AcDbPolygonMeshVertex
 10
-2.972
 20
-5.79
 30
2.007
 70
    64
  0
SEQEND
  5
490C4
100
AcDbEntity
  8
0
  0
POLYLINE
  5
490C5
100
AcDbEntity
  8
0
100
AcDbPolygonMesh
 66
     1
 10
0.0
 20
0.0
 30
0.0
 70
    16
 71
     6
 72
     3
  0
VERTEX
  5
490C6
100
AcDbEntity
  8
0
100
AcDbVertex
100
AcDbPolygonMeshVertex
 10
0.388
 20
-2.15
 30
4.477
 70
    64
  0
VERTEX
  5
490C7
100
AcDbEntity
  8
0
100
AcDbVertex
100
AcDbPolygonMeshVertex
 10
0.388
 20
-2.15
 30
0.577
 70
    64
  0
VERTEX
  5
490C8
100
AcDbEntity
  8
0
100
AcDbVertex
100
AcDbPolygonMeshVertex
 10
0.388
 20
-2.15
 30
0.577
 70
    64
  0
VERTEX
  5
490C9
100
AcDbEntity
  8
0
100
AcDbVertex
100
AcDbPolygonMeshVertex
 10
-2.972
 20
-2.15
 30
4.477
 70
    64
  0
VERTEX
  5
490CA
100
AcDbEntity
  8
0
100
AcDbVertex
100
AcDbPolygonMeshVertex
 10
-2.972
 20
-2.15
 30
0.577
 70
    64
  0
VERTEX
  5
490CB
100
AcDbEntity
  8
0
100
AcDbVertex
100
AcDbPolygonMeshVertex
 10
-2.972
 20
-2.15
 30
0.577
 70
    64
  0
VERTEX
  5
490CC
100
AcDbEntity
  8
0
100
AcDbVertex
100
AcDbPolygonMeshVertex
 10
-2.972
 20
-1.47
 30
4.477
 70
    64
  0
VERTEX
  5
490CD
100
AcDbEntity
  8
0
100
AcDbVertex
100
AcDbPolygonMeshVertex
 10
-2.972
 20
-1.47
 30
0.577
 70
    64
  0
VERTEX
  5
490CE
100
AcDbEntity
  8
0
100
AcDbVertex
100
AcDbPolygonMeshVertex
 10
-2.972
 20
-2.15
 30
0.577
 70
    64
  0
VERTEX
  5
490CF
100
AcDbEntity
  8
0
100
AcDbVertex
100
AcDbPolygonMeshVertex
 10
0.388
 20
-1.47
 30
4.477
 70
    64
  0
VERTEX
  5
490D0
100
AcDbEntity
  8
0
100
AcDbVertex
100
AcDbPolygonMeshVertex
 10
0.388
 20
-1.47
 30
0.577
 70
    64
  0
VERTEX
  5
490D1
100
AcDbEntity
  8
0
100
AcDbVertex
100
AcDbPolygonMeshVertex
 10
0.388
 20
-2.15
 30
0.577
 70
    64
  0
VERTEX
  5
490D2
100
AcDbEntity
  8
0
100
AcDbVertex
100
AcDbPolygonMeshVertex
 10
0.388
 20
-1.47
 30
4.477
 70
    64
  0
VERTEX
  5
490D3
100
AcDbEntity
  8
0
100
AcDbVertex
100
AcDbPolygonMeshVertex
 10
0.388
 20
-1.47
 30
4.477
 70
    64
  0
VERTEX
  5
490D4
100
AcDbEntity
  8
0
100
AcDbVertex
100
AcDbPolygonMeshVertex
 10
0.388
 20
-2.15
 30
4.477
 70
    64
  0
VERTEX
  5
490D5
100
AcDbEntity
  8
0
100
AcDbVertex
100
AcDbPolygonMeshVertex
 10
-2.972
 20
-1.47
 30
4.477
 70
    64
  0
VERTEX
  5
490D6
100
AcDbEntity
  8
0
100
AcDbVertex
100
AcDbPolygonMeshVertex
 10
-2.972
 20
-1.47
 30
4.477
 70
    64
  0
VERTEX
  5
490D7
100
AcDbEntity
  8
0
100
AcDbVertex
100
AcDbPolygonMeshVertex
 10
-2.972
 20
-2.15
 30
4.477
 70
    64
  0
SEQEND
  5
490D8
100
AcDbEntity
  8
0
  0
POLYLINE
  5
490D9
100
AcDbEntity
  8
0
100
AcDbPolygonMesh
 66
     1
 10
0.0
 20
0.0
 30
0.0
 70
    16
 71
     6
 72
     3
  0
VERTEX
  5
490DA
100
AcDbEntity
  8
0
100
AcDbVertex
100
AcDbPolygonMeshVertex
 10
0.388
 20
-5.79
 30
3.237
 70
    64
  0
VERTEX
  5
490DB
100
AcDbEntity
  8
0
100
AcDbVertex
100
AcDbPolygonMeshVertex
 10
0.388
 20
-5.79
 30
2.007
 70
    64
  0
VERTEX
  5
490DC
100
AcDbEntity
  8
0
100
AcDbVertex
100
AcDbPolygonMeshVertex
 10
0.388
 20
-5.79
 30
2.007
 70
    64
  0
VERTEX
  5
490DD
100
AcDbEntity
  8
0
100
AcDbVertex
100
AcDbPolygonMeshVertex
 10
-2.972
 20
-5.79
 30
3.237
 70
    64
  0
VERTEX
  5
490DE
100
AcDbEntity
  8
0
100
AcDbVertex
100
AcDbPolygonMeshVertex
 10
-2.972
 20
-5.79
 30
2.007
 70
    64
  0
VERTEX
  5
490DF
100
AcDbEntity
  8
0
100
AcDbVertex
100
AcDbPolygonMeshVertex
 10
-2.972
 20
-5.79
 30
2.007
 70
    64
  0
VERTEX
  5
490E0
100
AcDbEntity
  8
0
100
AcDbVertex
100
AcDbPolygonMeshVertex
 10
-2.972
 20
-5.54
 30
3.237
 70
    64
  0
VERTEX
  5
490E1
100
AcDbEntity
  8
0
100
AcDbVertex
100
AcDbPolygonMeshVertex
 10
-2.972
 20
-5.54
 30
2.007
 70
    64
  0
VERTEX
  5
490E2
100
AcDbEntity
  8
0
100
AcDbVertex
100
AcDbPolygonMeshVertex
 10
-2.972
 20
-5.79
 30
2.007
 70
    64
  0
VERTEX
  5
490E3
100
AcDbEntity
  8
0
100
AcDbVertex
100
AcDbPolygonMeshVertex
 10
0.388
 20
-5.54
 30
3.237
 70
    64
  0
VERTEX
  5
490E4
100
AcDbEntity
  8
0
100
AcDbVertex
100
AcDbPolygonMeshVertex
 10
0.388
 20
-5.54
 30
2.007
 70
    64
  0
VERTEX
  5
490E5
100
AcDbEntity
  8
0
100
AcDbVertex
100
AcDbPolygonMeshVertex
 10
0.388
 20
-5.79
 30
2.007
 70
    64
  0
VERTEX
  5
490E6
100
AcDbEntity
  8
0
100
AcDbVertex
100
AcDbPolygonMeshVertex
 10
0.388
 20
-5.54
 30
3.237
 70
    64
  0
VERTEX
  5
490E7
100
AcDbEntity
  8
0
100
AcDbVertex
100
AcDbPolygonMeshVertex
 10
0.388
 20
-5.54
 30
3.237
 70
    64
  0
VERTEX
  5
490E8
100
AcDbEntity
  8
0
100
AcDbVertex
100
AcDbPolygonMeshVertex
 10
0.388
 20
-5.79
 30
3.237
 70
    64
  0
VERTEX
  5
490E9
100
AcDbEntity
  8
0
100
AcDbVertex
100
AcDbPolygonMeshVertex
 10
-2.972
 20
-5.54
 30
3.237
 70
    64
  0
VERTEX
  5
490EA
100
AcDbEntity
  8
0
100
AcDbVertex
100
AcDbPolygonMeshVertex
 10
-2.972
 20
-5.54
 30
3.237
 70
    64
  0
VERTEX
  5
490EB
100
AcDbEntity
  8
0
100
AcDbVertex
100
AcDbPolygonMeshVertex
 10
-2.972
 20
-5.79
 30
3.237
 70
    64
  0
SEQEND
  5
490EC
100
AcDbEntity
  8
0
  0
POLYLINE
  5
490ED
100
AcDbEntity
  8
0
100
AcDbPolygonMesh
 66
     1
 10
0.0
 20
0.0
 30
0.0
 70
    16
 71
     6
 72
     3
  0
VERTEX
  5
490EE
100
AcDbEntity
  8
0
100
AcDbVertex
100
AcDbPolygonMeshVertex
 10
0.388
 20
-5.54
 30
4.017
 70
    64
  0
VERTEX
  5
490EF
100
AcDbEntity
  8
0
100
AcDbVertex
100
AcDbPolygonMeshVertex
 10
0.388
 20
-5.54
 30
0.577
 70
    64
  0
VERTEX
  5
490F0
100
AcDbEntity
  8
0
100
AcDbVertex
100
AcDbPolygonMeshVertex
 10
0.388
 20
-5.54
 30
0.577
 70
    64
  0
VERTEX
  5
490F1
100
AcDbEntity
  8
0
100
AcDbVertex
100
AcDbPolygonMeshVertex
 10
-2.972
 20
-5.54
 30
4.017
 70
    64
  0
VERTEX
  5
490F2
100
AcDbEntity
  8
0
100
AcDbVertex
100
AcDbPolygonMeshVertex
 10
-2.972
 20
-5.54
 30
0.577
 70
    64
  0
VERTEX
  5
490F3
100
AcDbEntity
  8
0
100
AcDbVertex
100
AcDbPolygonMeshVertex
 10
-2.972
 20
-5.54
 30
0.577
 70
    64
  0
VERTEX
  5
490F4
100
AcDbEntity
  8
0
100
AcDbVertex
100
AcDbPolygonMeshVertex
 10
-2.972
 20
-2.15
 30
4.017
 70
    64
  0
VERTEX
  5
490F5
100
AcDbEntity
  8
0
100
AcDbVertex
100
AcDbPolygonMeshVertex
 10
-2.972
 20
-2.15
 30
0.577
 70
    64
  0
VERTEX
  5
490F6
100
AcDbEntity
  8
0
100
AcDbVertex
100
AcDbPolygonMeshVertex
 10
-2.972
 20
-5.54
 30
0.577
 70
    64
  0
VERTEX
  5
490F7
100
AcDbEntity
  8
0
100
AcDbVertex
100
AcDbPolygonMeshVertex
 10
0.388
 20
-2.15
 30
4.017
 70
    64
  0
VERTEX
  5
490F8
100
AcDbEntity
  8
0
100
AcDbVertex
100
AcDbPolygonMeshVertex
 10
0.388
 20
-2.15
 30
0.577
 70
    64
  0
VERTEX
  5
490F9
100
AcDbEntity
  8
0
100
AcDbVertex
100
AcDbPolygonMeshVertex
 10
0.388
 20
-5.54
 30
0.577
 70
    64
  0
VERTEX
  5
490FA
100
AcDbEntity
  8
0
100
AcDbVertex
100
AcDbPolygonMeshVertex
 10
0.388
 20
-2.15
 30
4.017
 70
    64
  0
VERTEX
  5
490FB
100
AcDbEntity
  8
0
100
AcDbVertex
100
AcDbPolygonMeshVertex
 10
0.388
 20
-2.15
 30
4.017
 70
    64
  0
VERTEX
  5
490FC
100
AcDbEntity
  8
0
100
AcDbVertex
100
AcDbPolygonMeshVertex
 10
0.388
 20
-5.54
 30
4.017
 70
    64
  0
VERTEX
  5
490FD
100
AcDbEntity
  8
0
100
AcDbVertex
100
AcDbPolygonMeshVertex
 10
-2.972
 20
-2.15
 30
4.017
 70
    64
  0
VERTEX
  5
490FE
100
AcDbEntity
  8
0
100
AcDbVertex
100
AcDbPolygonMeshVertex
 10
-2.972
 20
-2.15
 30
4.017
 70
    64
  0
VERTEX
  5
490FF
100
AcDbEntity
  8
0
100
AcDbVertex
100
AcDbPolygonMeshVertex
 10
-2.972
 20
-5.54
 30
4.017
 70
    64
  0
SEQEND
  5
49100
100
AcDbEntity
  8
0
  0
LINE
  5
49101
100
AcDbEntity
  8
0
100
AcDbLine
 10
-2.972
 20
-2.15
 30
4.017
 11
-2.972
 21
-2.15
 31
0.577
  0
LINE
  5
49102
100
AcDbEntity
  8
0
100
AcDbLine
 10
-2.567
 20
-6.47
 30
0.387
 11
-2.567
 21
-6.47
 31
0.577
  0
LINE
  5
49103
100
AcDbEntity
  8
0
100
AcDbLine
 10
-2.767
 20
-6.47
 30
0.387
 11
-2.767
 21
-6.47
 31
0.577
  0
LINE
  5
49104
100
AcDbEntity
  8
0
100
AcDbLine
 10
-2.767
 20
-6.69
 30
0.387
 11
-2.767
 21
-6.69
 31
0.577
  0
LINE
  5
49105
100
AcDbEntity
  8
0
100
AcDbLine
 10
-2.567
 20
-6.69
 30
0.387
 11
-2.567
 21
-6.69
 31
0.577
  0
ARC
  5
49106
100
AcDbEntity
  8
0
100
AcDbCircle
 10
-2.667
 20
-6.47
 30
0.387
 40
0.1
100
AcDbArc
 50
0.0
 51
179.999985
  0
LINE
  5
49107
100
AcDbEntity
  8
0
100
AcDbLine
 10
-2.767
 20
-6.47
 30
0.387
 11
-2.767
 21
-6.69
 31
0.387
  0
LINE
  5
49108
100
AcDbEntity
  8
0
100
AcDbLine
 10
-2.567
 20
-6.69
 30
0.387
 11
-2.567
 21
-6.47
 31
0.387
  0
ARC
  5
49109
100
AcDbEntity
  8
0
100
AcDbCircle
 10
-2.667
 20
-6.47
 30
0.577
 40
0.1
100
AcDbArc
 50
0.0
 51
179.999985
  0
LINE
  5
4910A
100
AcDbEntity
  8
0
100
AcDbLine
 10
-2.767
 20
-6.47
 30
0.577
 11
-2.767
 21
-6.69
 31
0.577
  0
LINE
  5
4910B
100
AcDbEntity
  8
0
100
AcDbLine
 10
-2.567
 20
-6.69
 30
0.577
 11
-2.567
 21
-6.47
 31
0.577
  0
LINE
  5
4910C
100
AcDbEntity
  8
0
100
AcDbLine
 10
-3.072
 20
-1.31
 30
0.387
 11
-3.072
 21
-1.31
 31
0.577
  0
3DFACE
  5
4910D
100
AcDbEntity
  8
0
100
AcDbFace
 10
-2.452
 20
-0.69
 30
0.387
 11
-2.452
 21
-0.69
 31
0.577
 12
-3.072
 22
-1.31
 32
0.577
 13
-3.072
 23
-1.31
 33
0.387
  0
ARC
  5
4910E
100
AcDbEntity
  8
0
100
AcDbCircle
 10
0.083
 20
-6.47
 30
0.577
 40
0.1
100
AcDbArc
 50
0.0
 51
179.999985
  0
ARC
  5
4910F
100
AcDbEntity
  8
0
100
AcDbCircle
 10
0.083
 20
-6.47
 30
0.387
 40
0.1
100
AcDbArc
 50
0.0
 51
179.999985
  0
ARC
  5
49110
100
AcDbEntity
  8
0
100
AcDbCircle
 10
0.083
 20
-6.47
 30
0.387
 40
0.1
100
AcDbArc
 50
0.0
 51
179.999985
  0
LINE
  5
49111
100
AcDbEntity
  8
0
100
AcDbLine
 10
-0.017
 20
-6.47
 30
0.387
 11
-0.017
 21
-6.47
 31
0.577
  0
LINE
  5
49112
100
AcDbEntity
  8
0
100
AcDbLine
 10
-0.017
 20
-6.69
 30
0.387
 11
-0.017
 21
-6.69
 31
0.577
  0
LINE
  5
49113
100
AcDbEntity
  8
0
100
AcDbLine
 10
-0.017
 20
-6.47
 30
0.387
 11
-0.017
 21
-6.69
 31
0.387
  0
LINE
  5
49114
100
AcDbEntity
  8
0
100
AcDbLine
 10
-0.017
 20
-6.47
 30
0.577
 11
-0.017
 21
-6.69
 31
0.577
  0
LINE
  5
49115
100
AcDbEntity
  8
0
100
AcDbLine
 10
0.183
 20
-6.47
 30
0.387
 11
0.183
 21
-6.47
 31
0.577
  0
LINE
  5
49116
100
AcDbEntity
  8
0
100
AcDbLine
 10
0.183
 20
-6.69
 30
0.387
 11
0.183
 21
-6.69
 31
0.577
  0
3DFACE
  5
49117
100
AcDbEntity
  8
0
100
AcDbFace
 10
0.183
 20
-6.47
 30
0.577
 11
0.183
 21
-6.69
 31
0.577
 12
0.183
 22
-6.69
 32
0.387
 13
0.183
 23
-6.47
 33
0.387
 70
    14
  0
LINE
  5
49118
100
AcDbEntity
  8
0
100
AcDbLine
 10
0.183
 20
-6.69
 30
0.387
 11
0.183
 21
-6.47
 31
0.387
  0
LINE
  5
49119
100
AcDbEntity
  8
0
100
AcDbLine
 10
0.183
 20
-6.69
 30
0.577
 11
0.183
 21
-6.47
 31
0.577
  0
3DFACE
  5
4911A
100
AcDbEntity
  8
0
100
AcDbFace
 10
0.488
 20
-1.31
 30
0.387
 11
0.488
 21
-1.31
 31
0.577
 12
-0.132
 22
-0.69
 32
0.577
 13
-0.132
 23
-0.69
 33
0.387
  0
LINE
  5
4911B
100
AcDbEntity
  8
0
100
AcDbLine
 10
-1.1905
 20
-1.102159
 30
0.387
 11
-1.1905
 21
-1.102159
 31
0.577
  0
LINE
  5
4911C
100
AcDbEntity
  8
0
100
AcDbLine
 10
-1.1905
 20
-0.97
 30
0.387
 11
-1.1905
 21
-0.97
 31
0.577
  0
LINE
  5
4911D
100
AcDbEntity
  8
0
100
AcDbLine
 10
-0.812
 20
-0.97
 30
0.387
 11
-0.812
 21
-0.97
 31
0.577
  0
LINE
  5
4911E
100
AcDbEntity
  8
0
100
AcDbLine
 10
-1.3935
 20
-1.102159
 30
0.387
 11
-1.3935
 21
-1.102159
 31
0.577
  0
LINE
  5
4911F
100
AcDbEntity
  8
0
100
AcDbLine
 10
-1.3935
 20
-0.97
 30
0.387
 11
-1.3935
 21
-0.97
 31
0.577
  0
LINE
  5
49120
100
AcDbEntity
  8
0
100
AcDbLine
 10
-1.672
 20
-0.97
 30
0.387
 11
-1.672
 21
-0.97
 31
0.577
  0
LINE
  5
49121
100
AcDbEntity
  8
0
100
AcDbLine
 10
-2.262
 20
-0.69
 30
0.387
 11
-2.262
 21
-0.69
 31
0.577
  0
LINE
  5
49122
100
AcDbEntity
  8
0
100
AcDbLine
 10
-2.162
 20
-0.97
 30
0.387
 11
-2.162
 21
-0.97
 31
0.577
  0
3DFACE
  5
49123
100
AcDbEntity
  8
0
100
AcDbFace
 10
-2.162
 20
-0.97
 30
0.577
 11
-2.262
 21
-0.69
 31
0.577
 12
-2.262
 22
-0.69
 32
0.387
 13
-2.162
 23
-0.97
 33
0.387
 70
    14
  0
3DFACE
  5
49124
100
AcDbEntity
  8
0
100
AcDbFace
 10
-1.672
 20
-0.97
 30
0.577
 11
-2.162
 21
-0.97
 31
0.577
 12
-2.162
 22
-0.97
 32
0.387
 13
-1.672
 23
-0.97
 33
0.387
 70
    14
  0
3DFACE
  5
49125
100
AcDbEntity
  8
0
100
AcDbFace
 10
-0.132
 20
-0.69
 30
0.387
 11
-0.132
 21
-0.69
 31
0.577
 12
-1.572
 22
-0.69
 32
0.577
 13
-1.572
 23
-0.69
 33
0.387
  0
ARC
  5
49126
100
AcDbEntity
  8
0
100
AcDbCircle
 10
-1.292
 20
-1.313
 30
0.387
 40
0.234
100
AcDbArc
 50
115.70649
 51
64.293579
  0
LINE
  5
49127
100
AcDbEntity
  8
0
100
AcDbLine
 10
-2.162
 20
-0.97
 30
0.387
 11
-1.672
 21
-0.97
 31
0.387
  0
LINE
  5
49128
100
AcDbEntity
  8
0
100
AcDbLine
 10
-2.262
 20
-0.69
 30
0.387
 11
-2.162
 21
-0.97
 31
0.387
  0
LINE
  5
49129
100
AcDbEntity
  8
0
100
AcDbLine
 10
-1.1905
 20
-0.97
 30
0.387
 11
-1.1905
 21
-1.102159
 31
0.387
  0
LINE
  5
4912A
100
AcDbEntity
  8
0
100
AcDbLine
 10
-1.3935
 20
-0.97
 30
0.387
 11
-1.3935
 21
-1.102159
 31
0.387
  0
LINE
  5
4912B
100
AcDbEntity
  8
0
100
AcDbLine
 10
-1.672
 20
-0.97
 30
0.387
 11
-1.572
 21
-0.69
 31
0.387
  0
ARC
  5
4912C
100
AcDbEntity
  8
0
100
AcDbCircle
 10
-1.292
 20
-0.97
 30
0.387
 40
0.1015
100
AcDbArc
 50
0.0
 51
179.999985
  0
CIRCLE
  5
4912D
100
AcDbEntity
  8
0
100
AcDbCircle
 10
-0.912
 20
-0.97
 30
0.387
 40
0.1
  0
ARC
  5
4912E
100
AcDbEntity
  8
0
100
AcDbCircle
 10
-1.292
 20
-1.313
 30
0.577
 40
0.234
100
AcDbArc
 50
115.70649
 51
64.293579
  0
LINE
  5
4912F
100
AcDbEntity
  8
0
100
AcDbLine
 10
-2.162
 20
-0.97
 30
0.577
 11
-1.672
 21
-0.97
 31
0.577
  0
LINE
  5
49130
100
AcDbEntity
  8
0
100
AcDbLine
 10
-2.262
 20
-0.69
 30
0.577
 11
-2.162
 21
-0.97
 31
0.577
  0
LINE
  5
49131
100
AcDbEntity
  8
0
100
AcDbLine
 10
-1.1905
 20
-0.97
 30
0.577
 11
-1.1905
 21
-1.102159
 31
0.577
  0
LINE
  5
49132
100
AcDbEntity
  8
0
100
AcDbLine
 10
-1.3935
 20
-0.97
 30
0.577
 11
-1.3935
 21
-1.102159
 31
0.577
  0
LINE
  5
49133
100
AcDbEntity
  8
0
100
AcDbLine
 10
-1.672
 20
-0.97
 30
0.577
 11
-1.572
 21
-0.69
 31
0.577
  0
ARC
  5
49134
100
AcDbEntity
  8
0
100
AcDbCircle
 10
-1.292
 20
-0.97
 30
0.577
 40
0.1015
100
AcDbArc
 50
0.0
 51
179.999985
  0
CIRCLE
  5
49135
100
AcDbEntity
  8
0
100
AcDbCircle
 10
-0.912
 20
-0.97
 30
0.577
 40
0.1
  0
POLYLINE
  5
49136
100
AcDbEntity
  8
0
100
AcDbPolygonMesh
 66
     1
 10
0.0
 20
0.0
 30
0.0
 70
    16
 71
     6
 72
     3
  0
VERTEX
  5
49137
100
AcDbEntity
  8
0
100
AcDbVertex
100
AcDbPolygonMeshVertex
 10
-0.852
 20
-1.34
 30
4.857
 70
    64
  0
VERTEX
  5
49138
100
AcDbEntity
  8
0
100
AcDbVertex
100
AcDbPolygonMeshVertex
 10
-0.852
 20
-1.34
 30
4.477
 70
    64
  0
VERTEX
  5
49139
100
AcDbEntity
  8
0
100
AcDbVertex
100
AcDbPolygonMeshVertex
 10
-0.852
 20
-1.34
 30
4.477
 70
    64
  0
VERTEX
  5
4913A
100
AcDbEntity
  8
0
100
AcDbVertex
100
AcDbPolygonMeshVertex
 10
-0.672
 20
-1.34
 30
4.857
 70
    64
  0
VERTEX
  5
4913B
100
AcDbEntity
  8
0
100
AcDbVertex
100
AcDbPolygonMeshVertex
 10
-0.672
 20
-1.34
 30
4.477
 70
    64
  0
VERTEX
  5
4913C
100
AcDbEntity
  8
0
100
AcDbVertex
100
AcDbPolygonMeshVertex
 10
-0.672
 20
-1.34
 30
4.477
 70
    64
  0
VERTEX
  5
4913D
100
AcDbEntity
  8
0
100
AcDbVertex
100
AcDbPolygonMeshVertex
 10
-0.672
 20
-2.15
 30
4.857
 70
    64
  0
VERTEX
  5
4913E
100
AcDbEntity
  8
0
100
AcDbVertex
100
AcDbPolygonMeshVertex
 10
-0.672
 20
-2.15
 30
4.477
 70
    64
  0
VERTEX
  5
4913F
100
AcDbEntity
  8
0
100
AcDbVertex
100
AcDbPolygonMeshVertex
 10
-0.672
 20
-1.34
 30
4.477
 70
    64
  0
VERTEX
  5
49140
100
AcDbEntity
  8
0
100
AcDbVertex
100
AcDbPolygonMeshVertex
 10
-0.852
 20
-2.15
 30
4.857
 70
    64
  0
VERTEX
  5
49141
100
AcDbEntity
  8
0
100
AcDbVertex
100
AcDbPolygonMeshVertex
 10
-0.852
 20
-2.15
 30
4.477
 70
    64
  0
VERTEX
  5
49142
100
AcDbEntity
  8
0
100
AcDbVertex
100
AcDbPolygonMeshVertex
 10
-0.852
 20
-1.34
 30
4.477
 70
    64
  0
VERTEX
  5
49143
100
AcDbEntity
  8
0
100
AcDbVertex
100
AcDbPolygonMeshVertex
 10
-0.852
 20
-2.15
 30
4.857
 70
    64
  0
VERTEX
  5
49144
100
AcDbEntity
  8
0
100
AcDbVertex
100
AcDbPolygonMeshVertex
 10
-0.852
 20
-2.15
 30
4.857
 70
    64
  0
VERTEX
  5
49145
100
AcDbEntity
  8
0
100
AcDbVertex
100
AcDbPolygonMeshVertex
 10
-0.852
 20
-1.34
 30
4.857
 70
    64
  0
VERTEX
  5
49146
100
AcDbEntity
  8
0
100
AcDbVertex
100
AcDbPolygonMeshVertex
 10
-0.672
 20
-2.15
 30
4.857
 70
    64
  0
VERTEX
  5
49147
100
AcDbEntity
  8
0
100
AcDbVertex
100
AcDbPolygonMeshVertex
 10
-0.672
 20
-2.15
 30
4.857
 70
    64
  0
VERTEX
  5
49148
100
AcDbEntity
  8
0
100
AcDbVertex
100
AcDbPolygonMeshVertex
 10
-0.672
 20
-1.34
 30
4.857
 70
    64
  0
SEQEND
  5
49149
100
AcDbEntity
  8
0
  0
POLYLINE
  5
4914A
100
AcDbEntity
  8
0
100
AcDbPolygonMesh
 66
     1
 10
0.0
 20
0.0
 30
0.0
 70
    16
 71
     6
 72
     3
  0
VERTEX
  5
4914B
100
AcDbEntity
  8
0
100
AcDbVertex
100
AcDbPolygonMeshVertex
 10
-1.912
 20
-1.34
 30
4.857
 70
    64
  0
VERTEX
  5
4914C
100
AcDbEntity
  8
0
100
AcDbVertex
100
AcDbPolygonMeshVertex
 10
-1.912
 20
-1.34
 30
4.477
 70
    64
  0
VERTEX
  5
4914D
100
AcDbEntity
  8
0
100
AcDbVertex
100
AcDbPolygonMeshVertex
 10
-1.912
 20
-1.34
 30
4.477
 70
    64
  0
VERTEX
  5
4914E
100
AcDbEntity
  8
0
100
AcDbVertex
100
AcDbPolygonMeshVertex
 10
-1.732
 20
-1.34
 30
4.857
 70
    64
  0
VERTEX
  5
4914F
100
AcDbEntity
  8
0
100
AcDbVertex
100
AcDbPolygonMeshVertex
 10
-1.732
 20
-1.34
 30
4.477
 70
    64
  0
VERTEX
  5
49150
100
AcDbEntity
  8
0
100
AcDbVertex
100
AcDbPolygonMeshVertex
 10
-1.732
 20
-1.34
 30
4.477
 70
    64
  0
VERTEX
  5
49151
100
AcDbEntity
  8
0
100
AcDbVertex
100
AcDbPolygonMeshVertex
 10
-1.732
 20
-2.15
 30
4.857
 70
    64
  0
VERTEX
  5
49152
100
AcDbEntity
  8
0
100
AcDbVertex
100
AcDbPolygonMeshVertex
 10
-1.732
 20
-2.15
 30
4.477
 70
    64
  0
VERTEX
  5
49153
100
AcDbEntity
  8
0
100
AcDbVertex
100
AcDbPolygonMeshVertex
 10
-1.732
 20
-1.34
 30
4.477
 70
    64
  0
VERTEX
  5
49154
100
AcDbEntity
  8
0
100
AcDbVertex
100
AcDbPolygonMeshVertex
 10
-1.912
 20
-2.15
 30
4.857
 70
    64
  0
VERTEX
  5
49155
100
AcDbEntity
  8
0
100
AcDbVertex
100
AcDbPolygonMeshVertex
 10
-1.912
 20
-2.15
 30
4.477
 70
    64
  0
VERTEX
  5
49156
100
AcDbEntity
  8
0
100
AcDbVertex
100
AcDbPolygonMeshVertex
 10
-1.912
 20
-1.34
 30
4.477
 70
    64
  0
VERTEX
  5
49157
100
AcDbEntity
  8
0
100
AcDbVertex
100
AcDbPolygonMeshVertex
 10
-1.912
 20
-2.15
 30
4.857
 70
    64
  0
VERTEX
  5
49158
100
AcDbEntity
  8
0
100
AcDbVertex
100
AcDbPolygonMeshVertex
 10
-1.912
 20
-2.15
 30
4.857
 70
    64
  0
VERTEX
  5
49159
100
AcDbEntity
  8
0
100
AcDbVertex
100
AcDbPolygonMeshVertex
 10
-1.912
 20
-1.34
 30
4.857
 70
    64
  0
VERTEX
  5
4915A
100
AcDbEntity
  8
0
100
AcDbVertex
100
AcDbPolygonMeshVertex
 10
-1.732
 20
-2.15
 30
4.857
 70
    64
  0
VERTEX
  5
4915B
100
AcDbEntity
  8
0
100
AcDbVertex
100
AcDbPolygonMeshVertex
 10
-1.732
 20
-2.15
 30
4.857
 70
    64
  0
VERTEX
  5
4915C
100
AcDbEntity
  8
0
100
AcDbVertex
100
AcDbPolygonMeshVertex
 10
-1.732
 20
-1.34
 30
4.857
 70
    64
  0
SEQEND
  5
4915D
100
AcDbEntity
  8
0
  0
POLYLINE
  5
4915E
100
AcDbEntity
  8
0
100
AcDbPolygonMesh
 66
     1
 10
0.0
 20
0.0
 30
0.0
 70
    16
 71
     6
 72
     3
  0
VERTEX
  5
4915F
100
AcDbEntity
  8
0
100
AcDbVertex
100
AcDbPolygonMeshVertex
 10
-0.352
 20
-4.44
 30
4.387
 70
    64
  0
VERTEX
  5
49160
100
AcDbEntity
  8
0
100
AcDbVertex
100
AcDbPolygonMeshVertex
 10
-0.352
 20
-4.44
 30
4.017
 70
    64
  0
VERTEX
  5
49161
100
AcDbEntity
  8
0
100
AcDbVertex
100
AcDbPolygonMeshVertex
 10
-0.352
 20
-4.44
 30
4.017
 70
    64
  0
VERTEX
  5
49162
100
AcDbEntity
  8
0
100
AcDbVertex
100
AcDbPolygonMeshVertex
 10
-2.232
 20
-4.44
 30
4.387
 70
    64
  0
VERTEX
  5
49163
100
AcDbEntity
  8
0
100
AcDbVertex
100
AcDbPolygonMeshVertex
 10
-2.232
 20
-4.44
 30
4.017
 70
    64
  0
VERTEX
  5
49164
100
AcDbEntity
  8
0
100
AcDbVertex
100
AcDbPolygonMeshVertex
 10
-2.232
 20
-4.44
 30
4.017
 70
    64
  0
VERTEX
  5
49165
100
AcDbEntity
  8
0
100
AcDbVertex
100
AcDbPolygonMeshVertex
 10
-2.232
 20
-3.6
 30
4.387
 70
    64
  0
VERTEX
  5
49166
100
AcDbEntity
  8
0
100
AcDbVertex
100
AcDbPolygonMeshVertex
 10
-2.232
 20
-3.6
 30
4.017
 70
    64
  0
VERTEX
  5
49167
100
AcDbEntity
  8
0
100
AcDbVertex
100
AcDbPolygonMeshVertex
 10
-2.232
 20
-4.44
 30
4.017
 70
    64
  0
VERTEX
  5
49168
100
AcDbEntity
  8
0
100
AcDbVertex
100
AcDbPolygonMeshVertex
 10
-0.352
 20
-3.6
 30
4.387
 70
    64
  0
VERTEX
  5
49169
100
AcDbEntity
  8
0
100
AcDbVertex
100
AcDbPolygonMeshVertex
 10
-0.352
 20
-3.6
 30
4.017
 70
    64
  0
VERTEX
  5
4916A
100
AcDbEntity
  8
0
100
AcDbVertex
100
AcDbPolygonMeshVertex
 10
-0.352
 20
-4.44
 30
4.017
 70
    64
  0
VERTEX
  5
4916B
100
AcDbEntity
  8
0
100
AcDbVertex
100
AcDbPolygonMeshVertex
 10
-0.352
 20
-3.6
 30
4.387
 70
    64
  0
VERTEX
  5
4916C
100
AcDbEntity
  8
0
100
AcDbVertex
100
AcDbPolygonMeshVertex
 10
-0.352
 20
-3.6
 30
4.387
 70
    64
  0
VERTEX
  5
4916D
100
AcDbEntity
  8
0
100
AcDbVertex
100
AcDbPolygonMeshVertex
 10
-0.352
 20
-4.44
 30
4.387
 70
    64
  0
VERTEX
  5
4916E
100
AcDbEntity
  8
0
100
AcDbVertex
100
AcDbPolygonMeshVertex
 10
-2.232
 20
-3.6
 30
4.387
 70
    64
  0
VERTEX
  5
4916F
100
AcDbEntity
  8
0
100
AcDbVertex
100
AcDbPolygonMeshVertex
 10
-2.232
 20
-3.6
 30
4.387
 70
    64
  0
VERTEX
  5
49170
100
AcDbEntity
  8
0
100
AcDbVertex
100
AcDbPolygonMeshVertex
 10
-2.232
 20
-4.44
 30
4.387
 70
    64
  0
SEQEND
  5
49171
100
AcDbEntity
  8
0
  0
CIRCLE
  5
49172
100
AcDbEntity
  8
0
100
AcDbCircle
 10
-1.822
 20
-3.91
 30
4.857
 40
0.095
  0
LINE
  5
49173
100
AcDbEntity
  8
0
100
AcDbLine
 10
-1.887515
 20
-3.841205
 30
4.857
 11
-1.772899
 21
-3.991327
 31
4.857
  0
LINE
  5
49174
100
AcDbEntity
  8
0
100
AcDbLine
 10
-1.871326
 20
-3.825015
 30
4.857
 11
-1.75671
 21
-3.975138
 31
4.857
  0
POLYLINE
  5
49175
100
AcDbEntity
  8
0
100
AcDbPolygonMesh
 66
     1
 10
0.0
 20
0.0
 30
0.0
 70
    16
 71
     6
 72
     3
  0
VERTEX
  5
49176
100
AcDbEntity
  8
0
100
AcDbVertex
100
AcDbPolygonMeshVertex
 10
-1.602
 20
-4.04
 30
4.857
 70
    64
  0
VERTEX
  5
49177
100
AcDbEntity
  8
0
100
AcDbVertex
100
AcDbPolygonMeshVertex
 10
-1.602
 20
-4.04
 30
4.387
 70
    64
  0
VERTEX
  5
49178
100
AcDbEntity
  8
0
100
AcDbVertex
100
AcDbPolygonMeshVertex
 10
-1.602
 20
-4.04
 30
4.387
 70
    64
  0
VERTEX
  5
49179
100
AcDbEntity
  8
0
100
AcDbVertex
100
AcDbPolygonMeshVertex
 10
-2.042
 20
-4.04
 30
4.857
 70
    64
  0
VERTEX
  5
4917A
100
AcDbEntity
  8
0
100
AcDbVertex
100
AcDbPolygonMeshVertex
 10
-2.042
 20
-4.04
 30
4.387
 70
    64
  0
VERTEX
  5
4917B
100
AcDbEntity
  8
0
100
AcDbVertex
100
AcDbPolygonMeshVertex
 10
-2.042
 20
-4.04
 30
4.387
 70
    64
  0
VERTEX
  5
4917C
100
AcDbEntity
  8
0
100
AcDbVertex
100
AcDbPolygonMeshVertex
 10
-2.042
 20
-3.66
 30
4.857
 70
    64
  0
VERTEX
  5
4917D
100
AcDbEntity
  8
0
100
AcDbVertex
100
AcDbPolygonMeshVertex
 10
-2.042
 20
-3.66
 30
4.387
 70
    64
  0
VERTEX
  5
4917E
100
AcDbEntity
  8
0
100
AcDbVertex
100
AcDbPolygonMeshVertex
 10
-2.042
 20
-4.04
 30
4.387
 70
    64
  0
VERTEX
  5
4917F
100
AcDbEntity
  8
0
100
AcDbVertex
100
AcDbPolygonMeshVertex
 10
-1.602
 20
-3.66
 30
4.857
 70
    64
  0
VERTEX
  5
49180
100
AcDbEntity
  8
0
100
AcDbVertex
100
AcDbPolygonMeshVertex
 10
-1.602
 20
-3.66
 30
4.387
 70
    64
  0
VERTEX
  5
49181
100
AcDbEntity
  8
0
100
AcDbVertex
100
AcDbPolygonMeshVertex
 10
-1.602
 20
-4.04
 30
4.387
 70
    64
  0
VERTEX
  5
49182
100
AcDbEntity
  8
0
100
AcDbVertex
100
AcDbPolygonMeshVertex
 10
-1.602
 20
-3.66
 30
4.857
 70
    64
  0
VERTEX
  5
49183
100
AcDbEntity
  8
0
100
AcDbVertex
100
AcDbPolygonMeshVertex
 10
-1.602
 20
-3.66
 30
4.857
 70
    64
  0
VERTEX
  5
49184
100
AcDbEntity
  8
0
100
AcDbVertex
100
AcDbPolygonMeshVertex
 10
-1.602
 20
-4.04
 30
4.857
 70
    64
  0
VERTEX
  5
49185
100
AcDbEntity
  8
0
100
AcDbVertex
100
AcDbPolygonMeshVertex
 10
-2.042
 20
-3.66
 30
4.857
 70
    64
  0
VERTEX
  5
49186
100
AcDbEntity
  8
0
100
AcDbVertex
100
AcDbPolygonMeshVertex
 10
-2.042
 20
-3.66
 30
4.857
 70
    64
  0
VERTEX
  5
49187
100
AcDbEntity
  8
0
100
AcDbVertex
100
AcDbPolygonMeshVertex
 10
-2.042
 20
-4.04
 30
4.857
 70
    64
  0
SEQEND
  5
49188
100
AcDbEntity
  8
0
  0
CIRCLE
  5
49189
100
AcDbEntity
  8
0
100
AcDbCircle
 10
-0.762
 20
-3.91
 30
4.857
 40
0.095
  0
LINE
  5
4918A
100
AcDbEntity
  8
0
100
AcDbLine
 10
-0.827515
 20
-3.841205
 30
4.857
 11
-0.7129
 21
-3.991327
 31
4.857
  0
LINE
  5
4918B
100
AcDbEntity
  8
0
100
AcDbLine
 10
-0.811326
 20
-3.825015
 30
4.857
 11
-0.69671
 21
-3.975138
 31
4.857
  0
POLYLINE
  5
4918C
100
AcDbEntity
  8
0
100
AcDbPolygonMesh
 66
     1
 10
0.0
 20
0.0
 30
0.0
 70
    16
 71
     6
 72
     3
  0
VERTEX
  5
4918D
100
AcDbEntity
  8
0
100
AcDbVertex
100
AcDbPolygonMeshVertex
 10
-0.542
 20
-4.04
 30
4.857
 70
    64
  0
VERTEX
  5
4918E
100
AcDbEntity
  8
0
100
AcDbVertex
100
AcDbPolygonMeshVertex
 10
-0.542
 20
-4.04
 30
4.387
 70
    64
  0
VERTEX
  5
4918F
100
AcDbEntity
  8
0
100
AcDbVertex
100
AcDbPolygonMeshVertex
 10
-0.542
 20
-4.04
 30
4.387
 70
    64
  0
VERTEX
  5
49190
100
AcDbEntity
  8
0
100
AcDbVertex
100
AcDbPolygonMeshVertex
 10
-0.982
 20
-4.04
 30
4.857
 70
    64
  0
VERTEX
  5
49191
100
AcDbEntity
  8
0
100
AcDbVertex
100
AcDbPolygonMeshVertex
 10
-0.982
 20
-4.04
 30
4.387
 70
    64
  0
VERTEX
  5
49192
100
AcDbEntity
  8
0
100
AcDbVertex
100
AcDbPolygonMeshVertex
 10
-0.982
 20
-4.04
 30
4.387
 70
    64
  0
VERTEX
  5
49193
100
AcDbEntity
  8
0
100
AcDbVertex
100
AcDbPolygonMeshVertex
 10
-0.982
 20
-3.66
 30
4.857
 70
    64
  0
VERTEX
  5
49194
100
AcDbEntity
  8
0
100
AcDbVertex
100
AcDbPolygonMeshVertex
 10
-0.982
 20
-3.66
 30
4.387
 70
    64
  0
VERTEX
  5
49195
100
AcDbEntity
  8
0
100
AcDbVertex
100
AcDbPolygonMeshVertex
 10
-0.982
 20
-4.04
 30
4.387
 70
    64
  0
VERTEX
  5
49196
100
AcDbEntity
  8
0
100
AcDbVertex
100
AcDbPolygonMeshVertex
 10
-0.542
 20
-3.66
 30
4.857
 70
    64
  0
VERTEX
  5
49197
100
AcDbEntity
  8
0
100
AcDbVertex
100
AcDbPolygonMeshVertex
 10
-0.542
 20
-3.66
 30
4.387
 70
    64
  0
VERTEX
  5
49198
100
AcDbEntity
  8
0
100
AcDbVertex
100
AcDbPolygonMeshVertex
 10
-0.542
 20
-4.04
 30
4.387
 70
    64
  0
VERTEX
  5
49199
100
AcDbEntity
  8
0
100
AcDbVertex
100
AcDbPolygonMeshVertex
 10
-0.542
 20
-3.66
 30
4.857
 70
    64
  0
VERTEX
  5
4919A
100
AcDbEntity
  8
0
100
AcDbVertex
100
AcDbPolygonMeshVertex
 10
-0.542
 20
-3.66
 30
4.857
 70
    64
  0
VERTEX
  5
4919B
100
AcDbEntity
  8
0
100
AcDbVertex
100
AcDbPolygonMeshVertex
 10
-0.542
 20
-4.04
 30
4.857
 70
    64
  0
VERTEX
  5
4919C
100
AcDbEntity
  8
0
100
AcDbVertex
100
AcDbPolygonMeshVertex
 10
-0.982
 20
-3.66
 30
4.857
 70
    64
  0
VERTEX
  5
4919D
100
AcDbEntity
  8
0
100
AcDbVertex
100
AcDbPolygonMeshVertex
 10
-0.982
 20
-3.66
 30
4.857
 70
    64
  0
VERTEX
  5
4919E
100
AcDbEntity
  8
0
100
AcDbVertex
100
AcDbPolygonMeshVertex
 10
-0.982
 20
-4.04
 30
4.857
 70
    64
  0
SEQEND
  5
4919F
100
AcDbEntity
  8
0
  0
POLYLINE
  5
491A0
100
AcDbEntity
  8
0
100
AcDbPolygonMesh
 66
     1
 10
0.0
 20
0.0
 30
0.0
 70
    16
 71
     6
 72
     3
  0
VERTEX
  5
491A1
100
AcDbEntity
  8
0
100
AcDbVertex
100
AcDbPolygonMeshVertex
 10
-0.852
 20
-1.34
 30
4.477
 70
    64
  0
VERTEX
  5
491A2
100
AcDbEntity
  8
0
100
AcDbVertex
100
AcDbPolygonMeshVertex
 10
-0.852
 20
-1.34
 30
3.357
 70
    64
  0
VERTEX
  5
491A3
100
AcDbEntity
  8
0
100
AcDbVertex
100
AcDbPolygonMeshVertex
 10
-0.852
 20
-1.34
 30
3.357
 70
    64
  0
VERTEX
  5
491A4
100
AcDbEntity
  8
0
100
AcDbVertex
100
AcDbPolygonMeshVertex
 10
-0.672
 20
-1.34
 30
4.477
 70
    64
  0
VERTEX
  5
491A5
100
AcDbEntity
  8
0
100
AcDbVertex
100
AcDbPolygonMeshVertex
 10
-0.672
 20
-1.34
 30
3.357
 70
    64
  0
VERTEX
  5
491A6
100
AcDbEntity
  8
0
100
AcDbVertex
100
AcDbPolygonMeshVertex
 10
-0.672
 20
-1.34
 30
3.357
 70
    64
  0
VERTEX
  5
491A7
100
AcDbEntity
  8
0
100
AcDbVertex
100
AcDbPolygonMeshVertex
 10
-0.672
 20
-1.47
 30
4.477
 70
    64
  0
VERTEX
  5
491A8
100
AcDbEntity
  8
0
100
AcDbVertex
100
AcDbPolygonMeshVertex
 10
-0.672
 20
-1.47
 30
3.357
 70
    64
  0
VERTEX
  5
491A9
100
AcDbEntity
  8
0
100
AcDbVertex
100
AcDbPolygonMeshVertex
 10
-0.672
 20
-1.34
 30
3.357
 70
    64
  0
VERTEX
  5
491AA
100
AcDbEntity
  8
0
100
AcDbVertex
100
AcDbPolygonMeshVertex
 10
-0.852
 20
-1.47
 30
4.477
 70
    64
  0
VERTEX
  5
491AB
100
AcDbEntity
  8
0
100
AcDbVertex
100
AcDbPolygonMeshVertex
 10
-0.852
 20
-1.47
 30
3.357
 70
    64
  0
VERTEX
  5
491AC
100
AcDbEntity
  8
0
100
AcDbVertex
100
AcDbPolygonMeshVertex
 10
-0.852
 20
-1.34
 30
3.357
 70
    64
  0
VERTEX
  5
491AD
100
AcDbEntity
  8
0
100
AcDbVertex
100
AcDbPolygonMeshVertex
 10
-0.852
 20
-1.47
 30
4.477
 70
    64
  0
VERTEX
  5
491AE
100
AcDbEntity
  8
0
100
AcDbVertex
100
AcDbPolygonMeshVertex
 10
-0.852
 20
-1.47
 30
4.477
 70
    64
  0
VERTEX
  5
491AF
100
AcDbEntity
  8
0
100
AcDbVertex
100
AcDbPolygonMeshVertex
 10
-0.852
 20
-1.34
 30
4.477
 70
    64
  0
VERTEX
  5
491B0
100
AcDbEntity
  8
0
100
AcDbVertex
100
AcDbPolygonMeshVertex
 10
-0.672
 20
-1.47
 30
4.477
 70
    64
  0
VERTEX
  5
491B1
100
AcDbEntity
  8
0
100
AcDbVertex
100
AcDbPolygonMeshVertex
 10
-0.672
 20
-1.47
 30
4.477
 70
    64
  0
VERTEX
  5
491B2
100
AcDbEntity
  8
0
100
AcDbVertex
100
AcDbPolygonMeshVertex
 10
-0.672
 20
-1.34
 30
4.477
 70
    64
  0
SEQEND
  5
491B3
100
AcDbEntity
  8
0
  0
POLYLINE
  5
491B4
100
AcDbEntity
  8
0
100
AcDbPolygonMesh
 66
     1
 10
0.0
 20
0.0
 30
0.0
 70
    16
 71
     6
 72
     3
  0
VERTEX
  5
491B5
100
AcDbEntity
  8
0
100
AcDbVertex
100
AcDbPolygonMeshVertex
 10
-1.912
 20
-1.34
 30
4.477
 70
    64
  0
VERTEX
  5
491B6
100
AcDbEntity
  8
0
100
AcDbVertex
100
AcDbPolygonMeshVertex
 10
-1.912
 20
-1.34
 30
3.357
 70
    64
  0
VERTEX
  5
491B7
100
AcDbEntity
  8
0
100
AcDbVertex
100
AcDbPolygonMeshVertex
 10
-1.912
 20
-1.34
 30
3.357
 70
    64
  0
VERTEX
  5
491B8
100
AcDbEntity
  8
0
100
AcDbVertex
100
AcDbPolygonMeshVertex
 10
-1.732
 20
-1.34
 30
4.477
 70
    64
  0
VERTEX
  5
491B9
100
AcDbEntity
  8
0
100
AcDbVertex
100
AcDbPolygonMeshVertex
 10
-1.732
 20
-1.34
 30
3.357
 70
    64
  0
VERTEX
  5
491BA
100
AcDbEntity
  8
0
100
AcDbVertex
100
AcDbPolygonMeshVertex
 10
-1.732
 20
-1.34
 30
3.357
 70
    64
  0
VERTEX
  5
491BB
100
AcDbEntity
  8
0
100
AcDbVertex
100
AcDbPolygonMeshVertex
 10
-1.732
 20
-1.47
 30
4.477
 70
    64
  0
VERTEX
  5
491BC
100
AcDbEntity
  8
0
100
AcDbVertex
100
AcDbPolygonMeshVertex
 10
-1.732
 20
-1.47
 30
3.357
 70
    64
  0
VERTEX
  5
491BD
100
AcDbEntity
  8
0
100
AcDbVertex
100
AcDbPolygonMeshVertex
 10
-1.732
 20
-1.34
 30
3.357
 70
    64
  0
VERTEX
  5
491BE
100
AcDbEntity
  8
0
100
AcDbVertex
100
AcDbPolygonMeshVertex
 10
-1.912
 20
-1.47
 30
4.477
 70
    64
  0
VERTEX
  5
491BF
100
AcDbEntity
  8
0
100
AcDbVertex
100
AcDbPolygonMeshVertex
 10
-1.912
 20
-1.47
 30
3.357
 70
    64
  0
VERTEX
  5
491C0
100
AcDbEntity
  8
0
100
AcDbVertex
100
AcDbPolygonMeshVertex
 10
-1.912
 20
-1.34
 30
3.357
 70
    64
  0
VERTEX
  5
491C1
100
AcDbEntity
  8
0
100
AcDbVertex
100
AcDbPolygonMeshVertex
 10
-1.912
 20
-1.47
 30
4.477
 70
    64
  0
VERTEX
  5
491C2
100
AcDbEntity
  8
0
100
AcDbVertex
100
AcDbPolygonMeshVertex
 10
-1.912
 20
-1.47
 30
4.477
 70
    64
  0
VERTEX
  5
491C3
100
AcDbEntity
  8
0
100
AcDbVertex
100
AcDbPolygonMeshVertex
 10
-1.912
 20
-1.34
 30
4.477
 70
    64
  0
VERTEX
  5
491C4
100
AcDbEntity
  8
0
100
AcDbVertex
100
AcDbPolygonMeshVertex
 10
-1.732
 20
-1.47
 30
4.477
 70
    64
  0
VERTEX
  5
491C5
100
AcDbEntity
  8
0
100
AcDbVertex
100
AcDbPolygonMeshVertex
 10
-1.732
 20
-1.47
 30
4.477
 70
    64
  0
VERTEX
  5
491C6
100
AcDbEntity
  8
0
100
AcDbVertex
100
AcDbPolygonMeshVertex
 10
-1.732
 20
-1.34
 30
4.477
 70
    64
  0
SEQEND
  5
491C7
100
AcDbEntity
  8
0
  0
LINE
  5
491C8
100
AcDbEntity
  8
0
100
AcDbLine
 10
-0.672
 20
-1.34
 30
4.477
 11
-0.852
 21
-1.34
 31
4.477
  0
LINE
  5
491C9
100
AcDbEntity
  8
0
100
AcDbLine
 10
-0.672
 20
-1.47
 30
4.477
 11
-0.672
 21
-1.34
 31
4.477
  0
TEXT
  5
491CA
100
AcDbEntity
  8
0
100
AcDbText
 10
1.757738
 20
-1.827169
 30
4.667
 40
0.12
  1
T1
100
AcDbText
  0
CIRCLE
  5
491CB
100
AcDbEntity
  8
0
100
AcDbCircle
 10
1.836
 20
-1.765
 30
4.667
 40
0.19
  0
POLYLINE
  5
491CC
100
AcDbEntity
  8
0
100
AcDbPolygonMesh
 66
     1
 10
0.0
 20
0.0
 30
0.0
 70
    16
 71
     6
 72
     3
  0
VERTEX
  5
491CD
100
AcDbEntity
  8
0
100
AcDbVertex
100
AcDbPolygonMeshVertex
 10
1.586
 20
-1.56
 30
4.667
 70
    64
  0
VERTEX
  5
491CE
100
AcDbEntity
  8
0
100
AcDbVertex
100
AcDbPolygonMeshVertex
 10
1.586
 20
-1.56
 30
4.477
 70
    64
  0
VERTEX
  5
491CF
100
AcDbEntity
  8
0
100
AcDbVertex
100
AcDbPolygonMeshVertex
 10
1.586
 20
-1.56
 30
4.477
 70
    64
  0
VERTEX
  5
491D0
100
AcDbEntity
  8
0
100
AcDbVertex
100
AcDbPolygonMeshVertex
 10
2.086
 20
-1.56
 30
4.667
 70
    64
  0
VERTEX
  5
491D1
100
AcDbEntity
  8
0
100
AcDbVertex
100
AcDbPolygonMeshVertex
 10
2.086
 20
-1.56
 30
4.477
 70
    64
  0
VERTEX
  5
491D2
100
AcDbEntity
  8
0
100
AcDbVertex
100
AcDbPolygonMeshVertex
 10
2.086
 20
-1.56
 30
4.477
 70
    64
  0
VERTEX
  5
491D3
100
AcDbEntity
  8
0
100
AcDbVertex
100
AcDbPolygonMeshVertex
 10
2.086
 20
-1.97
 30
4.667
 70
    64
  0
VERTEX
  5
491D4
100
AcDbEntity
  8
0
100
AcDbVertex
100
AcDbPolygonMeshVertex
 10
2.086
 20
-1.97
 30
4.477
 70
    64
  0
VERTEX
  5
491D5
100
AcDbEntity
  8
0
100
AcDbVertex
100
AcDbPolygonMeshVertex
 10
2.086
 20
-1.56
 30
4.477
 70
    64
  0
VERTEX
  5
491D6
100
AcDbEntity
  8
0
100
AcDbVertex
100
AcDbPolygonMeshVertex
 10
1.586
 20
-1.97
 30
4.667
 70
    64
  0
VERTEX
  5
491D7
100
AcDbEntity
  8
0
100
AcDbVertex
100
AcDbPolygonMeshVertex
 10
1.586
 20
-1.97
 30
4.477
 70
    64
  0
VERTEX
  5
491D8
100
AcDbEntity
  8
0
100
AcDbVertex
100
AcDbPolygonMeshVertex
 10
1.586
 20
-1.56
 30
4.477
 70
    64
  0
VERTEX
  5
491D9
100
AcDbEntity
  8
0
100
AcDbVertex
100
AcDbPolygonMeshVertex
 10
1.586
 20
-1.97
 30
4.667
 70
    64
  0
VERTEX
  5
491DA
100
AcDbEntity
  8
0
100
AcDbVertex
100
AcDbPolygonMeshVertex
 10
1.586
 20
-1.97
 30
4.667
 70
    64
  0
VERTEX
  5
491DB
100
AcDbEntity
  8
0
100
AcDbVertex
100
AcDbPolygonMeshVertex
 10
1.586
 20
-1.56
 30
4.667
 70
    64
  0
VERTEX
  5
491DC
100
AcDbEntity
  8
0
100
AcDbVertex
100
AcDbPolygonMeshVertex
 10
2.086
 20
-1.97
 30
4.667
 70
    64
  0
VERTEX
  5
491DD
100
AcDbEntity
  8
0
100
AcDbVertex
100
AcDbPolygonMeshVertex
 10
2.086
 20
-1.97
 30
4.667
 70
    64
  0
VERTEX
  5
491DE
100
AcDbEntity
  8
0
100
AcDbVertex
100
AcDbPolygonMeshVertex
 10
2.086
 20
-1.56
 30
4.667
 70
    64
  0
SEQEND
  5
491DF
100
AcDbEntity
  8
0
  0
LINE
  5
491E0
100
AcDbEntity
  8
0
100
AcDbLine
 10
1.736
 20
-0.69
 30
0.577
 11
1.926
 21
-0.69
 31
0.577
  0
LINE
  5
491E1
100
AcDbEntity
  8
0
100
AcDbLine
 10
1.736
 20
-0.69
 30
0.387
 11
1.926
 21
-0.69
 31
0.387
  0
3DFACE
  5
491E2
100
AcDbEntity
  8
0
100
AcDbFace
 10
1.926
 20
-0.69
 30
0.577
 11
1.736
 21
-0.69
 31
0.577
 12
1.736
 22
-0.69
 32
0.387
 13
1.926
 23
-0.69
 33
0.387
 70
    14
  0
POLYLINE
  5
491E3
100
AcDbEntity
  8
0
100
AcDbPolygonMesh
 66
     1
 10
0.0
 20
0.0
 30
0.0
 70
    16
 71
     6
 72
     3
  0
VERTEX
  5
491E4
100
AcDbEntity
  8
0
100
AcDbVertex
100
AcDbPolygonMeshVertex
 10
4.676
 20
-6.69
 30
0.577
 70
    64
  0
VERTEX
  5
491E5
100
AcDbEntity
  8
0
100
AcDbVertex
100
AcDbPolygonMeshVertex
 10
4.676
 20
-6.69
 30
0.387
 70
    64
  0
VERTEX
  5
491E6
100
AcDbEntity
  8
0
100
AcDbVertex
100
AcDbPolygonMeshVertex
 10
4.676
 20
-6.69
 30
0.387
 70
    64
  0
VERTEX
  5
491E7
100
AcDbEntity
  8
0
100
AcDbVertex
100
AcDbPolygonMeshVertex
 10
1.116
 20
-6.69
 30
0.577
 70
    64
  0
VERTEX
  5
491E8
100
AcDbEntity
  8
0
100
AcDbVertex
100
AcDbPolygonMeshVertex
 10
1.116
 20
-6.69
 30
0.387
 70
    64
  0
VERTEX
  5
491E9
100
AcDbEntity
  8
0
100
AcDbVertex
100
AcDbPolygonMeshVertex
 10
1.116
 20
-6.69
 30
0.387
 70
    64
  0
VERTEX
  5
491EA
100
AcDbEntity
  8
0
100
AcDbVertex
100
AcDbPolygonMeshVertex
 10
1.116
 20
-1.31
 30
0.577
 70
    64
  0
VERTEX
  5
491EB
100
AcDbEntity
  8
0
100
AcDbVertex
100
AcDbPolygonMeshVertex
 10
1.116
 20
-1.31
 30
0.387
 70
    64
  0
VERTEX
  5
491EC
100
AcDbEntity
  8
0
100
AcDbVertex
100
AcDbPolygonMeshVertex
 10
1.116
 20
-6.69
 30
0.387
 70
    64
  0
VERTEX
  5
491ED
100
AcDbEntity
  8
0
100
AcDbVertex
100
AcDbPolygonMeshVertex
 10
4.676
 20
-1.31
 30
0.577
 70
    64
  0
VERTEX
  5
491EE
100
AcDbEntity
  8
0
100
AcDbVertex
100
AcDbPolygonMeshVertex
 10
4.676
 20
-1.31
 30
0.387
 70
    64
  0
VERTEX
  5
491EF
100
AcDbEntity
  8
0
100
AcDbVertex
100
AcDbPolygonMeshVertex
 10
4.676
 20
-6.69
 30
0.387
 70
    64
  0
VERTEX
  5
491F0
100
AcDbEntity
  8
0
100
AcDbVertex
100
AcDbPolygonMeshVertex
 10
4.676
 20
-1.31
 30
0.577
 70
    64
  0
VERTEX
  5
491F1
100
AcDbEntity
  8
0
100
AcDbVertex
100
AcDbPolygonMeshVertex
 10
4.676
 20
-1.31
 30
0.577
 70
    64
  0
VERTEX
  5
491F2
100
AcDbEntity
  8
0
100
AcDbVertex
100
AcDbPolygonMeshVertex
 10
4.676
 20
-6.69
 30
0.577
 70
    64
  0
VERTEX
  5
491F3
100
AcDbEntity
  8
0
100
AcDbVertex
100
AcDbPolygonMeshVertex
 10
1.116
 20
-1.31
 30
0.577
 70
    64
  0
VERTEX
  5
491F4
100
AcDbEntity
  8
0
100
AcDbVertex
100
AcDbPolygonMeshVertex
 10
1.116
 20
-1.31
 30
0.577
 70
    64
  0
VERTEX
  5
491F5
100
AcDbEntity
  8
0
100
AcDbVertex
100
AcDbPolygonMeshVertex
 10
1.116
 20
-6.69
 30
0.577
 70
    64
  0
SEQEND
  5
491F6
100
AcDbEntity
  8
0
  0
LINE
  5
491F7
100
AcDbEntity
  8
0
100
AcDbLine
 10
4.676
 20
-1.31
 30
0.577
 11
1.116
 21
-1.31
 31
0.577
  0
POLYLINE
  5
491F8
100
AcDbEntity
  8
0
100
AcDbPolygonMesh
 66
     1
 10
0.0
 20
0.0
 30
0.0
 70
    16
 71
     6
 72
     3
  0
VERTEX
  5
491F9
100
AcDbEntity
  8
0
100
AcDbVertex
100
AcDbPolygonMeshVertex
 10
1.216
 20
-5.54
 30
0.577
 70
    64
  0
VERTEX
  5
491FA
100
AcDbEntity
  8
0
100
AcDbVertex
100
AcDbPolygonMeshVertex
 10
1.216
 20
-5.54
 30
0.577
 70
    64
  0
VERTEX
  5
491FB
100
AcDbEntity
  8
0
100
AcDbVertex
100
AcDbPolygonMeshVertex
 10
1.216
 20
-5.54
 30
0.577
 70
    64
  0
VERTEX
  5
491FC
100
AcDbEntity
  8
0
100
AcDbVertex
100
AcDbPolygonMeshVertex
 10
1.216
 20
-5.79
 30
2.007
 70
    64
  0
VERTEX
  5
491FD
100
AcDbEntity
  8
0
100
AcDbVertex
100
AcDbPolygonMeshVertex
 10
1.216
 20
-5.54
 30
2.007
 70
    64
  0
VERTEX
  5
491FE
100
AcDbEntity
  8
0
100
AcDbVertex
100
AcDbPolygonMeshVertex
 10
1.216
 20
-5.54
 30
2.007
 70
    64
  0
VERTEX
  5
491FF
100
AcDbEntity
  8
0
100
AcDbVertex
100
AcDbPolygonMeshVertex
 10
4.576
 20
-5.79
 30
2.007
 70
    64
  0
VERTEX
  5
49200
100
AcDbEntity
  8
0
100
AcDbVertex
100
AcDbPolygonMeshVertex
 10
4.576
 20
-5.54
 30
2.007
 70
    64
  0
VERTEX
  5
49201
100
AcDbEntity
  8
0
100
AcDbVertex
100
AcDbPolygonMeshVertex
 10
1.216
 20
-5.54
 30
2.007
 70
    64
  0
VERTEX
  5
49202
100
AcDbEntity
  8
0
100
AcDbVertex
100
AcDbPolygonMeshVertex
 10
4.576
 20
-5.54
 30
0.577
 70
    64
  0
VERTEX
  5
49203
100
AcDbEntity
  8
0
100
AcDbVertex
100
AcDbPolygonMeshVertex
 10
4.576
 20
-5.54
 30
0.577
 70
    64
  0
VERTEX
  5
49204
100
AcDbEntity
  8
0
100
AcDbVertex
100
AcDbPolygonMeshVertex
 10
1.216
 20
-5.54
 30
0.577
 70
    64
  0
VERTEX
  5
49205
100
AcDbEntity
  8
0
100
AcDbVertex
100
AcDbPolygonMeshVertex
 10
4.576
 20
-5.54
 30
0.577
 70
    64
  0
VERTEX
  5
49206
100
AcDbEntity
  8
0
100
AcDbVertex
100
AcDbPolygonMeshVertex
 10
4.576
 20
-5.54
 30
0.577
 70
    64
  0
VERTEX
  5
49207
100
AcDbEntity
  8
0
100
AcDbVertex
100
AcDbPolygonMeshVertex
 10
1.216
 20
-5.54
 30
0.577
 70
    64
  0
VERTEX
  5
49208
100
AcDbEntity
  8
0
100
AcDbVertex
100
AcDbPolygonMeshVertex
 10
4.576
 20
-5.79
 30
2.007
 70
    64
  0
VERTEX
  5
49209
100
AcDbEntity
  8
0
100
AcDbVertex
100
AcDbPolygonMeshVertex
 10
4.576
 20
-5.79
 30
2.007
 70
    64
  0
VERTEX
  5
4920A
100
AcDbEntity
  8
0
100
AcDbVertex
100
AcDbPolygonMeshVertex
 10
1.216
 20
-5.79
 30
2.007
 70
    64
  0
SEQEND
  5
4920B
100
AcDbEntity
  8
0
  0
POLYLINE
  5
4920C
100
AcDbEntity
  8
0
100
AcDbPolygonMesh
 66
     1
 10
0.0
 20
0.0
 30
0.0
 70
    16
 71
     6
 72
     3
  0
VERTEX
  5
4920D
100
AcDbEntity
  8
0
100
AcDbVertex
100
AcDbPolygonMeshVertex
 10
4.576
 20
-2.15
 30
4.477
 70
    64
  0
VERTEX
  5
4920E
100
AcDbEntity
  8
0
100
AcDbVertex
100
AcDbPolygonMeshVertex
 10
4.576
 20
-2.15
 30
0.577
 70
    64
  0
VERTEX
  5
4920F
100
AcDbEntity
  8
0
100
AcDbVertex
100
AcDbPolygonMeshVertex
 10
4.576
 20
-2.15
 30
0.577
 70
    64
  0
VERTEX
  5
49210
100
AcDbEntity
  8
0
100
AcDbVertex
100
AcDbPolygonMeshVertex
 10
1.216
 20
-2.15
 30
4.477
 70
    64
  0
VERTEX
  5
49211
100
AcDbEntity
  8
0
100
AcDbVertex
100
AcDbPolygonMeshVertex
 10
1.216
 20
-2.15
 30
0.577
 70
    64
  0
VERTEX
  5
49212
100
AcDbEntity
  8
0
100
AcDbVertex
100
AcDbPolygonMeshVertex
 10
1.216
 20
-2.15
 30
0.577
 70
    64
  0
VERTEX
  5
49213
100
AcDbEntity
  8
0
100
AcDbVertex
100
AcDbPolygonMeshVertex
 10
1.216
 20
-1.47
 30
4.477
 70
    64
  0
VERTEX
  5
49214
100
AcDbEntity
  8
0
100
AcDbVertex
100
AcDbPolygonMeshVertex
 10
1.216
 20
-1.47
 30
0.577
 70
    64
  0
VERTEX
  5
49215
100
AcDbEntity
  8
0
100
AcDbVertex
100
AcDbPolygonMeshVertex
 10
1.216
 20
-2.15
 30
0.577
 70
    64
  0
VERTEX
  5
49216
100
AcDbEntity
  8
0
100
AcDbVertex
100
AcDbPolygonMeshVertex
 10
4.576
 20
-1.47
 30
4.477
 70
    64
  0
VERTEX
  5
49217
100
AcDbEntity
  8
0
100
AcDbVertex
100
AcDbPolygonMeshVertex
 10
4.576
 20
-1.47
 30
0.577
 70
    64
  0
VERTEX
  5
49218
100
AcDbEntity
  8
0
100
AcDbVertex
100
AcDbPolygonMeshVertex
 10
4.576
 20
-2.15
 30
0.577
 70
    64
  0
VERTEX
  5
49219
100
AcDbEntity
  8
0
100
AcDbVertex
100
AcDbPolygonMeshVertex
 10
4.576
 20
-1.47
 30
4.477
 70
    64
  0
VERTEX
  5
4921A
100
AcDbEntity
  8
0
100
AcDbVertex
100
AcDbPolygonMeshVertex
 10
4.576
 20
-1.47
 30
4.477
 70
    64
  0
VERTEX
  5
4921B
100
AcDbEntity
  8
0
100
AcDbVertex
100
AcDbPolygonMeshVertex
 10
4.576
 20
-2.15
 30
4.477
 70
    64
  0
VERTEX
  5
4921C
100
AcDbEntity
  8
0
100
AcDbVertex
100
AcDbPolygonMeshVertex
 10
1.216
 20
-1.47
 30
4.477
 70
    64
  0
VERTEX
  5
4921D
100
AcDbEntity
  8
0
100
AcDbVertex
100
AcDbPolygonMeshVertex
 10
1.216
 20
-1.47
 30
4.477
 70
    64
  0
VERTEX
  5
4921E
100
AcDbEntity
  8
0
100
AcDbVertex
100
AcDbPolygonMeshVertex
 10
1.216
 20
-2.15
 30
4.477
 70
    64
  0
SEQEND
  5
4921F
100
AcDbEntity
  8
0
  0
POLYLINE
  5
49220
100
AcDbEntity
  8
0
100
AcDbPolygonMesh
 66
     1
 10
0.0
 20
0.0
 30
0.0
 70
    16
 71
     6
 72
     3
  0
VERTEX
  5
49221
100
AcDbEntity
  8
0
100
AcDbVertex
100
AcDbPolygonMeshVertex
 10
4.576
 20
-5.79
 30
3.237
 70
    64
  0
VERTEX
  5
49222
100
AcDbEntity
  8
0
100
AcDbVertex
100
AcDbPolygonMeshVertex
 10
4.576
 20
-5.79
 30
2.007
 70
    64
  0
VERTEX
  5
49223
100
AcDbEntity
  8
0
100
AcDbVertex
100
AcDbPolygonMeshVertex
 10
4.576
 20
-5.79
 30
2.007
 70
    64
  0
VERTEX
  5
49224
100
AcDbEntity
  8
0
100
AcDbVertex
100
AcDbPolygonMeshVertex
 10
1.216
 20
-5.79
 30
3.237
 70
    64
  0
VERTEX
  5
49225
100
AcDbEntity
  8
0
100
AcDbVertex
100
AcDbPolygonMeshVertex
 10
1.216
 20
-5.79
 30
2.007
 70
    64
  0
VERTEX
  5
49226
100
AcDbEntity
  8
0
100
AcDbVertex
100
AcDbPolygonMeshVertex
 10
1.216
 20
-5.79
 30
2.007
 70
    64
  0
VERTEX
  5
49227
100
AcDbEntity
  8
0
100
AcDbVertex
100
AcDbPolygonMeshVertex
 10
1.216
 20
-5.54
 30
3.237
 70
    64
  0
VERTEX
  5
49228
100
AcDbEntity
  8
0
100
AcDbVertex
100
AcDbPolygonMeshVertex
 10
1.216
 20
-5.54
 30
2.007
 70
    64
  0
VERTEX
  5
49229
100
AcDbEntity
  8
0
100
AcDbVertex
100
AcDbPolygonMeshVertex
 10
1.216
 20
-5.79
 30
2.007
 70
    64
  0
VERTEX
  5
4922A
100
AcDbEntity
  8
0
100
AcDbVertex
100
AcDbPolygonMeshVertex
 10
4.576
 20
-5.54
 30
3.237
 70
    64
  0
VERTEX
  5
4922B
100
AcDbEntity
  8
0
100
AcDbVertex
100
AcDbPolygonMeshVertex
 10
4.576
 20
-5.54
 30
2.007
 70
    64
  0
VERTEX
  5
4922C
100
AcDbEntity
  8
0
100
AcDbVertex
100
AcDbPolygonMeshVertex
 10
4.576
 20
-5.79
 30
2.007
 70
    64
  0
VERTEX
  5
4922D
100
AcDbEntity
  8
0
100
AcDbVertex
100
AcDbPolygonMeshVertex
 10
4.576
 20
-5.54
 30
3.237
 70
    64
  0
VERTEX
  5
4922E
100
AcDbEntity
  8
0
100
AcDbVertex
100
AcDbPolygonMeshVertex
 10
4.576
 20
-5.54
 30
3.237
 70
    64
  0
VERTEX
  5
4922F
100
AcDbEntity
  8
0
100
AcDbVertex
100
AcDbPolygonMeshVertex
 10
4.576
 20
-5.79
 30
3.237
 70
    64
  0
VERTEX
  5
49230
100
AcDbEntity
  8
0
100
AcDbVertex
100
AcDbPolygonMeshVertex
 10
1.216
 20
-5.54
 30
3.237
 70
    64
  0
VERTEX
  5
49231
100
AcDbEntity
  8
0
100
AcDbVertex
100
AcDbPolygonMeshVertex
 10
1.216
 20
-5.54
 30
3.237
 70
    64
  0
VERTEX
  5
49232
100
AcDbEntity
  8
0
100
AcDbVertex
100
AcDbPolygonMeshVertex
 10
1.216
 20
-5.79
 30
3.237
 70
    64
  0
SEQEND
  5
49233
100
AcDbEntity
  8
0
  0
POLYLINE
  5
49234
100
AcDbEntity
  8
0
100
AcDbPolygonMesh
 66
     1
 10
0.0
 20
0.0
 30
0.0
 70
    16
 71
     6
 72
     3
  0
VERTEX
  5
49235
100
AcDbEntity
  8
0
100
AcDbVertex
100
AcDbPolygonMeshVertex
 10
4.576
 20
-5.54
 30
4.017
 70
    64
  0
VERTEX
  5
49236
100
AcDbEntity
  8
0
100
AcDbVertex
100
AcDbPolygonMeshVertex
 10
4.576
 20
-5.54
 30
0.577
 70
    64
  0
VERTEX
  5
49237
100
AcDbEntity
  8
0
100
AcDbVertex
100
AcDbPolygonMeshVertex
 10
4.576
 20
-5.54
 30
0.577
 70
    64
  0
VERTEX
  5
49238
100
AcDbEntity
  8
0
100
AcDbVertex
100
AcDbPolygonMeshVertex
 10
1.216
 20
-5.54
 30
4.017
 70
    64
  0
VERTEX
  5
49239
100
AcDbEntity
  8
0
100
AcDbVertex
100
AcDbPolygonMeshVertex
 10
1.216
 20
-5.54
 30
0.577
 70
    64
  0
VERTEX
  5
4923A
100
AcDbEntity
  8
0
100
AcDbVertex
100
AcDbPolygonMeshVertex
 10
1.216
 20
-5.54
 30
0.577
 70
    64
  0
VERTEX
  5
4923B
100
AcDbEntity
  8
0
100
AcDbVertex
100
AcDbPolygonMeshVertex
 10
1.216
 20
-2.15
 30
4.017
 70
    64
  0
VERTEX
  5
4923C
100
AcDbEntity
  8
0
100
AcDbVertex
100
AcDbPolygonMeshVertex
 10
1.216
 20
-2.15
 30
0.577
 70
    64
  0
VERTEX
  5
4923D
100
AcDbEntity
  8
0
100
AcDbVertex
100
AcDbPolygonMeshVertex
 10
1.216
 20
-5.54
 30
0.577
 70
    64
  0
VERTEX
  5
4923E
100
AcDbEntity
  8
0
100
AcDbVertex
100
AcDbPolygonMeshVertex
 10
4.576
 20
-2.15
 30
4.017
 70
    64
  0
VERTEX
  5
4923F
100
AcDbEntity
  8
0
100
AcDbVertex
100
AcDbPolygonMeshVertex
 10
4.576
 20
-2.15
 30
0.577
 70
    64
  0
VERTEX
  5
49240
100
AcDbEntity
  8
0
100
AcDbVertex
100
AcDbPolygonMeshVertex
 10
4.576
 20
-5.54
 30
0.577
 70
    64
  0
VERTEX
  5
49241
100
AcDbEntity
  8
0
100
AcDbVertex
100
AcDbPolygonMeshVertex
 10
4.576
 20
-2.15
 30
4.017
 70
    64
  0
VERTEX
  5
49242
100
AcDbEntity
  8
0
100
AcDbVertex
100
AcDbPolygonMeshVertex
 10
4.576
 20
-2.15
 30
4.017
 70
    64
  0
VERTEX
  5
49243
100
AcDbEntity
  8
0
100
AcDbVertex
100
AcDbPolygonMeshVertex
 10
4.576
 20
-5.54
 30
4.017
 70
    64
  0
VERTEX
  5
49244
100
AcDbEntity
  8
0
100
AcDbVertex
100
AcDbPolygonMeshVertex
 10
1.216
 20
-2.15
 30
4.017
 70
    64
  0
VERTEX
  5
49245
100
AcDbEntity
  8
0
100
AcDbVertex
100
AcDbPolygonMeshVertex
 10
1.216
 20
-2.15
 30
4.017
 70
    64
  0
VERTEX
  5
49246
100
AcDbEntity
  8
0
100
AcDbVertex
100
AcDbPolygonMeshVertex
 10
1.216
 20
-5.54
 30
4.017
 70
    64
  0
SEQEND
  5
49247
100
AcDbEntity
  8
0
  0
LINE
  5
49248
100
AcDbEntity
  8
0
100
AcDbLine
 10
1.216
 20
-2.15
 30
4.017
 11
1.216
 21
-2.15
 31
0.577
  0
LINE
  5
49249
100
AcDbEntity
  8
0
100
AcDbLine
 10
1.621
 20
-6.47
 30
0.387
 11
1.621
 21
-6.47
 31
0.577
  0
LINE
  5
4924A
100
AcDbEntity
  8
0
100
AcDbLine
 10
1.421
 20
-6.47
 30
0.387
 11
1.421
 21
-6.47
 31
0.577
  0
LINE
  5
4924B
100
AcDbEntity
  8
0
100
AcDbLine
 10
1.421
 20
-6.69
 30
0.387
 11
1.421
 21
-6.69
 31
0.577
  0
LINE
  5
4924C
100
AcDbEntity
  8
0
100
AcDbLine
 10
1.621
 20
-6.69
 30
0.387
 11
1.621
 21
-6.69
 31
0.577
  0
ARC
  5
4924D
100
AcDbEntity
  8
0
100
AcDbCircle
 10
1.521
 20
-6.47
 30
0.387
 40
0.1
100
AcDbArc
 50
0.0
 51
179.999985
  0
LINE
  5
4924E
100
AcDbEntity
  8
0
100
AcDbLine
 10
1.421
 20
-6.47
 30
0.387
 11
1.421
 21
-6.69
 31
0.387
  0
LINE
  5
4924F
100
AcDbEntity
  8
0
100
AcDbLine
 10
1.621
 20
-6.69
 30
0.387
 11
1.621
 21
-6.47
 31
0.387
  0
ARC
  5
49250
100
AcDbEntity
  8
0
100
AcDbCircle
 10
1.521
 20
-6.47
 30
0.577
 40
0.1
100
AcDbArc
 50
0.0
 51
179.999985
  0
LINE
  5
49251
100
AcDbEntity
  8
0
100
AcDbLine
 10
1.421
 20
-6.47
 30
0.577
 11
1.421
 21
-6.69
 31
0.577
  0
LINE
  5
49252
100
AcDbEntity
  8
0
100
AcDbLine
 10
1.621
 20
-6.69
 30
0.577
 11
1.621
 21
-6.47
 31
0.577
  0
LINE
  5
49253
100
AcDbEntity
  8
0
100
AcDbLine
 10
1.116
 20
-1.31
 30
0.387
 11
1.116
 21
-1.31
 31
0.577
  0
3DFACE
  5
49254
100
AcDbEntity
  8
0
100
AcDbFace
 10
1.736
 20
-0.69
 30
0.387
 11
1.736
 21
-0.69
 31
0.577
 12
1.116
 22
-1.31
 32
0.577
 13
1.116
 23
-1.31
 33
0.387
  0
ARC
  5
49255
100
AcDbEntity
  8
0
100
AcDbCircle
 10
4.271
 20
-6.47
 30
0.577
 40
0.1
100
AcDbArc
 50
0.0
 51
179.999985
  0
ARC
  5
49256
100
AcDbEntity
  8
0
100
AcDbCircle
 10
4.271
 20
-6.47
 30
0.387
 40
0.1
100
AcDbArc
 50
0.0
 51
179.999985
  0
ARC
  5
49257
100
AcDbEntity
  8
0
100
AcDbCircle
 10
4.271
 20
-6.47
 30
0.387
 40
0.1
100
AcDbArc
 50
0.0
 51
179.999985
  0
LINE
  5
49258
100
AcDbEntity
  8
0
100
AcDbLine
 10
4.171
 20
-6.47
 30
0.387
 11
4.171
 21
-6.47
 31
0.577
  0
LINE
  5
49259
100
AcDbEntity
  8
0
100
AcDbLine
 10
4.171
 20
-6.69
 30
0.387
 11
4.171
 21
-6.69
 31
0.577
  0
LINE
  5
4925A
100
AcDbEntity
  8
0
100
AcDbLine
 10
4.171
 20
-6.47
 30
0.387
 11
4.171
 21
-6.69
 31
0.387
  0
LINE
  5
4925B
100
AcDbEntity
  8
0
100
AcDbLine
 10
4.171
 20
-6.47
 30
0.577
 11
4.171
 21
-6.69
 31
0.577
  0
LINE
  5
4925C
100
AcDbEntity
  8
0
100
AcDbLine
 10
4.371
 20
-6.47
 30
0.387
 11
4.371
 21
-6.47
 31
0.577
  0
LINE
  5
4925D
100
AcDbEntity
  8
0
100
AcDbLine
 10
4.371
 20
-6.69
 30
0.387
 11
4.371
 21
-6.69
 31
0.577
  0
3DFACE
  5
4925E
100
AcDbEntity
  8
0
100
AcDbFace
 10
4.371
 20
-6.47
 30
0.577
 11
4.371
 21
-6.69
 31
0.577
 12
4.371
 22
-6.69
 32
0.387
 13
4.371
 23
-6.47
 33
0.387
 70
    14
  0
LINE
  5
4925F
100
AcDbEntity
  8
0
100
AcDbLine
 10
4.371
 20
-6.69
 30
0.387
 11
4.371
 21
-6.47
 31
0.387
  0
LINE
  5
49260
100
AcDbEntity
  8
0
100
AcDbLine
 10
4.371
 20
-6.69
 30
0.577
 11
4.371
 21
-6.47
 31
0.577
  0
3DFACE
  5
49261
100
AcDbEntity
  8
0
100
AcDbFace
 10
4.676
 20
-1.31
 30
0.387
 11
4.676
 21
-1.31
 31
0.577
 12
4.056
 22
-0.69
 32
0.577
 13
4.056
 23
-0.69
 33
0.387
  0
LINE
  5
49262
100
AcDbEntity
  8
0
100
AcDbLine
 10
2.9975
 20
-1.102159
 30
0.387
 11
2.9975
 21
-1.102159
 31
0.577
  0
LINE
  5
49263
100
AcDbEntity
  8
0
100
AcDbLine
 10
2.9975
 20
-0.97
 30
0.387
 11
2.9975
 21
-0.97
 31
0.577
  0
LINE
  5
49264
100
AcDbEntity
  8
0
100
AcDbLine
 10
3.376
 20
-0.97
 30
0.387
 11
3.376
 21
-0.97
 31
0.577
  0
LINE
  5
49265
100
AcDbEntity
  8
0
100
AcDbLine
 10
2.7945
 20
-1.102159
 30
0.387
 11
2.7945
 21
-1.102159
 31
0.577
  0
LINE
  5
49266
100
AcDbEntity
  8
0
100
AcDbLine
 10
2.7945
 20
-0.97
 30
0.387
 11
2.7945
 21
-0.97
 31
0.577
  0
LINE
  5
49267
100
AcDbEntity
  8
0
100
AcDbLine
 10
2.516
 20
-0.97
 30
0.387
 11
2.516
 21
-0.97
 31
0.577
  0
LINE
  5
49268
100
AcDbEntity
  8
0
100
AcDbLine
 10
1.926
 20
-0.69
 30
0.387
 11
1.926
 21
-0.69
 31
0.577
  0
LINE
  5
49269
100
AcDbEntity
  8
0
100
AcDbLine
 10
2.026
 20
-0.97
 30
0.387
 11
2.026
 21
-0.97
 31
0.577
  0
3DFACE
  5
4926A
100
AcDbEntity
  8
0
100
AcDbFace
 10
2.026
 20
-0.97
 30
0.577
 11
1.926
 21
-0.69
 31
0.577
 12
1.926
 22
-0.69
 32
0.387
 13
2.026
 23
-0.97
 33
0.387
 70
    14
  0
3DFACE
  5
4926B
100
AcDbEntity
  8
0
100
AcDbFace
 10
2.516
 20
-0.97
 30
0.577
 11
2.026
 21
-0.97
 31
0.577
 12
2.026
 22
-0.97
 32
0.387
 13
2.516
 23
-0.97
 33
0.387
 70
    14
  0
3DFACE
  5
4926C
100
AcDbEntity
  8
0
100
AcDbFace
 10
4.056
 20
-0.69
 30
0.387
 11
4.056
 21
-0.69
 31
0.577
 12
2.616
 22
-0.69
 32
0.577
 13
2.616
 23
-0.69
 33
0.387
  0
ARC
  5
4926D
100
AcDbEntity
  8
0
100
AcDbCircle
 10
2.896
 20
-1.313
 30
0.387
 40
0.234
100
AcDbArc
 50
115.70649
 51
64.293579
  0
LINE
  5
4926E
100
AcDbEntity
  8
0
100
AcDbLine
 10
2.026
 20
-0.97
 30
0.387
 11
2.516
 21
-0.97
 31
0.387
  0
LINE
  5
4926F
100
AcDbEntity
  8
0
100
AcDbLine
 10
1.926
 20
-0.69
 30
0.387
 11
2.026
 21
-0.97
 31
0.387
  0
LINE
  5
49270
100
AcDbEntity
  8
0
100
AcDbLine
 10
2.9975
 20
-0.97
 30
0.387
 11
2.9975
 21
-1.102159
 31
0.387
  0
LINE
  5
49271
100
AcDbEntity
  8
0
100
AcDbLine
 10
2.7945
 20
-0.97
 30
0.387
 11
2.7945
 21
-1.102159
 31
0.387
  0
LINE
  5
49272
100
AcDbEntity
  8
0
100
AcDbLine
 10
2.516
 20
-0.97
 30
0.387
 11
2.616
 21
-0.69
 31
0.387
  0
ARC
  5
49273
100
AcDbEntity
  8
0
100
AcDbCircle
 10
2.896
 20
-0.97
 30
0.387
 40
0.1015
100
AcDbArc
 50
0.0
 51
179.999985
  0
CIRCLE
  5
49274
100
AcDbEntity
  8
0
100
AcDbCircle
 10
3.276
 20
-0.97
 30
0.387
 40
0.1
  0
ARC
  5
49275
100
AcDbEntity
  8
0
100
AcDbCircle
 10
2.896
 20
-1.313
 30
0.577
 40
0.234
100
AcDbArc
 50
115.70649
 51
64.293579
  0
LINE
  5
49276
100
AcDbEntity
  8
0
100
AcDbLine
 10
2.026
 20
-0.97
 30
0.577
 11
2.516
 21
-0.97
 31
0.577
  0
LINE
  5
49277
100
AcDbEntity
  8
0
100
AcDbLine
 10
1.926
 20
-0.69
 30
0.577
 11
2.026
 21
-0.97
 31
0.577
  0
LINE
  5
49278
100
AcDbEntity
  8
0
100
AcDbLine
 10
2.9975
 20
-0.97
 30
0.577
 11
2.9975
 21
-1.102159
 31
0.577
  0
LINE
  5
49279
100
AcDbEntity
  8
0
100
AcDbLine
 10
2.7945
 20
-0.97
 30
0.577
 11
2.7945
 21
-1.102159
 31
0.577
  0
LINE
  5
4927A
100
AcDbEntity
  8
0
100
AcDbLine
 10
2.516
 20
-0.97
 30
0.577
 11
2.616
 21
-0.69
 31
0.577
  0
ARC
  5
4927B
100
AcDbEntity
  8
0
100
AcDbCircle
 10
2.896
 20
-0.97
 30
0.577
 40
0.1015
100
AcDbArc
 50
0.0
 51
179.999985
  0
CIRCLE
  5
4927C
100
AcDbEntity
  8
0
100
AcDbCircle
 10
3.276
 20
-0.97
 30
0.577
 40
0.1
  0
POLYLINE
  5
4927D
100
AcDbEntity
  8
0
100
AcDbPolygonMesh
 66
     1
 10
0.0
 20
0.0
 30
0.0
 70
    16
 71
     6
 72
     3
  0
VERTEX
  5
4927E
100
AcDbEntity
  8
0
100
AcDbVertex
100
AcDbPolygonMeshVertex
 10
3.336
 20
-1.34
 30
4.857
 70
    64
  0
VERTEX
  5
4927F
100
AcDbEntity
  8
0
100
AcDbVertex
100
AcDbPolygonMeshVertex
 10
3.336
 20
-1.34
 30
4.477
 70
    64
  0
VERTEX
  5
49280
100
AcDbEntity
  8
0
100
AcDbVertex
100
AcDbPolygonMeshVertex
 10
3.336
 20
-1.34
 30
4.477
 70
    64
  0
VERTEX
  5
49281
100
AcDbEntity
  8
0
100
AcDbVertex
100
AcDbPolygonMeshVertex
 10
3.516
 20
-1.34
 30
4.857
 70
    64
  0
VERTEX
  5
49282
100
AcDbEntity
  8
0
100
AcDbVertex
100
AcDbPolygonMeshVertex
 10
3.516
 20
-1.34
 30
4.477
 70
    64
  0
VERTEX
  5
49283
100
AcDbEntity
  8
0
100
AcDbVertex
100
AcDbPolygonMeshVertex
 10
3.516
 20
-1.34
 30
4.477
 70
    64
  0
VERTEX
  5
49284
100
AcDbEntity
  8
0
100
AcDbVertex
100
AcDbPolygonMeshVertex
 10
3.516
 20
-2.15
 30
4.857
 70
    64
  0
VERTEX
  5
49285
100
AcDbEntity
  8
0
100
AcDbVertex
100
AcDbPolygonMeshVertex
 10
3.516
 20
-2.15
 30
4.477
 70
    64
  0
VERTEX
  5
49286
100
AcDbEntity
  8
0
100
AcDbVertex
100
AcDbPolygonMeshVertex
 10
3.516
 20
-1.34
 30
4.477
 70
    64
  0
VERTEX
  5
49287
100
AcDbEntity
  8
0
100
AcDbVertex
100
AcDbPolygonMeshVertex
 10
3.336
 20
-2.15
 30
4.857
 70
    64
  0
VERTEX
  5
49288
100
AcDbEntity
  8
0
100
AcDbVertex
100
AcDbPolygonMeshVertex
 10
3.336
 20
-2.15
 30
4.477
 70
    64
  0
VERTEX
  5
49289
100
AcDbEntity
  8
0
100
AcDbVertex
100
AcDbPolygonMeshVertex
 10
3.336
 20
-1.34
 30
4.477
 70
    64
  0
VERTEX
  5
4928A
100
AcDbEntity
  8
0
100
AcDbVertex
100
AcDbPolygonMeshVertex
 10
3.336
 20
-2.15
 30
4.857
 70
    64
  0
VERTEX
  5
4928B
100
AcDbEntity
  8
0
100
AcDbVertex
100
AcDbPolygonMeshVertex
 10
3.336
 20
-2.15
 30
4.857
 70
    64
  0
VERTEX
  5
4928C
100
AcDbEntity
  8
0
100
AcDbVertex
100
AcDbPolygonMeshVertex
 10
3.336
 20
-1.34
 30
4.857
 70
    64
  0
VERTEX
  5
4928D
100
AcDbEntity
  8
0
100
AcDbVertex
100
AcDbPolygonMeshVertex
 10
3.516
 20
-2.15
 30
4.857
 70
    64
  0
VERTEX
  5
4928E
100
AcDbEntity
  8
0
100
AcDbVertex
100
AcDbPolygonMeshVertex
 10
3.516
 20
-2.15
 30
4.857
 70
    64
  0
VERTEX
  5
4928F
100
AcDbEntity
  8
0
100
AcDbVertex
100
AcDbPolygonMeshVertex
 10
3.516
 20
-1.34
 30
4.857
 70
    64
  0
SEQEND
  5
49290
100
AcDbEntity
  8
0
  0
POLYLINE
  5
49291
100
AcDbEntity
  8
0
100
AcDbPolygonMesh
 66
     1
 10
0.0
 20
0.0
 30
0.0
 70
    16
 71
     6
 72
     3
  0
VERTEX
  5
49292
100
AcDbEntity
  8
0
100
AcDbVertex
100
AcDbPolygonMeshVertex
 10
2.276
 20
-1.34
 30
4.857
 70
    64
  0
VERTEX
  5
49293
100
AcDbEntity
  8
0
100
AcDbVertex
100
AcDbPolygonMeshVertex
 10
2.276
 20
-1.34
 30
4.477
 70
    64
  0
VERTEX
  5
49294
100
AcDbEntity
  8
0
100
AcDbVertex
100
AcDbPolygonMeshVertex
 10
2.276
 20
-1.34
 30
4.477
 70
    64
  0
VERTEX
  5
49295
100
AcDbEntity
  8
0
100
AcDbVertex
100
AcDbPolygonMeshVertex
 10
2.456
 20
-1.34
 30
4.857
 70
    64
  0
VERTEX
  5
49296
100
AcDbEntity
  8
0
100
AcDbVertex
100
AcDbPolygonMeshVertex
 10
2.456
 20
-1.34
 30
4.477
 70
    64
  0
VERTEX
  5
49297
100
AcDbEntity
  8
0
100
AcDbVertex
100
AcDbPolygonMeshVertex
 10
2.456
 20
-1.34
 30
4.477
 70
    64
  0
VERTEX
  5
49298
100
AcDbEntity
  8
0
100
AcDbVertex
100
AcDbPolygonMeshVertex
 10
2.456
 20
-2.15
 30
4.857
 70
    64
  0
VERTEX
  5
49299
100
AcDbEntity
  8
0
100
AcDbVertex
100
AcDbPolygonMeshVertex
 10
2.456
 20
-2.15
 30
4.477
 70
    64
  0
VERTEX
  5
4929A
100
AcDbEntity
  8
0
100
AcDbVertex
100
AcDbPolygonMeshVertex
 10
2.456
 20
-1.34
 30
4.477
 70
    64
  0
VERTEX
  5
4929B
100
AcDbEntity
  8
0
100
AcDbVertex
100
AcDbPolygonMeshVertex
 10
2.276
 20
-2.15
 30
4.857
 70
    64
  0
VERTEX
  5
4929C
100
AcDbEntity
  8
0
100
AcDbVertex
100
AcDbPolygonMeshVertex
 10
2.276
 20
-2.15
 30
4.477
 70
    64
  0
VERTEX
  5
4929D
100
AcDbEntity
  8
0
100
AcDbVertex
100
AcDbPolygonMeshVertex
 10
2.276
 20
-1.34
 30
4.477
 70
    64
  0
VERTEX
  5
4929E
100
AcDbEntity
  8
0
100
AcDbVertex
100
AcDbPolygonMeshVertex
 10
2.276
 20
-2.15
 30
4.857
 70
    64
  0
VERTEX
  5
4929F
100
AcDbEntity
  8
0
100
AcDbVertex
100
AcDbPolygonMeshVertex
 10
2.276
 20
-2.15
 30
4.857
 70
    64
  0
VERTEX
  5
492A0
100
AcDbEntity
  8
0
100
AcDbVertex
100
AcDbPolygonMeshVertex
 10
2.276
 20
-1.34
 30
4.857
 70
    64
  0
VERTEX
  5
492A1
100
AcDbEntity
  8
0
100
AcDbVertex
100
AcDbPolygonMeshVertex
 10
2.456
 20
-2.15
 30
4.857
 70
    64
  0
VERTEX
  5
492A2
100
AcDbEntity
  8
0
100
AcDbVertex
100
AcDbPolygonMeshVertex
 10
2.456
 20
-2.15
 30
4.857
 70
    64
  0
VERTEX
  5
492A3
100
AcDbEntity
  8
0
100
AcDbVertex
100
AcDbPolygonMeshVertex
 10
2.456
 20
-1.34
 30
4.857
 70
    64
  0
SEQEND
  5
492A4
100
AcDbEntity
  8
0
  0
POLYLINE
  5
492A5
100
AcDbEntity
  8
0
100
AcDbPolygonMesh
 66
     1
 10
0.0
 20
0.0
 30
0.0
 70
    16
 71
     6
 72
     3
  0
VERTEX
  5
492A6
100
AcDbEntity
  8
0
100
AcDbVertex
100
AcDbPolygonMeshVertex
 10
3.836
 20
-4.44
 30
4.387
 70
    64
  0
VERTEX
  5
492A7
100
AcDbEntity
  8
0
100
AcDbVertex
100
AcDbPolygonMeshVertex
 10
3.836
 20
-4.44
 30
4.017
 70
    64
  0
VERTEX
  5
492A8
100
AcDbEntity
  8
0
100
AcDbVertex
100
AcDbPolygonMeshVertex
 10
3.836
 20
-4.44
 30
4.017
 70
    64
  0
VERTEX
  5
492A9
100
AcDbEntity
  8
0
100
AcDbVertex
100
AcDbPolygonMeshVertex
 10
1.956
 20
-4.44
 30
4.387
 70
    64
  0
VERTEX
  5
492AA
100
AcDbEntity
  8
0
100
AcDbVertex
100
AcDbPolygonMeshVertex
 10
1.956
 20
-4.44
 30
4.017
 70
    64
  0
VERTEX
  5
492AB
100
AcDbEntity
  8
0
100
AcDbVertex
100
AcDbPolygonMeshVertex
 10
1.956
 20
-4.44
 30
4.017
 70
    64
  0
VERTEX
  5
492AC
100
AcDbEntity
  8
0
100
AcDbVertex
100
AcDbPolygonMeshVertex
 10
1.956
 20
-3.6
 30
4.387
 70
    64
  0
VERTEX
  5
492AD
100
AcDbEntity
  8
0
100
AcDbVertex
100
AcDbPolygonMeshVertex
 10
1.956
 20
-3.6
 30
4.017
 70
    64
  0
VERTEX
  5
492AE
100
AcDbEntity
  8
0
100
AcDbVertex
100
AcDbPolygonMeshVertex
 10
1.956
 20
-4.44
 30
4.017
 70
    64
  0
VERTEX
  5
492AF
100
AcDbEntity
  8
0
100
AcDbVertex
100
AcDbPolygonMeshVertex
 10
3.836
 20
-3.6
 30
4.387
 70
    64
  0
VERTEX
  5
492B0
100
AcDbEntity
  8
0
100
AcDbVertex
100
AcDbPolygonMeshVertex
 10
3.836
 20
-3.6
 30
4.017
 70
    64
  0
VERTEX
  5
492B1
100
AcDbEntity
  8
0
100
AcDbVertex
100
AcDbPolygonMeshVertex
 10
3.836
 20
-4.44
 30
4.017
 70
    64
  0
VERTEX
  5
492B2
100
AcDbEntity
  8
0
100
AcDbVertex
100
AcDbPolygonMeshVertex
 10
3.836
 20
-3.6
 30
4.387
 70
    64
  0
VERTEX
  5
492B3
100
AcDbEntity
  8
0
100
AcDbVertex
100
AcDbPolygonMeshVertex
 10
3.836
 20
-3.6
 30
4.387
 70
    64
  0
VERTEX
  5
492B4
100
AcDbEntity
  8
0
100
AcDbVertex
100
AcDbPolygonMeshVertex
 10
3.836
 20
-4.44
 30
4.387
 70
    64
  0
VERTEX
  5
492B5
100
AcDbEntity
  8
0
100
AcDbVertex
100
AcDbPolygonMeshVertex
 10
1.956
 20
-3.6
 30
4.387
 70
    64
  0
VERTEX
  5
492B6
100
AcDbEntity
  8
0
100
AcDbVertex
100
AcDbPolygonMeshVertex
 10
1.956
 20
-3.6
 30
4.387
 70
    64
  0
VERTEX
  5
492B7
100
AcDbEntity
  8
0
100
AcDbVertex
100
AcDbPolygonMeshVertex
 10
1.956
 20
-4.44
 30
4.387
 70
    64
  0
SEQEND
  5
492B8
100
AcDbEntity
  8
0
  0
CIRCLE
  5
492B9
100
AcDbEntity
  8
0
100
AcDbCircle
 10
2.366
 20
-3.91
 30
4.857
 40
0.095
  0
LINE
  5
492BA
100
AcDbEntity
  8
0
100
AcDbLine
 10
2.300485
 20
-3.841205
 30
4.857
 11
2.415101
 21
-3.991327
 31
4.857
  0
LINE
  5
492BB
100
AcDbEntity
  8
0
100
AcDbLine
 10
2.316674
 20
-3.825015
 30
4.857
 11
2.43129
 21
-3.975138
 31
4.857
  0
POLYLINE
  5
492BC
100
AcDbEntity
  8
0
100
AcDbPolygonMesh
 66
     1
 10
0.0
 20
0.0
 30
0.0
 70
    16
 71
     6
 72
     3
  0
VERTEX
  5
492BD
100
AcDbEntity
  8
0
100
AcDbVertex
100
AcDbPolygonMeshVertex
 10
2.586
 20
-4.04
 30
4.857
 70
    64
  0
VERTEX
  5
492BE
100
AcDbEntity
  8
0
100
AcDbVertex
100
AcDbPolygonMeshVertex
 10
2.586
 20
-4.04
 30
4.387
 70
    64
  0
VERTEX
  5
492BF
100
AcDbEntity
  8
0
100
AcDbVertex
100
AcDbPolygonMeshVertex
 10
2.586
 20
-4.04
 30
4.387
 70
    64
  0
VERTEX
  5
492C0
100
AcDbEntity
  8
0
100
AcDbVertex
100
AcDbPolygonMeshVertex
 10
2.146
 20
-4.04
 30
4.857
 70
    64
  0
VERTEX
  5
492C1
100
AcDbEntity
  8
0
100
AcDbVertex
100
AcDbPolygonMeshVertex
 10
2.146
 20
-4.04
 30
4.387
 70
    64
  0
VERTEX
  5
492C2
100
AcDbEntity
  8
0
100
AcDbVertex
100
AcDbPolygonMeshVertex
 10
2.146
 20
-4.04
 30
4.387
 70
    64
  0
VERTEX
  5
492C3
100
AcDbEntity
  8
0
100
AcDbVertex
100
AcDbPolygonMeshVertex
 10
2.146
 20
-3.66
 30
4.857
 70
    64
  0
VERTEX
  5
492C4
100
AcDbEntity
  8
0
100
AcDbVertex
100
AcDbPolygonMeshVertex
 10
2.146
 20
-3.66
 30
4.387
 70
    64
  0
VERTEX
  5
492C5
100
AcDbEntity
  8
0
100
AcDbVertex
100
AcDbPolygonMeshVertex
 10
2.146
 20
-4.04
 30
4.387
 70
    64
  0
VERTEX
  5
492C6
100
AcDbEntity
  8
0
100
AcDbVertex
100
AcDbPolygonMeshVertex
 10
2.586
 20
-3.66
 30
4.857
 70
    64
  0
VERTEX
  5
492C7
100
AcDbEntity
  8
0
100
AcDbVertex
100
AcDbPolygonMeshVertex
 10
2.586
 20
-3.66
 30
4.387
 70
    64
  0
VERTEX
  5
492C8
100
AcDbEntity
  8
0
100
AcDbVertex
100
AcDbPolygonMeshVertex
 10
2.586
 20
-4.04
 30
4.387
 70
    64
  0
VERTEX
  5
492C9
100
AcDbEntity
  8
0
100
AcDbVertex
100
AcDbPolygonMeshVertex
 10
2.586
 20
-3.66
 30
4.857
 70
    64
  0
VERTEX
  5
492CA
100
AcDbEntity
  8
0
100
AcDbVertex
100
AcDbPolygonMeshVertex
 10
2.586
 20
-3.66
 30
4.857
 70
    64
  0
VERTEX
  5
492CB
100
AcDbEntity
  8
0
100
AcDbVertex
100
AcDbPolygonMeshVertex
 10
2.586
 20
-4.04
 30
4.857
 70
    64
  0
VERTEX
  5
492CC
100
AcDbEntity
  8
0
100
AcDbVertex
100
AcDbPolygonMeshVertex
 10
2.146
 20
-3.66
 30
4.857
 70
    64
  0
VERTEX
  5
492CD
100
AcDbEntity
  8
0
100
AcDbVertex
100
AcDbPolygonMeshVertex
 10
2.146
 20
-3.66
 30
4.857
 70
    64
  0
VERTEX
  5
492CE
100
AcDbEntity
  8
0
100
AcDbVertex
100
AcDbPolygonMeshVertex
 10
2.146
 20
-4.04
 30
4.857
 70
    64
  0
SEQEND
  5
492CF
100
AcDbEntity
  8
0
  0
CIRCLE
  5
492D0
100
AcDbEntity
  8
0
100
AcDbCircle
 10
3.426
 20
-3.91
 30
4.857
 40
0.095
  0
LINE
  5
492D1
100
AcDbEntity
  8
0
100
AcDbLine
 10
3.360485
 20
-3.841205
 30
4.857
 11
3.4751
 21
-3.991327
 31
4.857
  0
LINE
  5
492D2
100
AcDbEntity
  8
0
100
AcDbLine
 10
3.376674
 20
-3.825015
 30
4.857
 11
3.49129
 21
-3.975138
 31
4.857
  0
POLYLINE
  5
492D3
100
AcDbEntity
  8
0
100
AcDbPolygonMesh
 66
     1
 10
0.0
 20
0.0
 30
0.0
 70
    16
 71
     6
 72
     3
  0
VERTEX
  5
492D4
100
AcDbEntity
  8
0
100
AcDbVertex
100
AcDbPolygonMeshVertex
 10
3.646
 20
-4.04
 30
4.857
 70
    64
  0
VERTEX
  5
492D5
100
AcDbEntity
  8
0
100
AcDbVertex
100
AcDbPolygonMeshVertex
 10
3.646
 20
-4.04
 30
4.387
 70
    64
  0
VERTEX
  5
492D6
100
AcDbEntity
  8
0
100
AcDbVertex
100
AcDbPolygonMeshVertex
 10
3.646
 20
-4.04
 30
4.387
 70
    64
  0
VERTEX
  5
492D7
100
AcDbEntity
  8
0
100
AcDbVertex
100
AcDbPolygonMeshVertex
 10
3.206
 20
-4.04
 30
4.857
 70
    64
  0
VERTEX
  5
492D8
100
AcDbEntity
  8
0
100
AcDbVertex
100
AcDbPolygonMeshVertex
 10
3.206
 20
-4.04
 30
4.387
 70
    64
  0
VERTEX
  5
492D9
100
AcDbEntity
  8
0
100
AcDbVertex
100
AcDbPolygonMeshVertex
 10
3.206
 20
-4.04
 30
4.387
 70
    64
  0
VERTEX
  5
492DA
100
AcDbEntity
  8
0
100
AcDbVertex
100
AcDbPolygonMeshVertex
 10
3.206
 20
-3.66
 30
4.857
 70
    64
  0
VERTEX
  5
492DB
100
AcDbEntity
  8
0
100
AcDbVertex
100
AcDbPolygonMeshVertex
 10
3.206
 20
-3.66
 30
4.387
 70
    64
  0
VERTEX
  5
492DC
100
AcDbEntity
  8
0
100
AcDbVertex
100
AcDbPolygonMeshVertex
 10
3.206
 20
-4.04
 30
4.387
 70
    64
  0
VERTEX
  5
492DD
100
AcDbEntity
  8
0
100
AcDbVertex
100
AcDbPolygonMeshVertex
 10
3.646
 20
-3.66
 30
4.857
 70
    64
  0
VERTEX
  5
492DE
100
AcDbEntity
  8
0
100
AcDbVertex
100
AcDbPolygonMeshVertex
 10
3.646
 20
-3.66
 30
4.387
 70
    64
  0
VERTEX
  5
492DF
100
AcDbEntity
  8
0
100
AcDbVertex
100
AcDbPolygonMeshVertex
 10
3.646
 20
-4.04
 30
4.387
 70
    64
  0
VERTEX
  5
492E0
100
AcDbEntity
  8
0
100
AcDbVertex
100
AcDbPolygonMeshVertex
 10
3.646
 20
-3.66
 30
4.857
 70
    64
  0
VERTEX
  5
492E1
100
AcDbEntity
  8
0
100
AcDbVertex
100
AcDbPolygonMeshVertex
 10
3.646
 20
-3.66
 30
4.857
 70
    64
  0
VERTEX
  5
492E2
100
AcDbEntity
  8
0
100
AcDbVertex
100
AcDbPolygonMeshVertex
 10
3.646
 20
-4.04
 30
4.857
 70
    64
  0
VERTEX
  5
492E3
100
AcDbEntity
  8
0
100
AcDbVertex
100
AcDbPolygonMeshVertex
 10
3.206
 20
-3.66
 30
4.857
 70
    64
  0
VERTEX
  5
492E4
100
AcDbEntity
  8
0
100
AcDbVertex
100
AcDbPolygonMeshVertex
 10
3.206
 20
-3.66
 30
4.857
 70
    64
  0
VERTEX
  5
492E5
100
AcDbEntity
  8
0
100
AcDbVertex
100
AcDbPolygonMeshVertex
 10
3.206
 20
-4.04
 30
4.857
 70
    64
  0
SEQEND
  5
492E6
100
AcDbEntity
  8
0
  0
POLYLINE
  5
492E7
100
AcDbEntity
  8
0
100
AcDbPolygonMesh
 66
     1
 10
0.0
 20
0.0
 30
0.0
 70
    16
 71
     6
 72
     3
  0
VERTEX
  5
492E8
100
AcDbEntity
  8
0
100
AcDbVertex
100
AcDbPolygonMeshVertex
 10
3.336
 20
-1.34
 30
4.477
 70
    64
  0
VERTEX
  5
492E9
100
AcDbEntity
  8
0
100
AcDbVertex
100
AcDbPolygonMeshVertex
 10
3.336
 20
-1.34
 30
3.357
 70
    64
  0
VERTEX
  5
492EA
100
AcDbEntity
  8
0
100
AcDbVertex
100
AcDbPolygonMeshVertex
 10
3.336
 20
-1.34
 30
3.357
 70
    64
  0
VERTEX
  5
492EB
100
AcDbEntity
  8
0
100
AcDbVertex
100
AcDbPolygonMeshVertex
 10
3.516
 20
-1.34
 30
4.477
 70
    64
  0
VERTEX
  5
492EC
100
AcDbEntity
  8
0
100
AcDbVertex
100
AcDbPolygonMeshVertex
 10
3.516
 20
-1.34
 30
3.357
 70
    64
  0
VERTEX
  5
492ED
100
AcDbEntity
  8
0
100
AcDbVertex
100
AcDbPolygonMeshVertex
 10
3.516
 20
-1.34
 30
3.357
 70
    64
  0
VERTEX
  5
492EE
100
AcDbEntity
  8
0
100
AcDbVertex
100
AcDbPolygonMeshVertex
 10
3.516
 20
-1.47
 30
4.477
 70
    64
  0
VERTEX
  5
492EF
100
AcDbEntity
  8
0
100
AcDbVertex
100
AcDbPolygonMeshVertex
 10
3.516
 20
-1.47
 30
3.357
 70
    64
  0
VERTEX
  5
492F0
100
AcDbEntity
  8
0
100
AcDbVertex
100
AcDbPolygonMeshVertex
 10
3.516
 20
-1.34
 30
3.357
 70
    64
  0
VERTEX
  5
492F1
100
AcDbEntity
  8
0
100
AcDbVertex
100
AcDbPolygonMeshVertex
 10
3.336
 20
-1.47
 30
4.477
 70
    64
  0
VERTEX
  5
492F2
100
AcDbEntity
  8
0
100
AcDbVertex
100
AcDbPolygonMeshVertex
 10
3.336
 20
-1.47
 30
3.357
 70
    64
  0
VERTEX
  5
492F3
100
AcDbEntity
  8
0
100
AcDbVertex
100
AcDbPolygonMeshVertex
 10
3.336
 20
-1.34
 30
3.357
 70
    64
  0
VERTEX
  5
492F4
100
AcDbEntity
  8
0
100
AcDbVertex
100
AcDbPolygonMeshVertex
 10
3.336
 20
-1.47
 30
4.477
 70
    64
  0
VERTEX
  5
492F5
100
AcDbEntity
  8
0
100
AcDbVertex
100
AcDbPolygonMeshVertex
 10
3.336
 20
-1.47
 30
4.477
 70
    64
  0
VERTEX
  5
492F6
100
AcDbEntity
  8
0
100
AcDbVertex
100
AcDbPolygonMeshVertex
 10
3.336
 20
-1.34
 30
4.477
 70
    64
  0
VERTEX
  5
492F7
100
AcDbEntity
  8
0
100
AcDbVertex
100
AcDbPolygonMeshVertex
 10
3.516
 20
-1.47
 30
4.477
 70
    64
  0
VERTEX
  5
492F8
100
AcDbEntity
  8
0
100
AcDbVertex
100
AcDbPolygonMeshVertex
 10
3.516
 20
-1.47
 30
4.477
 70
    64
  0
VERTEX
  5
492F9
100
AcDbEntity
  8
0
100
AcDbVertex
100
AcDbPolygonMeshVertex
 10
3.516
 20
-1.34
 30
4.477
 70
    64
  0
SEQEND
  5
492FA
100
AcDbEntity
  8
0
  0
POLYLINE
  5
492FB
100
AcDbEntity
  8
0
100
AcDbPolygonMesh
 66
     1
 10
0.0
 20
0.0
 30
0.0
 70
    16
 71
     6
 72
     3
  0
VERTEX
  5
492FC
100
AcDbEntity
  8
0
100
AcDbVertex
100
AcDbPolygonMeshVertex
 10
2.276
 20
-1.34
 30
4.477
 70
    64
  0
VERTEX
  5
492FD
100
AcDbEntity
  8
0
100
AcDbVertex
100
AcDbPolygonMeshVertex
 10
2.276
 20
-1.34
 30
3.357
 70
    64
  0
VERTEX
  5
492FE
100
AcDbEntity
  8
0
100
AcDbVertex
100
AcDbPolygonMeshVertex
 10
2.276
 20
-1.34
 30
3.357
 70
    64
  0
VERTEX
  5
492FF
100
AcDbEntity
  8
0
100
AcDbVertex
100
AcDbPolygonMeshVertex
 10
2.456
 20
-1.34
 30
4.477
 70
    64
  0
VERTEX
  5
49300
100
AcDbEntity
  8
0
100
AcDbVertex
100
AcDbPolygonMeshVertex
 10
2.456
 20
-1.34
 30
3.357
 70
    64
  0
VERTEX
  5
49301
100
AcDbEntity
  8
0
100
AcDbVertex
100
AcDbPolygonMeshVertex
 10
2.456
 20
-1.34
 30
3.357
 70
    64
  0
VERTEX
  5
49302
100
AcDbEntity
  8
0
100
AcDbVertex
100
AcDbPolygonMeshVertex
 10
2.456
 20
-1.47
 30
4.477
 70
    64
  0
VERTEX
  5
49303
100
AcDbEntity
  8
0
100
AcDbVertex
100
AcDbPolygonMeshVertex
 10
2.456
 20
-1.47
 30
3.357
 70
    64
  0
VERTEX
  5
49304
100
AcDbEntity
  8
0
100
AcDbVertex
100
AcDbPolygonMeshVertex
 10
2.456
 20
-1.34
 30
3.357
 70
    64
  0
VERTEX
  5
49305
100
AcDbEntity
  8
0
100
AcDbVertex
100
AcDbPolygonMeshVertex
 10
2.276
 20
-1.47
 30
4.477
 70
    64
  0
VERTEX
  5
49306
100
AcDbEntity
  8
0
100
AcDbVertex
100
AcDbPolygonMeshVertex
 10
2.276
 20
-1.47
 30
3.357
 70
    64
  0
VERTEX
  5
49307
100
AcDbEntity
  8
0
100
AcDbVertex
100
AcDbPolygonMeshVertex
 10
2.276
 20
-1.34
 30
3.357
 70
    64
  0
VERTEX
  5
49308
100
AcDbEntity
  8
0
100
AcDbVertex
100
AcDbPolygonMeshVertex
 10
2.276
 20
-1.47
 30
4.477
 70
    64
  0
VERTEX
  5
49309
100
AcDbEntity
  8
0
100
AcDbVertex
100
AcDbPolygonMeshVertex
 10
2.276
 20
-1.47
 30
4.477
 70
    64
  0
VERTEX
  5
4930A
100
AcDbEntity
  8
0
100
AcDbVertex
100
AcDbPolygonMeshVertex
 10
2.276
 20
-1.34
 30
4.477
 70
    64
  0
VERTEX
  5
4930B
100
AcDbEntity
  8
0
100
AcDbVertex
100
AcDbPolygonMeshVertex
 10
2.456
 20
-1.47
 30
4.477
 70
    64
  0
VERTEX
  5
4930C
100
AcDbEntity
  8
0
100
AcDbVertex
100
AcDbPolygonMeshVertex
 10
2.456
 20
-1.47
 30
4.477
 70
    64
  0
VERTEX
  5
4930D
100
AcDbEntity
  8
0
100
AcDbVertex
100
AcDbPolygonMeshVertex
 10
2.456
 20
-1.34
 30
4.477
 70
    64
  0
SEQEND
  5
4930E
100
AcDbEntity
  8
0
  0
CIRCLE
  5
4930F
100
AcDbEntity
  8
0
100
AcDbCircle
 10
2.896
 20
-1.765
 30
4.667
 40
0.19
  0
POLYLINE
  5
49310
100
AcDbEntity
  8
0
100
AcDbPolygonMesh
 66
     1
 10
0.0
 20
0.0
 30
0.0
 70
    16
 71
     6
 72
     3
  0
VERTEX
  5
49311
100
AcDbEntity
  8
0
100
AcDbVertex
100
AcDbPolygonMeshVertex
 10
2.646
 20
-1.56
 30
4.667
 70
    64
  0
VERTEX
  5
49312
100
AcDbEntity
  8
0
100
AcDbVertex
100
AcDbPolygonMeshVertex
 10
2.646
 20
-1.56
 30
4.477
 70
    64
  0
VERTEX
  5
49313
100
AcDbEntity
  8
0
100
AcDbVertex
100
AcDbPolygonMeshVertex
 10
2.646
 20
-1.56
 30
4.477
 70
    64
  0
VERTEX
  5
49314
100
AcDbEntity
  8
0
100
AcDbVertex
100
AcDbPolygonMeshVertex
 10
3.146
 20
-1.56
 30
4.667
 70
    64
  0
VERTEX
  5
49315
100
AcDbEntity
  8
0
100
AcDbVertex
100
AcDbPolygonMeshVertex
 10
3.146
 20
-1.56
 30
4.477
 70
    64
  0
VERTEX
  5
49316
100
AcDbEntity
  8
0
100
AcDbVertex
100
AcDbPolygonMeshVertex
 10
3.146
 20
-1.56
 30
4.477
 70
    64
  0
VERTEX
  5
49317
100
AcDbEntity
  8
0
100
AcDbVertex
100
AcDbPolygonMeshVertex
 10
3.146
 20
-1.97
 30
4.667
 70
    64
  0
VERTEX
  5
49318
100
AcDbEntity
  8
0
100
AcDbVertex
100
AcDbPolygonMeshVertex
 10
3.146
 20
-1.97
 30
4.477
 70
    64
  0
VERTEX
  5
49319
100
AcDbEntity
  8
0
100
AcDbVertex
100
AcDbPolygonMeshVertex
 10
3.146
 20
-1.56
 30
4.477
 70
    64
  0
VERTEX
  5
4931A
100
AcDbEntity
  8
0
100
AcDbVertex
100
AcDbPolygonMeshVertex
 10
2.646
 20
-1.97
 30
4.667
 70
    64
  0
VERTEX
  5
4931B
100
AcDbEntity
  8
0
100
AcDbVertex
100
AcDbPolygonMeshVertex
 10
2.646
 20
-1.97
 30
4.477
 70
    64
  0
VERTEX
  5
4931C
100
AcDbEntity
  8
0
100
AcDbVertex
100
AcDbPolygonMeshVertex
 10
2.646
 20
-1.56
 30
4.477
 70
    64
  0
VERTEX
  5
4931D
100
AcDbEntity
  8
0
100
AcDbVertex
100
AcDbPolygonMeshVertex
 10
2.646
 20
-1.97
 30
4.667
 70
    64
  0
VERTEX
  5
4931E
100
AcDbEntity
  8
0
100
AcDbVertex
100
AcDbPolygonMeshVertex
 10
2.646
 20
-1.97
 30
4.667
 70
    64
  0
VERTEX
  5
4931F
100
AcDbEntity
  8
0
100
AcDbVertex
100
AcDbPolygonMeshVertex
 10
2.646
 20
-1.56
 30
4.667
 70
    64
  0
VERTEX
  5
49320
100
AcDbEntity
  8
0
100
AcDbVertex
100
AcDbPolygonMeshVertex
 10
3.146
 20
-1.97
 30
4.667
 70
    64
  0
VERTEX
  5
49321
100
AcDbEntity
  8
0
100
AcDbVertex
100
AcDbPolygonMeshVertex
 10
3.146
 20
-1.97
 30
4.667
 70
    64
  0
VERTEX
  5
49322
100
AcDbEntity
  8
0
100
AcDbVertex
100
AcDbPolygonMeshVertex
 10
3.146
 20
-1.56
 30
4.667
 70
    64
  0
SEQEND
  5
49323
100
AcDbEntity
  8
0
  0
TEXT
  5
49324
100
AcDbEntity
  8
0
100
AcDbText
 10
2.801011
 20
-1.823148
 30
4.667
 40
0.12
  1
T2
100
AcDbText
  0
LINE
  5
49325
100
AcDbEntity
  8
0
100
AcDbLine
 10
3.516
 20
-1.34
 30
4.477
 11
3.336
 21
-1.34
 31
4.477
  0
LINE
  5
49326
100
AcDbEntity
  8
0
100
AcDbLine
 10
3.516
 20
-1.47
 30
4.477
 11
3.516
 21
-1.34
 31
4.477
  0
POLYLINE
  5
49327
100
AcDbEntity
  8
0
100
AcDbPolygonMesh
 66
     1
 10
0.0
 20
0.0
 30
0.0
 70
    16
 71
     6
 72
     3
  0
VERTEX
  5
49328
100
AcDbEntity
  8
0
100
AcDbVertex
100
AcDbPolygonMeshVertex
 10
3.706
 20
-1.56
 30
4.667
 70
    64
  0
VERTEX
  5
49329
100
AcDbEntity
  8
0
100
AcDbVertex
100
AcDbPolygonMeshVertex
 10
3.706
 20
-1.56
 30
4.477
 70
    64
  0
VERTEX
  5
4932A
100
AcDbEntity
  8
0
100
AcDbVertex
100
AcDbPolygonMeshVertex
 10
3.706
 20
-1.56
 30
4.477
 70
    64
  0
VERTEX
  5
4932B
100
AcDbEntity
  8
0
100
AcDbVertex
100
AcDbPolygonMeshVertex
 10
4.206
 20
-1.56
 30
4.667
 70
    64
  0
VERTEX
  5
4932C
100
AcDbEntity
  8
0
100
AcDbVertex
100
AcDbPolygonMeshVertex
 10
4.206
 20
-1.56
 30
4.477
 70
    64
  0
VERTEX
  5
4932D
100
AcDbEntity
  8
0
100
AcDbVertex
100
AcDbPolygonMeshVertex
 10
4.206
 20
-1.56
 30
4.477
 70
    64
  0
VERTEX
  5
4932E
100
AcDbEntity
  8
0
100
AcDbVertex
100
AcDbPolygonMeshVertex
 10
4.206
 20
-1.97
 30
4.667
 70
    64
  0
VERTEX
  5
4932F
100
AcDbEntity
  8
0
100
AcDbVertex
100
AcDbPolygonMeshVertex
 10
4.206
 20
-1.97
 30
4.477
 70
    64
  0
VERTEX
  5
49330
100
AcDbEntity
  8
0
100
AcDbVertex
100
AcDbPolygonMeshVertex
 10
4.206
 20
-1.56
 30
4.477
 70
    64
  0
VERTEX
  5
49331
100
AcDbEntity
  8
0
100
AcDbVertex
100
AcDbPolygonMeshVertex
 10
3.706
 20
-1.97
 30
4.667
 70
    64
  0
VERTEX
  5
49332
100
AcDbEntity
  8
0
100
AcDbVertex
100
AcDbPolygonMeshVertex
 10
3.706
 20
-1.97
 30
4.477
 70
    64
  0
VERTEX
  5
49333
100
AcDbEntity
  8
0
100
AcDbVertex
100
AcDbPolygonMeshVertex
 10
3.706
 20
-1.56
 30
4.477
 70
    64
  0
VERTEX
  5
49334
100
AcDbEntity
  8
0
100
AcDbVertex
100
AcDbPolygonMeshVertex
 10
3.706
 20
-1.97
 30
4.667
 70
    64
  0
VERTEX
  5
49335
100
AcDbEntity
  8
0
100
AcDbVertex
100
AcDbPolygonMeshVertex
 10
3.706
 20
-1.97
 30
4.667
 70
    64
  0
VERTEX
  5
49336
100
AcDbEntity
  8
0
100
AcDbVertex
100
AcDbPolygonMeshVertex
 10
3.706
 20
-1.56
 30
4.667
 70
    64
  0
VERTEX
  5
49337
100
AcDbEntity
  8
0
100
AcDbVertex
100
AcDbPolygonMeshVertex
 10
4.206
 20
-1.97
 30
4.667
 70
    64
  0
VERTEX
  5
49338
100
AcDbEntity
  8
0
100
AcDbVertex
100
AcDbPolygonMeshVertex
 10
4.206
 20
-1.97
 30
4.667
 70
    64
  0
VERTEX
  5
49339
100
AcDbEntity
  8
0
100
AcDbVertex
100
AcDbPolygonMeshVertex
 10
4.206
 20
-1.56
 30
4.667
 70
    64
  0
SEQEND
  5
4933A
100
AcDbEntity
  8
0
  0
TEXT
  5
4933B
100
AcDbEntity
  8
0
100
AcDbText
 10
3.866965
 20
-1.830461
 30
4.667
 40
0.12
  1
T3
100
AcDbText
  0
CIRCLE
  5
4933C
100
AcDbEntity
  8
0
100
AcDbCircle
 10
3.956
 20
-1.765
 30
4.667
 40
0.19
  0
CIRCLE
  5
4933D
100
AcDbEntity
  8
0
100
AcDbCircle
 10
1.836
 20
-5.995
 30
2.197
 40
0.19
  0
LINE
  5
4933E
100
AcDbEntity
  8
0
100
AcDbLine
 10
1.586
 20
-5.79
 30
2.007
 11
2.086
 21
-5.79
 31
2.007
  0
LINE
  5
4933F
100
AcDbEntity
  8
0
100
AcDbLine
 10
2.086
 20
-6.2
 30
2.007
 11
1.586
 21
-6.2
 31
2.007
  0
LINE
  5
49340
100
AcDbEntity
  8
0
100
AcDbLine
 10
2.086
 20
-6.2
 30
2.197
 11
1.586
 21
-6.2
 31
2.197
  0
3DFACE
  5
49341
100
AcDbEntity
  8
0
100
AcDbFace
 10
2.086
 20
-6.2
 30
2.197
 11
2.086
 21
-6.2
 31
2.007
 12
1.586
 22
-6.2
 32
2.007
 13
1.586
 23
-6.2
 33
2.197
  0
3DFACE
  5
49342
100
AcDbEntity
  8
0
100
AcDbFace
 10
2.086
 20
-5.79
 30
2.197
 11
1.586
 21
-5.79
 31
2.197
 12
1.586
 22
-6.2
 32
2.197
 13
2.086
 23
-6.2
 33
2.197
  0
LINE
  5
49343
100
AcDbEntity
  8
0
100
AcDbLine
 10
1.586
 20
-6.2
 30
2.197
 11
1.586
 21
-5.79
 31
2.197
  0
LINE
  5
49344
100
AcDbEntity
  8
0
100
AcDbLine
 10
1.586
 20
-6.2
 30
2.007
 11
1.586
 21
-5.79
 31
2.007
  0
3DFACE
  5
49345
100
AcDbEntity
  8
0
100
AcDbFace
 10
1.586
 20
-5.79
 30
2.197
 11
1.586
 21
-6.2
 31
2.197
 12
1.586
 22
-6.2
 32
2.007
 13
1.586
 23
-5.79
 33
2.007
  0
3DFACE
  5
49346
100
AcDbEntity
  8
0
100
AcDbFace
 10
1.586
 20
-6.2
 30
2.197
 11
1.586
 21
-5.79
 31
2.197
 12
1.586
 22
-5.79
 32
2.007
 13
1.586
 23
-6.2
 33
2.007
 70
    14
  0
LINE
  5
49347
100
AcDbEntity
  8
0
100
AcDbLine
 10
1.586
 20
-6.2
 30
2.007
 11
1.586
 21
-6.2
 31
2.197
  0
CIRCLE
  5
49348
100
AcDbEntity
  8
0
100
AcDbCircle
 10
2.896
 20
-5.995
 30
2.197
 40
0.19
  0
LINE
  5
49349
100
AcDbEntity
  8
0
100
AcDbLine
 10
2.646
 20
-5.79
 30
2.197
 11
3.146
 21
-5.79
 31
2.197
  0
LINE
  5
4934A
100
AcDbEntity
  8
0
100
AcDbLine
 10
3.146
 20
-6.2
 30
2.197
 11
2.646
 21
-6.2
 31
2.197
  0
3DFACE
  5
4934B
100
AcDbEntity
  8
0
100
AcDbFace
 10
2.646
 20
-6.2
 30
2.197
 11
2.646
 21
-5.79
 31
2.197
 12
3.146
 22
-5.79
 32
2.197
 13
3.146
 23
-6.2
 33
2.197
  0
LINE
  5
4934C
100
AcDbEntity
  8
0
100
AcDbLine
 10
3.146
 20
-6.2
 30
2.007
 11
2.646
 21
-6.2
 31
2.007
  0
LINE
  5
4934D
100
AcDbEntity
  8
0
100
AcDbLine
 10
2.646
 20
-5.79
 30
2.007
 11
3.146
 21
-5.79
 31
2.007
  0
3DFACE
  5
4934E
100
AcDbEntity
  8
0
100
AcDbFace
 10
2.646
 20
-6.2
 30
2.197
 11
3.146
 21
-6.2
 31
2.197
 12
3.146
 22
-6.2
 32
2.007
 13
2.646
 23
-6.2
 33
2.007
  0
3DFACE
  5
4934F
100
AcDbEntity
  8
0
100
AcDbFace
 10
2.086
 20
-6.2
 30
2.197
 11
2.086
 21
-5.79
 31
2.197
 12
2.086
 22
-5.79
 32
2.007
 13
2.086
 23
-6.2
 33
2.007
  0
LINE
  5
49350
100
AcDbEntity
  8
0
100
AcDbLine
 10
2.646
 20
-6.2
 30
2.197
 11
2.646
 21
-5.79
 31
2.197
  0
LINE
  5
49351
100
AcDbEntity
  8
0
100
AcDbLine
 10
2.646
 20
-6.2
 30
2.007
 11
2.646
 21
-5.79
 31
2.007
  0
3DFACE
  5
49352
100
AcDbEntity
  8
0
100
AcDbFace
 10
2.646
 20
-5.79
 30
2.197
 11
2.646
 21
-6.2
 31
2.197
 12
2.646
 22
-6.2
 32
2.007
 13
2.646
 23
-5.79
 33
2.007
  0
LINE
  5
49353
100
AcDbEntity
  8
0
100
AcDbLine
 10
2.646
 20
-6.2
 30
2.007
 11
2.646
 21
-6.2
 31
2.197
  0
LINE
  5
49354
100
AcDbEntity
  8
0
100
AcDbLine
 10
2.646
 20
-6.2
 30
2.007
 11
2.646
 21
-6.2
 31
2.197
  0
LINE
  5
49355
100
AcDbEntity
  8
0
100
AcDbLine
 10
2.646
 20
-5.79
 30
2.007
 11
2.646
 21
-5.79
 31
2.197
  0
LINE
  5
49356
100
AcDbEntity
  8
0
100
AcDbLine
 10
2.646
 20
-5.79
 30
2.007
 11
2.646
 21
-5.79
 31
2.197
  0
LINE
  5
49357
100
AcDbEntity
  8
0
100
AcDbLine
 10
3.146
 20
-5.79
 30
2.197
 11
3.146
 21
-6.2
 31
2.197
  0
LINE
  5
49358
100
AcDbEntity
  8
0
100
AcDbLine
 10
3.146
 20
-5.79
 30
2.007
 11
3.146
 21
-6.2
 31
2.007
  0
LINE
  5
49359
100
AcDbEntity
  8
0
100
AcDbLine
 10
3.146
 20
-6.2
 30
2.007
 11
3.146
 21
-6.2
 31
2.197
  0
LINE
  5
4935A
100
AcDbEntity
  8
0
100
AcDbLine
 10
3.146
 20
-5.79
 30
2.007
 11
3.146
 21
-5.79
 31
2.197
  0
CIRCLE
  5
4935B
100
AcDbEntity
  8
0
100
AcDbCircle
 10
3.956
 20
-5.995
 30
2.197
 40
0.19
  0
LINE
  5
4935C
100
AcDbEntity
  8
0
100
AcDbLine
 10
3.706
 20
-5.79
 30
2.197
 11
4.206
 21
-5.79
 31
2.197
  0
LINE
  5
4935D
100
AcDbEntity
  8
0
100
AcDbLine
 10
4.206
 20
-6.2
 30
2.197
 11
3.706
 21
-6.2
 31
2.197
  0
3DFACE
  5
4935E
100
AcDbEntity
  8
0
100
AcDbFace
 10
3.706
 20
-6.2
 30
2.197
 11
4.206
 21
-6.2
 31
2.197
 12
4.206
 22
-5.79
 32
2.197
 13
3.706
 23
-5.79
 33
2.197
  0
LINE
  5
4935F
100
AcDbEntity
  8
0
100
AcDbLine
 10
3.706
 20
-5.79
 30
2.007
 11
4.206
 21
-5.79
 31
2.007
  0
LINE
  5
49360
100
AcDbEntity
  8
0
100
AcDbLine
 10
4.206
 20
-6.2
 30
2.007
 11
3.706
 21
-6.2
 31
2.007
  0
3DFACE
  5
49361
100
AcDbEntity
  8
0
100
AcDbFace
 10
4.206
 20
-6.2
 30
2.197
 11
3.706
 21
-6.2
 31
2.197
 12
3.706
 22
-6.2
 32
2.007
 13
4.206
 23
-6.2
 33
2.007
  0
LINE
  5
49362
100
AcDbEntity
  8
0
100
AcDbLine
 10
3.706
 20
-6.2
 30
2.197
 11
3.706
 21
-5.79
 31
2.197
  0
LINE
  5
49363
100
AcDbEntity
  8
0
100
AcDbLine
 10
3.706
 20
-6.2
 30
2.007
 11
3.706
 21
-5.79
 31
2.007
  0
3DFACE
  5
49364
100
AcDbEntity
  8
0
100
AcDbFace
 10
3.706
 20
-5.79
 30
2.197
 11
3.706
 21
-6.2
 31
2.197
 12
3.706
 22
-6.2
 32
2.007
 13
3.706
 23
-5.79
 33
2.007
  0
LINE
  5
49365
100
AcDbEntity
  8
0
100
AcDbLine
 10
3.706
 20
-6.2
 30
2.007
 11
3.706
 21
-6.2
 31
2.197
  0
LINE
  5
49366
100
AcDbEntity
  8
0
100
AcDbLine
 10
3.706
 20
-5.79
 30
2.007
 11
3.706
 21
-5.79
 31
2.197
  0
LINE
  5
49367
100
AcDbEntity
  8
0
100
AcDbLine
 10
4.206
 20
-5.79
 30
2.197
 11
4.206
 21
-6.2
 31
2.197
  0
LINE
  5
49368
100
AcDbEntity
  8
0
100
AcDbLine
 10
4.206
 20
-5.79
 30
2.007
 11
4.206
 21
-6.2
 31
2.007
  0
3DFACE
  5
49369
100
AcDbEntity
  8
0
100
AcDbFace
 10
4.206
 20
-5.79
 30
2.197
 11
4.206
 21
-6.2
 31
2.197
 12
4.206
 22
-6.2
 32
2.007
 13
4.206
 23
-5.79
 33
2.007
  0
LINE
  5
4936A
100
AcDbEntity
  8
0
100
AcDbLine
 10
4.206
 20
-6.2
 30
2.007
 11
4.206
 21
-6.2
 31
2.197
  0
LINE
  5
4936B
100
AcDbEntity
  8
0
100
AcDbLine
 10
4.206
 20
-5.79
 30
2.007
 11
4.206
 21
-5.79
 31
2.197
  0
TEXT
  5
4936C
100
AcDbEntity
  8
0
100
AcDbText
 10
1.748767
 20
-6.057877
 30
2.197
 40
0.12
  1
T1
100
AcDbText
  0
TEXT
  5
4936D
100
AcDbEntity
  8
0
100
AcDbText
 10
2.801638
 20
-6.063892
 30
2.197
 40
0.12
  1
T2
100
AcDbText
  0
TEXT
  5
4936E
100
AcDbEntity
  8
0
100
AcDbText
 10
3.864214
 20
-6.050509
 30
2.197
 40
0.12
  1
T3
100
AcDbText
  0
ATTDEF
  5
4936F
100
AcDbEntity
  8
ATTRIBUTES
100
AcDbText
 10
-2.985207
 20
-3.942896
 30
0.0
 40
0.161935
  1
ALLEN-BRADLEY
100
AcDbAttributeDefinition
  3
MANUFACTURER NAME?
  2
AC_VND_LABEL
 70
     1
  0
ATTDEF
  5
49370
100
AcDbEntity
  8
ATTRIBUTES
100
AcDbText
 10
-2.985207
 20
-4.28026
 30
0.0
 40
0.161935
  1
505-A
100
AcDbAttributeDefinition
  3
CATALOG NUMBER?
  2
AC_PART_NO
 70
     1
  0
ATTDEF
  5
49371
100
AcDbEntity
  8
ATTRIBUTES
100
AcDbText
 10
-2.985207
 20
-4.617624
 30
0.0
 40
0.161935
  1
REVERSING STARTER w/o OL; SIZE 0 & 1
100
AcDbAttributeDefinition
  3
PART DESCRIPTION?
  2
AC_DESCRIPTION
 70
     1
  0
ATTDEF
  5
49372
100
AcDbEntity
  8
ATTRIBUTES
100
AcDbText
 10
-2.985207
 20
-4.954988
 30
0.0
 40
0.161935
  1

100
AcDbAttributeDefinition
  3
DEVICE ID?
  2
DEVICE_ID
 70
     1
  0
ATTDEF
  5
49373
100
AcDbEntity
  8
ATTRIBUTES
100
AcDbText
 10
-2.985207
 20
-5.292352
 30
0.0
 40
0.161935
  1

100
AcDbAttributeDefinition
  3
CUSTOMER PART NUMBER?
  2
AC_CPART_NO
 70
     1
  0
ATTDEF
  5
49374
100
AcDbEntity
  8
ATTRIBUTES
100
AcDbText
 10
-2.985207
 20
-5.629716
 30
0.0
 40
0.161935
  1

100
AcDbAttributeDefinition
  3
CUSTOMER NOTE?
  2
AC_NOTE
 70
     1
  0
ATTDEF
  5
49375
100
AcDbEntity
  8
ATTRIBUTES
100
AcDbText
 10
-2.985207
 20
-5.96708
 30
0.0
 40
0.161935
  1

100
AcDbAttributeDefinition
  3
FASTENER DATA?
  2
FASTENER
 70
     1
  0
ATTDEF
  5
49376
100
AcDbEntity
  8
ATTRIBUTES
100
AcDbText
 10
-2.985207
 20
-6.304444
 30
0.0
 40
0.161935
  1
INCH
100
AcDbAttributeDefinition
  3
UNIT OF SCALE?
  2
AC_SCALE_UNIT
 70
     1
  0
ATTDEF
  5
49377
100
AcDbEntity
  8
ATTRIBUTES
100
AcDbText
 10
-2.985207
 20
-6.641808
 30
0.0
 40
0.161935
  1
0
100
AcDbAttributeDefinition
  3
VIEW CODE?
  2
AC_VIEW_CODE
 70
     1
  0
POINT
  5
49378
100
AcDbEntity
  8
DIMS-MTG-HOLES
100
AcDbPoint
 10
-2.753
 20
-7.09
 30
0.0
  0
POINT
  5
49379
100
AcDbEntity
  8
DIMS-MTG-HOLES
100
AcDbPoint
 10
4.337
 20
-7.09
 30
0.0
  0
POINT
  5
4937A
100
AcDbEntity
  8
DIMS-MTG-HOLES
100
AcDbPoint
 10
0.0
 20
0.0
 30
0.0
  0
DIMENSION
  5
4937B
100
AcDbEntity
  8
AREA1
100
AcDbDimension
  2
*D0
 10
-4.223678
 20
-7.309
 30
0.0
 11
-4.223678
 21
-3.614514
 31
0.0
 70
   160
  3
ABECAD_3V
100
AcDbAlignedDimension
 13
-1.0
 23
0.281
 33
0.0
 14
-3.143
 24
-7.309
 34
0.0
 50
90.0
100
AcDbRotatedDimension
1001
ACAD
1000
DSTYLE
1002
{
1070
    40
1040
2.654793
1002
}
  0
DIMENSION
  5
4937C
100
AcDbEntity
  8
AREA1
100
AcDbDimension
  2
*D1
 10
4.727
 20
1.238893
 30
0.0
 11
0.748885
 21
1.238893
 31
0.0
 70
   160
  3
ABECAD_3V
100
AcDbAlignedDimension
 13
-3.143
 23
-0.629
 33
0.0
 14
4.727
 24
-0.629
 34
0.0
100
AcDbRotatedDimension
1001
ACAD
1000
DSTYLE
1002
{
1070
    40
1040
2.654793
1002
}
  0
LWPOLYLINE
  5
4937D
100
AcDbEntity
  8
SCALE
100
AcDbPolyline
 90
        4
 70
     1
 43
0.0
 10
0.288483
 20
-7.456039
 10
1.424112
 20
-7.456039
 10
1.424112
 20
-8.297649
 10
0.288483
 20
-8.297649
  0
LINE
  5
4937E
100
AcDbEntity
  8
SCALE
100
AcDbLine
 10
0.346481
 20
-7.836117
 30
0.0
 11
1.346481
 21
-7.836117
 31
0.0
  0
LINE
  5
4937F
100
AcDbEntity
  8
SCALE
100
AcDbLine
 10
0.346481
 20
-8.136117
 30
0.0
 11
0.740181
 21
-8.136117
 31
0.0
  0
LINE
  5
49380
100
AcDbEntity
  8
SCALE
100
AcDbLine
 10
0.346481
 20
-7.936117
 30
0.0
 11
0.346481
 21
-7.736117
 31
0.0
  0
TEXT
  5
49381
100
AcDbEntity
  8
SCALE
100
AcDbText
 10
0.402457
 20
-8.088432
 30
0.0
 40
0.0625
  1
[10mm]
100
AcDbText
  0
LINE
  5
49382
100
AcDbEntity
  8
SCALE
100
AcDbLine
 10
0.346481
 20
-8.236117
 30
0.0
 11
0.346481
 21
-8.036117
 31
0.0
  0
TEXT
  5
49383
100
AcDbEntity
  8
SCALE
100
AcDbText
 10
0.348012
 20
-7.56124
 30
0.0
 40
0.0625
  1
SCALE:
100
AcDbText
  0
LINE
  5
49384
100
AcDbEntity
  8
SCALE
100
AcDbLine
 10
0.740181
 20
-8.236117
 30
0.0
 11
0.740181
 21
-8.036117
 31
0.0
  0
TEXT
  5
49385
100
AcDbEntity
  8
SCALE
100
AcDbText
 10
0.709764
 20
-7.767069
 30
0.0
 40
0.0625
  1
1 Inch
100
AcDbText
  0
LINE
  5
49386
100
AcDbEntity
  8
SCALE
100
AcDbLine
 10
1.346481
 20
-7.836117
 30
0.0
 11
1.346481
 21
-7.936117
 31
0.0
  0
LINE
  5
49387
100
AcDbEntity
  8
SCALE
100
AcDbLine
 10
1.346481
 20
-7.936117
 30
0.0
 11
1.346481
 21
-7.736117
 31
0.0
  0
DIMENSION
  5
493B6
100
AcDbEntity
  8
AREA2
100
AcDbDimension
  2
*D2
 10
-3.907494
 20
0.0
 30
0.0
 11
-4.440414
 21
2.317837
 31
0.0
 70
   160
210
0.0
220
-1.0
230
0.0
  3
ABECAD_3V
100
AcDbAlignedDimension
 13
-2.042
 23
-3.66
 33
4.857
 14
-3.143
 24
0.281
 34
0.0
 50
90.0
100
AcDbRotatedDimension
1001
ACAD
1000
DSTYLE
1002
{
1070
    40
1040
2.654793
1002
}
  0
VIEWPORT
  5
2C
102
{ACAD_XDICTIONARY
360
494B7
102
}
100
AcDbEntity
 67
     1
  8
0
100
AcDbViewport
 10
4.999849
 20
3.750155
 30
0.0
 40
14.996891
 41
7.611204
 68
     1
 69
     1
1001
ACAD
1000
MVIEW
1002
{
1070
    16
1010
0.0
1020
0.0
1030
0.0
1010
0.0
1020
0.0
1030
1.0
1040
0.0
1040
7.611204
1040
4.999849
1040
3.750155
1040
50.0
1040
0.0
1040
0.0
1070
     0
1070
   100
1070
     1
1070
     1
1070
     0
1070
     0
1070
     0
1070
     0
1040
0.0
1040
0.0
1040
0.0
1040
1.0
1040
1.0
1040
0.0
1040
0.0
1070
     0
1002
{
1002
}
1002
}
  0
VIEWPORT
  5
2D
102
{ACAD_XDICTIONARY
360
494B9
102
}
100
AcDbEntity
 67
     1
  8
0
100
AcDbViewport
 10
2.5
 20
5.625
 30
0.0
 40
5.0
 41
3.75
 68
     3
 69
     2
1001
ACAD
1000
MVIEW
1002
{
1070
    16
1010
0.0
1020
0.0
1030
0.0
1010
0.0
1020
0.0
1030
1.0
1040
0.0
1040
9.955473
1040
0.161661
1040
-2.870475
1040
50.0
1040
0.0
1040
0.0
1070
     0
1070
   100
1070
     1
1070
     0
1070
     0
1070
     0
1070
     0
1070
     0
1040
0.0
1040
0.0
1040
0.0
1040
1.0
1040
1.0
1040
0.0
1040
0.0
1070
     0
1002
{
1003
AREA2
1002
}
1002
}
  0
VIEWPORT
  5
2E
102
{ACAD_XDICTIONARY
360
494BB
102
}
100
AcDbEntity
 67
     1
  8
0
100
AcDbViewport
 10
2.5
 20
1.875
 30
0.0
 40
5.0
 41
3.75
 68
     2
 69
     3
1001
ACAD
1000
MVIEW
1002
{
1070
    16
1010
0.0
1020
0.0
1030
0.0
1010
0.0
1020
-1.0
1030
0.0
1040
0.0
1040
9.62365
1040
0.161661
1040
2.4285
1040
50.0
1040
0.0
1040
0.0
1070
     0
1070
   100
1070
     1
1070
     0
1070
     0
1070
     0
1070
     0
1070
     0
1040
0.0
1040
0.0
1040
0.0
1040
1.0
1040
1.0
1040
0.0
1040
0.0
1070
     0
1002
{
1003
AREA1
1002
}
1002
}
  0
VIEWPORT
  5
2F
102
{ACAD_XDICTIONARY
360
494BD
102
}
100
AcDbEntity
 67
     1
  8
0
100
AcDbViewport
 10
7.5
 20
3.75
 30
0.0
 40
5.0
 41
7.5
 68
     4
 69
     4
1001
ACAD
1000
MVIEW
1002
{
1070
    16
1010
0.0
1020
0.0
1030
0.0
1010
-1.0
1020
-1.0
1030
1.0
1040
0.0
1040
17.251784
1040
3.41527
1040
0.624008
1040
50.0
1040
0.0
1040
0.0
1070
     0
1070
   100
1070
     1
1070
     0
1070
     0
1070
     0
1070
     0
1070
     0
1040
0.0
1040
0.0
1040
0.0
1040
1.0
1040
1.0
1040
0.0
1040
0.0
1070
     0
1002
{
1003
AREA1
1003
AREA2
1002
}
1002
}
  0
TEXT
  5
42D
100
AcDbEntity
 67
     1
  8
0
100
AcDbText
 10
5.253785
 20
7.092701
 30
0.0
 40
0.2
  1

100
AcDbText
  0
TEXT
  5
431
100
AcDbEntity
 67
     1
  8
0
100
AcDbText
 10
5.253785
 20
6.759368
 30
0.0
 40
0.2
  1

100
AcDbText
1001
ACAD
1000
R13OBJECT
1002
{
1005
42D
1002
}
  0
TEXT
  5
11D16
100
AcDbEntity
 67
     1
  8
AREA2
100
AcDbText
 10
5.101109
 20
7.152637
 30
0.0
 40
0.2
  1
505-A
100
AcDbText
  0
TEXT
  5
24C0A
100
AcDbEntity
 67
     1
  8
AREA2
100
AcDbText
 10
5.101109
 20
6.881437
 30
0.0
 40
0.2
  1
REVERSING CONTACTOR  w/o 
100
AcDbText
  0
TEXT
  5
2F662
100
AcDbEntity
 67
     1
  8
AREA2
100
AcDbText
 10
5.101109
 20
6.599834
 30
0.0
 40
0.2
  1
OL; SIZE 0 & 1
100
AcDbText
  0
ENDSEC
  0
SECTION
  2
OBJECTS
  0
DICTIONARY
  5
46D
100
AcDbDictionary
  3
ACAD_GROUP
350
46E
  3
ACAD_LAYOUT
350
49E
  3
ACAD_MLINESTYLE
350
47B
  3
ACAD_PLOTSETTINGS
350
49F
  3
ACAD_PLOTSTYLENAME
350
49C
  3
ACDBHEADERROUNDTRIPXREC
350
49496
  3
ACDBVARIABLEDICTIONARY
350
48D
  0
DICTIONARY
  5
49494
100
AcDbDictionary
280
     1
  3
ACAD_XREC_ROUNDTRIP
360
49495
  0
DICTIONARY
  5
494C1
100
AcDbDictionary
280
     1
  3
ACAD_XREC_ROUNDTRIP
360
494C2
  0
DICTIONARY
  5
494C3
100
AcDbDictionary
280
     1
  3
ACAD_XREC_ROUNDTRIP
360
494C4
  0
DICTIONARY
  5
494C7
100
AcDbDictionary
280
     1
  3
ACAD_XREC_ROUNDTRIP
360
494C8
  0
DICTIONARY
  5
4D2
100
AcDbDictionary
280
     1
  3
ACAD_LAYOUTSELFREF
360
494C0
  0
DICTIONARY
  5
4D0
100
AcDbDictionary
280
     1
  3
ACAD_LAYOUTSELFREF
360
494BF
  0
DICTIONARY
  5
494B7
100
AcDbDictionary
280
     1
  3
ACAD_XREC_ROUNDTRIP
360
494B8
  0
DICTIONARY
  5
494B9
100
AcDbDictionary
280
     1
  3
ACAD_XREC_ROUNDTRIP
360
494BA
  0
DICTIONARY
  5
494BB
100
AcDbDictionary
280
     1
  3
ACAD_XREC_ROUNDTRIP
360
494BC
  0
DICTIONARY
  5
494BD
100
AcDbDictionary
280
     1
  3
ACAD_XREC_ROUNDTRIP
360
494BE
  0
DICTIONARY
  5
46E
102
{ACAD_REACTORS
330
46D
102
}
100
AcDbDictionary
  0
DICTIONARY
  5
49E
102
{ACAD_XDICTIONARY
360
494C5
102
}
102
{ACAD_REACTORS
330
46D
102
}
100
AcDbDictionary
  3
LAYOUT1
350
4A1
  3
MODEL
350
4A0
  0
DICTIONARY
  5
47B
102
{ACAD_REACTORS
330
46D
102
}
100
AcDbDictionary
  3
STANDARD
350
47C
  0
DICTIONARY
  5
49F
102
{ACAD_REACTORS
330
46D
102
}
100
AcDbDictionary
  0
ACAD_PROXY_OBJECT
  5
49C
102
{ACAD_REACTORS
330
46D
102
}
100
AcDbProxyObject
 90
      499
 91
      501
 93
       86
310
405010041939BDC9B585B0
350
49D
340
49D
 94
        0
  0
DICTIONARY
  5
49496
102
{ACAD_REACTORS
330
46D
102
}
100
AcDbDictionary
  3
CEPSNTYPE
350
494A0
  3
DIMSTYLEDATA
350
494A4
  3
FINGERPRINTGUID
350
494A1
  3
HYPERLINKBASE
350
49499
  3
INSUNITS
350
4949F
  3
LAYOUTDICT
350
4949B
  3
LWETCUNION
350
4949E
  3
PLOTSETDICT
350
4949C
  3
PLOTSTYLNAMDICT
350
4949D
  3
PSVPSCALE
350
494A3
  3
PUCSBASE
350
494A7
  3
PUCSORGBACK
350
494AD
  3
PUCSORGBOTTOM
350
494A9
  3
PUCSORGFRONT
350
494AC
  3
PUCSORGLEFT
350
494AA
  3
PUCSORGRIGHT
350
494AB
  3
PUCSORGTOP
350
494A8
  3
PUCSORTHOREF
350
494A5
  3
PUCSORTHOVIEW
350
494A6
  3
STYLESHEET
350
4949A
  3
TSTACKALIGN
350
49497
  3
TSTACKSIZE
350
49498
  3
UCSBASE
350
494B0
  3
UCSORGBACK
350
494B6
  3
UCSORGBOTTOM
350
494B2
  3
UCSORGFRONT
350
494B5
  3
UCSORGLEFT
350
494B3
  3
UCSORGRIGHT
350
494B4
  3
UCSORGTOP
350
494B1
  3
UCSORTHOREF
350
494AE
  3
UCSORTHOVIEW
350
494AF
  3
VERSIONGUID
350
494A2
  0
DICTIONARY
  5
48D
102
{ACAD_REACTORS
330
46D
102
}
100
AcDbDictionary
  3
DIMADEC
350
48E
  0
XRECORD
  5
49495
102
{ACAD_REACTORS
330
49494
102
}
100
AcDbXrecord
102
EXTNAMES
  1
*ACTIVE
  2
*Active
102
UCS
 74
     0
 71
     1
 10
0.0
 20
0.0
 30
0.0
 10
1.0
 20
0.0
 30
0.0
 10
0.0
 20
1.0
 30
0.0
146
0.0
 79
     1
102
VIEW
281
     1
  0
XRECORD
  5
494C2
102
{ACAD_REACTORS
330
494C1
102
}
100
AcDbXrecord
102
PLOTBIT
280
     0
  0
XRECORD
  5
494C4
102
{ACAD_REACTORS
330
494C3
102
}
100
AcDbXrecord
102
ACADR14ROUNDTRIP
1000
DSTYLE
1002
{
1070
   276
 70
     2
1070
   277
 70
     5
1070
   279
 70
     2
1002
}
  0
XRECORD
  5
494C8
102
{ACAD_REACTORS
330
494C7
102
}
100
AcDbXrecord
102
ACADR14ROUNDTRIP
1000
DSTYLE
1002
{
1070
   276
 70
     2
1070
   277
 70
     5
1070
   279
 70
     2
1070
   289
 70
     2
1002
}
  0
XRECORD
  5
494C0
102
{ACAD_REACTORS
330
4D2
102
}
100
AcDbXrecord
340
478
  0
XRECORD
  5
494BF
102
{ACAD_REACTORS
330
4D0
102
}
100
AcDbXrecord
340
475
  0
XRECORD
  5
494B8
102
{ACAD_REACTORS
330
494B7
102
}
100
AcDbXrecord
102
UCS
 74
     0
 71
     1
 10
0.0
 20
0.0
 30
0.0
 10
1.0
 20
0.0
 30
0.0
 10
0.0
 20
1.0
 30
0.0
146
0.0
 79
     0
102
VIEW
281
     0
102
NEWVIEWCONTROL
280
     4
  0
XRECORD
  5
494BA
102
{ACAD_REACTORS
330
494B9
102
}
100
AcDbXrecord
102
UCS
 74
     0
 71
     1
 10
0.0
 20
0.0
 30
0.0
 10
1.0
 20
0.0
 30
0.0
 10
0.0
 20
1.0
 30
0.0
146
0.0
 79
     1
102
VIEW
281
     0
102
NEWVIEWCONTROL
280
     4
  0
XRECORD
  5
494BC
102
{ACAD_REACTORS
330
494BB
102
}
100
AcDbXrecord
102
UCS
 74
     0
 71
     1
 10
0.0
 20
0.0
 30
0.0
 10
1.0
 20
0.0
 30
0.0
 10
0.0
 20
0.0
 30
1.0
146
0.0
 79
     3
102
VIEW
281
     0
102
NEWVIEWCONTROL
280
     4
  0
XRECORD
  5
494BE
102
{ACAD_REACTORS
330
494BD
102
}
100
AcDbXrecord
102
UCS
 74
     0
 71
     1
 10
0.0
 20
0.0
 30
0.0
 10
1.0
 20
0.0
 30
0.0
 10
0.0
 20
1.0
 30
0.0
146
0.0
 79
     0
102
VIEW
281
     0
102
NEWVIEWCONTROL
280
     4
  0
DICTIONARY
  5
494C5
100
AcDbDictionary
280
     1
  3
ACAD_XREC_ROUNDTRIP
360
494C6
  0
ACAD_PROXY_OBJECT
  5
4A1
102
{ACAD_REACTORS
330
49E
102
}
100
AcDbProxyObject
 90
      499
 91
      503
 93
     2044
310
91D4850204C617365724A65742035303030205365726965732050434C20362C008000000C0BB1B1440000000102F06C510000000000BC1B1440000000002E06C5100000000C0CCFC6A4000000018199D9C501064C6574746572A901406AA427D84144352EEE3F47D11959985D5B1D08148C4D081C195B88185CDCDA59DB9B5
310
95B9D1CCB98DD18A30EDE3B1BBFDBC0FC1D572C8D6D0C833F1A2B3054E9249F0FD074C61796F75743140501A97D7DB4AA43C31EFF91E46EBA53B71EFD1B32A15809809100B2537F8EAD447D02A6A6A00200C0093BD106FC0000F06EE366FABE0000032E846F6A2F44424FF2920002440160B7F435600079000000D00CEECC5
310
43D0
330
475
330
2C
340
0
340
0
 94
        0
  0
ACAD_PROXY_OBJECT
  5
4A0
102
{ACAD_REACTORS
330
49E
102
}
100
AcDbProxyObject
 90
      499
 91
      503
 93
      924
310
91D4850204C617365724A65742035303030205365726965732050434C20362C01AAAAAAAAA547D11959985D5B1D08148C4D081C195B88185CDCDA59DB9B595B9D1CCB98DD18A69054D6F64656C901A800000000000000000000000000000000000000000000A1000000000000008902A6A6AAAA0
330
478
330
0
340
0
340
0
 94
        0
  0
MLINESTYLE
  5
47C
102
{ACAD_REACTORS
330
47B
102
}
100
AcDbMlineStyle
  2
STANDARD
 70
     0
  3

 62
   256
 51
90.0
 52
90.0
 71
     2
 49
0.5
 62
   256
  6
BYLAYER
 49
-0.5
 62
   256
  6
BYLAYER
  0
ACAD_PROXY_OBJECT
  5
49D
102
{ACAD_REACTORS
330
49C
102
}
100
AcDbProxyObject
 90
      499
 91
      502
 93
        0
 94
        0
  0
XRECORD
  5
494A0
102
{ACAD_REACTORS
330
49496
102
}
100
AcDbXrecord
 90
        0
  0
XRECORD
  5
494A4
102
{ACAD_REACTORS
330
49496
102
}
100
AcDbXrecord
1000
DSTYLE
1002
{
1070
   276
 70
     2
1070
   277
 70
     5
1070
   279
 70
     2
1002
}
  0
XRECORD
  5
494A1
102
{ACAD_REACTORS
330
49496
102
}
100
AcDbXrecord
  1
{6E0CF4B5-225E-11D4-A150-00A0CC3303EC}
  0
XRECORD
  5
49499
102
{ACAD_REACTORS
330
49496
102
}
100
AcDbXrecord
  1

  0
XRECORD
  5
4949F
102
{ACAD_REACTORS
330
49496
102
}
100
AcDbXrecord
 90
        0
  0
XRECORD
  5
4949B
102
{ACAD_REACTORS
330
49496
102
}
100
AcDbXrecord
340
49E
  0
XRECORD
  5
4949E
102
{ACAD_REACTORS
330
49496
102
}
100
AcDbXrecord
 90
    14877
  0
XRECORD
  5
4949C
102
{ACAD_REACTORS
330
49496
102
}
100
AcDbXrecord
340
49F
  0
XRECORD
  5
4949D
102
{ACAD_REACTORS
330
49496
102
}
100
AcDbXrecord
340
49C
  0
XRECORD
  5
494A3
102
{ACAD_REACTORS
330
49496
102
}
100
AcDbXrecord
 40
0.0
  0
XRECORD
  5
494A7
102
{ACAD_REACTORS
330
49496
102
}
100
AcDbXrecord
340
0
  0
XRECORD
  5
494AD
102
{ACAD_REACTORS
330
49496
102
}
100
AcDbXrecord
 10
0.0
 20
0.0
 30
0.0
  0
XRECORD
  5
494A9
102
{ACAD_REACTORS
330
49496
102
}
100
AcDbXrecord
 10
0.0
 20
0.0
 30
0.0
  0
XRECORD
  5
494AC
102
{ACAD_REACTORS
330
49496
102
}
100
AcDbXrecord
 10
0.0
 20
0.0
 30
0.0
  0
XRECORD
  5
494AA
102
{ACAD_REACTORS
330
49496
102
}
100
AcDbXrecord
 10
0.0
 20
0.0
 30
0.0
  0
XRECORD
  5
494AB
102
{ACAD_REACTORS
330
49496
102
}
100
AcDbXrecord
 10
0.0
 20
0.0
 30
0.0
  0
XRECORD
  5
494A8
102
{ACAD_REACTORS
330
49496
102
}
100
AcDbXrecord
 10
0.0
 20
0.0
 30
0.0
  0
XRECORD
  5
494A5
102
{ACAD_REACTORS
330
49496
102
}
100
AcDbXrecord
340
0
  0
XRECORD
  5
494A6
102
{ACAD_REACTORS
330
49496
102
}
100
AcDbXrecord
 70
     0
  0
XRECORD
  5
4949A
102
{ACAD_REACTORS
330
49496
102
}
100
AcDbXrecord
  1

  0
XRECORD
  5
49497
102
{ACAD_REACTORS
330
49496
102
}
100
AcDbXrecord
 90
        1
  0
XRECORD
  5
49498
102
{ACAD_REACTORS
330
49496
102
}
100
AcDbXrecord
 90
       70
  0
XRECORD
  5
494B0
102
{ACAD_REACTORS
330
49496
102
}
100
AcDbXrecord
340
0
  0
XRECORD
  5
494B6
102
{ACAD_REACTORS
330
49496
102
}
100
AcDbXrecord
 10
0.0
 20
0.0
 30
0.0
  0
XRECORD
  5
494B2
102
{ACAD_REACTORS
330
49496
102
}
100
AcDbXrecord
 10
0.0
 20
0.0
 30
0.0
  0
XRECORD
  5
494B5
102
{ACAD_REACTORS
330
49496
102
}
100
AcDbXrecord
 10
0.0
 20
0.0
 30
0.0
  0
XRECORD
  5
494B3
102
{ACAD_REACTORS
330
49496
102
}
100
AcDbXrecord
 10
0.0
 20
0.0
 30
0.0
  0
XRECORD
  5
494B4
102
{ACAD_REACTORS
330
49496
102
}
100
AcDbXrecord
 10
0.0
 20
0.0
 30
0.0
  0
XRECORD
  5
494B1
102
{ACAD_REACTORS
330
49496
102
}
100
AcDbXrecord
 10
0.0
 20
0.0
 30
0.0
  0
XRECORD
  5
494AE
102
{ACAD_REACTORS
330
49496
102
}
100
AcDbXrecord
340
0
  0
XRECORD
  5
494AF
102
{ACAD_REACTORS
330
49496
102
}
100
AcDbXrecord
 70
     3
  0
XRECORD
  5
494A2
102
{ACAD_REACTORS
330
49496
102
}
100
AcDbXrecord
  1
{6B73FDCB-DD5E-4DB3-8E67-A769235ED714}
  0
DICTIONARYVAR
  5
48E
102
{ACAD_REACTORS
330
48D
102
}
100
DictionaryVariables
280
     0
  1
0
  0
XRECORD
  5
494C6
102
{ACAD_REACTORS
330
494C5
102
}
100
AcDbXrecord
102
EXTNAMES
  1
LAYOUT1
  2
Layout1
  1
MODEL
  2
Model
  0
ENDSEC
  0
EOF
