  0
SECTION
  2
HEADER
  9
$ACADVER
  1
AC1014
  9
$ACADMAINTVER
 70
     8
  9
$DWGCODEPAGE
  3
ANSI_1252
  9
$INSBASE
 10
0.0
 20
0.0
 30
0.0
  9
$EXTMIN
 10
-5.580871
 20
-9.145116
 30
0.0
  9
$EXTMAX
 10
4.325
 20
1.550221
 30
5.11
  9
$LIMMIN
 10
0.0
 20
0.0
  9
$LIMMAX
 10
12.0
 20
9.0
  9
$ORTHOMODE
 70
     0
  9
$REGENMODE
 70
     1
  9
$FILLMODE
 70
     1
  9
$QTEXTMODE
 70
     0
  9
$MIRRTEXT
 70
     1
  9
$DRAGMODE
 70
     2
  9
$LTSCALE
 40
1.0
  9
$OSMODE
 70
    37
  9
$ATTMODE
 70
     1
  9
$TEXTSIZE
 40
0.12
  9
$TRACEWID
 40
0.05
  9
$TEXTSTYLE
  7
STANDARD
  9
$CLAYER
  8
0
  9
$CELTYPE
  6
BYLAYER
  9
$CECOLOR
 62
   256
  9
$CELTSCALE
 40
1.0
  9
$DELOBJ
 70
     1
  9
$DISPSILH
 70
     0
  9
$DIMSCALE
 40
1.0
  9
$DIMASZ
 40
0.3
  9
$DIMEXO
 40
0.1
  9
$DIMDLI
 40
0.375
  9
$DIMRND
 40
0.0
  9
$DIMDLE
 40
0.0
  9
$DIMEXE
 40
0.1
  9
$DIMTP
 40
0.0
  9
$DIMTM
 40
0.0
  9
$DIMTXT
 40
0.3
  9
$DIMCEN
 40
0.09
  9
$DIMTSZ
 40
0.0
  9
$DIMTOL
 70
     0
  9
$DIMLIM
 70
     0
  9
$DIMTIH
 70
     0
  9
$DIMTOH
 70
     1
  9
$DIMSE1
 70
     0
  9
$DIMSE2
 70
     0
  9
$DIMTAD
 70
     0
  9
$DIMZIN
 70
     4
  9
$DIMBLK
  1

  9
$DIMASO
 70
     1
  9
$DIMSHO
 70
     1
  9
$DIMPOST
  1

  9
$DIMAPOST
  1

  9
$DIMALT
 70
     1
  9
$DIMALTD
 70
     2
  9
$DIMALTF
 40
25.4
  9
$DIMLFAC
 40
1.0
  9
$DIMTOFL
 70
     0
  9
$DIMTVP
 40
0.0
  9
$DIMTIX
 70
     0
  9
$DIMSOXD
 70
     0
  9
$DIMSAH
 70
     0
  9
$DIMBLK1
  1

  9
$DIMBLK2
  1

  9
$DIMSTYLE
  2
ABECAD_3D
  9
$DIMCLRD
 70
     0
  9
$DIMCLRE
 70
     0
  9
$DIMCLRT
 70
     0
  9
$DIMTFAC
 40
1.5
  9
$DIMGAP
 40
0.09
  9
$DIMJUST
 70
     0
  9
$DIMSD1
 70
     0
  9
$DIMSD2
 70
     0
  9
$DIMTOLJ
 70
     1
  9
$DIMTZIN
 70
     4
  9
$DIMALTZ
 70
     4
  9
$DIMALTTZ
 70
     4
  9
$DIMFIT
 70
     5
  9
$DIMUPT
 70
     1
  9
$DIMUNIT
 70
     7
  9
$DIMDEC
 70
     6
  9
$DIMTDEC
 70
     6
  9
$DIMALTU
 70
     2
  9
$DIMALTTD
 70
     2
  9
$DIMTXSTY
  7
STANDARD
  9
$DIMAUNIT
 70
     0
  9
$LUNITS
 70
     2
  9
$LUPREC
 70
     4
  9
$SKETCHINC
 40
0.1
  9
$FILLETRAD
 40
0.0
  9
$AUNITS
 70
     0
  9
$AUPREC
 70
     0
  9
$MENU
  1
ACAD
  9
$ELEVATION
 40
0.0
  9
$PELEVATION
 40
0.0
  9
$THICKNESS
 40
0.0
  9
$LIMCHECK
 70
     0
  9
$BLIPMODE
 70
     0
  9
$CHAMFERA
 40
0.0
  9
$CHAMFERB
 40
0.0
  9
$CHAMFERC
 40
0.0
  9
$CHAMFERD
 40
0.0
  9
$SKPOLY
 70
     0
  9
$TDCREATE
 40
2451726.438389120
  9
$TDUPDATE
 40
2452010.490830439
  9
$TDINDWG
 40
1.0709353009
  9
$TDUSRTIMER
 40
1.0709353009
  9
$USRTIMER
 70
     1
  9
$ANGBASE
 50
0.0
  9
$ANGDIR
 70
     0
  9
$PDMODE
 70
     3
  9
$PDSIZE
 40
0.09
  9
$PLINEWID
 40
0.0
  9
$COORDS
 70
     1
  9
$SPLFRAME
 70
     1
  9
$SPLINETYPE
 70
     6
  9
$SPLINESEGS
 70
     8
  9
$ATTDIA
 70
     0
  9
$ATTREQ
 70
     1
  9
$HANDLING
 70
     1
  9
$HANDSEED
  5
87F56
  9
$SURFTAB1
 70
     6
  9
$SURFTAB2
 70
     6
  9
$SURFTYPE
 70
     6
  9
$SURFU
 70
     6
  9
$SURFV
 70
     6
  9
$UCSNAME
  2

  9
$UCSORG
 10
0.0
 20
0.0
 30
0.0
  9
$UCSXDIR
 10
1.0
 20
0.0
 30
0.0
  9
$UCSYDIR
 10
0.0
 20
1.0
 30
0.0
  9
$PUCSNAME
  2

  9
$PUCSORG
 10
0.0
 20
0.0
 30
0.0
  9
$PUCSXDIR
 10
1.0
 20
0.0
 30
0.0
  9
$PUCSYDIR
 10
0.0
 20
1.0
 30
0.0
  9
$USERI1
 70
     0
  9
$USERI2
 70
     0
  9
$USERI3
 70
     0
  9
$USERI4
 70
     0
  9
$USERI5
 70
     0
  9
$USERR1
 40
0.0
  9
$USERR2
 40
0.0
  9
$USERR3
 40
0.0
  9
$USERR4
 40
0.0
  9
$USERR5
 40
0.0
  9
$WORLDVIEW
 70
     1
  9
$SHADEDGE
 70
     3
  9
$SHADEDIF
 70
    70
  9
$TILEMODE
 70
     1
  9
$MAXACTVP
 70
    16
  9
$PINSBASE
 10
0.0
 20
0.0
 30
0.0
  9
$PLIMCHECK
 70
     0
  9
$PEXTMIN
 10
1.05
 20
0.8
 30
0.0
  9
$PEXTMAX
 10
9.45
 20
7.2
 30
0.0
  9
$PLIMMIN
 10
-0.25
 20
-0.25
  9
$PLIMMAX
 10
10.75
 20
8.25
  9
$UNITMODE
 70
     0
  9
$VISRETAIN
 70
     0
  9
$PLINEGEN
 70
     0
  9
$PSLTSCALE
 70
     1
  9
$TREEDEPTH
 70
  3020
  9
$PICKSTYLE
 70
     1
  9
$CMLSTYLE
  2
STANDARD
  9
$CMLJUST
 70
     0
  9
$CMLSCALE
 40
1.0
  9
$PROXYGRAPHICS
 70
     1
  9
$MEASUREMENT
 70
     0
  0
ENDSEC
  0
SECTION
  2
CLASSES
  0
CLASS
  1
DICTIONARYVAR
  2
AcDbDictionaryVar
  3
"AutoCAD"
 90
        0
280
     0
281
     0
  0
CLASS
  1
ACDBDICTIONARYWDFLT
  2
AcDbDictionaryWithDefault
  3
AutoCAD 2000
 90
        0
280
     0
281
     0
  0
CLASS
  1
ACDBPLACEHOLDER
  2
AcDbPlaceHolder
  3
AutoCAD 2000
 90
        0
280
     0
281
     0
  0
CLASS
  1
LAYOUT
  2
AcDbLayout
  3
AutoCAD 2000
 90
        0
280
     0
281
     0
  0
CLASS
  1
LONG_TRANSACTION
  2
AcDbLongTransaction
  3
AutoCAD 2000
 90
        0
280
     0
281
     0
  0
CLASS
  1
LWPOLYLINE
  2
AcDbPolyline
  3
"AutoCAD"
 90
        0
280
     0
281
     1
  0
CLASS
  1
HATCH
  2
AcDbHatch
  3
"ACAD_SEDONA"
 90
        0
280
     0
281
     1
  0
CLASS
  1
XRECORD
  2
AcDbXrecord
  3
"<Built In>"
 90
        0
280
     0
281
     0
  0
CLASS
  1
LONG_TRANSACTION
  2
AcDbLongTransaction
  3
AutoCAD 2000
 90
        0
280
     0
281
     0
  0
CLASS
  1
LWPOLYLINE
  2
AcDbPolyline
  3
"AutoCAD"
 90
        0
280
     0
281
     1
  0
CLASS
  1
HATCH
  2
AcDbHatch
  3
"ACAD_SEDONA"
 90
        0
280
     0
281
     1
  0
CLASS
  1
XRECORD
  2
AcDbXrecord
  3
"<Built In>"
 90
        0
280
     0
281
     0
  0
CLASS
  1
LONG_TRANSACTION
  2
AcDbLongTransaction
  3
AutoCAD 2000
 90
        0
280
     0
281
     0
  0
CLASS
  1
LWPOLYLINE
  2
AcDbPolyline
  3
"AutoCAD"
 90
        0
280
     0
281
     1
  0
CLASS
  1
HATCH
  2
AcDbHatch
  3
"ACAD_SEDONA"
 90
        0
280
     0
281
     1
  0
CLASS
  1
XRECORD
  2
AcDbXrecord
  3
"<Built In>"
 90
        0
280
     0
281
     0
  0
CLASS
  1
LONG_TRANSACTION
  2
AcDbLongTransaction
  3
AutoCAD 2000
 90
        0
280
     0
281
     0
  0
CLASS
  1
LWPOLYLINE
  2
AcDbPolyline
  3
"AutoCAD"
 90
        0
280
     0
281
     1
  0
CLASS
  1
HATCH
  2
AcDbHatch
  3
"ACAD_SEDONA"
 90
        0
280
     0
281
     1
  0
CLASS
  1
XRECORD
  2
AcDbXrecord
  3
"<Built In>"
 90
        0
280
     0
281
     0
  0
CLASS
  1
LONG_TRANSACTION
  2
AcDbLongTransaction
  3
AutoCAD 2000
 90
        0
280
     0
281
     0
  0
CLASS
  1
LWPOLYLINE
  2
AcDbPolyline
  3
"AutoCAD"
 90
        0
280
     0
281
     1
  0
CLASS
  1
HATCH
  2
AcDbHatch
  3
"ACAD_SEDONA"
 90
        0
280
     0
281
     1
  0
CLASS
  1
XRECORD
  2
AcDbXrecord
  3
"<Built In>"
 90
        0
280
     0
281
     0
  0
CLASS
  1
LONG_TRANSACTION
  2
AcDbLongTransaction
  3
AutoCAD 2000
 90
        0
280
     0
281
     0
  0
CLASS
  1
LWPOLYLINE
  2
AcDbPolyline
  3
"AutoCAD"
 90
        0
280
     0
281
     1
  0
CLASS
  1
HATCH
  2
AcDbHatch
  3
"ACAD_SEDONA"
 90
        0
280
     0
281
     1
  0
CLASS
  1
XRECORD
  2
AcDbXrecord
  3
"<Built In>"
 90
        0
280
     0
281
     0
  0
CLASS
  1
LONG_TRANSACTION
  2
AcDbLongTransaction
  3
AutoCAD 2000
 90
        0
280
     0
281
     0
  0
CLASS
  1
LWPOLYLINE
  2
AcDbPolyline
  3
"AutoCAD"
 90
        0
280
     0
281
     1
  0
CLASS
  1
HATCH
  2
AcDbHatch
  3
"ACAD_SEDONA"
 90
        0
280
     0
281
     1
  0
CLASS
  1
XRECORD
  2
AcDbXrecord
  3
"<Built In>"
 90
        0
280
     0
281
     0
  0
CLASS
  1
LONG_TRANSACTION
  2
AcDbLongTransaction
  3
AutoCAD 2000
 90
        0
280
     0
281
     0
  0
CLASS
  1
LWPOLYLINE
  2
AcDbPolyline
  3
"AutoCAD"
 90
        0
280
     0
281
     1
  0
CLASS
  1
HATCH
  2
AcDbHatch
  3
"ACAD_SEDONA"
 90
        0
280
     0
281
     1
  0
CLASS
  1
XRECORD
  2
AcDbXrecord
  3
"<Built In>"
 90
        0
280
     0
281
     0
  0
CLASS
  1
LONG_TRANSACTION
  2
AcDbLongTransaction
  3
AutoCAD 2000
 90
        0
280
     0
281
     0
  0
CLASS
  1
LWPOLYLINE
  2
AcDbPolyline
  3
"AutoCAD"
 90
        0
280
     0
281
     1
  0
CLASS
  1
HATCH
  2
AcDbHatch
  3
"ACAD_SEDONA"
 90
        0
280
     0
281
     1
  0
CLASS
  1
XRECORD
  2
AcDbXrecord
  3
"<Built In>"
 90
        0
280
     0
281
     0
  0
CLASS
  1
LONG_TRANSACTION
  2
AcDbLongTransaction
  3
AutoCAD 2000
 90
        0
280
     0
281
     0
  0
CLASS
  1
LWPOLYLINE
  2
AcDbPolyline
  3
"AutoCAD"
 90
        0
280
     0
281
     1
  0
CLASS
  1
HATCH
  2
AcDbHatch
  3
"ACAD_SEDONA"
 90
        0
280
     0
281
     1
  0
CLASS
  1
XRECORD
  2
AcDbXrecord
  3
"<Built In>"
 90
        0
280
     0
281
     0
  0
CLASS
  1
LONG_TRANSACTION
  2
AcDbLongTransaction
  3
AutoCAD 2000
 90
        0
280
     0
281
     0
  0
CLASS
  1
LWPOLYLINE
  2
AcDbPolyline
  3
"AutoCAD"
 90
        0
280
     0
281
     1
  0
CLASS
  1
HATCH
  2
AcDbHatch
  3
"ACAD_SEDONA"
 90
        0
280
     0
281
     1
  0
CLASS
  1
XRECORD
  2
AcDbXrecord
  3
"<Built In>"
 90
        0
280
     0
281
     0
  0
CLASS
  1
LONG_TRANSACTION
  2
AcDbLongTransaction
  3
AutoCAD 2000
 90
        0
280
     0
281
     0
  0
CLASS
  1
LWPOLYLINE
  2
AcDbPolyline
  3
"AutoCAD"
 90
        0
280
     0
281
     1
  0
CLASS
  1
HATCH
  2
AcDbHatch
  3
"ACAD_SEDONA"
 90
        0
280
     0
281
     1
  0
CLASS
  1
XRECORD
  2
AcDbXrecord
  3
"<Built In>"
 90
        0
280
     0
281
     0
  0
CLASS
  1
LONG_TRANSACTION
  2
AcDbLongTransaction
  3
AutoCAD 2000
 90
        0
280
     0
281
     0
  0
CLASS
  1
LWPOLYLINE
  2
AcDbPolyline
  3
"AutoCAD"
 90
        0
280
     0
281
     1
  0
CLASS
  1
HATCH
  2
AcDbHatch
  3
"ACAD_SEDONA"
 90
        0
280
     0
281
     1
  0
CLASS
  1
XRECORD
  2
AcDbXrecord
  3
"<Built In>"
 90
        0
280
     0
281
     0
  0
CLASS
  1
LONG_TRANSACTION
  2
AcDbLongTransaction
  3
AutoCAD 2000
 90
        0
280
     0
281
     0
  0
CLASS
  1
LWPOLYLINE
  2
AcDbPolyline
  3
"AutoCAD"
 90
        0
280
     0
281
     1
  0
CLASS
  1
HATCH
  2
AcDbHatch
  3
"ACAD_SEDONA"
 90
        0
280
     0
281
     1
  0
CLASS
  1
XRECORD
  2
AcDbXrecord
  3
"<Built In>"
 90
        0
280
     0
281
     0
  0
CLASS
  1
LONG_TRANSACTION
  2
AcDbLongTransaction
  3
AutoCAD 2000
 90
        0
280
     0
281
     0
  0
CLASS
  1
LWPOLYLINE
  2
AcDbPolyline
  3
"AutoCAD"
 90
        0
280
     0
281
     1
  0
CLASS
  1
HATCH
  2
AcDbHatch
  3
"ACAD_SEDONA"
 90
        0
280
     0
281
     1
  0
CLASS
  1
XRECORD
  2
AcDbXrecord
  3
"<Built In>"
 90
        0
280
     0
281
     0
  0
CLASS
  1
LONG_TRANSACTION
  2
AcDbLongTransaction
  3
AutoCAD 2000
 90
        0
280
     0
281
     0
  0
CLASS
  1
LWPOLYLINE
  2
AcDbPolyline
  3
"AutoCAD"
 90
        0
280
     0
281
     1
  0
CLASS
  1
HATCH
  2
AcDbHatch
  3
"ACAD_SEDONA"
 90
        0
280
     0
281
     1
  0
CLASS
  1
XRECORD
  2
AcDbXrecord
  3
"<Built In>"
 90
        0
280
     0
281
     0
  0
CLASS
  1
LONG_TRANSACTION
  2
AcDbLongTransaction
  3
AutoCAD 2000
 90
        0
280
     0
281
     0
  0
CLASS
  1
LWPOLYLINE
  2
AcDbPolyline
  3
"AutoCAD"
 90
        0
280
     0
281
     1
  0
CLASS
  1
HATCH
  2
AcDbHatch
  3
"ACAD_SEDONA"
 90
        0
280
     0
281
     1
  0
CLASS
  1
XRECORD
  2
AcDbXrecord
  3
"<Built In>"
 90
        0
280
     0
281
     0
  0
CLASS
  1
LONG_TRANSACTION
  2
AcDbLongTransaction
  3
AutoCAD 2000
 90
        0
280
     0
281
     0
  0
CLASS
  1
LWPOLYLINE
  2
AcDbPolyline
  3
"AutoCAD"
 90
        0
280
     0
281
     1
  0
CLASS
  1
HATCH
  2
AcDbHatch
  3
"ACAD_SEDONA"
 90
        0
280
     0
281
     1
  0
CLASS
  1
XRECORD
  2
AcDbXrecord
  3
"<Built In>"
 90
        0
280
     0
281
     0
  0
CLASS
  1
LONG_TRANSACTION
  2
AcDbLongTransaction
  3
AutoCAD 2000
 90
        0
280
     0
281
     0
  0
CLASS
  1
LWPOLYLINE
  2
AcDbPolyline
  3
"AutoCAD"
 90
        0
280
     0
281
     1
  0
CLASS
  1
HATCH
  2
AcDbHatch
  3
"ACAD_SEDONA"
 90
        0
280
     0
281
     1
  0
CLASS
  1
XRECORD
  2
AcDbXrecord
  3
"<Built In>"
 90
        0
280
     0
281
     0
  0
CLASS
  1
LONG_TRANSACTION
  2
AcDbLongTransaction
  3
AutoCAD 2000
 90
        0
280
     0
281
     0
  0
CLASS
  1
LWPOLYLINE
  2
AcDbPolyline
  3
"AutoCAD"
 90
        0
280
     0
281
     1
  0
CLASS
  1
HATCH
  2
AcDbHatch
  3
"ACAD_SEDONA"
 90
        0
280
     0
281
     1
  0
CLASS
  1
XRECORD
  2
AcDbXrecord
  3
"<Built In>"
 90
        0
280
     0
281
     0
  0
CLASS
  1
LONG_TRANSACTION
  2
AcDbLongTransaction
  3
AutoCAD 2000
 90
        0
280
     0
281
     0
  0
CLASS
  1
LWPOLYLINE
  2
AcDbPolyline
  3
"AutoCAD"
 90
        0
280
     0
281
     1
  0
CLASS
  1
HATCH
  2
AcDbHatch
  3
"ACAD_SEDONA"
 90
        0
280
     0
281
     1
  0
CLASS
  1
XRECORD
  2
AcDbXrecord
  3
"<Built In>"
 90
        0
280
     0
281
     0
  0
CLASS
  1
LONG_TRANSACTION
  2
AcDbLongTransaction
  3
AutoCAD 2000
 90
        0
280
     0
281
     0
  0
CLASS
  1
LWPOLYLINE
  2
AcDbPolyline
  3
"AutoCAD"
 90
        0
280
     0
281
     1
  0
CLASS
  1
HATCH
  2
AcDbHatch
  3
"ACAD_SEDONA"
 90
        0
280
     0
281
     1
  0
CLASS
  1
XRECORD
  2
AcDbXrecord
  3
"<Built In>"
 90
        0
280
     0
281
     0
  0
CLASS
  1
LONG_TRANSACTION
  2
AcDbLongTransaction
  3
AutoCAD 2000
 90
        0
280
     0
281
     0
  0
CLASS
  1
LWPOLYLINE
  2
AcDbPolyline
  3
"AutoCAD"
 90
        0
280
     0
281
     1
  0
CLASS
  1
HATCH
  2
AcDbHatch
  3
"ACAD_SEDONA"
 90
        0
280
     0
281
     1
  0
CLASS
  1
XRECORD
  2
AcDbXrecord
  3
"<Built In>"
 90
        0
280
     0
281
     0
  0
CLASS
  1
LONG_TRANSACTION
  2
AcDbLongTransaction
  3
AutoCAD 2000
 90
        0
280
     0
281
     0
  0
CLASS
  1
LWPOLYLINE
  2
AcDbPolyline
  3
"AutoCAD"
 90
        0
280
     0
281
     1
  0
CLASS
  1
HATCH
  2
AcDbHatch
  3
"ACAD_SEDONA"
 90
        0
280
     0
281
     1
  0
CLASS
  1
XRECORD
  2
AcDbXrecord
  3
"<Built In>"
 90
        0
280
     0
281
     0
  0
CLASS
  1
LONG_TRANSACTION
  2
AcDbLongTransaction
  3
AutoCAD 2000
 90
        0
280
     0
281
     0
  0
CLASS
  1
LWPOLYLINE
  2
AcDbPolyline
  3
"AutoCAD"
 90
        0
280
     0
281
     1
  0
CLASS
  1
HATCH
  2
AcDbHatch
  3
"ACAD_SEDONA"
 90
        0
280
     0
281
     1
  0
CLASS
  1
XRECORD
  2
AcDbXrecord
  3
"<Built In>"
 90
        0
280
     0
281
     0
  0
CLASS
  1
LONG_TRANSACTION
  2
AcDbLongTransaction
  3
AutoCAD 2000
 90
        0
280
     0
281
     0
  0
CLASS
  1
LWPOLYLINE
  2
AcDbPolyline
  3
"AutoCAD"
 90
        0
280
     0
281
     1
  0
CLASS
  1
HATCH
  2
AcDbHatch
  3
"ACAD_SEDONA"
 90
        0
280
     0
281
     1
  0
CLASS
  1
XRECORD
  2
AcDbXrecord
  3
"<Built In>"
 90
        0
280
     0
281
     0
  0
CLASS
  1
LONG_TRANSACTION
  2
AcDbLongTransaction
  3
AutoCAD 2000
 90
        0
280
     0
281
     0
  0
CLASS
  1
LWPOLYLINE
  2
AcDbPolyline
  3
"AutoCAD"
 90
        0
280
     0
281
     1
  0
CLASS
  1
HATCH
  2
AcDbHatch
  3
"ACAD_SEDONA"
 90
        0
280
     0
281
     1
  0
CLASS
  1
XRECORD
  2
AcDbXrecord
  3
"<Built In>"
 90
        0
280
     0
281
     0
  0
CLASS
  1
LONG_TRANSACTION
  2
AcDbLongTransaction
  3
AutoCAD 2000
 90
        0
280
     0
281
     0
  0
CLASS
  1
LWPOLYLINE
  2
AcDbPolyline
  3
"AutoCAD"
 90
        0
280
     0
281
     1
  0
CLASS
  1
HATCH
  2
AcDbHatch
  3
"ACAD_SEDONA"
 90
        0
280
     0
281
     1
  0
CLASS
  1
XRECORD
  2
AcDbXrecord
  3
"<Built In>"
 90
        0
280
     0
281
     0
  0
CLASS
  1
LONG_TRANSACTION
  2
AcDbLongTransaction
  3
AutoCAD 2000
 90
        0
280
     0
281
     0
  0
CLASS
  1
LWPOLYLINE
  2
AcDbPolyline
  3
"AutoCAD"
 90
        0
280
     0
281
     1
  0
CLASS
  1
HATCH
  2
AcDbHatch
  3
"ACAD_SEDONA"
 90
        0
280
     0
281
     1
  0
CLASS
  1
XRECORD
  2
AcDbXrecord
  3
"<Built In>"
 90
        0
280
     0
281
     0
  0
ENDSEC
  0
SECTION
  2
TABLES
  0
TABLE
  2
VPORT
  5
458C7
100
AcDbSymbolTable
 70
     1
  0
VPORT
  5
87F21
102
{ACAD_XDICTIONARY
360
87F24
102
}
100
AcDbSymbolTableRecord
100
AcDbViewportTableRecord
  2
*ACTIVE
 70
     0
 10
0.0
 20
0.0
 11
1.0
 21
1.0
 12
-7.247836
 22
-0.29597
 13
0.0
 23
0.0
 14
0.25
 24
0.25
 15
0.25
 25
0.25
 16
0.0
 26
0.0
 36
1.0
 17
6.619902
 27
-3.501216
 37
4.043999
 40
10.87675
 41
1.960674
 42
50.0
 43
0.0
 44
0.0
 50
0.0
 51
0.0
 71
     0
 72
 20000
 73
     1
 74
     1
 75
     0
 76
     0
 77
     0
 78
     0
  0
ENDTAB
  0
TABLE
  2
LTYPE
  5
458C4
100
AcDbSymbolTable
 70
     1
  0
LTYPE
  5
458D0
100
AcDbSymbolTableRecord
100
AcDbLinetypeTableRecord
  2
BYBLOCK
 70
     0
  3

 72
    65
 73
     0
 40
0.0
  0
LTYPE
  5
458D1
100
AcDbSymbolTableRecord
100
AcDbLinetypeTableRecord
  2
BYLAYER
 70
     0
  3

 72
    65
 73
     0
 40
0.0
  0
LTYPE
  5
458D2
100
AcDbSymbolTableRecord
100
AcDbLinetypeTableRecord
  2
CONTINUOUS
 70
     0
  3
Solid line
 72
    65
 73
     0
 40
0.0
  0
ENDTAB
  0
TABLE
  2
LAYER
  5
458C1
100
AcDbSymbolTable
 70
     7
  0
LAYER
  5
458CD
100
AcDbSymbolTableRecord
100
AcDbLayerTableRecord
  2
0
 70
     0
 62
     7
  6
CONTINUOUS
  0
LAYER
  5
458EA
100
AcDbSymbolTableRecord
100
AcDbLayerTableRecord
  2
DIMS-MTG-HOLES
 70
     0
 62
     1
  6
CONTINUOUS
  0
LAYER
  5
458EB
100
AcDbSymbolTableRecord
100
AcDbLayerTableRecord
  2
ATTRIBUTES
 70
     0
 62
     7
  6
CONTINUOUS
  0
LAYER
  5
4593B
102
{ACAD_XDICTIONARY
360
87F4D
102
}
100
AcDbSymbolTableRecord
100
AcDbLayerTableRecord
  2
AREA1
 70
     0
 62
    -7
  6
CONTINUOUS
  0
LAYER
  5
45940
102
{ACAD_XDICTIONARY
360
87F22
102
}
100
AcDbSymbolTableRecord
100
AcDbLayerTableRecord
  2
DEFPOINTS
 70
     0
 62
    -7
  6
CONTINUOUS
  0
LAYER
  5
45954
100
AcDbSymbolTableRecord
100
AcDbLayerTableRecord
  2
SCALE
 70
     0
 62
    -7
  6
CONTINUOUS
  0
LAYER
  5
4D59A
100
AcDbSymbolTableRecord
100
AcDbLayerTableRecord
  2
SNAP_POINTS
 70
     0
 62
    -1
  6
CONTINUOUS
  0
ENDTAB
  0
TABLE
  2
STYLE
  5
458C2
100
AcDbSymbolTable
 70
     1
  0
STYLE
  5
458CE
100
AcDbSymbolTableRecord
100
AcDbTextStyleTableRecord
  2
STANDARD
 70
     0
 40
0.0
 41
1.0
 50
0.0
 71
     0
 42
0.12
  3
txt
  4

  0
ENDTAB
  0
TABLE
  2
VIEW
  5
458C5
100
AcDbSymbolTable
 70
     0
  0
ENDTAB
  0
TABLE
  2
UCS
  5
458C6
100
AcDbSymbolTable
 70
     0
  0
ENDTAB
  0
TABLE
  2
APPID
  5
458C8
100
AcDbSymbolTable
 70
     2
  0
APPID
  5
458CF
100
AcDbSymbolTableRecord
100
AcDbRegAppTableRecord
  2
ACAD
 70
     0
  0
APPID
  5
5FD5B
100
AcDbSymbolTableRecord
100
AcDbRegAppTableRecord
  2
AVE_RENDER
 70
     0
  0
ENDTAB
  0
TABLE
  2
DIMSTYLE
  5
458C9
100
AcDbSymbolTable
 70
     1
  0
DIMSTYLE
105
458F6
102
{ACAD_XDICTIONARY
360
87F49
102
}
102
{ACAD_REACTORS
330
87EB6
330
87EC4
102
}
100
AcDbSymbolTableRecord
100
AcDbDimStyleTableRecord
  2
ABECAD_3D
 70
     0
  3

  4

  5

  6

  7

 40
1.0
 41
0.3
 42
0.1
 43
0.375
 44
0.1
 45
0.0
 46
0.0
 47
0.0
 48
0.0
140
0.3
141
0.09
142
0.0
143
25.4
144
1.0
145
0.0
146
1.5
147
0.09
 71
     0
 72
     0
 73
     0
 74
     1
 75
     0
 76
     0
 77
     0
 78
     4
170
     1
171
     2
172
     0
173
     0
174
     0
175
     0
176
     0
177
     0
178
     0
270
     7
271
     6
272
     6
273
     2
274
     2
340
458CE
275
     0
280
     0
281
     0
282
     0
283
     1
284
     4
285
     4
286
     4
287
     5
288
     1
  0
ENDTAB
  0
TABLE
  2
BLOCK_RECORD
  5
458C0
100
AcDbSymbolTable
 70
     2
  0
BLOCK_RECORD
  5
458D6
102
{ACAD_XDICTIONARY
360
4592C
102
}
100
AcDbSymbolTableRecord
100
AcDbBlockTableRecord
  2
*MODEL_SPACE
  0
BLOCK_RECORD
  5
458D3
102
{ACAD_XDICTIONARY
360
4592A
102
}
100
AcDbSymbolTableRecord
100
AcDbBlockTableRecord
  2
*PAPER_SPACE
  0
BLOCK_RECORD
  5
87EB7
100
AcDbSymbolTableRecord
100
AcDbBlockTableRecord
  2
*D0
  0
BLOCK_RECORD
  5
87EC5
100
AcDbSymbolTableRecord
100
AcDbBlockTableRecord
  2
*D1
  0
ENDTAB
  0
ENDSEC
  0
SECTION
  2
BLOCKS
  0
BLOCK
  5
458DF
100
AcDbEntity
  8
0
100
AcDbBlockBegin
  2
*MODEL_SPACE
 70
     0
 10
0.0
 20
0.0
 30
0.0
  3
*MODEL_SPACE
  1

  0
ENDBLK
  5
458E0
100
AcDbEntity
  8
0
100
AcDbBlockEnd
  0
BLOCK
  5
458DD
100
AcDbEntity
 67
     1
  8
0
100
AcDbBlockBegin
  2
*PAPER_SPACE
 70
     0
 10
0.0
 20
0.0
 30
0.0
  3
*PAPER_SPACE
  1

  0
ENDBLK
  5
458DE
100
AcDbEntity
 67
     1
  8
0
100
AcDbBlockEnd
  0
BLOCK
  5
87EC2
100
AcDbEntity
  8
0
100
AcDbBlockBegin
  2
*D0
 70
     1
 10
0.0
 20
0.0
 30
0.0
  3
*D0
  1

  0
LINE
  5
87EB8
100
AcDbEntity
  8
AREA1
 62
     0
100
AcDbLine
 10
-1.1
 20
0.281
 30
0.0
 11
-5.530871
 21
0.281
 31
0.0
1001
ACAD
1000
RTLwPs
1070
   158
  0
LINE
  5
87EB9
100
AcDbEntity
  8
AREA1
 62
     0
100
AcDbLine
 10
-4.425
 20
-8.087
 30
0.0
 11
-5.530871
 21
-8.087
 31
0.0
1001
ACAD
1000
RTLwPs
1070
   158
  0
LINE
  5
87EBA
100
AcDbEntity
  8
AREA1
 62
     0
100
AcDbLine
 10
-5.430871
 20
-0.019
 30
0.0
 11
-5.430871
 21
-2.059115
 31
0.0
1001
ACAD
1000
RTLwPs
1070
   158
  0
LINE
  5
87EBB
100
AcDbEntity
  8
AREA1
 62
     0
100
AcDbLine
 10
-5.430871
 20
-7.787
 30
0.0
 11
-5.430871
 21
-5.839115
 31
0.0
1001
ACAD
1000
RTLwPs
1070
   158
  0
MTEXT
  5
87EBC
100
AcDbEntity
  8
AREA1
 62
     0
100
AcDbMText
 10
-5.430871
 20
-3.949115
 30
0.0
 40
0.3
 41
0.0
 71
     5
 72
     1
  1
\A1;8 3/8 [212.55]
 11
0.0
 21
1.0
 31
0.0
1001
ACAD
1000
MTEXTBEGIN
1070
    73
1070
     1
1070
    44
1040
1.0
1070
    74
1070
     0
1000
MTEXTEND
1000
MTEXTBEGIN
1070
    73
1070
     1
1070
    44
1040
1.0
1070
    74
1070
     0
1000
MTEXTEND
  0
SOLID
  5
87EBD
100
AcDbEntity
  8
AREA1
 62
     0
100
AcDbTrace
 10
-5.480871
 20
-0.019
 30
0.0
 11
-5.380871
 21
-0.019
 31
0.0
 12
-5.430871
 22
0.281
 32
0.0
 13
-5.430871
 23
0.281
 33
0.0
  0
SOLID
  5
87EBE
100
AcDbEntity
  8
AREA1
 62
     0
100
AcDbTrace
 10
-5.480871
 20
-7.787
 30
0.0
 11
-5.380871
 21
-7.787
 31
0.0
 12
-5.430871
 22
-8.087
 32
0.0
 13
-5.430871
 23
-8.087
 33
0.0
  0
POINT
  5
87EBF
100
AcDbEntity
  8
DEFPOINTS
 62
     0
100
AcDbPoint
 10
-1.0
 20
0.281
 30
0.0
  0
POINT
  5
87EC0
100
AcDbEntity
  8
DEFPOINTS
 62
     0
100
AcDbPoint
 10
-4.325
 20
-8.087
 30
0.0
  0
POINT
  5
87EC1
100
AcDbEntity
  8
DEFPOINTS
 62
     0
100
AcDbPoint
 10
-5.430871
 20
-8.087
 30
0.0
  0
ENDBLK
  5
87EC3
100
AcDbEntity
  8
0
100
AcDbBlockEnd
  0
BLOCK
  5
87ED0
100
AcDbEntity
  8
0
100
AcDbBlockBegin
  2
*D1
 70
     1
 10
0.0
 20
0.0
 30
0.0
  3
*D1
  1

  0
LINE
  5
87EC6
100
AcDbEntity
  8
AREA1
 62
     0
100
AcDbLine
 10
-4.325
 20
-0.149
 30
0.0
 11
-4.325
 21
1.500221
 31
0.0
1001
ACAD
1000
RTLwPs
1070
   158
  0
LINE
  5
87EC7
100
AcDbEntity
  8
AREA1
 62
     0
100
AcDbLine
 10
4.325
 20
-0.149
 30
0.0
 11
4.325
 21
1.500221
 31
0.0
1001
ACAD
1000
RTLwPs
1070
   158
  0
LINE
  5
87EC8
100
AcDbEntity
  8
AREA1
 62
     0
100
AcDbLine
 10
-4.025
 20
1.400221
 30
0.0
 11
-2.136155
 21
1.400221
 31
0.0
1001
ACAD
1000
RTLwPs
1070
   158
  0
LINE
  5
87EC9
100
AcDbEntity
  8
AREA1
 62
     0
100
AcDbLine
 10
4.025
 20
1.400221
 30
0.0
 11
2.043845
 21
1.400221
 31
0.0
1001
ACAD
1000
RTLwPs
1070
   158
  0
MTEXT
  5
87ECA
100
AcDbEntity
  8
AREA1
 62
     0
100
AcDbMText
 10
-0.046155
 20
1.400221
 30
0.0
 40
0.3
 41
0.0
 71
     5
 72
     1
  1
\A1;8 21/32 [219.71]
1001
ACAD
1000
MTEXTBEGIN
1070
    73
1070
     1
1070
    44
1040
1.0
1070
    74
1070
     0
1000
MTEXTEND
1000
MTEXTBEGIN
1070
    73
1070
     1
1070
    44
1040
1.0
1070
    74
1070
     0
1000
MTEXTEND
  0
SOLID
  5
87ECB
100
AcDbEntity
  8
AREA1
 62
     0
100
AcDbTrace
 10
-4.025
 20
1.450221
 30
0.0
 11
-4.025
 21
1.350221
 31
0.0
 12
-4.325
 22
1.400221
 32
0.0
 13
-4.325
 23
1.400221
 33
0.0
  0
SOLID
  5
87ECC
100
AcDbEntity
  8
AREA1
 62
     0
100
AcDbTrace
 10
4.025
 20
1.450221
 30
0.0
 11
4.025
 21
1.350221
 31
0.0
 12
4.325
 22
1.400221
 32
0.0
 13
4.325
 23
1.400221
 33
0.0
  0
POINT
  5
87ECD
100
AcDbEntity
  8
DEFPOINTS
 62
     0
100
AcDbPoint
 10
-4.325
 20
-0.249
 30
0.0
  0
POINT
  5
87ECE
100
AcDbEntity
  8
DEFPOINTS
 62
     0
100
AcDbPoint
 10
4.325
 20
-0.249
 30
0.0
  0
POINT
  5
87ECF
100
AcDbEntity
  8
DEFPOINTS
 62
     0
100
AcDbPoint
 10
4.325
 20
1.400221
 30
0.0
  0
ENDBLK
  5
87ED1
100
AcDbEntity
  8
0
100
AcDbBlockEnd
  0
ENDSEC
  0
SECTION
  2
ENTITIES
  0
3DFACE
  5
87AED
100
AcDbEntity
  8
0
100
AcDbFace
 10
-3.837
 20
-8.087
 30
0.197
 11
-3.837
 21
-8.087
 31
0.0
 12
3.837
 22
-8.087
 32
0.0
 13
4.037
 23
-7.872
 33
0.0
 70
    14
  0
ARC
  5
87AEE
100
AcDbEntity
  8
0
100
AcDbCircle
 10
0.0
 20
-0.344
 30
0.197
 40
0.2345
100
AcDbArc
 50
115.241821
 51
64.758209
  0
ARC
  5
87AEF
100
AcDbEntity
  8
0
100
AcDbCircle
 10
0.0
 20
-0.344
 30
0.0
 40
0.2345
100
AcDbArc
 50
115.241821
 51
64.758209
  0
ARC
  5
87AF0
100
AcDbEntity
  8
0
100
AcDbCircle
 10
0.0
 20
0.0
 30
0.0
 40
0.1
100
AcDbArc
 50
0.0
 51
179.999985
  0
ARC
  5
87AF1
100
AcDbEntity
  8
0
100
AcDbCircle
 10
0.0
 20
0.0
 30
0.197
 40
0.1
100
AcDbArc
 50
0.0
 51
179.999985
  0
3DFACE
  5
87AF2
100
AcDbEntity
  8
0
100
AcDbFace
 10
-4.037
 20
-8.087
 30
0.197
 11
-4.195
 21
-8.087
 31
0.197
 12
-4.325
 22
-7.957
 32
0.197
 13
-4.037
 23
-7.872
 33
0.197
 70
    14
  0
LINE
  5
87AF3
100
AcDbEntity
  8
0
100
AcDbLine
 39
0.2
 10
-4.037
 20
-7.872
 30
0.0
 11
-4.037
 21
-8.087
 31
0.0
  0
LINE
  5
87AF4
100
AcDbEntity
  8
0
100
AcDbLine
 10
-4.037
 20
-7.872
 30
0.197
 11
-4.037
 21
-8.087
 31
0.197
  0
LINE
  5
87AF5
100
AcDbEntity
  8
0
100
AcDbLine
 10
-3.837
 20
-8.087
 30
0.0
 11
-3.837
 21
-7.872
 31
0.0
  0
LINE
  5
87AF6
100
AcDbEntity
  8
0
100
AcDbLine
 10
-3.837
 20
-8.087
 30
0.197
 11
-3.837
 21
-7.872
 31
0.197
  0
LINE
  5
87AF7
100
AcDbEntity
  8
0
100
AcDbLine
 10
-4.037
 20
-8.087
 30
0.197
 11
-4.195
 21
-8.087
 31
0.197
  0
LINE
  5
87AF8
100
AcDbEntity
  8
0
100
AcDbLine
 10
-4.037
 20
-8.087
 30
0.0
 11
-4.037
 21
-8.087
 31
0.197
  0
LINE
  5
87AF9
100
AcDbEntity
  8
0
100
AcDbLine
 10
-3.837
 20
-8.087
 30
0.0
 11
-3.837
 21
-8.087
 31
0.197
  0
LINE
  5
87AFA
100
AcDbEntity
  8
0
100
AcDbLine
 10
-4.037
 20
-7.872
 30
0.0
 11
-4.037
 21
-7.872
 31
0.197
  0
LINE
  5
87AFB
100
AcDbEntity
  8
0
100
AcDbLine
 10
-3.837
 20
-7.872
 30
0.0
 11
-3.837
 21
-7.872
 31
0.197
  0
ARC
  5
87AFC
100
AcDbEntity
  8
0
100
AcDbCircle
 10
-3.937
 20
-7.872
 30
0.0
 40
0.1
100
AcDbArc
 50
0.0
 51
179.999985
  0
ARC
  5
87AFD
100
AcDbEntity
  8
0
100
AcDbCircle
 10
-3.937
 20
-7.872
 30
0.197
 40
0.1
100
AcDbArc
 50
0.0
 51
179.999985
  0
LINE
  5
87AFE
100
AcDbEntity
  8
0
100
AcDbLine
 10
-0.1
 20
0.0
 30
0.197
 11
-0.1
 21
-0.131891
 31
0.197
  0
LINE
  5
87AFF
100
AcDbEntity
  8
0
100
AcDbLine
 10
-0.1
 20
0.0
 30
0.0
 11
-0.1
 21
-0.131891
 31
0.0
  0
LINE
  5
87B00
100
AcDbEntity
  8
0
100
AcDbLine
 10
-0.1
 20
-0.131891
 30
0.0
 11
-0.1
 21
-0.131891
 31
0.197
  0
LINE
  5
87B01
100
AcDbEntity
  8
0
100
AcDbLine
 10
-0.1
 20
0.0
 30
0.0
 11
-0.1
 21
0.0
 31
0.197
  0
3DFACE
  5
87B02
100
AcDbEntity
  8
0
100
AcDbFace
 10
4.037
 20
-7.872
 30
0.197
 11
4.037
 21
-8.087
 31
0.197
 12
4.195
 22
-8.087
 32
0.197
 13
4.325
 23
-7.957
 33
0.197
 70
    14
  0
LINE
  5
87B03
100
AcDbEntity
  8
0
100
AcDbLine
 10
3.837
 20
-7.872
 30
0.0
 11
3.837
 21
-8.087
 31
0.0
  0
LINE
  5
87B04
100
AcDbEntity
  8
0
100
AcDbLine
 10
4.037
 20
-8.087
 30
0.0
 11
4.037
 21
-7.872
 31
0.0
  0
LINE
  5
87B05
100
AcDbEntity
  8
0
100
AcDbLine
 10
3.837
 20
-7.872
 30
0.197
 11
3.837
 21
-8.087
 31
0.197
  0
LINE
  5
87B06
100
AcDbEntity
  8
0
100
AcDbLine
 10
4.037
 20
-8.087
 30
0.197
 11
4.037
 21
-7.872
 31
0.197
  0
LINE
  5
87B07
100
AcDbEntity
  8
0
100
AcDbLine
 10
3.837
 20
-8.087
 30
0.0
 11
3.837
 21
-8.087
 31
0.197
  0
LINE
  5
87B08
100
AcDbEntity
  8
0
100
AcDbLine
 10
4.037
 20
-8.087
 30
0.0
 11
4.037
 21
-8.087
 31
0.197
  0
LINE
  5
87B09
100
AcDbEntity
  8
0
100
AcDbLine
 10
3.837
 20
-7.872
 30
0.0
 11
3.837
 21
-7.872
 31
0.197
  0
LINE
  5
87B0A
100
AcDbEntity
  8
0
100
AcDbLine
 10
4.037
 20
-7.872
 30
0.0
 11
4.037
 21
-7.872
 31
0.197
  0
ARC
  5
87B0B
100
AcDbEntity
  8
0
100
AcDbCircle
 10
3.937
 20
-7.872
 30
0.0
 40
0.1
100
AcDbArc
 50
0.0
 51
179.999985
  0
ARC
  5
87B0C
100
AcDbEntity
  8
0
100
AcDbCircle
 10
3.937
 20
-7.872
 30
0.197
 40
0.1
100
AcDbArc
 50
0.0
 51
179.999985
  0
LINE
  5
87B0D
100
AcDbEntity
  8
0
100
AcDbLine
 10
0.1
 20
0.0
 30
0.197
 11
0.1
 21
-0.131891
 31
0.197
  0
LINE
  5
87B0E
100
AcDbEntity
  8
0
100
AcDbLine
 10
0.1
 20
0.0
 30
0.0
 11
0.1
 21
-0.131891
 31
0.0
  0
LINE
  5
87B0F
100
AcDbEntity
  8
0
100
AcDbLine
 10
0.1
 20
-0.131891
 30
0.0
 11
0.1
 21
-0.131891
 31
0.197
  0
LINE
  5
87B10
100
AcDbEntity
  8
0
100
AcDbLine
 10
0.1
 20
0.0
 30
0.0
 11
0.1
 21
0.0
 31
0.197
  0
POLYLINE
  5
87B11
100
AcDbEntity
  8
0
100
AcDbPolygonMesh
 66
     1
 10
0.0
 20
0.0
 30
0.0
 70
    16
 71
     6
 72
     3
  0
VERTEX
  5
87B12
100
AcDbEntity
  8
0
100
AcDbVertex
100
AcDbPolygonMeshVertex
 10
4.325
 20
-8.087
 30
0.2
 70
    64
  0
VERTEX
  5
87B13
100
AcDbEntity
  8
0
100
AcDbVertex
100
AcDbPolygonMeshVertex
 10
4.325
 20
-8.087
 30
0.0
 70
    64
  0
VERTEX
  5
87B14
100
AcDbEntity
  8
0
100
AcDbVertex
100
AcDbPolygonMeshVertex
 10
4.325
 20
-8.087
 30
0.0
 70
    64
  0
VERTEX
  5
87B15
100
AcDbEntity
  8
0
100
AcDbVertex
100
AcDbPolygonMeshVertex
 10
-4.325
 20
-8.087
 30
0.2
 70
    64
  0
VERTEX
  5
87B16
100
AcDbEntity
  8
0
100
AcDbVertex
100
AcDbPolygonMeshVertex
 10
-4.325
 20
-8.087
 30
0.0
 70
    64
  0
VERTEX
  5
87B17
100
AcDbEntity
  8
0
100
AcDbVertex
100
AcDbPolygonMeshVertex
 10
-4.325
 20
-8.087
 30
0.0
 70
    64
  0
VERTEX
  5
87B18
100
AcDbEntity
  8
0
100
AcDbVertex
100
AcDbPolygonMeshVertex
 10
-4.325
 20
-0.249
 30
0.2
 70
    64
  0
VERTEX
  5
87B19
100
AcDbEntity
  8
0
100
AcDbVertex
100
AcDbPolygonMeshVertex
 10
-4.325
 20
-0.249
 30
0.0
 70
    64
  0
VERTEX
  5
87B1A
100
AcDbEntity
  8
0
100
AcDbVertex
100
AcDbPolygonMeshVertex
 10
-4.325
 20
-8.087
 30
0.0
 70
    64
  0
VERTEX
  5
87B1B
100
AcDbEntity
  8
0
100
AcDbVertex
100
AcDbPolygonMeshVertex
 10
4.325
 20
-0.249
 30
0.2
 70
    64
  0
VERTEX
  5
87B1C
100
AcDbEntity
  8
0
100
AcDbVertex
100
AcDbPolygonMeshVertex
 10
4.325
 20
-0.249
 30
0.0
 70
    64
  0
VERTEX
  5
87B1D
100
AcDbEntity
  8
0
100
AcDbVertex
100
AcDbPolygonMeshVertex
 10
4.325
 20
-8.087
 30
0.0
 70
    64
  0
VERTEX
  5
87B1E
100
AcDbEntity
  8
0
100
AcDbVertex
100
AcDbPolygonMeshVertex
 10
4.325
 20
-0.249
 30
0.2
 70
    64
  0
VERTEX
  5
87B1F
100
AcDbEntity
  8
0
100
AcDbVertex
100
AcDbPolygonMeshVertex
 10
4.325
 20
-0.249
 30
0.2
 70
    64
  0
VERTEX
  5
87B20
100
AcDbEntity
  8
0
100
AcDbVertex
100
AcDbPolygonMeshVertex
 10
4.325
 20
-8.087
 30
0.2
 70
    64
  0
VERTEX
  5
87B21
100
AcDbEntity
  8
0
100
AcDbVertex
100
AcDbPolygonMeshVertex
 10
-4.325
 20
-0.249
 30
0.2
 70
    64
  0
VERTEX
  5
87B22
100
AcDbEntity
  8
0
100
AcDbVertex
100
AcDbPolygonMeshVertex
 10
-4.325
 20
-0.249
 30
0.2
 70
    64
  0
VERTEX
  5
87B23
100
AcDbEntity
  8
0
100
AcDbVertex
100
AcDbPolygonMeshVertex
 10
-4.325
 20
-8.087
 30
0.2
 70
    64
  0
SEQEND
  5
87B24
100
AcDbEntity
  8
0
  0
POLYLINE
  5
87B25
100
AcDbEntity
  8
0
100
AcDbPolygonMesh
 66
     1
 10
0.0
 20
0.0
 30
0.0
 70
    16
 71
     6
 72
     3
  0
VERTEX
  5
87B26
100
AcDbEntity
  8
0
100
AcDbVertex
100
AcDbPolygonMeshVertex
 10
0.407
 20
-5.62
 30
4.507
 70
    64
  0
VERTEX
  5
87B27
100
AcDbEntity
  8
0
100
AcDbVertex
100
AcDbPolygonMeshVertex
 10
0.407
 20
-5.62
 30
0.387
 70
    64
  0
VERTEX
  5
87B28
100
AcDbEntity
  8
0
100
AcDbVertex
100
AcDbPolygonMeshVertex
 10
0.407
 20
-5.62
 30
0.387
 70
    64
  0
VERTEX
  5
87B29
100
AcDbEntity
  8
0
100
AcDbVertex
100
AcDbPolygonMeshVertex
 10
-0.398
 20
-5.62
 30
4.507
 70
    64
  0
VERTEX
  5
87B2A
100
AcDbEntity
  8
0
100
AcDbVertex
100
AcDbPolygonMeshVertex
 10
-0.398
 20
-5.62
 30
0.387
 70
    64
  0
VERTEX
  5
87B2B
100
AcDbEntity
  8
0
100
AcDbVertex
100
AcDbPolygonMeshVertex
 10
-0.398
 20
-5.62
 30
0.387
 70
    64
  0
VERTEX
  5
87B2C
100
AcDbEntity
  8
0
100
AcDbVertex
100
AcDbPolygonMeshVertex
 10
-0.398
 20
-3.87
 30
4.507
 70
    64
  0
VERTEX
  5
87B2D
100
AcDbEntity
  8
0
100
AcDbVertex
100
AcDbPolygonMeshVertex
 10
-0.398
 20
-3.87
 30
0.387
 70
    64
  0
VERTEX
  5
87B2E
100
AcDbEntity
  8
0
100
AcDbVertex
100
AcDbPolygonMeshVertex
 10
-0.398
 20
-5.62
 30
0.387
 70
    64
  0
VERTEX
  5
87B2F
100
AcDbEntity
  8
0
100
AcDbVertex
100
AcDbPolygonMeshVertex
 10
0.407
 20
-3.87
 30
4.507
 70
    64
  0
VERTEX
  5
87B30
100
AcDbEntity
  8
0
100
AcDbVertex
100
AcDbPolygonMeshVertex
 10
0.407
 20
-3.87
 30
0.387
 70
    64
  0
VERTEX
  5
87B31
100
AcDbEntity
  8
0
100
AcDbVertex
100
AcDbPolygonMeshVertex
 10
0.407
 20
-5.62
 30
0.387
 70
    64
  0
VERTEX
  5
87B32
100
AcDbEntity
  8
0
100
AcDbVertex
100
AcDbPolygonMeshVertex
 10
0.407
 20
-3.87
 30
4.507
 70
    64
  0
VERTEX
  5
87B33
100
AcDbEntity
  8
0
100
AcDbVertex
100
AcDbPolygonMeshVertex
 10
0.407
 20
-3.87
 30
4.507
 70
    64
  0
VERTEX
  5
87B34
100
AcDbEntity
  8
0
100
AcDbVertex
100
AcDbPolygonMeshVertex
 10
0.407
 20
-5.62
 30
4.507
 70
    64
  0
VERTEX
  5
87B35
100
AcDbEntity
  8
0
100
AcDbVertex
100
AcDbPolygonMeshVertex
 10
-0.398
 20
-3.87
 30
4.507
 70
    64
  0
VERTEX
  5
87B36
100
AcDbEntity
  8
0
100
AcDbVertex
100
AcDbPolygonMeshVertex
 10
-0.398
 20
-3.87
 30
4.507
 70
    64
  0
VERTEX
  5
87B37
100
AcDbEntity
  8
0
100
AcDbVertex
100
AcDbPolygonMeshVertex
 10
-0.398
 20
-5.62
 30
4.507
 70
    64
  0
SEQEND
  5
87B38
100
AcDbEntity
  8
0
  0
3DFACE
  5
87B39
100
AcDbEntity
  8
0
100
AcDbFace
 10
1.53
 20
-0.249
 30
0.197
 11
1.0
 21
0.281
 31
0.197
 12
-1.0
 22
0.281
 32
0.197
 13
-1.53
 23
-0.249
 33
0.197
  0
3DFACE
  5
87B3A
100
AcDbEntity
  8
0
100
AcDbFace
 10
1.53
 20
-0.249
 30
0.0
 11
1.0
 21
0.281
 31
0.0
 12
-1.0
 22
0.281
 32
0.0
 13
-1.53
 23
-0.249
 33
0.0
  0
3DFACE
  5
87B3B
100
AcDbEntity
  8
0
100
AcDbFace
 10
1.0
 20
0.281
 30
0.197
 11
-1.0
 21
0.281
 31
0.197
 12
-1.0
 22
0.281
 32
0.0
 13
1.0
 23
0.281
 33
0.0
  0
3DFACE
  5
87B3C
100
AcDbEntity
  8
0
100
AcDbFace
 10
-1.0
 20
0.281
 30
0.197
 11
-1.53
 21
-0.249
 31
0.197
 12
-1.53
 22
-0.249
 32
0.0
 13
-1.0
 23
0.281
 33
0.0
  0
POLYLINE
  5
87B3D
100
AcDbEntity
  8
0
100
AcDbPolygonMesh
 66
     1
 10
0.0
 20
0.0
 30
0.0
 70
    16
 71
     6
 72
     3
  0
VERTEX
  5
87B3E
100
AcDbEntity
  8
0
100
AcDbVertex
100
AcDbPolygonMeshVertex
 10
4.227
 20
-6.11
 30
4.08
 70
    64
  0
VERTEX
  5
87B3F
100
AcDbEntity
  8
0
100
AcDbVertex
100
AcDbPolygonMeshVertex
 10
4.227
 20
-6.11
 30
0.58
 70
    64
  0
VERTEX
  5
87B40
100
AcDbEntity
  8
0
100
AcDbVertex
100
AcDbPolygonMeshVertex
 10
4.227
 20
-6.11
 30
0.58
 70
    64
  0
VERTEX
  5
87B41
100
AcDbEntity
  8
0
100
AcDbVertex
100
AcDbPolygonMeshVertex
 10
0.407
 20
-6.11
 30
4.08
 70
    64
  0
VERTEX
  5
87B42
100
AcDbEntity
  8
0
100
AcDbVertex
100
AcDbPolygonMeshVertex
 10
0.407
 20
-6.11
 30
0.58
 70
    64
  0
VERTEX
  5
87B43
100
AcDbEntity
  8
0
100
AcDbVertex
100
AcDbPolygonMeshVertex
 10
0.407
 20
-6.11
 30
0.58
 70
    64
  0
VERTEX
  5
87B44
100
AcDbEntity
  8
0
100
AcDbVertex
100
AcDbPolygonMeshVertex
 10
0.407
 20
-1.43
 30
4.08
 70
    64
  0
VERTEX
  5
87B45
100
AcDbEntity
  8
0
100
AcDbVertex
100
AcDbPolygonMeshVertex
 10
0.407
 20
-1.43
 30
0.58
 70
    64
  0
VERTEX
  5
87B46
100
AcDbEntity
  8
0
100
AcDbVertex
100
AcDbPolygonMeshVertex
 10
0.407
 20
-6.11
 30
0.58
 70
    64
  0
VERTEX
  5
87B47
100
AcDbEntity
  8
0
100
AcDbVertex
100
AcDbPolygonMeshVertex
 10
4.227
 20
-1.43
 30
4.08
 70
    64
  0
VERTEX
  5
87B48
100
AcDbEntity
  8
0
100
AcDbVertex
100
AcDbPolygonMeshVertex
 10
4.227
 20
-1.43
 30
0.58
 70
    64
  0
VERTEX
  5
87B49
100
AcDbEntity
  8
0
100
AcDbVertex
100
AcDbPolygonMeshVertex
 10
4.227
 20
-6.11
 30
0.58
 70
    64
  0
VERTEX
  5
87B4A
100
AcDbEntity
  8
0
100
AcDbVertex
100
AcDbPolygonMeshVertex
 10
4.227
 20
-1.43
 30
4.08
 70
    64
  0
VERTEX
  5
87B4B
100
AcDbEntity
  8
0
100
AcDbVertex
100
AcDbPolygonMeshVertex
 10
4.227
 20
-1.43
 30
4.08
 70
    64
  0
VERTEX
  5
87B4C
100
AcDbEntity
  8
0
100
AcDbVertex
100
AcDbPolygonMeshVertex
 10
4.227
 20
-6.11
 30
4.08
 70
    64
  0
VERTEX
  5
87B4D
100
AcDbEntity
  8
0
100
AcDbVertex
100
AcDbPolygonMeshVertex
 10
0.407
 20
-1.43
 30
4.08
 70
    64
  0
VERTEX
  5
87B4E
100
AcDbEntity
  8
0
100
AcDbVertex
100
AcDbPolygonMeshVertex
 10
0.407
 20
-1.43
 30
4.08
 70
    64
  0
VERTEX
  5
87B4F
100
AcDbEntity
  8
0
100
AcDbVertex
100
AcDbPolygonMeshVertex
 10
0.407
 20
-6.11
 30
4.08
 70
    64
  0
SEQEND
  5
87B50
100
AcDbEntity
  8
0
  0
POLYLINE
  5
87B51
100
AcDbEntity
  8
0
100
AcDbPolygonMesh
 66
     1
 10
0.0
 20
0.0
 30
0.0
 70
    16
 71
     6
 72
     3
  0
VERTEX
  5
87B52
100
AcDbEntity
  8
0
100
AcDbVertex
100
AcDbPolygonMeshVertex
 10
4.227
 20
-6.59
 30
3.28
 70
    64
  0
VERTEX
  5
87B53
100
AcDbEntity
  8
0
100
AcDbVertex
100
AcDbPolygonMeshVertex
 10
4.227
 20
-6.59
 30
2.11
 70
    64
  0
VERTEX
  5
87B54
100
AcDbEntity
  8
0
100
AcDbVertex
100
AcDbPolygonMeshVertex
 10
4.227
 20
-6.59
 30
2.11
 70
    64
  0
VERTEX
  5
87B55
100
AcDbEntity
  8
0
100
AcDbVertex
100
AcDbPolygonMeshVertex
 10
0.407
 20
-6.59
 30
3.28
 70
    64
  0
VERTEX
  5
87B56
100
AcDbEntity
  8
0
100
AcDbVertex
100
AcDbPolygonMeshVertex
 10
0.407
 20
-6.59
 30
2.11
 70
    64
  0
VERTEX
  5
87B57
100
AcDbEntity
  8
0
100
AcDbVertex
100
AcDbPolygonMeshVertex
 10
0.407
 20
-6.59
 30
2.11
 70
    64
  0
VERTEX
  5
87B58
100
AcDbEntity
  8
0
100
AcDbVertex
100
AcDbPolygonMeshVertex
 10
0.407
 20
-6.11
 30
3.28
 70
    64
  0
VERTEX
  5
87B59
100
AcDbEntity
  8
0
100
AcDbVertex
100
AcDbPolygonMeshVertex
 10
0.407
 20
-6.11
 30
2.11
 70
    64
  0
VERTEX
  5
87B5A
100
AcDbEntity
  8
0
100
AcDbVertex
100
AcDbPolygonMeshVertex
 10
0.407
 20
-6.59
 30
2.11
 70
    64
  0
VERTEX
  5
87B5B
100
AcDbEntity
  8
0
100
AcDbVertex
100
AcDbPolygonMeshVertex
 10
4.227
 20
-6.11
 30
3.28
 70
    64
  0
VERTEX
  5
87B5C
100
AcDbEntity
  8
0
100
AcDbVertex
100
AcDbPolygonMeshVertex
 10
4.227
 20
-6.11
 30
2.11
 70
    64
  0
VERTEX
  5
87B5D
100
AcDbEntity
  8
0
100
AcDbVertex
100
AcDbPolygonMeshVertex
 10
4.227
 20
-6.59
 30
2.11
 70
    64
  0
VERTEX
  5
87B5E
100
AcDbEntity
  8
0
100
AcDbVertex
100
AcDbPolygonMeshVertex
 10
4.227
 20
-6.11
 30
3.28
 70
    64
  0
VERTEX
  5
87B5F
100
AcDbEntity
  8
0
100
AcDbVertex
100
AcDbPolygonMeshVertex
 10
4.227
 20
-6.11
 30
3.28
 70
    64
  0
VERTEX
  5
87B60
100
AcDbEntity
  8
0
100
AcDbVertex
100
AcDbPolygonMeshVertex
 10
4.227
 20
-6.59
 30
3.28
 70
    64
  0
VERTEX
  5
87B61
100
AcDbEntity
  8
0
100
AcDbVertex
100
AcDbPolygonMeshVertex
 10
0.407
 20
-6.11
 30
3.28
 70
    64
  0
VERTEX
  5
87B62
100
AcDbEntity
  8
0
100
AcDbVertex
100
AcDbPolygonMeshVertex
 10
0.407
 20
-6.11
 30
3.28
 70
    64
  0
VERTEX
  5
87B63
100
AcDbEntity
  8
0
100
AcDbVertex
100
AcDbPolygonMeshVertex
 10
0.407
 20
-6.59
 30
3.28
 70
    64
  0
SEQEND
  5
87B64
100
AcDbEntity
  8
0
  0
3DFACE
  5
87B65
100
AcDbEntity
  8
0
100
AcDbFace
 10
3.667
 20
-0.31
 30
0.39
 11
3.667
 21
-0.31
 31
0.58
 12
0.967
 22
-0.31
 32
0.58
 13
0.967
 23
-0.31
 33
0.39
  0
3DFACE
  5
87B66
100
AcDbEntity
  8
0
100
AcDbFace
 10
0.347
 20
-0.93
 30
0.39
 11
0.967
 21
-0.31
 31
0.39
 12
3.667
 22
-0.31
 32
0.39
 13
4.287
 23
-0.93
 33
0.39
  0
POLYLINE
  5
87B67
100
AcDbEntity
  8
0
100
AcDbPolygonMesh
 66
     1
 10
0.0
 20
0.0
 30
0.0
 70
    16
 71
     6
 72
     3
  0
VERTEX
  5
87B68
100
AcDbEntity
  8
0
100
AcDbVertex
100
AcDbPolygonMeshVertex
 10
0.347
 20
-0.93
 30
0.58
 70
    64
  0
VERTEX
  5
87B69
100
AcDbEntity
  8
0
100
AcDbVertex
100
AcDbPolygonMeshVertex
 10
0.347
 20
-0.93
 30
0.39
 70
    64
  0
VERTEX
  5
87B6A
100
AcDbEntity
  8
0
100
AcDbVertex
100
AcDbPolygonMeshVertex
 10
0.347
 20
-0.93
 30
0.39
 70
    64
  0
VERTEX
  5
87B6B
100
AcDbEntity
  8
0
100
AcDbVertex
100
AcDbPolygonMeshVertex
 10
4.287
 20
-0.93
 30
0.58
 70
    64
  0
VERTEX
  5
87B6C
100
AcDbEntity
  8
0
100
AcDbVertex
100
AcDbPolygonMeshVertex
 10
4.287
 20
-0.93
 30
0.39
 70
    64
  0
VERTEX
  5
87B6D
100
AcDbEntity
  8
0
100
AcDbVertex
100
AcDbPolygonMeshVertex
 10
4.287
 20
-0.93
 30
0.39
 70
    64
  0
VERTEX
  5
87B6E
100
AcDbEntity
  8
0
100
AcDbVertex
100
AcDbPolygonMeshVertex
 10
4.287
 20
-7.12
 30
0.58
 70
    64
  0
VERTEX
  5
87B6F
100
AcDbEntity
  8
0
100
AcDbVertex
100
AcDbPolygonMeshVertex
 10
4.287
 20
-7.12
 30
0.39
 70
    64
  0
VERTEX
  5
87B70
100
AcDbEntity
  8
0
100
AcDbVertex
100
AcDbPolygonMeshVertex
 10
4.287
 20
-0.93
 30
0.39
 70
    64
  0
VERTEX
  5
87B71
100
AcDbEntity
  8
0
100
AcDbVertex
100
AcDbPolygonMeshVertex
 10
0.347
 20
-7.12
 30
0.58
 70
    64
  0
VERTEX
  5
87B72
100
AcDbEntity
  8
0
100
AcDbVertex
100
AcDbPolygonMeshVertex
 10
0.347
 20
-7.12
 30
0.39
 70
    64
  0
VERTEX
  5
87B73
100
AcDbEntity
  8
0
100
AcDbVertex
100
AcDbPolygonMeshVertex
 10
0.347
 20
-0.93
 30
0.39
 70
    64
  0
VERTEX
  5
87B74
100
AcDbEntity
  8
0
100
AcDbVertex
100
AcDbPolygonMeshVertex
 10
0.347
 20
-7.12
 30
0.58
 70
    64
  0
VERTEX
  5
87B75
100
AcDbEntity
  8
0
100
AcDbVertex
100
AcDbPolygonMeshVertex
 10
0.347
 20
-7.12
 30
0.58
 70
    64
  0
VERTEX
  5
87B76
100
AcDbEntity
  8
0
100
AcDbVertex
100
AcDbPolygonMeshVertex
 10
0.347
 20
-0.93
 30
0.58
 70
    64
  0
VERTEX
  5
87B77
100
AcDbEntity
  8
0
100
AcDbVertex
100
AcDbPolygonMeshVertex
 10
4.287
 20
-7.12
 30
0.58
 70
    64
  0
VERTEX
  5
87B78
100
AcDbEntity
  8
0
100
AcDbVertex
100
AcDbPolygonMeshVertex
 10
4.287
 20
-7.12
 30
0.58
 70
    64
  0
VERTEX
  5
87B79
100
AcDbEntity
  8
0
100
AcDbVertex
100
AcDbPolygonMeshVertex
 10
4.287
 20
-0.93
 30
0.58
 70
    64
  0
SEQEND
  5
87B7A
100
AcDbEntity
  8
0
  0
POLYLINE
  5
87B7B
100
AcDbEntity
  8
0
100
AcDbPolygonMesh
 66
     1
 10
0.0
 20
0.0
 30
0.0
 70
    16
 71
     6
 72
     3
  0
VERTEX
  5
87B7C
100
AcDbEntity
  8
0
100
AcDbVertex
100
AcDbPolygonMeshVertex
 10
0.407
 20
-6.11
 30
0.58
 70
    64
  0
VERTEX
  5
87B7D
100
AcDbEntity
  8
0
100
AcDbVertex
100
AcDbPolygonMeshVertex
 10
0.407
 20
-6.11
 30
0.58
 70
    64
  0
VERTEX
  5
87B7E
100
AcDbEntity
  8
0
100
AcDbVertex
100
AcDbPolygonMeshVertex
 10
0.407
 20
-6.11
 30
0.58
 70
    64
  0
VERTEX
  5
87B7F
100
AcDbEntity
  8
0
100
AcDbVertex
100
AcDbPolygonMeshVertex
 10
0.407
 20
-6.59
 30
2.11
 70
    64
  0
VERTEX
  5
87B80
100
AcDbEntity
  8
0
100
AcDbVertex
100
AcDbPolygonMeshVertex
 10
0.407
 20
-6.11
 30
2.11
 70
    64
  0
VERTEX
  5
87B81
100
AcDbEntity
  8
0
100
AcDbVertex
100
AcDbPolygonMeshVertex
 10
0.407
 20
-6.11
 30
2.11
 70
    64
  0
VERTEX
  5
87B82
100
AcDbEntity
  8
0
100
AcDbVertex
100
AcDbPolygonMeshVertex
 10
4.227
 20
-6.59
 30
2.11
 70
    64
  0
VERTEX
  5
87B83
100
AcDbEntity
  8
0
100
AcDbVertex
100
AcDbPolygonMeshVertex
 10
4.227
 20
-6.11
 30
2.11
 70
    64
  0
VERTEX
  5
87B84
100
AcDbEntity
  8
0
100
AcDbVertex
100
AcDbPolygonMeshVertex
 10
0.407
 20
-6.11
 30
2.11
 70
    64
  0
VERTEX
  5
87B85
100
AcDbEntity
  8
0
100
AcDbVertex
100
AcDbPolygonMeshVertex
 10
4.227
 20
-6.11
 30
0.58
 70
    64
  0
VERTEX
  5
87B86
100
AcDbEntity
  8
0
100
AcDbVertex
100
AcDbPolygonMeshVertex
 10
4.227
 20
-6.11
 30
0.58
 70
    64
  0
VERTEX
  5
87B87
100
AcDbEntity
  8
0
100
AcDbVertex
100
AcDbPolygonMeshVertex
 10
0.407
 20
-6.11
 30
0.58
 70
    64
  0
VERTEX
  5
87B88
100
AcDbEntity
  8
0
100
AcDbVertex
100
AcDbPolygonMeshVertex
 10
4.227
 20
-6.11
 30
0.58
 70
    64
  0
VERTEX
  5
87B89
100
AcDbEntity
  8
0
100
AcDbVertex
100
AcDbPolygonMeshVertex
 10
4.227
 20
-6.11
 30
0.58
 70
    64
  0
VERTEX
  5
87B8A
100
AcDbEntity
  8
0
100
AcDbVertex
100
AcDbPolygonMeshVertex
 10
0.407
 20
-6.11
 30
0.58
 70
    64
  0
VERTEX
  5
87B8B
100
AcDbEntity
  8
0
100
AcDbVertex
100
AcDbPolygonMeshVertex
 10
4.227
 20
-6.59
 30
2.11
 70
    64
  0
VERTEX
  5
87B8C
100
AcDbEntity
  8
0
100
AcDbVertex
100
AcDbPolygonMeshVertex
 10
4.227
 20
-6.59
 30
2.11
 70
    64
  0
VERTEX
  5
87B8D
100
AcDbEntity
  8
0
100
AcDbVertex
100
AcDbPolygonMeshVertex
 10
0.407
 20
-6.59
 30
2.11
 70
    64
  0
SEQEND
  5
87B8E
100
AcDbEntity
  8
0
  0
3DFACE
  5
87B8F
100
AcDbEntity
  8
0
100
AcDbFace
 10
0.967
 20
-0.31
 30
0.58
 11
0.347
 21
-0.93
 31
0.58
 12
4.287
 22
-0.93
 32
0.58
 13
3.667
 23
-0.31
 33
0.58
 70
    14
  0
LINE
  5
87B90
100
AcDbEntity
  8
0
100
AcDbLine
 10
0.637
 20
-6.91
 30
0.39
 11
0.637
 21
-6.91
 31
0.58
  0
LINE
  5
87B91
100
AcDbEntity
  8
0
100
AcDbLine
 10
0.837
 20
-6.91
 30
0.39
 11
0.837
 21
-6.91
 31
0.58
  0
LINE
  5
87B92
100
AcDbEntity
  8
0
100
AcDbLine
 10
0.637
 20
-7.12
 30
0.39
 11
0.637
 21
-7.12
 31
0.58
  0
LINE
  5
87B93
100
AcDbEntity
  8
0
100
AcDbLine
 10
0.837
 20
-7.12
 30
0.39
 11
0.837
 21
-7.12
 31
0.58
  0
ARC
  5
87B94
100
AcDbEntity
  8
0
100
AcDbCircle
 10
0.737
 20
-6.91
 30
0.39
 40
0.1
100
AcDbArc
 50
0.0
 51
179.999985
  0
LINE
  5
87B95
100
AcDbEntity
  8
0
100
AcDbLine
 10
0.637
 20
-6.91
 30
0.39
 11
0.637
 21
-7.12
 31
0.39
  0
LINE
  5
87B96
100
AcDbEntity
  8
0
100
AcDbLine
 10
0.837
 20
-7.12
 30
0.39
 11
0.837
 21
-6.91
 31
0.39
  0
ARC
  5
87B97
100
AcDbEntity
  8
0
100
AcDbCircle
 10
0.737
 20
-6.91
 30
0.58
 40
0.1
100
AcDbArc
 50
0.0
 51
179.999985
  0
LINE
  5
87B98
100
AcDbEntity
  8
0
100
AcDbLine
 10
0.637
 20
-6.91
 30
0.58
 11
0.637
 21
-7.12
 31
0.58
  0
LINE
  5
87B99
100
AcDbEntity
  8
0
100
AcDbLine
 10
0.837
 20
-7.12
 30
0.58
 11
0.837
 21
-6.91
 31
0.58
  0
POLYLINE
  5
87B9A
100
AcDbEntity
  8
0
100
AcDbPolygonMesh
 66
     1
 10
0.0
 20
0.0
 30
0.0
 70
    16
 71
     6
 72
     3
  0
VERTEX
  5
87B9B
100
AcDbEntity
  8
0
100
AcDbVertex
100
AcDbPolygonMeshVertex
 10
1.504757
 20
-6.59
 30
2.79
 70
    64
  0
VERTEX
  5
87B9C
100
AcDbEntity
  8
0
100
AcDbVertex
100
AcDbPolygonMeshVertex
 10
1.504757
 20
-6.59
 30
2.45
 70
    64
  0
VERTEX
  5
87B9D
100
AcDbEntity
  8
0
100
AcDbVertex
100
AcDbPolygonMeshVertex
 10
1.504757
 20
-6.59
 30
2.45
 70
    64
  0
VERTEX
  5
87B9E
100
AcDbEntity
  8
0
100
AcDbVertex
100
AcDbPolygonMeshVertex
 10
1.504757
 20
-7.258378
 30
2.79
 70
    64
  0
VERTEX
  5
87B9F
100
AcDbEntity
  8
0
100
AcDbVertex
100
AcDbPolygonMeshVertex
 10
1.504757
 20
-7.258378
 30
2.45
 70
    64
  0
VERTEX
  5
87BA0
100
AcDbEntity
  8
0
100
AcDbVertex
100
AcDbPolygonMeshVertex
 10
1.504757
 20
-7.258378
 30
2.45
 70
    64
  0
VERTEX
  5
87BA1
100
AcDbEntity
  8
0
100
AcDbVertex
100
AcDbPolygonMeshVertex
 10
1.004757
 20
-7.258378
 30
2.79
 70
    64
  0
VERTEX
  5
87BA2
100
AcDbEntity
  8
0
100
AcDbVertex
100
AcDbPolygonMeshVertex
 10
1.004757
 20
-7.258378
 30
2.45
 70
    64
  0
VERTEX
  5
87BA3
100
AcDbEntity
  8
0
100
AcDbVertex
100
AcDbPolygonMeshVertex
 10
1.504757
 20
-7.258378
 30
2.45
 70
    64
  0
VERTEX
  5
87BA4
100
AcDbEntity
  8
0
100
AcDbVertex
100
AcDbPolygonMeshVertex
 10
1.004757
 20
-6.59
 30
2.79
 70
    64
  0
VERTEX
  5
87BA5
100
AcDbEntity
  8
0
100
AcDbVertex
100
AcDbPolygonMeshVertex
 10
1.004757
 20
-6.59
 30
2.45
 70
    64
  0
VERTEX
  5
87BA6
100
AcDbEntity
  8
0
100
AcDbVertex
100
AcDbPolygonMeshVertex
 10
1.504757
 20
-6.59
 30
2.45
 70
    64
  0
VERTEX
  5
87BA7
100
AcDbEntity
  8
0
100
AcDbVertex
100
AcDbPolygonMeshVertex
 10
1.004757
 20
-6.59
 30
2.79
 70
    64
  0
VERTEX
  5
87BA8
100
AcDbEntity
  8
0
100
AcDbVertex
100
AcDbPolygonMeshVertex
 10
1.004757
 20
-6.59
 30
2.79
 70
    64
  0
VERTEX
  5
87BA9
100
AcDbEntity
  8
0
100
AcDbVertex
100
AcDbPolygonMeshVertex
 10
1.504757
 20
-6.59
 30
2.79
 70
    64
  0
VERTEX
  5
87BAA
100
AcDbEntity
  8
0
100
AcDbVertex
100
AcDbPolygonMeshVertex
 10
1.004757
 20
-7.258378
 30
2.79
 70
    64
  0
VERTEX
  5
87BAB
100
AcDbEntity
  8
0
100
AcDbVertex
100
AcDbPolygonMeshVertex
 10
1.004757
 20
-7.258378
 30
2.79
 70
    64
  0
VERTEX
  5
87BAC
100
AcDbEntity
  8
0
100
AcDbVertex
100
AcDbPolygonMeshVertex
 10
1.504757
 20
-7.258378
 30
2.79
 70
    64
  0
SEQEND
  5
87BAD
100
AcDbEntity
  8
0
  0
POLYLINE
  5
87BAE
100
AcDbEntity
  8
0
100
AcDbPolygonMesh
 66
     1
 10
0.0
 20
0.0
 30
0.0
 70
    16
 71
     6
 72
     3
  0
VERTEX
  5
87BAF
100
AcDbEntity
  8
0
100
AcDbVertex
100
AcDbPolygonMeshVertex
 10
1.504757
 20
-6.758378
 30
2.92
 70
    64
  0
VERTEX
  5
87BB0
100
AcDbEntity
  8
0
100
AcDbVertex
100
AcDbPolygonMeshVertex
 10
1.504757
 20
-6.758378
 30
2.79
 70
    64
  0
VERTEX
  5
87BB1
100
AcDbEntity
  8
0
100
AcDbVertex
100
AcDbPolygonMeshVertex
 10
1.504757
 20
-6.758378
 30
2.79
 70
    64
  0
VERTEX
  5
87BB2
100
AcDbEntity
  8
0
100
AcDbVertex
100
AcDbPolygonMeshVertex
 10
1.504757
 20
-7.258378
 30
2.92
 70
    64
  0
VERTEX
  5
87BB3
100
AcDbEntity
  8
0
100
AcDbVertex
100
AcDbPolygonMeshVertex
 10
1.504757
 20
-7.258378
 30
2.79
 70
    64
  0
VERTEX
  5
87BB4
100
AcDbEntity
  8
0
100
AcDbVertex
100
AcDbPolygonMeshVertex
 10
1.504757
 20
-7.258378
 30
2.79
 70
    64
  0
VERTEX
  5
87BB5
100
AcDbEntity
  8
0
100
AcDbVertex
100
AcDbPolygonMeshVertex
 10
1.004757
 20
-7.258378
 30
2.92
 70
    64
  0
VERTEX
  5
87BB6
100
AcDbEntity
  8
0
100
AcDbVertex
100
AcDbPolygonMeshVertex
 10
1.004757
 20
-7.258378
 30
2.79
 70
    64
  0
VERTEX
  5
87BB7
100
AcDbEntity
  8
0
100
AcDbVertex
100
AcDbPolygonMeshVertex
 10
1.504757
 20
-7.258378
 30
2.79
 70
    64
  0
VERTEX
  5
87BB8
100
AcDbEntity
  8
0
100
AcDbVertex
100
AcDbPolygonMeshVertex
 10
1.004757
 20
-6.758378
 30
2.92
 70
    64
  0
VERTEX
  5
87BB9
100
AcDbEntity
  8
0
100
AcDbVertex
100
AcDbPolygonMeshVertex
 10
1.004757
 20
-6.758378
 30
2.79
 70
    64
  0
VERTEX
  5
87BBA
100
AcDbEntity
  8
0
100
AcDbVertex
100
AcDbPolygonMeshVertex
 10
1.504757
 20
-6.758378
 30
2.79
 70
    64
  0
VERTEX
  5
87BBB
100
AcDbEntity
  8
0
100
AcDbVertex
100
AcDbPolygonMeshVertex
 10
1.004757
 20
-6.758378
 30
2.92
 70
    64
  0
VERTEX
  5
87BBC
100
AcDbEntity
  8
0
100
AcDbVertex
100
AcDbPolygonMeshVertex
 10
1.004757
 20
-6.758378
 30
2.92
 70
    64
  0
VERTEX
  5
87BBD
100
AcDbEntity
  8
0
100
AcDbVertex
100
AcDbPolygonMeshVertex
 10
1.504757
 20
-6.758378
 30
2.92
 70
    64
  0
VERTEX
  5
87BBE
100
AcDbEntity
  8
0
100
AcDbVertex
100
AcDbPolygonMeshVertex
 10
1.004757
 20
-7.258378
 30
2.92
 70
    64
  0
VERTEX
  5
87BBF
100
AcDbEntity
  8
0
100
AcDbVertex
100
AcDbPolygonMeshVertex
 10
1.004757
 20
-7.258378
 30
2.92
 70
    64
  0
VERTEX
  5
87BC0
100
AcDbEntity
  8
0
100
AcDbVertex
100
AcDbPolygonMeshVertex
 10
1.504757
 20
-7.258378
 30
2.92
 70
    64
  0
SEQEND
  5
87BC1
100
AcDbEntity
  8
0
  0
CIRCLE
  5
87BC2
100
AcDbEntity
  8
0
100
AcDbCircle
 10
1.254757
 20
-7.008378
 30
2.92
 40
0.125
  0
CIRCLE
  5
87BC3
100
AcDbEntity
  8
0
100
AcDbCircle
 10
1.254757
 20
-7.008378
 30
2.92
 40
0.155
  0
TEXT
  5
87BC4
100
AcDbEntity
  8
0
100
AcDbText
 10
1.181606
 20
-7.073612
 30
2.92
 40
0.12
  1
T1
100
AcDbText
  0
3DFACE
  5
87BC5
100
AcDbEntity
  8
0
100
AcDbFace
 10
0.967
 20
-0.31
 30
0.39
 11
0.967
 21
-0.31
 31
0.58
 12
0.347
 22
-0.93
 32
0.58
 13
0.347
 23
-0.93
 33
0.39
  0
LINE
  5
87BC6
100
AcDbEntity
  8
0
100
AcDbLine
 10
3.997
 20
-6.91
 30
0.39
 11
3.997
 21
-6.91
 31
0.58
  0
LINE
  5
87BC7
100
AcDbEntity
  8
0
100
AcDbLine
 10
3.997
 20
-7.12
 30
0.39
 11
3.997
 21
-7.12
 31
0.58
  0
3DFACE
  5
87BC8
100
AcDbEntity
  8
0
100
AcDbFace
 10
3.997
 20
-7.12
 30
0.58
 11
3.997
 21
-6.91
 31
0.58
 12
3.997
 22
-6.91
 32
0.39
 13
3.997
 23
-7.12
 33
0.39
 70
    14
  0
LINE
  5
87BC9
100
AcDbEntity
  8
0
100
AcDbLine
 10
3.797
 20
-6.91
 30
0.39
 11
3.797
 21
-6.91
 31
0.58
  0
LINE
  5
87BCA
100
AcDbEntity
  8
0
100
AcDbLine
 10
3.797
 20
-7.12
 30
0.39
 11
3.797
 21
-7.12
 31
0.58
  0
3DFACE
  5
87BCB
100
AcDbEntity
  8
0
100
AcDbFace
 10
3.797
 20
-7.12
 30
0.58
 11
3.797
 21
-7.12
 31
0.39
 12
3.797
 22
-6.91
 32
0.39
 13
3.797
 23
-6.91
 33
0.58
 70
    14
  0
ARC
  5
87BCC
100
AcDbEntity
  8
0
100
AcDbCircle
 10
3.897
 20
-6.91
 30
0.39
 40
0.1
100
AcDbArc
 50
0.0
 51
179.999985
  0
LINE
  5
87BCD
100
AcDbEntity
  8
0
100
AcDbLine
 10
3.797
 20
-6.91
 30
0.39
 11
3.797
 21
-7.12
 31
0.39
  0
LINE
  5
87BCE
100
AcDbEntity
  8
0
100
AcDbLine
 10
3.997
 20
-7.12
 30
0.39
 11
3.997
 21
-6.91
 31
0.39
  0
ARC
  5
87BCF
100
AcDbEntity
  8
0
100
AcDbCircle
 10
3.897
 20
-6.91
 30
0.58
 40
0.1
100
AcDbArc
 50
0.0
 51
179.999985
  0
LINE
  5
87BD0
100
AcDbEntity
  8
0
100
AcDbLine
 10
3.797
 20
-6.91
 30
0.58
 11
3.797
 21
-7.12
 31
0.58
  0
LINE
  5
87BD1
100
AcDbEntity
  8
0
100
AcDbLine
 10
3.997
 20
-7.12
 30
0.58
 11
3.997
 21
-6.91
 31
0.58
  0
POLYLINE
  5
87BD2
100
AcDbEntity
  8
0
100
AcDbPolygonMesh
 66
     1
 10
0.0
 20
0.0
 30
0.0
 70
    16
 71
     6
 72
     3
  0
VERTEX
  5
87BD3
100
AcDbEntity
  8
0
100
AcDbVertex
100
AcDbPolygonMeshVertex
 10
2.564757
 20
-6.59
 30
2.79
 70
    64
  0
VERTEX
  5
87BD4
100
AcDbEntity
  8
0
100
AcDbVertex
100
AcDbPolygonMeshVertex
 10
2.564757
 20
-6.59
 30
2.45
 70
    64
  0
VERTEX
  5
87BD5
100
AcDbEntity
  8
0
100
AcDbVertex
100
AcDbPolygonMeshVertex
 10
2.564757
 20
-6.59
 30
2.45
 70
    64
  0
VERTEX
  5
87BD6
100
AcDbEntity
  8
0
100
AcDbVertex
100
AcDbPolygonMeshVertex
 10
2.564757
 20
-7.258378
 30
2.79
 70
    64
  0
VERTEX
  5
87BD7
100
AcDbEntity
  8
0
100
AcDbVertex
100
AcDbPolygonMeshVertex
 10
2.564757
 20
-7.258378
 30
2.45
 70
    64
  0
VERTEX
  5
87BD8
100
AcDbEntity
  8
0
100
AcDbVertex
100
AcDbPolygonMeshVertex
 10
2.564757
 20
-7.258378
 30
2.45
 70
    64
  0
VERTEX
  5
87BD9
100
AcDbEntity
  8
0
100
AcDbVertex
100
AcDbPolygonMeshVertex
 10
2.064757
 20
-7.258378
 30
2.79
 70
    64
  0
VERTEX
  5
87BDA
100
AcDbEntity
  8
0
100
AcDbVertex
100
AcDbPolygonMeshVertex
 10
2.064757
 20
-7.258378
 30
2.45
 70
    64
  0
VERTEX
  5
87BDB
100
AcDbEntity
  8
0
100
AcDbVertex
100
AcDbPolygonMeshVertex
 10
2.564757
 20
-7.258378
 30
2.45
 70
    64
  0
VERTEX
  5
87BDC
100
AcDbEntity
  8
0
100
AcDbVertex
100
AcDbPolygonMeshVertex
 10
2.064757
 20
-6.59
 30
2.79
 70
    64
  0
VERTEX
  5
87BDD
100
AcDbEntity
  8
0
100
AcDbVertex
100
AcDbPolygonMeshVertex
 10
2.064757
 20
-6.59
 30
2.45
 70
    64
  0
VERTEX
  5
87BDE
100
AcDbEntity
  8
0
100
AcDbVertex
100
AcDbPolygonMeshVertex
 10
2.564757
 20
-6.59
 30
2.45
 70
    64
  0
VERTEX
  5
87BDF
100
AcDbEntity
  8
0
100
AcDbVertex
100
AcDbPolygonMeshVertex
 10
2.064757
 20
-6.59
 30
2.79
 70
    64
  0
VERTEX
  5
87BE0
100
AcDbEntity
  8
0
100
AcDbVertex
100
AcDbPolygonMeshVertex
 10
2.064757
 20
-6.59
 30
2.79
 70
    64
  0
VERTEX
  5
87BE1
100
AcDbEntity
  8
0
100
AcDbVertex
100
AcDbPolygonMeshVertex
 10
2.564757
 20
-6.59
 30
2.79
 70
    64
  0
VERTEX
  5
87BE2
100
AcDbEntity
  8
0
100
AcDbVertex
100
AcDbPolygonMeshVertex
 10
2.064757
 20
-7.258378
 30
2.79
 70
    64
  0
VERTEX
  5
87BE3
100
AcDbEntity
  8
0
100
AcDbVertex
100
AcDbPolygonMeshVertex
 10
2.064757
 20
-7.258378
 30
2.79
 70
    64
  0
VERTEX
  5
87BE4
100
AcDbEntity
  8
0
100
AcDbVertex
100
AcDbPolygonMeshVertex
 10
2.564757
 20
-7.258378
 30
2.79
 70
    64
  0
SEQEND
  5
87BE5
100
AcDbEntity
  8
0
  0
POLYLINE
  5
87BE6
100
AcDbEntity
  8
0
100
AcDbPolygonMesh
 66
     1
 10
0.0
 20
0.0
 30
0.0
 70
    16
 71
     6
 72
     3
  0
VERTEX
  5
87BE7
100
AcDbEntity
  8
0
100
AcDbVertex
100
AcDbPolygonMeshVertex
 10
3.624757
 20
-6.59
 30
2.79
 70
    64
  0
VERTEX
  5
87BE8
100
AcDbEntity
  8
0
100
AcDbVertex
100
AcDbPolygonMeshVertex
 10
3.624757
 20
-6.59
 30
2.45
 70
    64
  0
VERTEX
  5
87BE9
100
AcDbEntity
  8
0
100
AcDbVertex
100
AcDbPolygonMeshVertex
 10
3.624757
 20
-6.59
 30
2.45
 70
    64
  0
VERTEX
  5
87BEA
100
AcDbEntity
  8
0
100
AcDbVertex
100
AcDbPolygonMeshVertex
 10
3.624757
 20
-7.258378
 30
2.79
 70
    64
  0
VERTEX
  5
87BEB
100
AcDbEntity
  8
0
100
AcDbVertex
100
AcDbPolygonMeshVertex
 10
3.624757
 20
-7.258378
 30
2.45
 70
    64
  0
VERTEX
  5
87BEC
100
AcDbEntity
  8
0
100
AcDbVertex
100
AcDbPolygonMeshVertex
 10
3.624757
 20
-7.258378
 30
2.45
 70
    64
  0
VERTEX
  5
87BED
100
AcDbEntity
  8
0
100
AcDbVertex
100
AcDbPolygonMeshVertex
 10
3.124757
 20
-7.258378
 30
2.79
 70
    64
  0
VERTEX
  5
87BEE
100
AcDbEntity
  8
0
100
AcDbVertex
100
AcDbPolygonMeshVertex
 10
3.124757
 20
-7.258378
 30
2.45
 70
    64
  0
VERTEX
  5
87BEF
100
AcDbEntity
  8
0
100
AcDbVertex
100
AcDbPolygonMeshVertex
 10
3.624757
 20
-7.258378
 30
2.45
 70
    64
  0
VERTEX
  5
87BF0
100
AcDbEntity
  8
0
100
AcDbVertex
100
AcDbPolygonMeshVertex
 10
3.124757
 20
-6.59
 30
2.79
 70
    64
  0
VERTEX
  5
87BF1
100
AcDbEntity
  8
0
100
AcDbVertex
100
AcDbPolygonMeshVertex
 10
3.124757
 20
-6.59
 30
2.45
 70
    64
  0
VERTEX
  5
87BF2
100
AcDbEntity
  8
0
100
AcDbVertex
100
AcDbPolygonMeshVertex
 10
3.624757
 20
-6.59
 30
2.45
 70
    64
  0
VERTEX
  5
87BF3
100
AcDbEntity
  8
0
100
AcDbVertex
100
AcDbPolygonMeshVertex
 10
3.124757
 20
-6.59
 30
2.79
 70
    64
  0
VERTEX
  5
87BF4
100
AcDbEntity
  8
0
100
AcDbVertex
100
AcDbPolygonMeshVertex
 10
3.124757
 20
-6.59
 30
2.79
 70
    64
  0
VERTEX
  5
87BF5
100
AcDbEntity
  8
0
100
AcDbVertex
100
AcDbPolygonMeshVertex
 10
3.624757
 20
-6.59
 30
2.79
 70
    64
  0
VERTEX
  5
87BF6
100
AcDbEntity
  8
0
100
AcDbVertex
100
AcDbPolygonMeshVertex
 10
3.124757
 20
-7.258378
 30
2.79
 70
    64
  0
VERTEX
  5
87BF7
100
AcDbEntity
  8
0
100
AcDbVertex
100
AcDbPolygonMeshVertex
 10
3.124757
 20
-7.258378
 30
2.79
 70
    64
  0
VERTEX
  5
87BF8
100
AcDbEntity
  8
0
100
AcDbVertex
100
AcDbPolygonMeshVertex
 10
3.624757
 20
-7.258378
 30
2.79
 70
    64
  0
SEQEND
  5
87BF9
100
AcDbEntity
  8
0
  0
POLYLINE
  5
87BFA
100
AcDbEntity
  8
0
100
AcDbPolygonMesh
 66
     1
 10
0.0
 20
0.0
 30
0.0
 70
    16
 71
     6
 72
     3
  0
VERTEX
  5
87BFB
100
AcDbEntity
  8
0
100
AcDbVertex
100
AcDbPolygonMeshVertex
 10
3.624757
 20
-6.758378
 30
2.92
 70
    64
  0
VERTEX
  5
87BFC
100
AcDbEntity
  8
0
100
AcDbVertex
100
AcDbPolygonMeshVertex
 10
3.624757
 20
-6.758378
 30
2.79
 70
    64
  0
VERTEX
  5
87BFD
100
AcDbEntity
  8
0
100
AcDbVertex
100
AcDbPolygonMeshVertex
 10
3.624757
 20
-6.758378
 30
2.79
 70
    64
  0
VERTEX
  5
87BFE
100
AcDbEntity
  8
0
100
AcDbVertex
100
AcDbPolygonMeshVertex
 10
3.624757
 20
-7.258378
 30
2.92
 70
    64
  0
VERTEX
  5
87BFF
100
AcDbEntity
  8
0
100
AcDbVertex
100
AcDbPolygonMeshVertex
 10
3.624757
 20
-7.258378
 30
2.79
 70
    64
  0
VERTEX
  5
87C00
100
AcDbEntity
  8
0
100
AcDbVertex
100
AcDbPolygonMeshVertex
 10
3.624757
 20
-7.258378
 30
2.79
 70
    64
  0
VERTEX
  5
87C01
100
AcDbEntity
  8
0
100
AcDbVertex
100
AcDbPolygonMeshVertex
 10
3.124757
 20
-7.258378
 30
2.92
 70
    64
  0
VERTEX
  5
87C02
100
AcDbEntity
  8
0
100
AcDbVertex
100
AcDbPolygonMeshVertex
 10
3.124757
 20
-7.258378
 30
2.79
 70
    64
  0
VERTEX
  5
87C03
100
AcDbEntity
  8
0
100
AcDbVertex
100
AcDbPolygonMeshVertex
 10
3.624757
 20
-7.258378
 30
2.79
 70
    64
  0
VERTEX
  5
87C04
100
AcDbEntity
  8
0
100
AcDbVertex
100
AcDbPolygonMeshVertex
 10
3.124757
 20
-6.758378
 30
2.92
 70
    64
  0
VERTEX
  5
87C05
100
AcDbEntity
  8
0
100
AcDbVertex
100
AcDbPolygonMeshVertex
 10
3.124757
 20
-6.758378
 30
2.79
 70
    64
  0
VERTEX
  5
87C06
100
AcDbEntity
  8
0
100
AcDbVertex
100
AcDbPolygonMeshVertex
 10
3.624757
 20
-6.758378
 30
2.79
 70
    64
  0
VERTEX
  5
87C07
100
AcDbEntity
  8
0
100
AcDbVertex
100
AcDbPolygonMeshVertex
 10
3.124757
 20
-6.758378
 30
2.92
 70
    64
  0
VERTEX
  5
87C08
100
AcDbEntity
  8
0
100
AcDbVertex
100
AcDbPolygonMeshVertex
 10
3.124757
 20
-6.758378
 30
2.92
 70
    64
  0
VERTEX
  5
87C09
100
AcDbEntity
  8
0
100
AcDbVertex
100
AcDbPolygonMeshVertex
 10
3.624757
 20
-6.758378
 30
2.92
 70
    64
  0
VERTEX
  5
87C0A
100
AcDbEntity
  8
0
100
AcDbVertex
100
AcDbPolygonMeshVertex
 10
3.124757
 20
-7.258378
 30
2.92
 70
    64
  0
VERTEX
  5
87C0B
100
AcDbEntity
  8
0
100
AcDbVertex
100
AcDbPolygonMeshVertex
 10
3.124757
 20
-7.258378
 30
2.92
 70
    64
  0
VERTEX
  5
87C0C
100
AcDbEntity
  8
0
100
AcDbVertex
100
AcDbPolygonMeshVertex
 10
3.624757
 20
-7.258378
 30
2.92
 70
    64
  0
SEQEND
  5
87C0D
100
AcDbEntity
  8
0
  0
CIRCLE
  5
87C0E
100
AcDbEntity
  8
0
100
AcDbCircle
 10
3.374757
 20
-7.008378
 30
2.92
 40
0.155
  0
POLYLINE
  5
87C0F
100
AcDbEntity
  8
0
100
AcDbPolygonMesh
 66
     1
 10
0.0
 20
0.0
 30
0.0
 70
    16
 71
     6
 72
     3
  0
VERTEX
  5
87C10
100
AcDbEntity
  8
0
100
AcDbVertex
100
AcDbPolygonMeshVertex
 10
2.564757
 20
-6.758378
 30
2.92
 70
    64
  0
VERTEX
  5
87C11
100
AcDbEntity
  8
0
100
AcDbVertex
100
AcDbPolygonMeshVertex
 10
2.564757
 20
-6.758378
 30
2.79
 70
    64
  0
VERTEX
  5
87C12
100
AcDbEntity
  8
0
100
AcDbVertex
100
AcDbPolygonMeshVertex
 10
2.564757
 20
-6.758378
 30
2.79
 70
    64
  0
VERTEX
  5
87C13
100
AcDbEntity
  8
0
100
AcDbVertex
100
AcDbPolygonMeshVertex
 10
2.564757
 20
-7.258378
 30
2.92
 70
    64
  0
VERTEX
  5
87C14
100
AcDbEntity
  8
0
100
AcDbVertex
100
AcDbPolygonMeshVertex
 10
2.564757
 20
-7.258378
 30
2.79
 70
    64
  0
VERTEX
  5
87C15
100
AcDbEntity
  8
0
100
AcDbVertex
100
AcDbPolygonMeshVertex
 10
2.564757
 20
-7.258378
 30
2.79
 70
    64
  0
VERTEX
  5
87C16
100
AcDbEntity
  8
0
100
AcDbVertex
100
AcDbPolygonMeshVertex
 10
2.064757
 20
-7.258378
 30
2.92
 70
    64
  0
VERTEX
  5
87C17
100
AcDbEntity
  8
0
100
AcDbVertex
100
AcDbPolygonMeshVertex
 10
2.064757
 20
-7.258378
 30
2.79
 70
    64
  0
VERTEX
  5
87C18
100
AcDbEntity
  8
0
100
AcDbVertex
100
AcDbPolygonMeshVertex
 10
2.564757
 20
-7.258378
 30
2.79
 70
    64
  0
VERTEX
  5
87C19
100
AcDbEntity
  8
0
100
AcDbVertex
100
AcDbPolygonMeshVertex
 10
2.064757
 20
-6.758378
 30
2.92
 70
    64
  0
VERTEX
  5
87C1A
100
AcDbEntity
  8
0
100
AcDbVertex
100
AcDbPolygonMeshVertex
 10
2.064757
 20
-6.758378
 30
2.79
 70
    64
  0
VERTEX
  5
87C1B
100
AcDbEntity
  8
0
100
AcDbVertex
100
AcDbPolygonMeshVertex
 10
2.564757
 20
-6.758378
 30
2.79
 70
    64
  0
VERTEX
  5
87C1C
100
AcDbEntity
  8
0
100
AcDbVertex
100
AcDbPolygonMeshVertex
 10
2.064757
 20
-6.758378
 30
2.92
 70
    64
  0
VERTEX
  5
87C1D
100
AcDbEntity
  8
0
100
AcDbVertex
100
AcDbPolygonMeshVertex
 10
2.064757
 20
-6.758378
 30
2.92
 70
    64
  0
VERTEX
  5
87C1E
100
AcDbEntity
  8
0
100
AcDbVertex
100
AcDbPolygonMeshVertex
 10
2.564757
 20
-6.758378
 30
2.92
 70
    64
  0
VERTEX
  5
87C1F
100
AcDbEntity
  8
0
100
AcDbVertex
100
AcDbPolygonMeshVertex
 10
2.064757
 20
-7.258378
 30
2.92
 70
    64
  0
VERTEX
  5
87C20
100
AcDbEntity
  8
0
100
AcDbVertex
100
AcDbPolygonMeshVertex
 10
2.064757
 20
-7.258378
 30
2.92
 70
    64
  0
VERTEX
  5
87C21
100
AcDbEntity
  8
0
100
AcDbVertex
100
AcDbPolygonMeshVertex
 10
2.564757
 20
-7.258378
 30
2.92
 70
    64
  0
SEQEND
  5
87C22
100
AcDbEntity
  8
0
  0
TEXT
  5
87C23
100
AcDbEntity
  8
0
100
AcDbText
 10
2.226294
 20
-7.069974
 30
2.92
 40
0.12
  1
T2
100
AcDbText
  0
CIRCLE
  5
87C24
100
AcDbEntity
  8
0
100
AcDbCircle
 10
2.314757
 20
-7.008378
 30
2.92
 40
0.125
  0
CIRCLE
  5
87C25
100
AcDbEntity
  8
0
100
AcDbCircle
 10
2.314757
 20
-7.008378
 30
2.92
 40
0.155
  0
TEXT
  5
87C26
100
AcDbEntity
  8
0
100
AcDbText
 10
3.283987
 20
-7.075
 30
2.92
 40
0.12
  1
T3
100
AcDbText
  0
CIRCLE
  5
87C27
100
AcDbEntity
  8
0
100
AcDbCircle
 10
3.374757
 20
-7.008378
 30
2.92
 40
0.125
  0
LINE
  5
87C28
100
AcDbEntity
  8
0
100
AcDbLine
 10
3.624757
 20
-6.59
 30
2.45
 11
3.624757
 21
-6.59
 31
2.79
  0
3DFACE
  5
87C29
100
AcDbEntity
  8
0
100
AcDbFace
 10
4.287
 20
-0.93
 30
0.58
 11
3.667
 21
-0.31
 31
0.58
 12
3.667
 22
-0.31
 32
0.39
 13
4.287
 23
-0.93
 33
0.39
  0
LINE
  5
87C2A
100
AcDbEntity
  8
0
100
AcDbLine
 10
2.7985
 20
-0.59
 30
0.39
 11
2.7985
 21
-0.59
 31
0.58
  0
LINE
  5
87C2B
100
AcDbEntity
  8
0
100
AcDbLine
 10
2.417
 20
-0.59
 30
0.39
 11
2.417
 21
-0.59
 31
0.58
  0
LINE
  5
87C2C
100
AcDbEntity
  8
0
100
AcDbLine
 10
2.217
 20
-0.59
 30
0.39
 11
2.217
 21
-0.59
 31
0.58
  0
LINE
  5
87C2D
100
AcDbEntity
  8
0
100
AcDbLine
 10
2.217
 20
-0.721444
 30
0.39
 11
2.217
 21
-0.721444
 31
0.58
  0
LINE
  5
87C2E
100
AcDbEntity
  8
0
100
AcDbLine
 10
2.417
 20
-0.721444
 30
0.39
 11
2.417
 21
-0.721444
 31
0.58
  0
ARC
  5
87C2F
100
AcDbEntity
  8
0
100
AcDbCircle
 10
2.317
 20
-0.933
 30
0.39
 40
0.234
100
AcDbArc
 50
115.299522
 51
64.70047
  0
LINE
  5
87C30
100
AcDbEntity
  8
0
100
AcDbLine
 10
2.417
 20
-0.59
 30
0.39
 11
2.417
 21
-0.721444
 31
0.39
  0
LINE
  5
87C31
100
AcDbEntity
  8
0
100
AcDbLine
 10
2.217
 20
-0.59
 30
0.39
 11
2.217
 21
-0.721444
 31
0.39
  0
ARC
  5
87C32
100
AcDbEntity
  8
0
100
AcDbCircle
 10
2.317
 20
-0.59
 30
0.39
 40
0.1
100
AcDbArc
 50
0.0
 51
179.999985
  0
CIRCLE
  5
87C33
100
AcDbEntity
  8
0
100
AcDbCircle
 10
2.697
 20
-0.59
 30
0.39
 40
0.1015
  0
ARC
  5
87C34
100
AcDbEntity
  8
0
100
AcDbCircle
 10
2.317
 20
-0.933
 30
0.58
 40
0.234
100
AcDbArc
 50
115.299522
 51
64.70047
  0
LINE
  5
87C35
100
AcDbEntity
  8
0
100
AcDbLine
 10
2.417
 20
-0.59
 30
0.58
 11
2.417
 21
-0.721444
 31
0.58
  0
LINE
  5
87C36
100
AcDbEntity
  8
0
100
AcDbLine
 10
2.217
 20
-0.59
 30
0.58
 11
2.217
 21
-0.721444
 31
0.58
  0
ARC
  5
87C37
100
AcDbEntity
  8
0
100
AcDbCircle
 10
2.317
 20
-0.59
 30
0.58
 40
0.1
100
AcDbArc
 50
0.0
 51
179.999985
  0
CIRCLE
  5
87C38
100
AcDbEntity
  8
0
100
AcDbCircle
 10
2.697
 20
-0.59
 30
0.58
 40
0.1015
  0
POLYLINE
  5
87C39
100
AcDbEntity
  8
0
100
AcDbPolygonMesh
 66
     1
 10
0.0
 20
0.0
 30
0.0
 70
    16
 71
     6
 72
     3
  0
VERTEX
  5
87C3A
100
AcDbEntity
  8
0
100
AcDbVertex
100
AcDbPolygonMeshVertex
 10
3.257
 20
-5.05
 30
4.39
 70
    64
  0
VERTEX
  5
87C3B
100
AcDbEntity
  8
0
100
AcDbVertex
100
AcDbPolygonMeshVertex
 10
3.257
 20
-5.05
 30
4.08
 70
    64
  0
VERTEX
  5
87C3C
100
AcDbEntity
  8
0
100
AcDbVertex
100
AcDbPolygonMeshVertex
 10
3.257
 20
-5.05
 30
4.08
 70
    64
  0
VERTEX
  5
87C3D
100
AcDbEntity
  8
0
100
AcDbVertex
100
AcDbPolygonMeshVertex
 10
1.377
 20
-5.05
 30
4.39
 70
    64
  0
VERTEX
  5
87C3E
100
AcDbEntity
  8
0
100
AcDbVertex
100
AcDbPolygonMeshVertex
 10
1.377
 20
-5.05
 30
4.08
 70
    64
  0
VERTEX
  5
87C3F
100
AcDbEntity
  8
0
100
AcDbVertex
100
AcDbPolygonMeshVertex
 10
1.377
 20
-5.05
 30
4.08
 70
    64
  0
VERTEX
  5
87C40
100
AcDbEntity
  8
0
100
AcDbVertex
100
AcDbPolygonMeshVertex
 10
1.377
 20
-4.22
 30
4.39
 70
    64
  0
VERTEX
  5
87C41
100
AcDbEntity
  8
0
100
AcDbVertex
100
AcDbPolygonMeshVertex
 10
1.377
 20
-4.22
 30
4.08
 70
    64
  0
VERTEX
  5
87C42
100
AcDbEntity
  8
0
100
AcDbVertex
100
AcDbPolygonMeshVertex
 10
1.377
 20
-5.05
 30
4.08
 70
    64
  0
VERTEX
  5
87C43
100
AcDbEntity
  8
0
100
AcDbVertex
100
AcDbPolygonMeshVertex
 10
3.257
 20
-4.22
 30
4.39
 70
    64
  0
VERTEX
  5
87C44
100
AcDbEntity
  8
0
100
AcDbVertex
100
AcDbPolygonMeshVertex
 10
3.257
 20
-4.22
 30
4.08
 70
    64
  0
VERTEX
  5
87C45
100
AcDbEntity
  8
0
100
AcDbVertex
100
AcDbPolygonMeshVertex
 10
3.257
 20
-5.05
 30
4.08
 70
    64
  0
VERTEX
  5
87C46
100
AcDbEntity
  8
0
100
AcDbVertex
100
AcDbPolygonMeshVertex
 10
3.257
 20
-4.22
 30
4.39
 70
    64
  0
VERTEX
  5
87C47
100
AcDbEntity
  8
0
100
AcDbVertex
100
AcDbPolygonMeshVertex
 10
3.257
 20
-4.22
 30
4.39
 70
    64
  0
VERTEX
  5
87C48
100
AcDbEntity
  8
0
100
AcDbVertex
100
AcDbPolygonMeshVertex
 10
3.257
 20
-5.05
 30
4.39
 70
    64
  0
VERTEX
  5
87C49
100
AcDbEntity
  8
0
100
AcDbVertex
100
AcDbPolygonMeshVertex
 10
1.377
 20
-4.22
 30
4.39
 70
    64
  0
VERTEX
  5
87C4A
100
AcDbEntity
  8
0
100
AcDbVertex
100
AcDbPolygonMeshVertex
 10
1.377
 20
-4.22
 30
4.39
 70
    64
  0
VERTEX
  5
87C4B
100
AcDbEntity
  8
0
100
AcDbVertex
100
AcDbPolygonMeshVertex
 10
1.377
 20
-5.05
 30
4.39
 70
    64
  0
SEQEND
  5
87C4C
100
AcDbEntity
  8
0
  0
POLYLINE
  5
87C4D
100
AcDbEntity
  8
0
100
AcDbPolygonMesh
 66
     1
 10
0.0
 20
0.0
 30
0.0
 70
    16
 71
     6
 72
     3
  0
VERTEX
  5
87C4E
100
AcDbEntity
  8
0
100
AcDbVertex
100
AcDbPolygonMeshVertex
 10
4.227
 20
-2.12
 30
4.39
 70
    64
  0
VERTEX
  5
87C4F
100
AcDbEntity
  8
0
100
AcDbVertex
100
AcDbPolygonMeshVertex
 10
4.227
 20
-2.12
 30
4.08
 70
    64
  0
VERTEX
  5
87C50
100
AcDbEntity
  8
0
100
AcDbVertex
100
AcDbPolygonMeshVertex
 10
4.227
 20
-2.12
 30
4.08
 70
    64
  0
VERTEX
  5
87C51
100
AcDbEntity
  8
0
100
AcDbVertex
100
AcDbPolygonMeshVertex
 10
0.407
 20
-2.12
 30
4.39
 70
    64
  0
VERTEX
  5
87C52
100
AcDbEntity
  8
0
100
AcDbVertex
100
AcDbPolygonMeshVertex
 10
0.407
 20
-2.12
 30
4.08
 70
    64
  0
VERTEX
  5
87C53
100
AcDbEntity
  8
0
100
AcDbVertex
100
AcDbPolygonMeshVertex
 10
0.407
 20
-2.12
 30
4.08
 70
    64
  0
VERTEX
  5
87C54
100
AcDbEntity
  8
0
100
AcDbVertex
100
AcDbPolygonMeshVertex
 10
0.407
 20
-1.43
 30
4.39
 70
    64
  0
VERTEX
  5
87C55
100
AcDbEntity
  8
0
100
AcDbVertex
100
AcDbPolygonMeshVertex
 10
0.407
 20
-1.43
 30
4.08
 70
    64
  0
VERTEX
  5
87C56
100
AcDbEntity
  8
0
100
AcDbVertex
100
AcDbPolygonMeshVertex
 10
0.407
 20
-2.12
 30
4.08
 70
    64
  0
VERTEX
  5
87C57
100
AcDbEntity
  8
0
100
AcDbVertex
100
AcDbPolygonMeshVertex
 10
4.227
 20
-1.43
 30
4.39
 70
    64
  0
VERTEX
  5
87C58
100
AcDbEntity
  8
0
100
AcDbVertex
100
AcDbPolygonMeshVertex
 10
4.227
 20
-1.43
 30
4.08
 70
    64
  0
VERTEX
  5
87C59
100
AcDbEntity
  8
0
100
AcDbVertex
100
AcDbPolygonMeshVertex
 10
4.227
 20
-2.12
 30
4.08
 70
    64
  0
VERTEX
  5
87C5A
100
AcDbEntity
  8
0
100
AcDbVertex
100
AcDbPolygonMeshVertex
 10
4.227
 20
-1.43
 30
4.39
 70
    64
  0
VERTEX
  5
87C5B
100
AcDbEntity
  8
0
100
AcDbVertex
100
AcDbPolygonMeshVertex
 10
4.227
 20
-1.43
 30
4.39
 70
    64
  0
VERTEX
  5
87C5C
100
AcDbEntity
  8
0
100
AcDbVertex
100
AcDbPolygonMeshVertex
 10
4.227
 20
-2.12
 30
4.39
 70
    64
  0
VERTEX
  5
87C5D
100
AcDbEntity
  8
0
100
AcDbVertex
100
AcDbPolygonMeshVertex
 10
0.407
 20
-1.43
 30
4.39
 70
    64
  0
VERTEX
  5
87C5E
100
AcDbEntity
  8
0
100
AcDbVertex
100
AcDbPolygonMeshVertex
 10
0.407
 20
-1.43
 30
4.39
 70
    64
  0
VERTEX
  5
87C5F
100
AcDbEntity
  8
0
100
AcDbVertex
100
AcDbPolygonMeshVertex
 10
0.407
 20
-2.12
 30
4.39
 70
    64
  0
SEQEND
  5
87C60
100
AcDbEntity
  8
0
  0
POLYLINE
  5
87C61
100
AcDbEntity
  8
0
100
AcDbPolygonMesh
 66
     1
 10
0.0
 20
0.0
 30
0.0
 70
    16
 71
     6
 72
     3
  0
VERTEX
  5
87C62
100
AcDbEntity
  8
0
100
AcDbVertex
100
AcDbPolygonMeshVertex
 10
4.227
 20
-3.21
 30
4.22
 70
    64
  0
VERTEX
  5
87C63
100
AcDbEntity
  8
0
100
AcDbVertex
100
AcDbPolygonMeshVertex
 10
4.227
 20
-3.21
 30
4.08
 70
    64
  0
VERTEX
  5
87C64
100
AcDbEntity
  8
0
100
AcDbVertex
100
AcDbPolygonMeshVertex
 10
4.227
 20
-3.21
 30
4.08
 70
    64
  0
VERTEX
  5
87C65
100
AcDbEntity
  8
0
100
AcDbVertex
100
AcDbPolygonMeshVertex
 10
0.407
 20
-3.21
 30
4.22
 70
    64
  0
VERTEX
  5
87C66
100
AcDbEntity
  8
0
100
AcDbVertex
100
AcDbPolygonMeshVertex
 10
0.407
 20
-3.21
 30
4.08
 70
    64
  0
VERTEX
  5
87C67
100
AcDbEntity
  8
0
100
AcDbVertex
100
AcDbPolygonMeshVertex
 10
0.407
 20
-3.21
 30
4.08
 70
    64
  0
VERTEX
  5
87C68
100
AcDbEntity
  8
0
100
AcDbVertex
100
AcDbPolygonMeshVertex
 10
0.407
 20
-2.12
 30
4.22
 70
    64
  0
VERTEX
  5
87C69
100
AcDbEntity
  8
0
100
AcDbVertex
100
AcDbPolygonMeshVertex
 10
0.407
 20
-2.12
 30
4.08
 70
    64
  0
VERTEX
  5
87C6A
100
AcDbEntity
  8
0
100
AcDbVertex
100
AcDbPolygonMeshVertex
 10
0.407
 20
-3.21
 30
4.08
 70
    64
  0
VERTEX
  5
87C6B
100
AcDbEntity
  8
0
100
AcDbVertex
100
AcDbPolygonMeshVertex
 10
4.227
 20
-2.12
 30
4.22
 70
    64
  0
VERTEX
  5
87C6C
100
AcDbEntity
  8
0
100
AcDbVertex
100
AcDbPolygonMeshVertex
 10
4.227
 20
-2.12
 30
4.08
 70
    64
  0
VERTEX
  5
87C6D
100
AcDbEntity
  8
0
100
AcDbVertex
100
AcDbPolygonMeshVertex
 10
4.227
 20
-3.21
 30
4.08
 70
    64
  0
VERTEX
  5
87C6E
100
AcDbEntity
  8
0
100
AcDbVertex
100
AcDbPolygonMeshVertex
 10
4.227
 20
-2.12
 30
4.22
 70
    64
  0
VERTEX
  5
87C6F
100
AcDbEntity
  8
0
100
AcDbVertex
100
AcDbPolygonMeshVertex
 10
4.227
 20
-2.12
 30
4.22
 70
    64
  0
VERTEX
  5
87C70
100
AcDbEntity
  8
0
100
AcDbVertex
100
AcDbPolygonMeshVertex
 10
4.227
 20
-3.21
 30
4.22
 70
    64
  0
VERTEX
  5
87C71
100
AcDbEntity
  8
0
100
AcDbVertex
100
AcDbPolygonMeshVertex
 10
0.407
 20
-2.12
 30
4.22
 70
    64
  0
VERTEX
  5
87C72
100
AcDbEntity
  8
0
100
AcDbVertex
100
AcDbPolygonMeshVertex
 10
0.407
 20
-2.12
 30
4.22
 70
    64
  0
VERTEX
  5
87C73
100
AcDbEntity
  8
0
100
AcDbVertex
100
AcDbPolygonMeshVertex
 10
0.407
 20
-3.21
 30
4.22
 70
    64
  0
SEQEND
  5
87C74
100
AcDbEntity
  8
0
  0
POLYLINE
  5
87C75
100
AcDbEntity
  8
0
100
AcDbPolygonMesh
 66
     1
 10
0.0
 20
0.0
 30
0.0
 70
    16
 71
     6
 72
     3
  0
VERTEX
  5
87C76
100
AcDbEntity
  8
0
100
AcDbVertex
100
AcDbPolygonMeshVertex
 10
1.007
 20
-0.81
 30
4.73
 70
    64
  0
VERTEX
  5
87C77
100
AcDbEntity
  8
0
100
AcDbVertex
100
AcDbPolygonMeshVertex
 10
1.007
 20
-0.81
 30
4.39
 70
    64
  0
VERTEX
  5
87C78
100
AcDbEntity
  8
0
100
AcDbVertex
100
AcDbPolygonMeshVertex
 10
1.007
 20
-0.81
 30
4.39
 70
    64
  0
VERTEX
  5
87C79
100
AcDbEntity
  8
0
100
AcDbVertex
100
AcDbPolygonMeshVertex
 10
1.507
 20
-0.81
 30
4.73
 70
    64
  0
VERTEX
  5
87C7A
100
AcDbEntity
  8
0
100
AcDbVertex
100
AcDbPolygonMeshVertex
 10
1.507
 20
-0.81
 30
4.39
 70
    64
  0
VERTEX
  5
87C7B
100
AcDbEntity
  8
0
100
AcDbVertex
100
AcDbPolygonMeshVertex
 10
1.507
 20
-0.81
 30
4.39
 70
    64
  0
VERTEX
  5
87C7C
100
AcDbEntity
  8
0
100
AcDbVertex
100
AcDbPolygonMeshVertex
 10
1.507
 20
-1.93
 30
4.73
 70
    64
  0
VERTEX
  5
87C7D
100
AcDbEntity
  8
0
100
AcDbVertex
100
AcDbPolygonMeshVertex
 10
1.507
 20
-1.93
 30
4.39
 70
    64
  0
VERTEX
  5
87C7E
100
AcDbEntity
  8
0
100
AcDbVertex
100
AcDbPolygonMeshVertex
 10
1.507
 20
-0.81
 30
4.39
 70
    64
  0
VERTEX
  5
87C7F
100
AcDbEntity
  8
0
100
AcDbVertex
100
AcDbPolygonMeshVertex
 10
1.007
 20
-1.93
 30
4.73
 70
    64
  0
VERTEX
  5
87C80
100
AcDbEntity
  8
0
100
AcDbVertex
100
AcDbPolygonMeshVertex
 10
1.007
 20
-1.93
 30
4.39
 70
    64
  0
VERTEX
  5
87C81
100
AcDbEntity
  8
0
100
AcDbVertex
100
AcDbPolygonMeshVertex
 10
1.007
 20
-0.81
 30
4.39
 70
    64
  0
VERTEX
  5
87C82
100
AcDbEntity
  8
0
100
AcDbVertex
100
AcDbPolygonMeshVertex
 10
1.007
 20
-1.93
 30
4.73
 70
    64
  0
VERTEX
  5
87C83
100
AcDbEntity
  8
0
100
AcDbVertex
100
AcDbPolygonMeshVertex
 10
1.007
 20
-1.93
 30
4.73
 70
    64
  0
VERTEX
  5
87C84
100
AcDbEntity
  8
0
100
AcDbVertex
100
AcDbPolygonMeshVertex
 10
1.007
 20
-0.81
 30
4.73
 70
    64
  0
VERTEX
  5
87C85
100
AcDbEntity
  8
0
100
AcDbVertex
100
AcDbPolygonMeshVertex
 10
1.507
 20
-1.93
 30
4.73
 70
    64
  0
VERTEX
  5
87C86
100
AcDbEntity
  8
0
100
AcDbVertex
100
AcDbPolygonMeshVertex
 10
1.507
 20
-1.93
 30
4.73
 70
    64
  0
VERTEX
  5
87C87
100
AcDbEntity
  8
0
100
AcDbVertex
100
AcDbPolygonMeshVertex
 10
1.507
 20
-0.81
 30
4.73
 70
    64
  0
SEQEND
  5
87C88
100
AcDbEntity
  8
0
  0
LINE
  5
87C89
100
AcDbEntity
  8
0
100
AcDbLine
 10
0.407
 20
-3.21
 30
4.08
 11
0.407
 21
-1.43
 31
4.08
  0
LINE
  5
87C8A
100
AcDbEntity
  8
0
100
AcDbLine
 10
0.407
 20
-2.12
 30
4.22
 11
0.407
 21
-2.12
 31
4.08
  0
CIRCLE
  5
87C8B
100
AcDbEntity
  8
0
100
AcDbCircle
 10
1.257
 20
-1.06
 30
4.86
 40
0.155
  0
POLYLINE
  5
87C8C
100
AcDbEntity
  8
0
100
AcDbPolygonMesh
 66
     1
 10
0.0
 20
0.0
 30
0.0
 70
    16
 71
     6
 72
     3
  0
VERTEX
  5
87C8D
100
AcDbEntity
  8
0
100
AcDbVertex
100
AcDbPolygonMeshVertex
 10
1.007
 20
-0.81
 30
4.86
 70
    64
  0
VERTEX
  5
87C8E
100
AcDbEntity
  8
0
100
AcDbVertex
100
AcDbPolygonMeshVertex
 10
1.007
 20
-0.81
 30
4.73
 70
    64
  0
VERTEX
  5
87C8F
100
AcDbEntity
  8
0
100
AcDbVertex
100
AcDbPolygonMeshVertex
 10
1.007
 20
-0.81
 30
4.73
 70
    64
  0
VERTEX
  5
87C90
100
AcDbEntity
  8
0
100
AcDbVertex
100
AcDbPolygonMeshVertex
 10
1.507
 20
-0.81
 30
4.86
 70
    64
  0
VERTEX
  5
87C91
100
AcDbEntity
  8
0
100
AcDbVertex
100
AcDbPolygonMeshVertex
 10
1.507
 20
-0.81
 30
4.73
 70
    64
  0
VERTEX
  5
87C92
100
AcDbEntity
  8
0
100
AcDbVertex
100
AcDbPolygonMeshVertex
 10
1.507
 20
-0.81
 30
4.73
 70
    64
  0
VERTEX
  5
87C93
100
AcDbEntity
  8
0
100
AcDbVertex
100
AcDbPolygonMeshVertex
 10
1.507
 20
-1.31
 30
4.86
 70
    64
  0
VERTEX
  5
87C94
100
AcDbEntity
  8
0
100
AcDbVertex
100
AcDbPolygonMeshVertex
 10
1.507
 20
-1.31
 30
4.73
 70
    64
  0
VERTEX
  5
87C95
100
AcDbEntity
  8
0
100
AcDbVertex
100
AcDbPolygonMeshVertex
 10
1.507
 20
-0.81
 30
4.73
 70
    64
  0
VERTEX
  5
87C96
100
AcDbEntity
  8
0
100
AcDbVertex
100
AcDbPolygonMeshVertex
 10
1.007
 20
-1.31
 30
4.86
 70
    64
  0
VERTEX
  5
87C97
100
AcDbEntity
  8
0
100
AcDbVertex
100
AcDbPolygonMeshVertex
 10
1.007
 20
-1.31
 30
4.73
 70
    64
  0
VERTEX
  5
87C98
100
AcDbEntity
  8
0
100
AcDbVertex
100
AcDbPolygonMeshVertex
 10
1.007
 20
-0.81
 30
4.73
 70
    64
  0
VERTEX
  5
87C99
100
AcDbEntity
  8
0
100
AcDbVertex
100
AcDbPolygonMeshVertex
 10
1.007
 20
-1.31
 30
4.86
 70
    64
  0
VERTEX
  5
87C9A
100
AcDbEntity
  8
0
100
AcDbVertex
100
AcDbPolygonMeshVertex
 10
1.007
 20
-1.31
 30
4.86
 70
    64
  0
VERTEX
  5
87C9B
100
AcDbEntity
  8
0
100
AcDbVertex
100
AcDbPolygonMeshVertex
 10
1.007
 20
-0.81
 30
4.86
 70
    64
  0
VERTEX
  5
87C9C
100
AcDbEntity
  8
0
100
AcDbVertex
100
AcDbPolygonMeshVertex
 10
1.507
 20
-1.31
 30
4.86
 70
    64
  0
VERTEX
  5
87C9D
100
AcDbEntity
  8
0
100
AcDbVertex
100
AcDbPolygonMeshVertex
 10
1.507
 20
-1.31
 30
4.86
 70
    64
  0
VERTEX
  5
87C9E
100
AcDbEntity
  8
0
100
AcDbVertex
100
AcDbPolygonMeshVertex
 10
1.507
 20
-0.81
 30
4.86
 70
    64
  0
SEQEND
  5
87C9F
100
AcDbEntity
  8
0
  0
TEXT
  5
87CA0
100
AcDbEntity
  8
0
100
AcDbText
 10
1.189164
 20
-1.123832
 30
4.86
 40
0.12
  1
L1
100
AcDbText
  0
POLYLINE
  5
87CA1
100
AcDbEntity
  8
0
100
AcDbPolygonMesh
 66
     1
 10
0.0
 20
0.0
 30
0.0
 70
    16
 71
     6
 72
     3
  0
VERTEX
  5
87CA2
100
AcDbEntity
  8
0
100
AcDbVertex
100
AcDbPolygonMeshVertex
 10
2.977
 20
-4.75
 30
4.71
 70
    64
  0
VERTEX
  5
87CA3
100
AcDbEntity
  8
0
100
AcDbVertex
100
AcDbPolygonMeshVertex
 10
2.977
 20
-4.75
 30
4.39
 70
    64
  0
VERTEX
  5
87CA4
100
AcDbEntity
  8
0
100
AcDbVertex
100
AcDbPolygonMeshVertex
 10
2.977
 20
-4.75
 30
4.39
 70
    64
  0
VERTEX
  5
87CA5
100
AcDbEntity
  8
0
100
AcDbVertex
100
AcDbPolygonMeshVertex
 10
2.597
 20
-4.75
 30
4.71
 70
    64
  0
VERTEX
  5
87CA6
100
AcDbEntity
  8
0
100
AcDbVertex
100
AcDbPolygonMeshVertex
 10
2.597
 20
-4.75
 30
4.39
 70
    64
  0
VERTEX
  5
87CA7
100
AcDbEntity
  8
0
100
AcDbVertex
100
AcDbPolygonMeshVertex
 10
2.597
 20
-4.75
 30
4.39
 70
    64
  0
VERTEX
  5
87CA8
100
AcDbEntity
  8
0
100
AcDbVertex
100
AcDbPolygonMeshVertex
 10
2.597
 20
-4.31
 30
4.71
 70
    64
  0
VERTEX
  5
87CA9
100
AcDbEntity
  8
0
100
AcDbVertex
100
AcDbPolygonMeshVertex
 10
2.597
 20
-4.31
 30
4.39
 70
    64
  0
VERTEX
  5
87CAA
100
AcDbEntity
  8
0
100
AcDbVertex
100
AcDbPolygonMeshVertex
 10
2.597
 20
-4.75
 30
4.39
 70
    64
  0
VERTEX
  5
87CAB
100
AcDbEntity
  8
0
100
AcDbVertex
100
AcDbPolygonMeshVertex
 10
2.977
 20
-4.31
 30
4.71
 70
    64
  0
VERTEX
  5
87CAC
100
AcDbEntity
  8
0
100
AcDbVertex
100
AcDbPolygonMeshVertex
 10
2.977
 20
-4.31
 30
4.39
 70
    64
  0
VERTEX
  5
87CAD
100
AcDbEntity
  8
0
100
AcDbVertex
100
AcDbPolygonMeshVertex
 10
2.977
 20
-4.75
 30
4.39
 70
    64
  0
VERTEX
  5
87CAE
100
AcDbEntity
  8
0
100
AcDbVertex
100
AcDbPolygonMeshVertex
 10
2.977
 20
-4.31
 30
4.71
 70
    64
  0
VERTEX
  5
87CAF
100
AcDbEntity
  8
0
100
AcDbVertex
100
AcDbPolygonMeshVertex
 10
2.977
 20
-4.31
 30
4.71
 70
    64
  0
VERTEX
  5
87CB0
100
AcDbEntity
  8
0
100
AcDbVertex
100
AcDbPolygonMeshVertex
 10
2.977
 20
-4.75
 30
4.71
 70
    64
  0
VERTEX
  5
87CB1
100
AcDbEntity
  8
0
100
AcDbVertex
100
AcDbPolygonMeshVertex
 10
2.597
 20
-4.31
 30
4.71
 70
    64
  0
VERTEX
  5
87CB2
100
AcDbEntity
  8
0
100
AcDbVertex
100
AcDbPolygonMeshVertex
 10
2.597
 20
-4.31
 30
4.71
 70
    64
  0
VERTEX
  5
87CB3
100
AcDbEntity
  8
0
100
AcDbVertex
100
AcDbPolygonMeshVertex
 10
2.597
 20
-4.75
 30
4.71
 70
    64
  0
SEQEND
  5
87CB4
100
AcDbEntity
  8
0
  0
POLYLINE
  5
87CB5
100
AcDbEntity
  8
0
100
AcDbPolygonMesh
 66
     1
 10
0.0
 20
0.0
 30
0.0
 70
    16
 71
     6
 72
     3
  0
VERTEX
  5
87CB6
100
AcDbEntity
  8
0
100
AcDbVertex
100
AcDbPolygonMeshVertex
 10
2.037
 20
-4.75
 30
4.71
 70
    64
  0
VERTEX
  5
87CB7
100
AcDbEntity
  8
0
100
AcDbVertex
100
AcDbPolygonMeshVertex
 10
2.037
 20
-4.75
 30
4.39
 70
    64
  0
VERTEX
  5
87CB8
100
AcDbEntity
  8
0
100
AcDbVertex
100
AcDbPolygonMeshVertex
 10
2.037
 20
-4.75
 30
4.39
 70
    64
  0
VERTEX
  5
87CB9
100
AcDbEntity
  8
0
100
AcDbVertex
100
AcDbPolygonMeshVertex
 10
1.657
 20
-4.75
 30
4.71
 70
    64
  0
VERTEX
  5
87CBA
100
AcDbEntity
  8
0
100
AcDbVertex
100
AcDbPolygonMeshVertex
 10
1.657
 20
-4.75
 30
4.39
 70
    64
  0
VERTEX
  5
87CBB
100
AcDbEntity
  8
0
100
AcDbVertex
100
AcDbPolygonMeshVertex
 10
1.657
 20
-4.75
 30
4.39
 70
    64
  0
VERTEX
  5
87CBC
100
AcDbEntity
  8
0
100
AcDbVertex
100
AcDbPolygonMeshVertex
 10
1.657
 20
-4.31
 30
4.71
 70
    64
  0
VERTEX
  5
87CBD
100
AcDbEntity
  8
0
100
AcDbVertex
100
AcDbPolygonMeshVertex
 10
1.657
 20
-4.31
 30
4.39
 70
    64
  0
VERTEX
  5
87CBE
100
AcDbEntity
  8
0
100
AcDbVertex
100
AcDbPolygonMeshVertex
 10
1.657
 20
-4.75
 30
4.39
 70
    64
  0
VERTEX
  5
87CBF
100
AcDbEntity
  8
0
100
AcDbVertex
100
AcDbPolygonMeshVertex
 10
2.037
 20
-4.31
 30
4.71
 70
    64
  0
VERTEX
  5
87CC0
100
AcDbEntity
  8
0
100
AcDbVertex
100
AcDbPolygonMeshVertex
 10
2.037
 20
-4.31
 30
4.39
 70
    64
  0
VERTEX
  5
87CC1
100
AcDbEntity
  8
0
100
AcDbVertex
100
AcDbPolygonMeshVertex
 10
2.037
 20
-4.75
 30
4.39
 70
    64
  0
VERTEX
  5
87CC2
100
AcDbEntity
  8
0
100
AcDbVertex
100
AcDbPolygonMeshVertex
 10
2.037
 20
-4.31
 30
4.71
 70
    64
  0
VERTEX
  5
87CC3
100
AcDbEntity
  8
0
100
AcDbVertex
100
AcDbPolygonMeshVertex
 10
2.037
 20
-4.31
 30
4.71
 70
    64
  0
VERTEX
  5
87CC4
100
AcDbEntity
  8
0
100
AcDbVertex
100
AcDbPolygonMeshVertex
 10
2.037
 20
-4.75
 30
4.71
 70
    64
  0
VERTEX
  5
87CC5
100
AcDbEntity
  8
0
100
AcDbVertex
100
AcDbPolygonMeshVertex
 10
1.657
 20
-4.31
 30
4.71
 70
    64
  0
VERTEX
  5
87CC6
100
AcDbEntity
  8
0
100
AcDbVertex
100
AcDbPolygonMeshVertex
 10
1.657
 20
-4.31
 30
4.71
 70
    64
  0
VERTEX
  5
87CC7
100
AcDbEntity
  8
0
100
AcDbVertex
100
AcDbPolygonMeshVertex
 10
1.657
 20
-4.75
 30
4.71
 70
    64
  0
SEQEND
  5
87CC8
100
AcDbEntity
  8
0
  0
LINE
  5
87CC9
100
AcDbEntity
  8
0
100
AcDbLine
 10
1.814773
 20
-4.470356
 30
4.71
 11
1.866661
 21
-4.65281
 31
4.71
  0
LINE
  5
87CCA
100
AcDbEntity
  8
0
100
AcDbLine
 10
1.826287
 20
-4.467285
 30
4.71
 11
1.878174
 21
-4.64974
 31
4.71
  0
CIRCLE
  5
87CCB
100
AcDbEntity
  8
0
100
AcDbCircle
 10
1.847
 20
-4.56
 30
4.71
 40
0.095
  0
LINE
  5
87CCC
100
AcDbEntity
  8
0
100
AcDbLine
 10
2.754773
 20
-4.470356
 30
4.71
 11
2.806661
 21
-4.65281
 31
4.71
  0
LINE
  5
87CCD
100
AcDbEntity
  8
0
100
AcDbLine
 10
2.766287
 20
-4.467285
 30
4.71
 11
2.818174
 21
-4.64974
 31
4.71
  0
CIRCLE
  5
87CCE
100
AcDbEntity
  8
0
100
AcDbCircle
 10
2.787
 20
-4.56
 30
4.71
 40
0.095
  0
POLYLINE
  5
87CCF
100
AcDbEntity
  8
0
100
AcDbPolygonMesh
 66
     1
 10
0.0
 20
0.0
 30
0.0
 70
    16
 71
     6
 72
     3
  0
VERTEX
  5
87CD0
100
AcDbEntity
  8
0
100
AcDbVertex
100
AcDbPolygonMeshVertex
 10
1.657
 20
-1.15
 30
5.11
 70
    64
  0
VERTEX
  5
87CD1
100
AcDbEntity
  8
0
100
AcDbVertex
100
AcDbPolygonMeshVertex
 10
1.657
 20
-1.15
 30
4.22
 70
    64
  0
VERTEX
  5
87CD2
100
AcDbEntity
  8
0
100
AcDbVertex
100
AcDbPolygonMeshVertex
 10
1.657
 20
-1.15
 30
4.22
 70
    64
  0
VERTEX
  5
87CD3
100
AcDbEntity
  8
0
100
AcDbVertex
100
AcDbPolygonMeshVertex
 10
1.817
 20
-1.15
 30
5.11
 70
    64
  0
VERTEX
  5
87CD4
100
AcDbEntity
  8
0
100
AcDbVertex
100
AcDbPolygonMeshVertex
 10
1.817
 20
-1.15
 30
4.22
 70
    64
  0
VERTEX
  5
87CD5
100
AcDbEntity
  8
0
100
AcDbVertex
100
AcDbPolygonMeshVertex
 10
1.817
 20
-1.15
 30
4.22
 70
    64
  0
VERTEX
  5
87CD6
100
AcDbEntity
  8
0
100
AcDbVertex
100
AcDbPolygonMeshVertex
 10
1.817
 20
-2.12
 30
5.11
 70
    64
  0
VERTEX
  5
87CD7
100
AcDbEntity
  8
0
100
AcDbVertex
100
AcDbPolygonMeshVertex
 10
1.817
 20
-2.12
 30
4.22
 70
    64
  0
VERTEX
  5
87CD8
100
AcDbEntity
  8
0
100
AcDbVertex
100
AcDbPolygonMeshVertex
 10
1.817
 20
-1.15
 30
4.22
 70
    64
  0
VERTEX
  5
87CD9
100
AcDbEntity
  8
0
100
AcDbVertex
100
AcDbPolygonMeshVertex
 10
1.657
 20
-2.12
 30
5.11
 70
    64
  0
VERTEX
  5
87CDA
100
AcDbEntity
  8
0
100
AcDbVertex
100
AcDbPolygonMeshVertex
 10
1.657
 20
-2.12
 30
4.22
 70
    64
  0
VERTEX
  5
87CDB
100
AcDbEntity
  8
0
100
AcDbVertex
100
AcDbPolygonMeshVertex
 10
1.657
 20
-1.15
 30
4.22
 70
    64
  0
VERTEX
  5
87CDC
100
AcDbEntity
  8
0
100
AcDbVertex
100
AcDbPolygonMeshVertex
 10
1.657
 20
-2.12
 30
5.11
 70
    64
  0
VERTEX
  5
87CDD
100
AcDbEntity
  8
0
100
AcDbVertex
100
AcDbPolygonMeshVertex
 10
1.657
 20
-2.12
 30
5.11
 70
    64
  0
VERTEX
  5
87CDE
100
AcDbEntity
  8
0
100
AcDbVertex
100
AcDbPolygonMeshVertex
 10
1.657
 20
-1.15
 30
5.11
 70
    64
  0
VERTEX
  5
87CDF
100
AcDbEntity
  8
0
100
AcDbVertex
100
AcDbPolygonMeshVertex
 10
1.817
 20
-2.12
 30
5.11
 70
    64
  0
VERTEX
  5
87CE0
100
AcDbEntity
  8
0
100
AcDbVertex
100
AcDbPolygonMeshVertex
 10
1.817
 20
-2.12
 30
5.11
 70
    64
  0
VERTEX
  5
87CE1
100
AcDbEntity
  8
0
100
AcDbVertex
100
AcDbPolygonMeshVertex
 10
1.817
 20
-1.15
 30
5.11
 70
    64
  0
SEQEND
  5
87CE2
100
AcDbEntity
  8
0
  0
POLYLINE
  5
87CE3
100
AcDbEntity
  8
0
100
AcDbPolygonMesh
 66
     1
 10
0.0
 20
0.0
 30
0.0
 70
    16
 71
     6
 72
     3
  0
VERTEX
  5
87CE4
100
AcDbEntity
  8
0
100
AcDbVertex
100
AcDbPolygonMeshVertex
 10
2.817
 20
-1.15
 30
5.11
 70
    64
  0
VERTEX
  5
87CE5
100
AcDbEntity
  8
0
100
AcDbVertex
100
AcDbPolygonMeshVertex
 10
2.817
 20
-1.15
 30
4.22
 70
    64
  0
VERTEX
  5
87CE6
100
AcDbEntity
  8
0
100
AcDbVertex
100
AcDbPolygonMeshVertex
 10
2.817
 20
-1.15
 30
4.22
 70
    64
  0
VERTEX
  5
87CE7
100
AcDbEntity
  8
0
100
AcDbVertex
100
AcDbPolygonMeshVertex
 10
2.977
 20
-1.15
 30
5.11
 70
    64
  0
VERTEX
  5
87CE8
100
AcDbEntity
  8
0
100
AcDbVertex
100
AcDbPolygonMeshVertex
 10
2.977
 20
-1.15
 30
4.22
 70
    64
  0
VERTEX
  5
87CE9
100
AcDbEntity
  8
0
100
AcDbVertex
100
AcDbPolygonMeshVertex
 10
2.977
 20
-1.15
 30
4.22
 70
    64
  0
VERTEX
  5
87CEA
100
AcDbEntity
  8
0
100
AcDbVertex
100
AcDbPolygonMeshVertex
 10
2.977
 20
-2.12
 30
5.11
 70
    64
  0
VERTEX
  5
87CEB
100
AcDbEntity
  8
0
100
AcDbVertex
100
AcDbPolygonMeshVertex
 10
2.977
 20
-2.12
 30
4.22
 70
    64
  0
VERTEX
  5
87CEC
100
AcDbEntity
  8
0
100
AcDbVertex
100
AcDbPolygonMeshVertex
 10
2.977
 20
-1.15
 30
4.22
 70
    64
  0
VERTEX
  5
87CED
100
AcDbEntity
  8
0
100
AcDbVertex
100
AcDbPolygonMeshVertex
 10
2.817
 20
-2.12
 30
5.11
 70
    64
  0
VERTEX
  5
87CEE
100
AcDbEntity
  8
0
100
AcDbVertex
100
AcDbPolygonMeshVertex
 10
2.817
 20
-2.12
 30
4.22
 70
    64
  0
VERTEX
  5
87CEF
100
AcDbEntity
  8
0
100
AcDbVertex
100
AcDbPolygonMeshVertex
 10
2.817
 20
-1.15
 30
4.22
 70
    64
  0
VERTEX
  5
87CF0
100
AcDbEntity
  8
0
100
AcDbVertex
100
AcDbPolygonMeshVertex
 10
2.817
 20
-2.12
 30
5.11
 70
    64
  0
VERTEX
  5
87CF1
100
AcDbEntity
  8
0
100
AcDbVertex
100
AcDbPolygonMeshVertex
 10
2.817
 20
-2.12
 30
5.11
 70
    64
  0
VERTEX
  5
87CF2
100
AcDbEntity
  8
0
100
AcDbVertex
100
AcDbPolygonMeshVertex
 10
2.817
 20
-1.15
 30
5.11
 70
    64
  0
VERTEX
  5
87CF3
100
AcDbEntity
  8
0
100
AcDbVertex
100
AcDbPolygonMeshVertex
 10
2.977
 20
-2.12
 30
5.11
 70
    64
  0
VERTEX
  5
87CF4
100
AcDbEntity
  8
0
100
AcDbVertex
100
AcDbPolygonMeshVertex
 10
2.977
 20
-2.12
 30
5.11
 70
    64
  0
VERTEX
  5
87CF5
100
AcDbEntity
  8
0
100
AcDbVertex
100
AcDbPolygonMeshVertex
 10
2.977
 20
-1.15
 30
5.11
 70
    64
  0
SEQEND
  5
87CF6
100
AcDbEntity
  8
0
  0
POLYLINE
  5
87CF7
100
AcDbEntity
  8
0
100
AcDbPolygonMesh
 66
     1
 10
0.0
 20
0.0
 30
0.0
 70
    16
 71
     6
 72
     3
  0
VERTEX
  5
87CF8
100
AcDbEntity
  8
0
100
AcDbVertex
100
AcDbPolygonMeshVertex
 10
2.067
 20
-0.81
 30
4.73
 70
    64
  0
VERTEX
  5
87CF9
100
AcDbEntity
  8
0
100
AcDbVertex
100
AcDbPolygonMeshVertex
 10
2.067
 20
-0.81
 30
4.39
 70
    64
  0
VERTEX
  5
87CFA
100
AcDbEntity
  8
0
100
AcDbVertex
100
AcDbPolygonMeshVertex
 10
2.067
 20
-0.81
 30
4.39
 70
    64
  0
VERTEX
  5
87CFB
100
AcDbEntity
  8
0
100
AcDbVertex
100
AcDbPolygonMeshVertex
 10
2.567
 20
-0.81
 30
4.73
 70
    64
  0
VERTEX
  5
87CFC
100
AcDbEntity
  8
0
100
AcDbVertex
100
AcDbPolygonMeshVertex
 10
2.567
 20
-0.81
 30
4.39
 70
    64
  0
VERTEX
  5
87CFD
100
AcDbEntity
  8
0
100
AcDbVertex
100
AcDbPolygonMeshVertex
 10
2.567
 20
-0.81
 30
4.39
 70
    64
  0
VERTEX
  5
87CFE
100
AcDbEntity
  8
0
100
AcDbVertex
100
AcDbPolygonMeshVertex
 10
2.567
 20
-1.93
 30
4.73
 70
    64
  0
VERTEX
  5
87CFF
100
AcDbEntity
  8
0
100
AcDbVertex
100
AcDbPolygonMeshVertex
 10
2.567
 20
-1.93
 30
4.39
 70
    64
  0
VERTEX
  5
87D00
100
AcDbEntity
  8
0
100
AcDbVertex
100
AcDbPolygonMeshVertex
 10
2.567
 20
-0.81
 30
4.39
 70
    64
  0
VERTEX
  5
87D01
100
AcDbEntity
  8
0
100
AcDbVertex
100
AcDbPolygonMeshVertex
 10
2.067
 20
-1.93
 30
4.73
 70
    64
  0
VERTEX
  5
87D02
100
AcDbEntity
  8
0
100
AcDbVertex
100
AcDbPolygonMeshVertex
 10
2.067
 20
-1.93
 30
4.39
 70
    64
  0
VERTEX
  5
87D03
100
AcDbEntity
  8
0
100
AcDbVertex
100
AcDbPolygonMeshVertex
 10
2.067
 20
-0.81
 30
4.39
 70
    64
  0
VERTEX
  5
87D04
100
AcDbEntity
  8
0
100
AcDbVertex
100
AcDbPolygonMeshVertex
 10
2.067
 20
-1.93
 30
4.73
 70
    64
  0
VERTEX
  5
87D05
100
AcDbEntity
  8
0
100
AcDbVertex
100
AcDbPolygonMeshVertex
 10
2.067
 20
-1.93
 30
4.73
 70
    64
  0
VERTEX
  5
87D06
100
AcDbEntity
  8
0
100
AcDbVertex
100
AcDbPolygonMeshVertex
 10
2.067
 20
-0.81
 30
4.73
 70
    64
  0
VERTEX
  5
87D07
100
AcDbEntity
  8
0
100
AcDbVertex
100
AcDbPolygonMeshVertex
 10
2.567
 20
-1.93
 30
4.73
 70
    64
  0
VERTEX
  5
87D08
100
AcDbEntity
  8
0
100
AcDbVertex
100
AcDbPolygonMeshVertex
 10
2.567
 20
-1.93
 30
4.73
 70
    64
  0
VERTEX
  5
87D09
100
AcDbEntity
  8
0
100
AcDbVertex
100
AcDbPolygonMeshVertex
 10
2.567
 20
-0.81
 30
4.73
 70
    64
  0
SEQEND
  5
87D0A
100
AcDbEntity
  8
0
  0
POLYLINE
  5
87D0B
100
AcDbEntity
  8
0
100
AcDbPolygonMesh
 66
     1
 10
0.0
 20
0.0
 30
0.0
 70
    16
 71
     6
 72
     3
  0
VERTEX
  5
87D0C
100
AcDbEntity
  8
0
100
AcDbVertex
100
AcDbPolygonMeshVertex
 10
3.127
 20
-0.81
 30
4.73
 70
    64
  0
VERTEX
  5
87D0D
100
AcDbEntity
  8
0
100
AcDbVertex
100
AcDbPolygonMeshVertex
 10
3.127
 20
-0.81
 30
4.39
 70
    64
  0
VERTEX
  5
87D0E
100
AcDbEntity
  8
0
100
AcDbVertex
100
AcDbPolygonMeshVertex
 10
3.127
 20
-0.81
 30
4.39
 70
    64
  0
VERTEX
  5
87D0F
100
AcDbEntity
  8
0
100
AcDbVertex
100
AcDbPolygonMeshVertex
 10
3.627
 20
-0.81
 30
4.73
 70
    64
  0
VERTEX
  5
87D10
100
AcDbEntity
  8
0
100
AcDbVertex
100
AcDbPolygonMeshVertex
 10
3.627
 20
-0.81
 30
4.39
 70
    64
  0
VERTEX
  5
87D11
100
AcDbEntity
  8
0
100
AcDbVertex
100
AcDbPolygonMeshVertex
 10
3.627
 20
-0.81
 30
4.39
 70
    64
  0
VERTEX
  5
87D12
100
AcDbEntity
  8
0
100
AcDbVertex
100
AcDbPolygonMeshVertex
 10
3.627
 20
-1.93
 30
4.73
 70
    64
  0
VERTEX
  5
87D13
100
AcDbEntity
  8
0
100
AcDbVertex
100
AcDbPolygonMeshVertex
 10
3.627
 20
-1.93
 30
4.39
 70
    64
  0
VERTEX
  5
87D14
100
AcDbEntity
  8
0
100
AcDbVertex
100
AcDbPolygonMeshVertex
 10
3.627
 20
-0.81
 30
4.39
 70
    64
  0
VERTEX
  5
87D15
100
AcDbEntity
  8
0
100
AcDbVertex
100
AcDbPolygonMeshVertex
 10
3.127
 20
-1.93
 30
4.73
 70
    64
  0
VERTEX
  5
87D16
100
AcDbEntity
  8
0
100
AcDbVertex
100
AcDbPolygonMeshVertex
 10
3.127
 20
-1.93
 30
4.39
 70
    64
  0
VERTEX
  5
87D17
100
AcDbEntity
  8
0
100
AcDbVertex
100
AcDbPolygonMeshVertex
 10
3.127
 20
-0.81
 30
4.39
 70
    64
  0
VERTEX
  5
87D18
100
AcDbEntity
  8
0
100
AcDbVertex
100
AcDbPolygonMeshVertex
 10
3.127
 20
-1.93
 30
4.73
 70
    64
  0
VERTEX
  5
87D19
100
AcDbEntity
  8
0
100
AcDbVertex
100
AcDbPolygonMeshVertex
 10
3.127
 20
-1.93
 30
4.73
 70
    64
  0
VERTEX
  5
87D1A
100
AcDbEntity
  8
0
100
AcDbVertex
100
AcDbPolygonMeshVertex
 10
3.127
 20
-0.81
 30
4.73
 70
    64
  0
VERTEX
  5
87D1B
100
AcDbEntity
  8
0
100
AcDbVertex
100
AcDbPolygonMeshVertex
 10
3.627
 20
-1.93
 30
4.73
 70
    64
  0
VERTEX
  5
87D1C
100
AcDbEntity
  8
0
100
AcDbVertex
100
AcDbPolygonMeshVertex
 10
3.627
 20
-1.93
 30
4.73
 70
    64
  0
VERTEX
  5
87D1D
100
AcDbEntity
  8
0
100
AcDbVertex
100
AcDbPolygonMeshVertex
 10
3.627
 20
-0.81
 30
4.73
 70
    64
  0
SEQEND
  5
87D1E
100
AcDbEntity
  8
0
  0
POLYLINE
  5
87D1F
100
AcDbEntity
  8
0
100
AcDbPolygonMesh
 66
     1
 10
0.0
 20
0.0
 30
0.0
 70
    16
 71
     6
 72
     3
  0
VERTEX
  5
87D20
100
AcDbEntity
  8
0
100
AcDbVertex
100
AcDbPolygonMeshVertex
 10
1.657
 20
-1.15
 30
4.22
 70
    64
  0
VERTEX
  5
87D21
100
AcDbEntity
  8
0
100
AcDbVertex
100
AcDbPolygonMeshVertex
 10
1.657
 20
-1.15
 30
2.95
 70
    64
  0
VERTEX
  5
87D22
100
AcDbEntity
  8
0
100
AcDbVertex
100
AcDbPolygonMeshVertex
 10
1.657
 20
-1.15
 30
2.95
 70
    64
  0
VERTEX
  5
87D23
100
AcDbEntity
  8
0
100
AcDbVertex
100
AcDbPolygonMeshVertex
 10
1.817
 20
-1.15
 30
4.22
 70
    64
  0
VERTEX
  5
87D24
100
AcDbEntity
  8
0
100
AcDbVertex
100
AcDbPolygonMeshVertex
 10
1.817
 20
-1.15
 30
2.95
 70
    64
  0
VERTEX
  5
87D25
100
AcDbEntity
  8
0
100
AcDbVertex
100
AcDbPolygonMeshVertex
 10
1.817
 20
-1.15
 30
2.95
 70
    64
  0
VERTEX
  5
87D26
100
AcDbEntity
  8
0
100
AcDbVertex
100
AcDbPolygonMeshVertex
 10
1.817
 20
-1.43
 30
4.22
 70
    64
  0
VERTEX
  5
87D27
100
AcDbEntity
  8
0
100
AcDbVertex
100
AcDbPolygonMeshVertex
 10
1.817
 20
-1.43
 30
2.95
 70
    64
  0
VERTEX
  5
87D28
100
AcDbEntity
  8
0
100
AcDbVertex
100
AcDbPolygonMeshVertex
 10
1.817
 20
-1.15
 30
2.95
 70
    64
  0
VERTEX
  5
87D29
100
AcDbEntity
  8
0
100
AcDbVertex
100
AcDbPolygonMeshVertex
 10
1.657
 20
-1.43
 30
4.22
 70
    64
  0
VERTEX
  5
87D2A
100
AcDbEntity
  8
0
100
AcDbVertex
100
AcDbPolygonMeshVertex
 10
1.657
 20
-1.43
 30
2.95
 70
    64
  0
VERTEX
  5
87D2B
100
AcDbEntity
  8
0
100
AcDbVertex
100
AcDbPolygonMeshVertex
 10
1.657
 20
-1.15
 30
2.95
 70
    64
  0
VERTEX
  5
87D2C
100
AcDbEntity
  8
0
100
AcDbVertex
100
AcDbPolygonMeshVertex
 10
1.657
 20
-1.43
 30
4.22
 70
    64
  0
VERTEX
  5
87D2D
100
AcDbEntity
  8
0
100
AcDbVertex
100
AcDbPolygonMeshVertex
 10
1.657
 20
-1.43
 30
4.22
 70
    64
  0
VERTEX
  5
87D2E
100
AcDbEntity
  8
0
100
AcDbVertex
100
AcDbPolygonMeshVertex
 10
1.657
 20
-1.15
 30
4.22
 70
    64
  0
VERTEX
  5
87D2F
100
AcDbEntity
  8
0
100
AcDbVertex
100
AcDbPolygonMeshVertex
 10
1.817
 20
-1.43
 30
4.22
 70
    64
  0
VERTEX
  5
87D30
100
AcDbEntity
  8
0
100
AcDbVertex
100
AcDbPolygonMeshVertex
 10
1.817
 20
-1.43
 30
4.22
 70
    64
  0
VERTEX
  5
87D31
100
AcDbEntity
  8
0
100
AcDbVertex
100
AcDbPolygonMeshVertex
 10
1.817
 20
-1.15
 30
4.22
 70
    64
  0
SEQEND
  5
87D32
100
AcDbEntity
  8
0
  0
POLYLINE
  5
87D33
100
AcDbEntity
  8
0
100
AcDbPolygonMesh
 66
     1
 10
0.0
 20
0.0
 30
0.0
 70
    16
 71
     6
 72
     3
  0
VERTEX
  5
87D34
100
AcDbEntity
  8
0
100
AcDbVertex
100
AcDbPolygonMeshVertex
 10
2.817
 20
-1.15
 30
4.22
 70
    64
  0
VERTEX
  5
87D35
100
AcDbEntity
  8
0
100
AcDbVertex
100
AcDbPolygonMeshVertex
 10
2.817
 20
-1.15
 30
2.95
 70
    64
  0
VERTEX
  5
87D36
100
AcDbEntity
  8
0
100
AcDbVertex
100
AcDbPolygonMeshVertex
 10
2.817
 20
-1.15
 30
2.95
 70
    64
  0
VERTEX
  5
87D37
100
AcDbEntity
  8
0
100
AcDbVertex
100
AcDbPolygonMeshVertex
 10
2.977
 20
-1.15
 30
4.22
 70
    64
  0
VERTEX
  5
87D38
100
AcDbEntity
  8
0
100
AcDbVertex
100
AcDbPolygonMeshVertex
 10
2.977
 20
-1.15
 30
2.95
 70
    64
  0
VERTEX
  5
87D39
100
AcDbEntity
  8
0
100
AcDbVertex
100
AcDbPolygonMeshVertex
 10
2.977
 20
-1.15
 30
2.95
 70
    64
  0
VERTEX
  5
87D3A
100
AcDbEntity
  8
0
100
AcDbVertex
100
AcDbPolygonMeshVertex
 10
2.977
 20
-1.43
 30
4.22
 70
    64
  0
VERTEX
  5
87D3B
100
AcDbEntity
  8
0
100
AcDbVertex
100
AcDbPolygonMeshVertex
 10
2.977
 20
-1.43
 30
2.95
 70
    64
  0
VERTEX
  5
87D3C
100
AcDbEntity
  8
0
100
AcDbVertex
100
AcDbPolygonMeshVertex
 10
2.977
 20
-1.15
 30
2.95
 70
    64
  0
VERTEX
  5
87D3D
100
AcDbEntity
  8
0
100
AcDbVertex
100
AcDbPolygonMeshVertex
 10
2.817
 20
-1.43
 30
4.22
 70
    64
  0
VERTEX
  5
87D3E
100
AcDbEntity
  8
0
100
AcDbVertex
100
AcDbPolygonMeshVertex
 10
2.817
 20
-1.43
 30
2.95
 70
    64
  0
VERTEX
  5
87D3F
100
AcDbEntity
  8
0
100
AcDbVertex
100
AcDbPolygonMeshVertex
 10
2.817
 20
-1.15
 30
2.95
 70
    64
  0
VERTEX
  5
87D40
100
AcDbEntity
  8
0
100
AcDbVertex
100
AcDbPolygonMeshVertex
 10
2.817
 20
-1.43
 30
4.22
 70
    64
  0
VERTEX
  5
87D41
100
AcDbEntity
  8
0
100
AcDbVertex
100
AcDbPolygonMeshVertex
 10
2.817
 20
-1.43
 30
4.22
 70
    64
  0
VERTEX
  5
87D42
100
AcDbEntity
  8
0
100
AcDbVertex
100
AcDbPolygonMeshVertex
 10
2.817
 20
-1.15
 30
4.22
 70
    64
  0
VERTEX
  5
87D43
100
AcDbEntity
  8
0
100
AcDbVertex
100
AcDbPolygonMeshVertex
 10
2.977
 20
-1.43
 30
4.22
 70
    64
  0
VERTEX
  5
87D44
100
AcDbEntity
  8
0
100
AcDbVertex
100
AcDbPolygonMeshVertex
 10
2.977
 20
-1.43
 30
4.22
 70
    64
  0
VERTEX
  5
87D45
100
AcDbEntity
  8
0
100
AcDbVertex
100
AcDbPolygonMeshVertex
 10
2.977
 20
-1.15
 30
4.22
 70
    64
  0
SEQEND
  5
87D46
100
AcDbEntity
  8
0
  0
POLYLINE
  5
87D47
100
AcDbEntity
  8
0
100
AcDbPolygonMesh
 66
     1
 10
0.0
 20
0.0
 30
0.0
 70
    16
 71
     6
 72
     3
  0
VERTEX
  5
87D48
100
AcDbEntity
  8
0
100
AcDbVertex
100
AcDbPolygonMeshVertex
 10
3.127
 20
-0.81
 30
4.86
 70
    64
  0
VERTEX
  5
87D49
100
AcDbEntity
  8
0
100
AcDbVertex
100
AcDbPolygonMeshVertex
 10
3.127
 20
-0.81
 30
4.73
 70
    64
  0
VERTEX
  5
87D4A
100
AcDbEntity
  8
0
100
AcDbVertex
100
AcDbPolygonMeshVertex
 10
3.127
 20
-0.81
 30
4.73
 70
    64
  0
VERTEX
  5
87D4B
100
AcDbEntity
  8
0
100
AcDbVertex
100
AcDbPolygonMeshVertex
 10
3.627
 20
-0.81
 30
4.86
 70
    64
  0
VERTEX
  5
87D4C
100
AcDbEntity
  8
0
100
AcDbVertex
100
AcDbPolygonMeshVertex
 10
3.627
 20
-0.81
 30
4.73
 70
    64
  0
VERTEX
  5
87D4D
100
AcDbEntity
  8
0
100
AcDbVertex
100
AcDbPolygonMeshVertex
 10
3.627
 20
-0.81
 30
4.73
 70
    64
  0
VERTEX
  5
87D4E
100
AcDbEntity
  8
0
100
AcDbVertex
100
AcDbPolygonMeshVertex
 10
3.627
 20
-1.31
 30
4.86
 70
    64
  0
VERTEX
  5
87D4F
100
AcDbEntity
  8
0
100
AcDbVertex
100
AcDbPolygonMeshVertex
 10
3.627
 20
-1.31
 30
4.73
 70
    64
  0
VERTEX
  5
87D50
100
AcDbEntity
  8
0
100
AcDbVertex
100
AcDbPolygonMeshVertex
 10
3.627
 20
-0.81
 30
4.73
 70
    64
  0
VERTEX
  5
87D51
100
AcDbEntity
  8
0
100
AcDbVertex
100
AcDbPolygonMeshVertex
 10
3.127
 20
-1.31
 30
4.86
 70
    64
  0
VERTEX
  5
87D52
100
AcDbEntity
  8
0
100
AcDbVertex
100
AcDbPolygonMeshVertex
 10
3.127
 20
-1.31
 30
4.73
 70
    64
  0
VERTEX
  5
87D53
100
AcDbEntity
  8
0
100
AcDbVertex
100
AcDbPolygonMeshVertex
 10
3.127
 20
-0.81
 30
4.73
 70
    64
  0
VERTEX
  5
87D54
100
AcDbEntity
  8
0
100
AcDbVertex
100
AcDbPolygonMeshVertex
 10
3.127
 20
-1.31
 30
4.86
 70
    64
  0
VERTEX
  5
87D55
100
AcDbEntity
  8
0
100
AcDbVertex
100
AcDbPolygonMeshVertex
 10
3.127
 20
-1.31
 30
4.86
 70
    64
  0
VERTEX
  5
87D56
100
AcDbEntity
  8
0
100
AcDbVertex
100
AcDbPolygonMeshVertex
 10
3.127
 20
-0.81
 30
4.86
 70
    64
  0
VERTEX
  5
87D57
100
AcDbEntity
  8
0
100
AcDbVertex
100
AcDbPolygonMeshVertex
 10
3.627
 20
-1.31
 30
4.86
 70
    64
  0
VERTEX
  5
87D58
100
AcDbEntity
  8
0
100
AcDbVertex
100
AcDbPolygonMeshVertex
 10
3.627
 20
-1.31
 30
4.86
 70
    64
  0
VERTEX
  5
87D59
100
AcDbEntity
  8
0
100
AcDbVertex
100
AcDbPolygonMeshVertex
 10
3.627
 20
-0.81
 30
4.86
 70
    64
  0
SEQEND
  5
87D5A
100
AcDbEntity
  8
0
  0
CIRCLE
  5
87D5B
100
AcDbEntity
  8
0
100
AcDbCircle
 10
3.377
 20
-1.06
 30
4.86
 40
0.155
  0
POLYLINE
  5
87D5C
100
AcDbEntity
  8
0
100
AcDbPolygonMesh
 66
     1
 10
0.0
 20
0.0
 30
0.0
 70
    16
 71
     6
 72
     3
  0
VERTEX
  5
87D5D
100
AcDbEntity
  8
0
100
AcDbVertex
100
AcDbPolygonMeshVertex
 10
2.067
 20
-0.81
 30
4.86
 70
    64
  0
VERTEX
  5
87D5E
100
AcDbEntity
  8
0
100
AcDbVertex
100
AcDbPolygonMeshVertex
 10
2.067
 20
-0.81
 30
4.73
 70
    64
  0
VERTEX
  5
87D5F
100
AcDbEntity
  8
0
100
AcDbVertex
100
AcDbPolygonMeshVertex
 10
2.067
 20
-0.81
 30
4.73
 70
    64
  0
VERTEX
  5
87D60
100
AcDbEntity
  8
0
100
AcDbVertex
100
AcDbPolygonMeshVertex
 10
2.567
 20
-0.81
 30
4.86
 70
    64
  0
VERTEX
  5
87D61
100
AcDbEntity
  8
0
100
AcDbVertex
100
AcDbPolygonMeshVertex
 10
2.567
 20
-0.81
 30
4.73
 70
    64
  0
VERTEX
  5
87D62
100
AcDbEntity
  8
0
100
AcDbVertex
100
AcDbPolygonMeshVertex
 10
2.567
 20
-0.81
 30
4.73
 70
    64
  0
VERTEX
  5
87D63
100
AcDbEntity
  8
0
100
AcDbVertex
100
AcDbPolygonMeshVertex
 10
2.567
 20
-1.31
 30
4.86
 70
    64
  0
VERTEX
  5
87D64
100
AcDbEntity
  8
0
100
AcDbVertex
100
AcDbPolygonMeshVertex
 10
2.567
 20
-1.31
 30
4.73
 70
    64
  0
VERTEX
  5
87D65
100
AcDbEntity
  8
0
100
AcDbVertex
100
AcDbPolygonMeshVertex
 10
2.567
 20
-0.81
 30
4.73
 70
    64
  0
VERTEX
  5
87D66
100
AcDbEntity
  8
0
100
AcDbVertex
100
AcDbPolygonMeshVertex
 10
2.067
 20
-1.31
 30
4.86
 70
    64
  0
VERTEX
  5
87D67
100
AcDbEntity
  8
0
100
AcDbVertex
100
AcDbPolygonMeshVertex
 10
2.067
 20
-1.31
 30
4.73
 70
    64
  0
VERTEX
  5
87D68
100
AcDbEntity
  8
0
100
AcDbVertex
100
AcDbPolygonMeshVertex
 10
2.067
 20
-0.81
 30
4.73
 70
    64
  0
VERTEX
  5
87D69
100
AcDbEntity
  8
0
100
AcDbVertex
100
AcDbPolygonMeshVertex
 10
2.067
 20
-1.31
 30
4.86
 70
    64
  0
VERTEX
  5
87D6A
100
AcDbEntity
  8
0
100
AcDbVertex
100
AcDbPolygonMeshVertex
 10
2.067
 20
-1.31
 30
4.86
 70
    64
  0
VERTEX
  5
87D6B
100
AcDbEntity
  8
0
100
AcDbVertex
100
AcDbPolygonMeshVertex
 10
2.067
 20
-0.81
 30
4.86
 70
    64
  0
VERTEX
  5
87D6C
100
AcDbEntity
  8
0
100
AcDbVertex
100
AcDbPolygonMeshVertex
 10
2.567
 20
-1.31
 30
4.86
 70
    64
  0
VERTEX
  5
87D6D
100
AcDbEntity
  8
0
100
AcDbVertex
100
AcDbPolygonMeshVertex
 10
2.567
 20
-1.31
 30
4.86
 70
    64
  0
VERTEX
  5
87D6E
100
AcDbEntity
  8
0
100
AcDbVertex
100
AcDbPolygonMeshVertex
 10
2.567
 20
-0.81
 30
4.86
 70
    64
  0
SEQEND
  5
87D6F
100
AcDbEntity
  8
0
  0
CIRCLE
  5
87D70
100
AcDbEntity
  8
0
100
AcDbCircle
 10
2.317
 20
-1.06
 30
4.86
 40
0.155
  0
TEXT
  5
87D71
100
AcDbEntity
  8
0
100
AcDbText
 10
2.235547
 20
-1.123074
 30
4.86
 40
0.12
  1
L2
100
AcDbText
  0
TEXT
  5
87D72
100
AcDbEntity
  8
0
100
AcDbText
 10
3.298128
 20
-1.125554
 30
4.86
 40
0.12
  1
L3
100
AcDbText
  0
LINE
  5
87D73
100
AcDbEntity
  8
0
100
AcDbLine
 10
3.627
 20
-1.31
 30
4.73
 11
3.627
 21
-0.81
 31
4.73
  0
POLYLINE
  5
87D74
100
AcDbEntity
  8
0
100
AcDbPolygonMesh
 66
     1
 10
0.0
 20
0.0
 30
0.0
 70
    16
 71
     6
 72
     3
  0
VERTEX
  5
87D75
100
AcDbEntity
  8
0
100
AcDbVertex
100
AcDbPolygonMeshVertex
 10
-0.398
 20
-6.11
 30
4.077
 70
    64
  0
VERTEX
  5
87D76
100
AcDbEntity
  8
0
100
AcDbVertex
100
AcDbPolygonMeshVertex
 10
-0.398
 20
-6.11
 30
0.577
 70
    64
  0
VERTEX
  5
87D77
100
AcDbEntity
  8
0
100
AcDbVertex
100
AcDbPolygonMeshVertex
 10
-0.398
 20
-6.11
 30
0.577
 70
    64
  0
VERTEX
  5
87D78
100
AcDbEntity
  8
0
100
AcDbVertex
100
AcDbPolygonMeshVertex
 10
-4.218
 20
-6.11
 30
4.077
 70
    64
  0
VERTEX
  5
87D79
100
AcDbEntity
  8
0
100
AcDbVertex
100
AcDbPolygonMeshVertex
 10
-4.218
 20
-6.11
 30
0.577
 70
    64
  0
VERTEX
  5
87D7A
100
AcDbEntity
  8
0
100
AcDbVertex
100
AcDbPolygonMeshVertex
 10
-4.218
 20
-6.11
 30
0.577
 70
    64
  0
VERTEX
  5
87D7B
100
AcDbEntity
  8
0
100
AcDbVertex
100
AcDbPolygonMeshVertex
 10
-4.218
 20
-1.43
 30
4.077
 70
    64
  0
VERTEX
  5
87D7C
100
AcDbEntity
  8
0
100
AcDbVertex
100
AcDbPolygonMeshVertex
 10
-4.218
 20
-1.43
 30
0.577
 70
    64
  0
VERTEX
  5
87D7D
100
AcDbEntity
  8
0
100
AcDbVertex
100
AcDbPolygonMeshVertex
 10
-4.218
 20
-6.11
 30
0.577
 70
    64
  0
VERTEX
  5
87D7E
100
AcDbEntity
  8
0
100
AcDbVertex
100
AcDbPolygonMeshVertex
 10
-0.398
 20
-1.43
 30
4.077
 70
    64
  0
VERTEX
  5
87D7F
100
AcDbEntity
  8
0
100
AcDbVertex
100
AcDbPolygonMeshVertex
 10
-0.398
 20
-1.43
 30
0.577
 70
    64
  0
VERTEX
  5
87D80
100
AcDbEntity
  8
0
100
AcDbVertex
100
AcDbPolygonMeshVertex
 10
-0.398
 20
-6.11
 30
0.577
 70
    64
  0
VERTEX
  5
87D81
100
AcDbEntity
  8
0
100
AcDbVertex
100
AcDbPolygonMeshVertex
 10
-0.398
 20
-1.43
 30
4.077
 70
    64
  0
VERTEX
  5
87D82
100
AcDbEntity
  8
0
100
AcDbVertex
100
AcDbPolygonMeshVertex
 10
-0.398
 20
-1.43
 30
4.077
 70
    64
  0
VERTEX
  5
87D83
100
AcDbEntity
  8
0
100
AcDbVertex
100
AcDbPolygonMeshVertex
 10
-0.398
 20
-6.11
 30
4.077
 70
    64
  0
VERTEX
  5
87D84
100
AcDbEntity
  8
0
100
AcDbVertex
100
AcDbPolygonMeshVertex
 10
-4.218
 20
-1.43
 30
4.077
 70
    64
  0
VERTEX
  5
87D85
100
AcDbEntity
  8
0
100
AcDbVertex
100
AcDbPolygonMeshVertex
 10
-4.218
 20
-1.43
 30
4.077
 70
    64
  0
VERTEX
  5
87D86
100
AcDbEntity
  8
0
100
AcDbVertex
100
AcDbPolygonMeshVertex
 10
-4.218
 20
-6.11
 30
4.077
 70
    64
  0
SEQEND
  5
87D87
100
AcDbEntity
  8
0
  0
POLYLINE
  5
87D88
100
AcDbEntity
  8
0
100
AcDbPolygonMesh
 66
     1
 10
0.0
 20
0.0
 30
0.0
 70
    16
 71
     6
 72
     3
  0
VERTEX
  5
87D89
100
AcDbEntity
  8
0
100
AcDbVertex
100
AcDbPolygonMeshVertex
 10
-0.398
 20
-6.59
 30
3.277
 70
    64
  0
VERTEX
  5
87D8A
100
AcDbEntity
  8
0
100
AcDbVertex
100
AcDbPolygonMeshVertex
 10
-0.398
 20
-6.59
 30
2.107
 70
    64
  0
VERTEX
  5
87D8B
100
AcDbEntity
  8
0
100
AcDbVertex
100
AcDbPolygonMeshVertex
 10
-0.398
 20
-6.59
 30
2.107
 70
    64
  0
VERTEX
  5
87D8C
100
AcDbEntity
  8
0
100
AcDbVertex
100
AcDbPolygonMeshVertex
 10
-4.218
 20
-6.59
 30
3.277
 70
    64
  0
VERTEX
  5
87D8D
100
AcDbEntity
  8
0
100
AcDbVertex
100
AcDbPolygonMeshVertex
 10
-4.218
 20
-6.59
 30
2.107
 70
    64
  0
VERTEX
  5
87D8E
100
AcDbEntity
  8
0
100
AcDbVertex
100
AcDbPolygonMeshVertex
 10
-4.218
 20
-6.59
 30
2.107
 70
    64
  0
VERTEX
  5
87D8F
100
AcDbEntity
  8
0
100
AcDbVertex
100
AcDbPolygonMeshVertex
 10
-4.218
 20
-6.11
 30
3.277
 70
    64
  0
VERTEX
  5
87D90
100
AcDbEntity
  8
0
100
AcDbVertex
100
AcDbPolygonMeshVertex
 10
-4.218
 20
-6.11
 30
2.107
 70
    64
  0
VERTEX
  5
87D91
100
AcDbEntity
  8
0
100
AcDbVertex
100
AcDbPolygonMeshVertex
 10
-4.218
 20
-6.59
 30
2.107
 70
    64
  0
VERTEX
  5
87D92
100
AcDbEntity
  8
0
100
AcDbVertex
100
AcDbPolygonMeshVertex
 10
-0.398
 20
-6.11
 30
3.277
 70
    64
  0
VERTEX
  5
87D93
100
AcDbEntity
  8
0
100
AcDbVertex
100
AcDbPolygonMeshVertex
 10
-0.398
 20
-6.11
 30
2.107
 70
    64
  0
VERTEX
  5
87D94
100
AcDbEntity
  8
0
100
AcDbVertex
100
AcDbPolygonMeshVertex
 10
-0.398
 20
-6.59
 30
2.107
 70
    64
  0
VERTEX
  5
87D95
100
AcDbEntity
  8
0
100
AcDbVertex
100
AcDbPolygonMeshVertex
 10
-0.398
 20
-6.11
 30
3.277
 70
    64
  0
VERTEX
  5
87D96
100
AcDbEntity
  8
0
100
AcDbVertex
100
AcDbPolygonMeshVertex
 10
-0.398
 20
-6.11
 30
3.277
 70
    64
  0
VERTEX
  5
87D97
100
AcDbEntity
  8
0
100
AcDbVertex
100
AcDbPolygonMeshVertex
 10
-0.398
 20
-6.59
 30
3.277
 70
    64
  0
VERTEX
  5
87D98
100
AcDbEntity
  8
0
100
AcDbVertex
100
AcDbPolygonMeshVertex
 10
-4.218
 20
-6.11
 30
3.277
 70
    64
  0
VERTEX
  5
87D99
100
AcDbEntity
  8
0
100
AcDbVertex
100
AcDbPolygonMeshVertex
 10
-4.218
 20
-6.11
 30
3.277
 70
    64
  0
VERTEX
  5
87D9A
100
AcDbEntity
  8
0
100
AcDbVertex
100
AcDbPolygonMeshVertex
 10
-4.218
 20
-6.59
 30
3.277
 70
    64
  0
SEQEND
  5
87D9B
100
AcDbEntity
  8
0
  0
3DFACE
  5
87D9C
100
AcDbEntity
  8
0
100
AcDbFace
 10
-0.958
 20
-0.31
 30
0.387
 11
-0.958
 21
-0.31
 31
0.577
 12
-3.658
 22
-0.31
 32
0.577
 13
-3.658
 23
-0.31
 33
0.387
  0
3DFACE
  5
87D9D
100
AcDbEntity
  8
0
100
AcDbFace
 10
-4.278
 20
-0.93
 30
0.387
 11
-3.658
 21
-0.31
 31
0.387
 12
-0.958
 22
-0.31
 32
0.387
 13
-0.338
 23
-0.93
 33
0.387
  0
POLYLINE
  5
87D9E
100
AcDbEntity
  8
0
100
AcDbPolygonMesh
 66
     1
 10
0.0
 20
0.0
 30
0.0
 70
    16
 71
     6
 72
     3
  0
VERTEX
  5
87D9F
100
AcDbEntity
  8
0
100
AcDbVertex
100
AcDbPolygonMeshVertex
 10
-4.278
 20
-0.93
 30
0.577
 70
    64
  0
VERTEX
  5
87DA0
100
AcDbEntity
  8
0
100
AcDbVertex
100
AcDbPolygonMeshVertex
 10
-4.278
 20
-0.93
 30
0.387
 70
    64
  0
VERTEX
  5
87DA1
100
AcDbEntity
  8
0
100
AcDbVertex
100
AcDbPolygonMeshVertex
 10
-4.278
 20
-0.93
 30
0.387
 70
    64
  0
VERTEX
  5
87DA2
100
AcDbEntity
  8
0
100
AcDbVertex
100
AcDbPolygonMeshVertex
 10
-0.338
 20
-0.93
 30
0.577
 70
    64
  0
VERTEX
  5
87DA3
100
AcDbEntity
  8
0
100
AcDbVertex
100
AcDbPolygonMeshVertex
 10
-0.338
 20
-0.93
 30
0.387
 70
    64
  0
VERTEX
  5
87DA4
100
AcDbEntity
  8
0
100
AcDbVertex
100
AcDbPolygonMeshVertex
 10
-0.338
 20
-0.93
 30
0.387
 70
    64
  0
VERTEX
  5
87DA5
100
AcDbEntity
  8
0
100
AcDbVertex
100
AcDbPolygonMeshVertex
 10
-0.338
 20
-7.12
 30
0.577
 70
    64
  0
VERTEX
  5
87DA6
100
AcDbEntity
  8
0
100
AcDbVertex
100
AcDbPolygonMeshVertex
 10
-0.338
 20
-7.12
 30
0.387
 70
    64
  0
VERTEX
  5
87DA7
100
AcDbEntity
  8
0
100
AcDbVertex
100
AcDbPolygonMeshVertex
 10
-0.338
 20
-0.93
 30
0.387
 70
    64
  0
VERTEX
  5
87DA8
100
AcDbEntity
  8
0
100
AcDbVertex
100
AcDbPolygonMeshVertex
 10
-4.278
 20
-7.12
 30
0.577
 70
    64
  0
VERTEX
  5
87DA9
100
AcDbEntity
  8
0
100
AcDbVertex
100
AcDbPolygonMeshVertex
 10
-4.278
 20
-7.12
 30
0.387
 70
    64
  0
VERTEX
  5
87DAA
100
AcDbEntity
  8
0
100
AcDbVertex
100
AcDbPolygonMeshVertex
 10
-4.278
 20
-0.93
 30
0.387
 70
    64
  0
VERTEX
  5
87DAB
100
AcDbEntity
  8
0
100
AcDbVertex
100
AcDbPolygonMeshVertex
 10
-4.278
 20
-7.12
 30
0.577
 70
    64
  0
VERTEX
  5
87DAC
100
AcDbEntity
  8
0
100
AcDbVertex
100
AcDbPolygonMeshVertex
 10
-4.278
 20
-7.12
 30
0.577
 70
    64
  0
VERTEX
  5
87DAD
100
AcDbEntity
  8
0
100
AcDbVertex
100
AcDbPolygonMeshVertex
 10
-4.278
 20
-0.93
 30
0.577
 70
    64
  0
VERTEX
  5
87DAE
100
AcDbEntity
  8
0
100
AcDbVertex
100
AcDbPolygonMeshVertex
 10
-0.338
 20
-7.12
 30
0.577
 70
    64
  0
VERTEX
  5
87DAF
100
AcDbEntity
  8
0
100
AcDbVertex
100
AcDbPolygonMeshVertex
 10
-0.338
 20
-7.12
 30
0.577
 70
    64
  0
VERTEX
  5
87DB0
100
AcDbEntity
  8
0
100
AcDbVertex
100
AcDbPolygonMeshVertex
 10
-0.338
 20
-0.93
 30
0.577
 70
    64
  0
SEQEND
  5
87DB1
100
AcDbEntity
  8
0
  0
POLYLINE
  5
87DB2
100
AcDbEntity
  8
0
100
AcDbPolygonMesh
 66
     1
 10
0.0
 20
0.0
 30
0.0
 70
    16
 71
     6
 72
     3
  0
VERTEX
  5
87DB3
100
AcDbEntity
  8
0
100
AcDbVertex
100
AcDbPolygonMeshVertex
 10
-4.218
 20
-6.11
 30
0.577
 70
    64
  0
VERTEX
  5
87DB4
100
AcDbEntity
  8
0
100
AcDbVertex
100
AcDbPolygonMeshVertex
 10
-4.218
 20
-6.11
 30
0.577
 70
    64
  0
VERTEX
  5
87DB5
100
AcDbEntity
  8
0
100
AcDbVertex
100
AcDbPolygonMeshVertex
 10
-4.218
 20
-6.11
 30
0.577
 70
    64
  0
VERTEX
  5
87DB6
100
AcDbEntity
  8
0
100
AcDbVertex
100
AcDbPolygonMeshVertex
 10
-4.218
 20
-6.59
 30
2.107
 70
    64
  0
VERTEX
  5
87DB7
100
AcDbEntity
  8
0
100
AcDbVertex
100
AcDbPolygonMeshVertex
 10
-4.218
 20
-6.11
 30
2.107
 70
    64
  0
VERTEX
  5
87DB8
100
AcDbEntity
  8
0
100
AcDbVertex
100
AcDbPolygonMeshVertex
 10
-4.218
 20
-6.11
 30
2.107
 70
    64
  0
VERTEX
  5
87DB9
100
AcDbEntity
  8
0
100
AcDbVertex
100
AcDbPolygonMeshVertex
 10
-0.398
 20
-6.59
 30
2.107
 70
    64
  0
VERTEX
  5
87DBA
100
AcDbEntity
  8
0
100
AcDbVertex
100
AcDbPolygonMeshVertex
 10
-0.398
 20
-6.11
 30
2.107
 70
    64
  0
VERTEX
  5
87DBB
100
AcDbEntity
  8
0
100
AcDbVertex
100
AcDbPolygonMeshVertex
 10
-4.218
 20
-6.11
 30
2.107
 70
    64
  0
VERTEX
  5
87DBC
100
AcDbEntity
  8
0
100
AcDbVertex
100
AcDbPolygonMeshVertex
 10
-0.398
 20
-6.11
 30
0.577
 70
    64
  0
VERTEX
  5
87DBD
100
AcDbEntity
  8
0
100
AcDbVertex
100
AcDbPolygonMeshVertex
 10
-0.398
 20
-6.11
 30
0.577
 70
    64
  0
VERTEX
  5
87DBE
100
AcDbEntity
  8
0
100
AcDbVertex
100
AcDbPolygonMeshVertex
 10
-4.218
 20
-6.11
 30
0.577
 70
    64
  0
VERTEX
  5
87DBF
100
AcDbEntity
  8
0
100
AcDbVertex
100
AcDbPolygonMeshVertex
 10
-0.398
 20
-6.11
 30
0.577
 70
    64
  0
VERTEX
  5
87DC0
100
AcDbEntity
  8
0
100
AcDbVertex
100
AcDbPolygonMeshVertex
 10
-0.398
 20
-6.11
 30
0.577
 70
    64
  0
VERTEX
  5
87DC1
100
AcDbEntity
  8
0
100
AcDbVertex
100
AcDbPolygonMeshVertex
 10
-4.218
 20
-6.11
 30
0.577
 70
    64
  0
VERTEX
  5
87DC2
100
AcDbEntity
  8
0
100
AcDbVertex
100
AcDbPolygonMeshVertex
 10
-0.398
 20
-6.59
 30
2.107
 70
    64
  0
VERTEX
  5
87DC3
100
AcDbEntity
  8
0
100
AcDbVertex
100
AcDbPolygonMeshVertex
 10
-0.398
 20
-6.59
 30
2.107
 70
    64
  0
VERTEX
  5
87DC4
100
AcDbEntity
  8
0
100
AcDbVertex
100
AcDbPolygonMeshVertex
 10
-4.218
 20
-6.59
 30
2.107
 70
    64
  0
SEQEND
  5
87DC5
100
AcDbEntity
  8
0
  0
3DFACE
  5
87DC6
100
AcDbEntity
  8
0
100
AcDbFace
 10
-3.658
 20
-0.31
 30
0.577
 11
-4.278
 21
-0.93
 31
0.577
 12
-0.338
 22
-0.93
 32
0.577
 13
-0.958
 23
-0.31
 33
0.577
 70
    14
  0
LINE
  5
87DC7
100
AcDbEntity
  8
0
100
AcDbLine
 10
-3.988
 20
-6.91
 30
0.387
 11
-3.988
 21
-6.91
 31
0.577
  0
LINE
  5
87DC8
100
AcDbEntity
  8
0
100
AcDbLine
 10
-3.788
 20
-6.91
 30
0.387
 11
-3.788
 21
-6.91
 31
0.577
  0
LINE
  5
87DC9
100
AcDbEntity
  8
0
100
AcDbLine
 10
-3.988
 20
-7.12
 30
0.387
 11
-3.988
 21
-7.12
 31
0.577
  0
LINE
  5
87DCA
100
AcDbEntity
  8
0
100
AcDbLine
 10
-3.788
 20
-7.12
 30
0.387
 11
-3.788
 21
-7.12
 31
0.577
  0
ARC
  5
87DCB
100
AcDbEntity
  8
0
100
AcDbCircle
 10
-3.888
 20
-6.91
 30
0.387
 40
0.1
100
AcDbArc
 50
0.0
 51
179.999985
  0
LINE
  5
87DCC
100
AcDbEntity
  8
0
100
AcDbLine
 10
-3.988
 20
-6.91
 30
0.387
 11
-3.988
 21
-7.12
 31
0.387
  0
LINE
  5
87DCD
100
AcDbEntity
  8
0
100
AcDbLine
 10
-3.788
 20
-7.12
 30
0.387
 11
-3.788
 21
-6.91
 31
0.387
  0
ARC
  5
87DCE
100
AcDbEntity
  8
0
100
AcDbCircle
 10
-3.888
 20
-6.91
 30
0.577
 40
0.1
100
AcDbArc
 50
0.0
 51
179.999985
  0
LINE
  5
87DCF
100
AcDbEntity
  8
0
100
AcDbLine
 10
-3.988
 20
-6.91
 30
0.577
 11
-3.988
 21
-7.12
 31
0.577
  0
LINE
  5
87DD0
100
AcDbEntity
  8
0
100
AcDbLine
 10
-3.788
 20
-7.12
 30
0.577
 11
-3.788
 21
-6.91
 31
0.577
  0
3DFACE
  5
87DD1
100
AcDbEntity
  8
0
100
AcDbFace
 10
-3.658
 20
-0.31
 30
0.387
 11
-3.658
 21
-0.31
 31
0.577
 12
-4.278
 22
-0.93
 32
0.577
 13
-4.278
 23
-0.93
 33
0.387
  0
LINE
  5
87DD2
100
AcDbEntity
  8
0
100
AcDbLine
 10
-0.628
 20
-6.91
 30
0.387
 11
-0.628
 21
-6.91
 31
0.577
  0
LINE
  5
87DD3
100
AcDbEntity
  8
0
100
AcDbLine
 10
-0.628
 20
-7.12
 30
0.387
 11
-0.628
 21
-7.12
 31
0.577
  0
3DFACE
  5
87DD4
100
AcDbEntity
  8
0
100
AcDbFace
 10
-0.628
 20
-7.12
 30
0.577
 11
-0.628
 21
-6.91
 31
0.577
 12
-0.628
 22
-6.91
 32
0.387
 13
-0.628
 23
-7.12
 33
0.387
 70
    14
  0
LINE
  5
87DD5
100
AcDbEntity
  8
0
100
AcDbLine
 10
-0.828
 20
-6.91
 30
0.387
 11
-0.828
 21
-6.91
 31
0.577
  0
LINE
  5
87DD6
100
AcDbEntity
  8
0
100
AcDbLine
 10
-0.828
 20
-7.12
 30
0.387
 11
-0.828
 21
-7.12
 31
0.577
  0
3DFACE
  5
87DD7
100
AcDbEntity
  8
0
100
AcDbFace
 10
-0.828
 20
-7.12
 30
0.577
 11
-0.828
 21
-7.12
 31
0.387
 12
-0.828
 22
-6.91
 32
0.387
 13
-0.828
 23
-6.91
 33
0.577
 70
    14
  0
ARC
  5
87DD8
100
AcDbEntity
  8
0
100
AcDbCircle
 10
-0.728
 20
-6.91
 30
0.387
 40
0.1
100
AcDbArc
 50
0.0
 51
179.999985
  0
LINE
  5
87DD9
100
AcDbEntity
  8
0
100
AcDbLine
 10
-0.828
 20
-6.91
 30
0.387
 11
-0.828
 21
-7.12
 31
0.387
  0
LINE
  5
87DDA
100
AcDbEntity
  8
0
100
AcDbLine
 10
-0.628
 20
-7.12
 30
0.387
 11
-0.628
 21
-6.91
 31
0.387
  0
ARC
  5
87DDB
100
AcDbEntity
  8
0
100
AcDbCircle
 10
-0.728
 20
-6.91
 30
0.577
 40
0.1
100
AcDbArc
 50
0.0
 51
179.999985
  0
LINE
  5
87DDC
100
AcDbEntity
  8
0
100
AcDbLine
 10
-0.828
 20
-6.91
 30
0.577
 11
-0.828
 21
-7.12
 31
0.577
  0
LINE
  5
87DDD
100
AcDbEntity
  8
0
100
AcDbLine
 10
-0.628
 20
-7.12
 30
0.577
 11
-0.628
 21
-6.91
 31
0.577
  0
3DFACE
  5
87DDE
100
AcDbEntity
  8
0
100
AcDbFace
 10
-0.338
 20
-0.93
 30
0.577
 11
-0.958
 21
-0.31
 31
0.577
 12
-0.958
 22
-0.31
 32
0.387
 13
-0.338
 23
-0.93
 33
0.387
  0
LINE
  5
87DDF
100
AcDbEntity
  8
0
100
AcDbLine
 10
-1.8265
 20
-0.59
 30
0.387
 11
-1.8265
 21
-0.59
 31
0.577
  0
LINE
  5
87DE0
100
AcDbEntity
  8
0
100
AcDbLine
 10
-2.208
 20
-0.59
 30
0.387
 11
-2.208
 21
-0.59
 31
0.577
  0
LINE
  5
87DE1
100
AcDbEntity
  8
0
100
AcDbLine
 10
-2.408
 20
-0.59
 30
0.387
 11
-2.408
 21
-0.59
 31
0.577
  0
LINE
  5
87DE2
100
AcDbEntity
  8
0
100
AcDbLine
 10
-2.408
 20
-0.721444
 30
0.387
 11
-2.408
 21
-0.721444
 31
0.577
  0
LINE
  5
87DE3
100
AcDbEntity
  8
0
100
AcDbLine
 10
-2.208
 20
-0.721444
 30
0.387
 11
-2.208
 21
-0.721444
 31
0.577
  0
ARC
  5
87DE4
100
AcDbEntity
  8
0
100
AcDbCircle
 10
-2.308
 20
-0.933
 30
0.387
 40
0.234
100
AcDbArc
 50
115.299522
 51
64.70047
  0
LINE
  5
87DE5
100
AcDbEntity
  8
0
100
AcDbLine
 10
-2.208
 20
-0.59
 30
0.387
 11
-2.208
 21
-0.721444
 31
0.387
  0
LINE
  5
87DE6
100
AcDbEntity
  8
0
100
AcDbLine
 10
-2.408
 20
-0.59
 30
0.387
 11
-2.408
 21
-0.721444
 31
0.387
  0
ARC
  5
87DE7
100
AcDbEntity
  8
0
100
AcDbCircle
 10
-2.308
 20
-0.59
 30
0.387
 40
0.1
100
AcDbArc
 50
0.0
 51
179.999985
  0
CIRCLE
  5
87DE8
100
AcDbEntity
  8
0
100
AcDbCircle
 10
-1.928
 20
-0.59
 30
0.387
 40
0.1015
  0
ARC
  5
87DE9
100
AcDbEntity
  8
0
100
AcDbCircle
 10
-2.308
 20
-0.933
 30
0.577
 40
0.234
100
AcDbArc
 50
115.299522
 51
64.70047
  0
LINE
  5
87DEA
100
AcDbEntity
  8
0
100
AcDbLine
 10
-2.208
 20
-0.59
 30
0.577
 11
-2.208
 21
-0.721444
 31
0.577
  0
LINE
  5
87DEB
100
AcDbEntity
  8
0
100
AcDbLine
 10
-2.408
 20
-0.59
 30
0.577
 11
-2.408
 21
-0.721444
 31
0.577
  0
ARC
  5
87DEC
100
AcDbEntity
  8
0
100
AcDbCircle
 10
-2.308
 20
-0.59
 30
0.577
 40
0.1
100
AcDbArc
 50
0.0
 51
179.999985
  0
CIRCLE
  5
87DED
100
AcDbEntity
  8
0
100
AcDbCircle
 10
-1.928
 20
-0.59
 30
0.577
 40
0.1015
  0
POLYLINE
  5
87DEE
100
AcDbEntity
  8
0
100
AcDbPolygonMesh
 66
     1
 10
0.0
 20
0.0
 30
0.0
 70
    16
 71
     6
 72
     3
  0
VERTEX
  5
87DEF
100
AcDbEntity
  8
0
100
AcDbVertex
100
AcDbPolygonMeshVertex
 10
-1.368
 20
-5.05
 30
4.387
 70
    64
  0
VERTEX
  5
87DF0
100
AcDbEntity
  8
0
100
AcDbVertex
100
AcDbPolygonMeshVertex
 10
-1.368
 20
-5.05
 30
4.077
 70
    64
  0
VERTEX
  5
87DF1
100
AcDbEntity
  8
0
100
AcDbVertex
100
AcDbPolygonMeshVertex
 10
-1.368
 20
-5.05
 30
4.077
 70
    64
  0
VERTEX
  5
87DF2
100
AcDbEntity
  8
0
100
AcDbVertex
100
AcDbPolygonMeshVertex
 10
-3.248
 20
-5.05
 30
4.387
 70
    64
  0
VERTEX
  5
87DF3
100
AcDbEntity
  8
0
100
AcDbVertex
100
AcDbPolygonMeshVertex
 10
-3.248
 20
-5.05
 30
4.077
 70
    64
  0
VERTEX
  5
87DF4
100
AcDbEntity
  8
0
100
AcDbVertex
100
AcDbPolygonMeshVertex
 10
-3.248
 20
-5.05
 30
4.077
 70
    64
  0
VERTEX
  5
87DF5
100
AcDbEntity
  8
0
100
AcDbVertex
100
AcDbPolygonMeshVertex
 10
-3.248
 20
-4.22
 30
4.387
 70
    64
  0
VERTEX
  5
87DF6
100
AcDbEntity
  8
0
100
AcDbVertex
100
AcDbPolygonMeshVertex
 10
-3.248
 20
-4.22
 30
4.077
 70
    64
  0
VERTEX
  5
87DF7
100
AcDbEntity
  8
0
100
AcDbVertex
100
AcDbPolygonMeshVertex
 10
-3.248
 20
-5.05
 30
4.077
 70
    64
  0
VERTEX
  5
87DF8
100
AcDbEntity
  8
0
100
AcDbVertex
100
AcDbPolygonMeshVertex
 10
-1.368
 20
-4.22
 30
4.387
 70
    64
  0
VERTEX
  5
87DF9
100
AcDbEntity
  8
0
100
AcDbVertex
100
AcDbPolygonMeshVertex
 10
-1.368
 20
-4.22
 30
4.077
 70
    64
  0
VERTEX
  5
87DFA
100
AcDbEntity
  8
0
100
AcDbVertex
100
AcDbPolygonMeshVertex
 10
-1.368
 20
-5.05
 30
4.077
 70
    64
  0
VERTEX
  5
87DFB
100
AcDbEntity
  8
0
100
AcDbVertex
100
AcDbPolygonMeshVertex
 10
-1.368
 20
-4.22
 30
4.387
 70
    64
  0
VERTEX
  5
87DFC
100
AcDbEntity
  8
0
100
AcDbVertex
100
AcDbPolygonMeshVertex
 10
-1.368
 20
-4.22
 30
4.387
 70
    64
  0
VERTEX
  5
87DFD
100
AcDbEntity
  8
0
100
AcDbVertex
100
AcDbPolygonMeshVertex
 10
-1.368
 20
-5.05
 30
4.387
 70
    64
  0
VERTEX
  5
87DFE
100
AcDbEntity
  8
0
100
AcDbVertex
100
AcDbPolygonMeshVertex
 10
-3.248
 20
-4.22
 30
4.387
 70
    64
  0
VERTEX
  5
87DFF
100
AcDbEntity
  8
0
100
AcDbVertex
100
AcDbPolygonMeshVertex
 10
-3.248
 20
-4.22
 30
4.387
 70
    64
  0
VERTEX
  5
87E00
100
AcDbEntity
  8
0
100
AcDbVertex
100
AcDbPolygonMeshVertex
 10
-3.248
 20
-5.05
 30
4.387
 70
    64
  0
SEQEND
  5
87E01
100
AcDbEntity
  8
0
  0
POLYLINE
  5
87E02
100
AcDbEntity
  8
0
100
AcDbPolygonMesh
 66
     1
 10
0.0
 20
0.0
 30
0.0
 70
    16
 71
     6
 72
     3
  0
VERTEX
  5
87E03
100
AcDbEntity
  8
0
100
AcDbVertex
100
AcDbPolygonMeshVertex
 10
-0.398
 20
-2.12
 30
4.387
 70
    64
  0
VERTEX
  5
87E04
100
AcDbEntity
  8
0
100
AcDbVertex
100
AcDbPolygonMeshVertex
 10
-0.398
 20
-2.12
 30
4.077
 70
    64
  0
VERTEX
  5
87E05
100
AcDbEntity
  8
0
100
AcDbVertex
100
AcDbPolygonMeshVertex
 10
-0.398
 20
-2.12
 30
4.077
 70
    64
  0
VERTEX
  5
87E06
100
AcDbEntity
  8
0
100
AcDbVertex
100
AcDbPolygonMeshVertex
 10
-4.218
 20
-2.12
 30
4.387
 70
    64
  0
VERTEX
  5
87E07
100
AcDbEntity
  8
0
100
AcDbVertex
100
AcDbPolygonMeshVertex
 10
-4.218
 20
-2.12
 30
4.077
 70
    64
  0
VERTEX
  5
87E08
100
AcDbEntity
  8
0
100
AcDbVertex
100
AcDbPolygonMeshVertex
 10
-4.218
 20
-2.12
 30
4.077
 70
    64
  0
VERTEX
  5
87E09
100
AcDbEntity
  8
0
100
AcDbVertex
100
AcDbPolygonMeshVertex
 10
-4.218
 20
-1.43
 30
4.387
 70
    64
  0
VERTEX
  5
87E0A
100
AcDbEntity
  8
0
100
AcDbVertex
100
AcDbPolygonMeshVertex
 10
-4.218
 20
-1.43
 30
4.077
 70
    64
  0
VERTEX
  5
87E0B
100
AcDbEntity
  8
0
100
AcDbVertex
100
AcDbPolygonMeshVertex
 10
-4.218
 20
-2.12
 30
4.077
 70
    64
  0
VERTEX
  5
87E0C
100
AcDbEntity
  8
0
100
AcDbVertex
100
AcDbPolygonMeshVertex
 10
-0.398
 20
-1.43
 30
4.387
 70
    64
  0
VERTEX
  5
87E0D
100
AcDbEntity
  8
0
100
AcDbVertex
100
AcDbPolygonMeshVertex
 10
-0.398
 20
-1.43
 30
4.077
 70
    64
  0
VERTEX
  5
87E0E
100
AcDbEntity
  8
0
100
AcDbVertex
100
AcDbPolygonMeshVertex
 10
-0.398
 20
-2.12
 30
4.077
 70
    64
  0
VERTEX
  5
87E0F
100
AcDbEntity
  8
0
100
AcDbVertex
100
AcDbPolygonMeshVertex
 10
-0.398
 20
-1.43
 30
4.387
 70
    64
  0
VERTEX
  5
87E10
100
AcDbEntity
  8
0
100
AcDbVertex
100
AcDbPolygonMeshVertex
 10
-0.398
 20
-1.43
 30
4.387
 70
    64
  0
VERTEX
  5
87E11
100
AcDbEntity
  8
0
100
AcDbVertex
100
AcDbPolygonMeshVertex
 10
-0.398
 20
-2.12
 30
4.387
 70
    64
  0
VERTEX
  5
87E12
100
AcDbEntity
  8
0
100
AcDbVertex
100
AcDbPolygonMeshVertex
 10
-4.218
 20
-1.43
 30
4.387
 70
    64
  0
VERTEX
  5
87E13
100
AcDbEntity
  8
0
100
AcDbVertex
100
AcDbPolygonMeshVertex
 10
-4.218
 20
-1.43
 30
4.387
 70
    64
  0
VERTEX
  5
87E14
100
AcDbEntity
  8
0
100
AcDbVertex
100
AcDbPolygonMeshVertex
 10
-4.218
 20
-2.12
 30
4.387
 70
    64
  0
SEQEND
  5
87E15
100
AcDbEntity
  8
0
  0
POLYLINE
  5
87E16
100
AcDbEntity
  8
0
100
AcDbPolygonMesh
 66
     1
 10
0.0
 20
0.0
 30
0.0
 70
    16
 71
     6
 72
     3
  0
VERTEX
  5
87E17
100
AcDbEntity
  8
0
100
AcDbVertex
100
AcDbPolygonMeshVertex
 10
-0.398
 20
-3.21
 30
4.217
 70
    64
  0
VERTEX
  5
87E18
100
AcDbEntity
  8
0
100
AcDbVertex
100
AcDbPolygonMeshVertex
 10
-0.398
 20
-3.21
 30
4.077
 70
    64
  0
VERTEX
  5
87E19
100
AcDbEntity
  8
0
100
AcDbVertex
100
AcDbPolygonMeshVertex
 10
-0.398
 20
-3.21
 30
4.077
 70
    64
  0
VERTEX
  5
87E1A
100
AcDbEntity
  8
0
100
AcDbVertex
100
AcDbPolygonMeshVertex
 10
-4.218
 20
-3.21
 30
4.217
 70
    64
  0
VERTEX
  5
87E1B
100
AcDbEntity
  8
0
100
AcDbVertex
100
AcDbPolygonMeshVertex
 10
-4.218
 20
-3.21
 30
4.077
 70
    64
  0
VERTEX
  5
87E1C
100
AcDbEntity
  8
0
100
AcDbVertex
100
AcDbPolygonMeshVertex
 10
-4.218
 20
-3.21
 30
4.077
 70
    64
  0
VERTEX
  5
87E1D
100
AcDbEntity
  8
0
100
AcDbVertex
100
AcDbPolygonMeshVertex
 10
-4.218
 20
-2.12
 30
4.217
 70
    64
  0
VERTEX
  5
87E1E
100
AcDbEntity
  8
0
100
AcDbVertex
100
AcDbPolygonMeshVertex
 10
-4.218
 20
-2.12
 30
4.077
 70
    64
  0
VERTEX
  5
87E1F
100
AcDbEntity
  8
0
100
AcDbVertex
100
AcDbPolygonMeshVertex
 10
-4.218
 20
-3.21
 30
4.077
 70
    64
  0
VERTEX
  5
87E20
100
AcDbEntity
  8
0
100
AcDbVertex
100
AcDbPolygonMeshVertex
 10
-0.398
 20
-2.12
 30
4.217
 70
    64
  0
VERTEX
  5
87E21
100
AcDbEntity
  8
0
100
AcDbVertex
100
AcDbPolygonMeshVertex
 10
-0.398
 20
-2.12
 30
4.077
 70
    64
  0
VERTEX
  5
87E22
100
AcDbEntity
  8
0
100
AcDbVertex
100
AcDbPolygonMeshVertex
 10
-0.398
 20
-3.21
 30
4.077
 70
    64
  0
VERTEX
  5
87E23
100
AcDbEntity
  8
0
100
AcDbVertex
100
AcDbPolygonMeshVertex
 10
-0.398
 20
-2.12
 30
4.217
 70
    64
  0
VERTEX
  5
87E24
100
AcDbEntity
  8
0
100
AcDbVertex
100
AcDbPolygonMeshVertex
 10
-0.398
 20
-2.12
 30
4.217
 70
    64
  0
VERTEX
  5
87E25
100
AcDbEntity
  8
0
100
AcDbVertex
100
AcDbPolygonMeshVertex
 10
-0.398
 20
-3.21
 30
4.217
 70
    64
  0
VERTEX
  5
87E26
100
AcDbEntity
  8
0
100
AcDbVertex
100
AcDbPolygonMeshVertex
 10
-4.218
 20
-2.12
 30
4.217
 70
    64
  0
VERTEX
  5
87E27
100
AcDbEntity
  8
0
100
AcDbVertex
100
AcDbPolygonMeshVertex
 10
-4.218
 20
-2.12
 30
4.217
 70
    64
  0
VERTEX
  5
87E28
100
AcDbEntity
  8
0
100
AcDbVertex
100
AcDbPolygonMeshVertex
 10
-4.218
 20
-3.21
 30
4.217
 70
    64
  0
SEQEND
  5
87E29
100
AcDbEntity
  8
0
  0
LINE
  5
87E2A
100
AcDbEntity
  8
0
100
AcDbLine
 10
-4.218
 20
-3.21
 30
4.077
 11
-4.218
 21
-1.43
 31
4.077
  0
LINE
  5
87E2B
100
AcDbEntity
  8
0
100
AcDbLine
 10
-4.218
 20
-2.12
 30
4.217
 11
-4.218
 21
-2.12
 31
4.077
  0
POLYLINE
  5
87E2C
100
AcDbEntity
  8
0
100
AcDbPolygonMesh
 66
     1
 10
0.0
 20
0.0
 30
0.0
 70
    16
 71
     6
 72
     3
  0
VERTEX
  5
87E2D
100
AcDbEntity
  8
0
100
AcDbVertex
100
AcDbPolygonMeshVertex
 10
-1.648
 20
-4.75
 30
4.707
 70
    64
  0
VERTEX
  5
87E2E
100
AcDbEntity
  8
0
100
AcDbVertex
100
AcDbPolygonMeshVertex
 10
-1.648
 20
-4.75
 30
4.387
 70
    64
  0
VERTEX
  5
87E2F
100
AcDbEntity
  8
0
100
AcDbVertex
100
AcDbPolygonMeshVertex
 10
-1.648
 20
-4.75
 30
4.387
 70
    64
  0
VERTEX
  5
87E30
100
AcDbEntity
  8
0
100
AcDbVertex
100
AcDbPolygonMeshVertex
 10
-2.028
 20
-4.75
 30
4.707
 70
    64
  0
VERTEX
  5
87E31
100
AcDbEntity
  8
0
100
AcDbVertex
100
AcDbPolygonMeshVertex
 10
-2.028
 20
-4.75
 30
4.387
 70
    64
  0
VERTEX
  5
87E32
100
AcDbEntity
  8
0
100
AcDbVertex
100
AcDbPolygonMeshVertex
 10
-2.028
 20
-4.75
 30
4.387
 70
    64
  0
VERTEX
  5
87E33
100
AcDbEntity
  8
0
100
AcDbVertex
100
AcDbPolygonMeshVertex
 10
-2.028
 20
-4.31
 30
4.707
 70
    64
  0
VERTEX
  5
87E34
100
AcDbEntity
  8
0
100
AcDbVertex
100
AcDbPolygonMeshVertex
 10
-2.028
 20
-4.31
 30
4.387
 70
    64
  0
VERTEX
  5
87E35
100
AcDbEntity
  8
0
100
AcDbVertex
100
AcDbPolygonMeshVertex
 10
-2.028
 20
-4.75
 30
4.387
 70
    64
  0
VERTEX
  5
87E36
100
AcDbEntity
  8
0
100
AcDbVertex
100
AcDbPolygonMeshVertex
 10
-1.648
 20
-4.31
 30
4.707
 70
    64
  0
VERTEX
  5
87E37
100
AcDbEntity
  8
0
100
AcDbVertex
100
AcDbPolygonMeshVertex
 10
-1.648
 20
-4.31
 30
4.387
 70
    64
  0
VERTEX
  5
87E38
100
AcDbEntity
  8
0
100
AcDbVertex
100
AcDbPolygonMeshVertex
 10
-1.648
 20
-4.75
 30
4.387
 70
    64
  0
VERTEX
  5
87E39
100
AcDbEntity
  8
0
100
AcDbVertex
100
AcDbPolygonMeshVertex
 10
-1.648
 20
-4.31
 30
4.707
 70
    64
  0
VERTEX
  5
87E3A
100
AcDbEntity
  8
0
100
AcDbVertex
100
AcDbPolygonMeshVertex
 10
-1.648
 20
-4.31
 30
4.707
 70
    64
  0
VERTEX
  5
87E3B
100
AcDbEntity
  8
0
100
AcDbVertex
100
AcDbPolygonMeshVertex
 10
-1.648
 20
-4.75
 30
4.707
 70
    64
  0
VERTEX
  5
87E3C
100
AcDbEntity
  8
0
100
AcDbVertex
100
AcDbPolygonMeshVertex
 10
-2.028
 20
-4.31
 30
4.707
 70
    64
  0
VERTEX
  5
87E3D
100
AcDbEntity
  8
0
100
AcDbVertex
100
AcDbPolygonMeshVertex
 10
-2.028
 20
-4.31
 30
4.707
 70
    64
  0
VERTEX
  5
87E3E
100
AcDbEntity
  8
0
100
AcDbVertex
100
AcDbPolygonMeshVertex
 10
-2.028
 20
-4.75
 30
4.707
 70
    64
  0
SEQEND
  5
87E3F
100
AcDbEntity
  8
0
  0
POLYLINE
  5
87E40
100
AcDbEntity
  8
0
100
AcDbPolygonMesh
 66
     1
 10
0.0
 20
0.0
 30
0.0
 70
    16
 71
     6
 72
     3
  0
VERTEX
  5
87E41
100
AcDbEntity
  8
0
100
AcDbVertex
100
AcDbPolygonMeshVertex
 10
-2.588
 20
-4.75
 30
4.707
 70
    64
  0
VERTEX
  5
87E42
100
AcDbEntity
  8
0
100
AcDbVertex
100
AcDbPolygonMeshVertex
 10
-2.588
 20
-4.75
 30
4.387
 70
    64
  0
VERTEX
  5
87E43
100
AcDbEntity
  8
0
100
AcDbVertex
100
AcDbPolygonMeshVertex
 10
-2.588
 20
-4.75
 30
4.387
 70
    64
  0
VERTEX
  5
87E44
100
AcDbEntity
  8
0
100
AcDbVertex
100
AcDbPolygonMeshVertex
 10
-2.968
 20
-4.75
 30
4.707
 70
    64
  0
VERTEX
  5
87E45
100
AcDbEntity
  8
0
100
AcDbVertex
100
AcDbPolygonMeshVertex
 10
-2.968
 20
-4.75
 30
4.387
 70
    64
  0
VERTEX
  5
87E46
100
AcDbEntity
  8
0
100
AcDbVertex
100
AcDbPolygonMeshVertex
 10
-2.968
 20
-4.75
 30
4.387
 70
    64
  0
VERTEX
  5
87E47
100
AcDbEntity
  8
0
100
AcDbVertex
100
AcDbPolygonMeshVertex
 10
-2.968
 20
-4.31
 30
4.707
 70
    64
  0
VERTEX
  5
87E48
100
AcDbEntity
  8
0
100
AcDbVertex
100
AcDbPolygonMeshVertex
 10
-2.968
 20
-4.31
 30
4.387
 70
    64
  0
VERTEX
  5
87E49
100
AcDbEntity
  8
0
100
AcDbVertex
100
AcDbPolygonMeshVertex
 10
-2.968
 20
-4.75
 30
4.387
 70
    64
  0
VERTEX
  5
87E4A
100
AcDbEntity
  8
0
100
AcDbVertex
100
AcDbPolygonMeshVertex
 10
-2.588
 20
-4.31
 30
4.707
 70
    64
  0
VERTEX
  5
87E4B
100
AcDbEntity
  8
0
100
AcDbVertex
100
AcDbPolygonMeshVertex
 10
-2.588
 20
-4.31
 30
4.387
 70
    64
  0
VERTEX
  5
87E4C
100
AcDbEntity
  8
0
100
AcDbVertex
100
AcDbPolygonMeshVertex
 10
-2.588
 20
-4.75
 30
4.387
 70
    64
  0
VERTEX
  5
87E4D
100
AcDbEntity
  8
0
100
AcDbVertex
100
AcDbPolygonMeshVertex
 10
-2.588
 20
-4.31
 30
4.707
 70
    64
  0
VERTEX
  5
87E4E
100
AcDbEntity
  8
0
100
AcDbVertex
100
AcDbPolygonMeshVertex
 10
-2.588
 20
-4.31
 30
4.707
 70
    64
  0
VERTEX
  5
87E4F
100
AcDbEntity
  8
0
100
AcDbVertex
100
AcDbPolygonMeshVertex
 10
-2.588
 20
-4.75
 30
4.707
 70
    64
  0
VERTEX
  5
87E50
100
AcDbEntity
  8
0
100
AcDbVertex
100
AcDbPolygonMeshVertex
 10
-2.968
 20
-4.31
 30
4.707
 70
    64
  0
VERTEX
  5
87E51
100
AcDbEntity
  8
0
100
AcDbVertex
100
AcDbPolygonMeshVertex
 10
-2.968
 20
-4.31
 30
4.707
 70
    64
  0
VERTEX
  5
87E52
100
AcDbEntity
  8
0
100
AcDbVertex
100
AcDbPolygonMeshVertex
 10
-2.968
 20
-4.75
 30
4.707
 70
    64
  0
SEQEND
  5
87E53
100
AcDbEntity
  8
0
  0
LINE
  5
87E54
100
AcDbEntity
  8
0
100
AcDbLine
 10
-2.810227
 20
-4.470356
 30
4.707
 11
-2.758339
 21
-4.65281
 31
4.707
  0
LINE
  5
87E55
100
AcDbEntity
  8
0
100
AcDbLine
 10
-2.798713
 20
-4.467285
 30
4.707
 11
-2.746826
 21
-4.64974
 31
4.707
  0
CIRCLE
  5
87E56
100
AcDbEntity
  8
0
100
AcDbCircle
 10
-2.778
 20
-4.56
 30
4.707
 40
0.095
  0
LINE
  5
87E57
100
AcDbEntity
  8
0
100
AcDbLine
 10
-1.870227
 20
-4.470356
 30
4.707
 11
-1.818339
 21
-4.65281
 31
4.707
  0
LINE
  5
87E58
100
AcDbEntity
  8
0
100
AcDbLine
 10
-1.858713
 20
-4.467285
 30
4.707
 11
-1.806826
 21
-4.64974
 31
4.707
  0
CIRCLE
  5
87E59
100
AcDbEntity
  8
0
100
AcDbCircle
 10
-1.838
 20
-4.56
 30
4.707
 40
0.095
  0
POLYLINE
  5
87E5A
100
AcDbEntity
  8
0
100
AcDbPolygonMesh
 66
     1
 10
0.0
 20
0.0
 30
0.0
 70
    16
 71
     6
 72
     3
  0
VERTEX
  5
87E5B
100
AcDbEntity
  8
0
100
AcDbVertex
100
AcDbPolygonMeshVertex
 10
-2.968
 20
-1.15
 30
5.107
 70
    64
  0
VERTEX
  5
87E5C
100
AcDbEntity
  8
0
100
AcDbVertex
100
AcDbPolygonMeshVertex
 10
-2.968
 20
-1.15
 30
4.217
 70
    64
  0
VERTEX
  5
87E5D
100
AcDbEntity
  8
0
100
AcDbVertex
100
AcDbPolygonMeshVertex
 10
-2.968
 20
-1.15
 30
4.217
 70
    64
  0
VERTEX
  5
87E5E
100
AcDbEntity
  8
0
100
AcDbVertex
100
AcDbPolygonMeshVertex
 10
-2.808
 20
-1.15
 30
5.107
 70
    64
  0
VERTEX
  5
87E5F
100
AcDbEntity
  8
0
100
AcDbVertex
100
AcDbPolygonMeshVertex
 10
-2.808
 20
-1.15
 30
4.217
 70
    64
  0
VERTEX
  5
87E60
100
AcDbEntity
  8
0
100
AcDbVertex
100
AcDbPolygonMeshVertex
 10
-2.808
 20
-1.15
 30
4.217
 70
    64
  0
VERTEX
  5
87E61
100
AcDbEntity
  8
0
100
AcDbVertex
100
AcDbPolygonMeshVertex
 10
-2.808
 20
-2.12
 30
5.107
 70
    64
  0
VERTEX
  5
87E62
100
AcDbEntity
  8
0
100
AcDbVertex
100
AcDbPolygonMeshVertex
 10
-2.808
 20
-2.12
 30
4.217
 70
    64
  0
VERTEX
  5
87E63
100
AcDbEntity
  8
0
100
AcDbVertex
100
AcDbPolygonMeshVertex
 10
-2.808
 20
-1.15
 30
4.217
 70
    64
  0
VERTEX
  5
87E64
100
AcDbEntity
  8
0
100
AcDbVertex
100
AcDbPolygonMeshVertex
 10
-2.968
 20
-2.12
 30
5.107
 70
    64
  0
VERTEX
  5
87E65
100
AcDbEntity
  8
0
100
AcDbVertex
100
AcDbPolygonMeshVertex
 10
-2.968
 20
-2.12
 30
4.217
 70
    64
  0
VERTEX
  5
87E66
100
AcDbEntity
  8
0
100
AcDbVertex
100
AcDbPolygonMeshVertex
 10
-2.968
 20
-1.15
 30
4.217
 70
    64
  0
VERTEX
  5
87E67
100
AcDbEntity
  8
0
100
AcDbVertex
100
AcDbPolygonMeshVertex
 10
-2.968
 20
-2.12
 30
5.107
 70
    64
  0
VERTEX
  5
87E68
100
AcDbEntity
  8
0
100
AcDbVertex
100
AcDbPolygonMeshVertex
 10
-2.968
 20
-2.12
 30
5.107
 70
    64
  0
VERTEX
  5
87E69
100
AcDbEntity
  8
0
100
AcDbVertex
100
AcDbPolygonMeshVertex
 10
-2.968
 20
-1.15
 30
5.107
 70
    64
  0
VERTEX
  5
87E6A
100
AcDbEntity
  8
0
100
AcDbVertex
100
AcDbPolygonMeshVertex
 10
-2.808
 20
-2.12
 30
5.107
 70
    64
  0
VERTEX
  5
87E6B
100
AcDbEntity
  8
0
100
AcDbVertex
100
AcDbPolygonMeshVertex
 10
-2.808
 20
-2.12
 30
5.107
 70
    64
  0
VERTEX
  5
87E6C
100
AcDbEntity
  8
0
100
AcDbVertex
100
AcDbPolygonMeshVertex
 10
-2.808
 20
-1.15
 30
5.107
 70
    64
  0
SEQEND
  5
87E6D
100
AcDbEntity
  8
0
  0
POLYLINE
  5
87E6E
100
AcDbEntity
  8
0
100
AcDbPolygonMesh
 66
     1
 10
0.0
 20
0.0
 30
0.0
 70
    16
 71
     6
 72
     3
  0
VERTEX
  5
87E6F
100
AcDbEntity
  8
0
100
AcDbVertex
100
AcDbPolygonMeshVertex
 10
-1.808
 20
-1.15
 30
5.107
 70
    64
  0
VERTEX
  5
87E70
100
AcDbEntity
  8
0
100
AcDbVertex
100
AcDbPolygonMeshVertex
 10
-1.808
 20
-1.15
 30
4.217
 70
    64
  0
VERTEX
  5
87E71
100
AcDbEntity
  8
0
100
AcDbVertex
100
AcDbPolygonMeshVertex
 10
-1.808
 20
-1.15
 30
4.217
 70
    64
  0
VERTEX
  5
87E72
100
AcDbEntity
  8
0
100
AcDbVertex
100
AcDbPolygonMeshVertex
 10
-1.648
 20
-1.15
 30
5.107
 70
    64
  0
VERTEX
  5
87E73
100
AcDbEntity
  8
0
100
AcDbVertex
100
AcDbPolygonMeshVertex
 10
-1.648
 20
-1.15
 30
4.217
 70
    64
  0
VERTEX
  5
87E74
100
AcDbEntity
  8
0
100
AcDbVertex
100
AcDbPolygonMeshVertex
 10
-1.648
 20
-1.15
 30
4.217
 70
    64
  0
VERTEX
  5
87E75
100
AcDbEntity
  8
0
100
AcDbVertex
100
AcDbPolygonMeshVertex
 10
-1.648
 20
-2.12
 30
5.107
 70
    64
  0
VERTEX
  5
87E76
100
AcDbEntity
  8
0
100
AcDbVertex
100
AcDbPolygonMeshVertex
 10
-1.648
 20
-2.12
 30
4.217
 70
    64
  0
VERTEX
  5
87E77
100
AcDbEntity
  8
0
100
AcDbVertex
100
AcDbPolygonMeshVertex
 10
-1.648
 20
-1.15
 30
4.217
 70
    64
  0
VERTEX
  5
87E78
100
AcDbEntity
  8
0
100
AcDbVertex
100
AcDbPolygonMeshVertex
 10
-1.808
 20
-2.12
 30
5.107
 70
    64
  0
VERTEX
  5
87E79
100
AcDbEntity
  8
0
100
AcDbVertex
100
AcDbPolygonMeshVertex
 10
-1.808
 20
-2.12
 30
4.217
 70
    64
  0
VERTEX
  5
87E7A
100
AcDbEntity
  8
0
100
AcDbVertex
100
AcDbPolygonMeshVertex
 10
-1.808
 20
-1.15
 30
4.217
 70
    64
  0
VERTEX
  5
87E7B
100
AcDbEntity
  8
0
100
AcDbVertex
100
AcDbPolygonMeshVertex
 10
-1.808
 20
-2.12
 30
5.107
 70
    64
  0
VERTEX
  5
87E7C
100
AcDbEntity
  8
0
100
AcDbVertex
100
AcDbPolygonMeshVertex
 10
-1.808
 20
-2.12
 30
5.107
 70
    64
  0
VERTEX
  5
87E7D
100
AcDbEntity
  8
0
100
AcDbVertex
100
AcDbPolygonMeshVertex
 10
-1.808
 20
-1.15
 30
5.107
 70
    64
  0
VERTEX
  5
87E7E
100
AcDbEntity
  8
0
100
AcDbVertex
100
AcDbPolygonMeshVertex
 10
-1.648
 20
-2.12
 30
5.107
 70
    64
  0
VERTEX
  5
87E7F
100
AcDbEntity
  8
0
100
AcDbVertex
100
AcDbPolygonMeshVertex
 10
-1.648
 20
-2.12
 30
5.107
 70
    64
  0
VERTEX
  5
87E80
100
AcDbEntity
  8
0
100
AcDbVertex
100
AcDbPolygonMeshVertex
 10
-1.648
 20
-1.15
 30
5.107
 70
    64
  0
SEQEND
  5
87E81
100
AcDbEntity
  8
0
  0
POLYLINE
  5
87E82
100
AcDbEntity
  8
0
100
AcDbPolygonMesh
 66
     1
 10
0.0
 20
0.0
 30
0.0
 70
    16
 71
     6
 72
     3
  0
VERTEX
  5
87E83
100
AcDbEntity
  8
0
100
AcDbVertex
100
AcDbPolygonMeshVertex
 10
-2.968
 20
-1.15
 30
4.217
 70
    64
  0
VERTEX
  5
87E84
100
AcDbEntity
  8
0
100
AcDbVertex
100
AcDbPolygonMeshVertex
 10
-2.968
 20
-1.15
 30
2.947
 70
    64
  0
VERTEX
  5
87E85
100
AcDbEntity
  8
0
100
AcDbVertex
100
AcDbPolygonMeshVertex
 10
-2.968
 20
-1.15
 30
2.947
 70
    64
  0
VERTEX
  5
87E86
100
AcDbEntity
  8
0
100
AcDbVertex
100
AcDbPolygonMeshVertex
 10
-2.808
 20
-1.15
 30
4.217
 70
    64
  0
VERTEX
  5
87E87
100
AcDbEntity
  8
0
100
AcDbVertex
100
AcDbPolygonMeshVertex
 10
-2.808
 20
-1.15
 30
2.947
 70
    64
  0
VERTEX
  5
87E88
100
AcDbEntity
  8
0
100
AcDbVertex
100
AcDbPolygonMeshVertex
 10
-2.808
 20
-1.15
 30
2.947
 70
    64
  0
VERTEX
  5
87E89
100
AcDbEntity
  8
0
100
AcDbVertex
100
AcDbPolygonMeshVertex
 10
-2.808
 20
-1.43
 30
4.217
 70
    64
  0
VERTEX
  5
87E8A
100
AcDbEntity
  8
0
100
AcDbVertex
100
AcDbPolygonMeshVertex
 10
-2.808
 20
-1.43
 30
2.947
 70
    64
  0
VERTEX
  5
87E8B
100
AcDbEntity
  8
0
100
AcDbVertex
100
AcDbPolygonMeshVertex
 10
-2.808
 20
-1.15
 30
2.947
 70
    64
  0
VERTEX
  5
87E8C
100
AcDbEntity
  8
0
100
AcDbVertex
100
AcDbPolygonMeshVertex
 10
-2.968
 20
-1.43
 30
4.217
 70
    64
  0
VERTEX
  5
87E8D
100
AcDbEntity
  8
0
100
AcDbVertex
100
AcDbPolygonMeshVertex
 10
-2.968
 20
-1.43
 30
2.947
 70
    64
  0
VERTEX
  5
87E8E
100
AcDbEntity
  8
0
100
AcDbVertex
100
AcDbPolygonMeshVertex
 10
-2.968
 20
-1.15
 30
2.947
 70
    64
  0
VERTEX
  5
87E8F
100
AcDbEntity
  8
0
100
AcDbVertex
100
AcDbPolygonMeshVertex
 10
-2.968
 20
-1.43
 30
4.217
 70
    64
  0
VERTEX
  5
87E90
100
AcDbEntity
  8
0
100
AcDbVertex
100
AcDbPolygonMeshVertex
 10
-2.968
 20
-1.43
 30
4.217
 70
    64
  0
VERTEX
  5
87E91
100
AcDbEntity
  8
0
100
AcDbVertex
100
AcDbPolygonMeshVertex
 10
-2.968
 20
-1.15
 30
4.217
 70
    64
  0
VERTEX
  5
87E92
100
AcDbEntity
  8
0
100
AcDbVertex
100
AcDbPolygonMeshVertex
 10
-2.808
 20
-1.43
 30
4.217
 70
    64
  0
VERTEX
  5
87E93
100
AcDbEntity
  8
0
100
AcDbVertex
100
AcDbPolygonMeshVertex
 10
-2.808
 20
-1.43
 30
4.217
 70
    64
  0
VERTEX
  5
87E94
100
AcDbEntity
  8
0
100
AcDbVertex
100
AcDbPolygonMeshVertex
 10
-2.808
 20
-1.15
 30
4.217
 70
    64
  0
SEQEND
  5
87E95
100
AcDbEntity
  8
0
  0
POLYLINE
  5
87E96
100
AcDbEntity
  8
0
100
AcDbPolygonMesh
 66
     1
 10
0.0
 20
0.0
 30
0.0
 70
    16
 71
     6
 72
     3
  0
VERTEX
  5
87E97
100
AcDbEntity
  8
0
100
AcDbVertex
100
AcDbPolygonMeshVertex
 10
-1.808
 20
-1.15
 30
4.217
 70
    64
  0
VERTEX
  5
87E98
100
AcDbEntity
  8
0
100
AcDbVertex
100
AcDbPolygonMeshVertex
 10
-1.808
 20
-1.15
 30
2.947
 70
    64
  0
VERTEX
  5
87E99
100
AcDbEntity
  8
0
100
AcDbVertex
100
AcDbPolygonMeshVertex
 10
-1.808
 20
-1.15
 30
2.947
 70
    64
  0
VERTEX
  5
87E9A
100
AcDbEntity
  8
0
100
AcDbVertex
100
AcDbPolygonMeshVertex
 10
-1.648
 20
-1.15
 30
4.217
 70
    64
  0
VERTEX
  5
87E9B
100
AcDbEntity
  8
0
100
AcDbVertex
100
AcDbPolygonMeshVertex
 10
-1.648
 20
-1.15
 30
2.947
 70
    64
  0
VERTEX
  5
87E9C
100
AcDbEntity
  8
0
100
AcDbVertex
100
AcDbPolygonMeshVertex
 10
-1.648
 20
-1.15
 30
2.947
 70
    64
  0
VERTEX
  5
87E9D
100
AcDbEntity
  8
0
100
AcDbVertex
100
AcDbPolygonMeshVertex
 10
-1.648
 20
-1.43
 30
4.217
 70
    64
  0
VERTEX
  5
87E9E
100
AcDbEntity
  8
0
100
AcDbVertex
100
AcDbPolygonMeshVertex
 10
-1.648
 20
-1.43
 30
2.947
 70
    64
  0
VERTEX
  5
87E9F
100
AcDbEntity
  8
0
100
AcDbVertex
100
AcDbPolygonMeshVertex
 10
-1.648
 20
-1.15
 30
2.947
 70
    64
  0
VERTEX
  5
87EA0
100
AcDbEntity
  8
0
100
AcDbVertex
100
AcDbPolygonMeshVertex
 10
-1.808
 20
-1.43
 30
4.217
 70
    64
  0
VERTEX
  5
87EA1
100
AcDbEntity
  8
0
100
AcDbVertex
100
AcDbPolygonMeshVertex
 10
-1.808
 20
-1.43
 30
2.947
 70
    64
  0
VERTEX
  5
87EA2
100
AcDbEntity
  8
0
100
AcDbVertex
100
AcDbPolygonMeshVertex
 10
-1.808
 20
-1.15
 30
2.947
 70
    64
  0
VERTEX
  5
87EA3
100
AcDbEntity
  8
0
100
AcDbVertex
100
AcDbPolygonMeshVertex
 10
-1.808
 20
-1.43
 30
4.217
 70
    64
  0
VERTEX
  5
87EA4
100
AcDbEntity
  8
0
100
AcDbVertex
100
AcDbPolygonMeshVertex
 10
-1.808
 20
-1.43
 30
4.217
 70
    64
  0
VERTEX
  5
87EA5
100
AcDbEntity
  8
0
100
AcDbVertex
100
AcDbPolygonMeshVertex
 10
-1.808
 20
-1.15
 30
4.217
 70
    64
  0
VERTEX
  5
87EA6
100
AcDbEntity
  8
0
100
AcDbVertex
100
AcDbPolygonMeshVertex
 10
-1.648
 20
-1.43
 30
4.217
 70
    64
  0
VERTEX
  5
87EA7
100
AcDbEntity
  8
0
100
AcDbVertex
100
AcDbPolygonMeshVertex
 10
-1.648
 20
-1.43
 30
4.217
 70
    64
  0
VERTEX
  5
87EA8
100
AcDbEntity
  8
0
100
AcDbVertex
100
AcDbPolygonMeshVertex
 10
-1.648
 20
-1.15
 30
4.217
 70
    64
  0
SEQEND
  5
87EA9
100
AcDbEntity
  8
0
  0
ATTDEF
  5
87EAA
100
AcDbEntity
  8
ATTRIBUTES
100
AcDbText
 10
-4.125252
 20
-5.224289
 30
0.0
 40
0.12
  1
ALLEN-BRADLEY
100
AcDbAttributeDefinition
  3
MANUFACTURER NAME?
  2
AC_VND_LABEL
 70
     1
  0
ATTDEF
  5
87EAB
100
AcDbEntity
  8
ATTRIBUTES
100
AcDbText
 10
-4.125252
 20
-5.474289
 30
0.0
 40
0.12
  1
505-C
100
AcDbAttributeDefinition
  3
CATALOG NUMBER?
  2
AC_PART_NO
 70
     1
  0
ATTDEF
  5
87EAC
100
AcDbEntity
  8
ATTRIBUTES
100
AcDbText
 10
-4.125252
 20
-5.724289
 30
0.0
 40
0.12
  1
REVERSING CONTACTOR w/o OL; SIZE 2
100
AcDbAttributeDefinition
  3
PART DESCRIPTION?
  2
AC_DESCRIPTION
 70
     1
  0
ATTDEF
  5
87EAD
100
AcDbEntity
  8
ATTRIBUTES
100
AcDbText
 10
-4.125252
 20
-5.974289
 30
0.0
 40
0.12
  1

100
AcDbAttributeDefinition
  3
DEVICE ID?
  2
DEVICE_ID
 70
     1
  0
ATTDEF
  5
87EAE
100
AcDbEntity
  8
ATTRIBUTES
100
AcDbText
 10
-4.125252
 20
-6.224289
 30
0.0
 40
0.12
  1

100
AcDbAttributeDefinition
  3
CUSTOMER PART NUMBER?
  2
AC_CPART_NO
 70
     1
  0
ATTDEF
  5
87EAF
100
AcDbEntity
  8
ATTRIBUTES
100
AcDbText
 10
-4.125252
 20
-6.474289
 30
0.0
 40
0.12
  1

100
AcDbAttributeDefinition
  3
CUSTOMER NOTE?
  2
AC_NOTE
 70
     1
  0
ATTDEF
  5
87EB0
100
AcDbEntity
  8
ATTRIBUTES
100
AcDbText
 10
-4.125252
 20
-6.724289
 30
0.0
 40
0.12
  1

100
AcDbAttributeDefinition
  3
FASTENER DATA?
  2
FASTENER
 70
     1
  0
ATTDEF
  5
87EB1
100
AcDbEntity
  8
ATTRIBUTES
100
AcDbText
 10
-4.125252
 20
-6.974289
 30
0.0
 40
0.12
  1
INCH
100
AcDbAttributeDefinition
  3
UNIT OF SCALE?
  2
AC_SCALE_UNIT
 70
     1
  0
ATTDEF
  5
87EB2
100
AcDbEntity
  8
ATTRIBUTES
100
AcDbText
 10
-4.125252
 20
-7.224289
 30
0.0
 40
0.12
  1
0
100
AcDbAttributeDefinition
  3
VIEW CODE?
  2
AC_VIEW_CODE
 70
     1
  0
POINT
  5
87EB3
100
AcDbEntity
  8
DIMS-MTG-HOLES
100
AcDbPoint
 10
-3.937
 20
-7.872
 30
0.0
  0
POINT
  5
87EB4
100
AcDbEntity
  8
DIMS-MTG-HOLES
100
AcDbPoint
 10
3.937
 20
-7.872
 30
0.0
  0
POINT
  5
87EB5
100
AcDbEntity
  8
DIMS-MTG-HOLES
100
AcDbPoint
 10
0.0
 20
0.0
 30
0.0
  0
DIMENSION
  5
87EB6
100
AcDbEntity
  8
AREA1
100
AcDbDimension
  2
*D0
 10
-5.430871
 20
-8.087
 30
0.0
 11
-5.430871
 21
-3.949115
 31
0.0
 70
   160
  3
ABECAD_3D
100
AcDbAlignedDimension
 13
-1.0
 23
0.281
 33
0.0
 14
-4.325
 24
-8.087
 34
0.0
 50
90.0
100
AcDbRotatedDimension
  0
DIMENSION
  5
87EC4
100
AcDbEntity
  8
AREA1
100
AcDbDimension
  2
*D1
 10
4.325
 20
1.400221
 30
0.0
 11
-0.046155
 21
1.400221
 31
0.0
 70
   160
  3
ABECAD_3D
100
AcDbAlignedDimension
 13
-4.325
 23
-0.249
 33
0.0
 14
4.325
 24
-0.249
 34
0.0
100
AcDbRotatedDimension
  0
LWPOLYLINE
  5
87EE1
100
AcDbEntity
  8
SCALE
100
AcDbPolyline
 90
        4
 70
     1
 43
0.0
 10
-0.534931
 20
-8.303506
 10
0.600698
 20
-8.303506
 10
0.600698
 20
-9.145116
 10
-0.534931
 20
-9.145116
  0
LINE
  5
87EE2
100
AcDbEntity
  8
SCALE
100
AcDbLine
 10
-0.476932
 20
-8.683585
 30
0.0
 11
0.523068
 21
-8.683585
 31
0.0
  0
LINE
  5
87EE3
100
AcDbEntity
  8
SCALE
100
AcDbLine
 10
-0.476932
 20
-8.983585
 30
0.0
 11
-0.083232
 21
-8.983585
 31
0.0
  0
LINE
  5
87EE4
100
AcDbEntity
  8
SCALE
100
AcDbLine
 10
-0.476932
 20
-8.783585
 30
0.0
 11
-0.476932
 21
-8.583585
 31
0.0
  0
TEXT
  5
87EE5
100
AcDbEntity
  8
SCALE
100
AcDbText
 10
-0.420956
 20
-8.9359
 30
0.0
 40
0.0625
  1
[10mm]
100
AcDbText
  0
LINE
  5
87EE6
100
AcDbEntity
  8
SCALE
100
AcDbLine
 10
-0.476932
 20
-9.083585
 30
0.0
 11
-0.476932
 21
-8.883585
 31
0.0
  0
TEXT
  5
87EE7
100
AcDbEntity
  8
SCALE
100
AcDbText
 10
-0.475402
 20
-8.408708
 30
0.0
 40
0.0625
  1
SCALE:
100
AcDbText
  0
LINE
  5
87EE8
100
AcDbEntity
  8
SCALE
100
AcDbLine
 10
-0.083232
 20
-9.083585
 30
0.0
 11
-0.083232
 21
-8.883585
 31
0.0
  0
TEXT
  5
87EE9
100
AcDbEntity
  8
SCALE
100
AcDbText
 10
-0.113649
 20
-8.614536
 30
0.0
 40
0.0625
  1
1 Inch
100
AcDbText
  0
LINE
  5
87EEA
100
AcDbEntity
  8
SCALE
100
AcDbLine
 10
0.523068
 20
-8.683585
 30
0.0
 11
0.523068
 21
-8.783585
 31
0.0
  0
LINE
  5
87EEB
100
AcDbEntity
  8
SCALE
100
AcDbLine
 10
0.523068
 20
-8.783585
 30
0.0
 11
0.523068
 21
-8.583585
 31
0.0
  0
VIEWPORT
  5
5677D
102
{ACAD_XDICTIONARY
360
87F4F
102
}
100
AcDbEntity
 67
     1
  8
0
100
AcDbViewport
 10
5.25
 20
4.0
 30
0.0
 40
16.386862
 41
8.993
 68
    -1
 69
     1
1001
ACAD
1000
MVIEW
1002
{
1070
    16
1010
0.0
1020
0.0
1030
0.0
1010
0.0
1020
0.0
1030
1.0
1040
0.0
1040
8.993
1040
5.25
1040
4.0
1040
50.0
1040
0.0
1040
0.0
1070
     0
1070
 20000
1070
     1
1070
     1
1070
     0
1070
     0
1070
     0
1070
     0
1040
0.0
1040
0.0
1040
0.0
1040
0.5
1040
0.5
1040
0.5
1040
0.5
1070
     0
1002
{
1002
}
1002
}
  0
VIEWPORT
  5
5677F
102
{ACAD_XDICTIONARY
360
87F51
102
}
100
AcDbEntity
 67
     1
  8
AREA1
100
AcDbViewport
 10
5.25
 20
4.0
 30
0.0
 40
8.4
 41
6.4
 68
     1
 69
     2
1001
ACAD
1000
MVIEW
1002
{
1070
    16
1010
0.563444
1020
-0.880137
1030
1.686493
1010
0.0
1020
0.0
1030
1.0
1040
0.0
1040
4.582914
1040
-1.017175
1040
0.747813
1040
50.0
1040
0.0
1040
0.0
1070
     0
1070
 20000
1070
     1
1070
     1
1070
     0
1070
     0
1070
     0
1070
     0
1040
0.0
1040
0.0
1040
0.0
1040
0.25
1040
0.25
1040
0.25
1040
0.25
1070
     0
1002
{
1002
}
1002
}
  0
ENDSEC
  0
SECTION
  2
OBJECTS
  0
DICTIONARY
  5
458CB
100
AcDbDictionary
  3
ACAD_GROUP
350
458CC
  3
ACAD_LAYOUT
350
458FB
  3
ACAD_MLINESTYLE
350
458D9
  3
ACAD_PLOTSETTINGS
350
458FC
  3
ACAD_PLOTSTYLENAME
350
458F9
  3
ACDBHEADERROUNDTRIPXREC
350
87F26
  3
ACDBVARIABLEDICTIONARY
350
458E1
  3
DWGPROPS
350
45901
  0
DICTIONARY
  5
87F24
100
AcDbDictionary
280
     1
  3
ACAD_XREC_ROUNDTRIP
360
87F25
  0
DICTIONARY
  5
87F4D
100
AcDbDictionary
280
     1
  3
ACAD_XREC_ROUNDTRIP
360
87F4E
  0
DICTIONARY
  5
87F22
100
AcDbDictionary
280
     1
  3
ACAD_XREC_ROUNDTRIP
360
87F23
  0
DICTIONARY
  5
87F49
100
AcDbDictionary
280
     1
  3
ACAD_XREC_ROUNDTRIP
360
87F4A
  0
DICTIONARY
  5
4592C
100
AcDbDictionary
280
     1
  3
ACAD_LAYOUTSELFREF
360
87F48
  0
DICTIONARY
  5
4592A
100
AcDbDictionary
280
     1
  3
ACAD_LAYOUTSELFREF
360
87F47
  0
DICTIONARY
  5
87F4F
100
AcDbDictionary
280
     1
  3
ACAD_XREC_ROUNDTRIP
360
87F50
  0
DICTIONARY
  5
87F51
100
AcDbDictionary
280
     1
  3
ACAD_XREC_ROUNDTRIP
360
87F52
  0
DICTIONARY
  5
458CC
102
{ACAD_REACTORS
330
458CB
102
}
100
AcDbDictionary
  0
DICTIONARY
  5
458FB
102
{ACAD_XDICTIONARY
360
87F4B
102
}
102
{ACAD_REACTORS
330
458CB
102
}
100
AcDbDictionary
  3
LAYOUT1
350
458FE
  3
MODEL
350
458FD
  0
DICTIONARY
  5
458D9
102
{ACAD_REACTORS
330
458CB
102
}
100
AcDbDictionary
  3
STANDARD
350
458DA
  0
DICTIONARY
  5
458FC
102
{ACAD_REACTORS
330
458CB
102
}
100
AcDbDictionary
  0
ACAD_PROXY_OBJECT
  5
458F9
102
{ACAD_REACTORS
330
458CB
102
}
100
AcDbProxyObject
 90
      499
 91
      501
 93
       86
310
405010041939BDC9B585B1
350
458FA
340
458FA
 94
        0
  0
DICTIONARY
  5
87F26
102
{ACAD_REACTORS
330
458CB
102
}
100
AcDbDictionary
  3
CEPSNTYPE
350
87F30
  3
DIMSTYLEDATA
350
87F34
  3
FINGERPRINTGUID
350
87F31
  3
HYPERLINKBASE
350
87F29
  3
INSUNITS
350
87F2F
  3
LAYOUTDICT
350
87F2B
  3
LWETCUNION
350
87F2E
  3
PLOTSETDICT
350
87F2C
  3
PLOTSTYLNAMDICT
350
87F2D
  3
PSVPSCALE
350
87F33
  3
PUCSBASE
350
87F37
  3
PUCSORGBACK
350
87F3D
  3
PUCSORGBOTTOM
350
87F39
  3
PUCSORGFRONT
350
87F3C
  3
PUCSORGLEFT
350
87F3A
  3
PUCSORGRIGHT
350
87F3B
  3
PUCSORGTOP
350
87F38
  3
PUCSORTHOREF
350
87F35
  3
PUCSORTHOVIEW
350
87F36
  3
STYLESHEET
350
87F2A
  3
TSTACKALIGN
350
87F27
  3
TSTACKSIZE
350
87F28
  3
UCSBASE
350
87F40
  3
UCSORGBACK
350
87F46
  3
UCSORGBOTTOM
350
87F42
  3
UCSORGFRONT
350
87F45
  3
UCSORGLEFT
350
87F43
  3
UCSORGRIGHT
350
87F44
  3
UCSORGTOP
350
87F41
  3
UCSORTHOREF
350
87F3E
  3
UCSORTHOVIEW
350
87F3F
  3
VERSIONGUID
350
87F32
  0
DICTIONARY
  5
458E1
102
{ACAD_REACTORS
330
458CB
102
}
100
AcDbDictionary
  3
DIMADEC
350
458E2
  0
XRECORD
  5
45901
102
{ACAD_REACTORS
330
458CB
102
}
100
AcDbXrecord
  1
DWGPROPS COOKIE
  2

  3

  4

  6

  7

  8
colin
  9

300
=
301
=
302
=
303
=
304
=
305
=
306
=
307
=
308
=
309
=
 40
0.000599
 41
2451670.444777
 42
2451670.445376
  1

 90
        0
  0
XRECORD
  5
87F25
102
{ACAD_REACTORS
330
87F24
102
}
100
AcDbXrecord
102
EXTNAMES
  1
*ACTIVE
  2
*Active
102
UCS
 74
     0
 71
     1
 10
0.0
 20
0.0
 30
0.0
 10
1.0
 20
0.0
 30
0.0
 10
0.0
 20
1.0
 30
0.0
146
0.0
 79
     1
102
VIEW
281
     1
  0
XRECORD
  5
87F4E
102
{ACAD_REACTORS
330
87F4D
102
}
100
AcDbXrecord
102
PLOTBIT
280
     0
  0
XRECORD
  5
87F23
102
{ACAD_REACTORS
330
87F22
102
}
100
AcDbXrecord
102
EXTNAMES
  1
DEFPOINTS
  2
Defpoints
102
PLOTBIT
280
     0
  0
XRECORD
  5
87F4A
102
{ACAD_REACTORS
330
87F49
102
}
100
AcDbXrecord
102
ACADR14ROUNDTRIP
1000
DSTYLE
1002
{
1070
   276
 70
     2
1070
   277
 70
     5
1070
   279
 70
     2
1070
   289
 70
     2
1002
}
  0
XRECORD
  5
87F48
102
{ACAD_REACTORS
330
4592C
102
}
100
AcDbXrecord
340
458D6
  0
XRECORD
  5
87F47
102
{ACAD_REACTORS
330
4592A
102
}
100
AcDbXrecord
340
458D3
  0
XRECORD
  5
87F50
102
{ACAD_REACTORS
330
87F4F
102
}
100
AcDbXrecord
102
UCS
 74
     0
 71
     1
 10
0.0
 20
0.0
 30
0.0
 10
1.0
 20
0.0
 30
0.0
 10
0.0
 20
1.0
 30
0.0
146
0.0
 79
     0
102
VIEW
281
     0
102
NEWVIEWCONTROL
280
     4
  0
XRECORD
  5
87F52
102
{ACAD_REACTORS
330
87F51
102
}
100
AcDbXrecord
102
UCS
 74
     0
 71
     1
 10
0.0
 20
0.0
 30
0.0
 10
1.0
 20
0.0
 30
0.0
 10
0.0
 20
1.0
 30
0.0
146
0.0
 79
     1
102
VIEW
281
     1
102
NEWVIEWCONTROL
280
     4
  0
DICTIONARY
  5
87F4B
100
AcDbDictionary
280
     1
  3
ACAD_XREC_ROUNDTRIP
360
87F4C
  0
ACAD_PROXY_OBJECT
  5
458FE
102
{ACAD_REACTORS
330
458FB
102
}
100
AcDbProxyObject
 90
      499
 91
      503
 93
     1700
310
90B6E6F6E655F6465766963652C0080000006066661940000000181999865000000000068661940000000001A1986500000000C0CCFC6A4000000018199D9C5011C4C65747465725F28382E35305F785F31312E30305F496E6368657329A901416AA547D11959985D5B1D08148C4D081C195B88185CDCDA59DB9B595B9D1CC
310
B98DD1891069074C61796F75743140501A840201008040342FEFF7FBFDFFFFF3EFDFAFF7FBFFDFC9501008043E3FDFC8102A6A6A0000003033333C0FC000000809999E93F8FFFFFF5766E622403FFFFFEBF333071020
330
458D3
330
5677D
340
0
340
0
 94
        0
  0
ACAD_PROXY_OBJECT
  5
458FD
102
{ACAD_REACTORS
330
458FB
102
}
100
AcDbProxyObject
 90
      499
 91
      503
 93
      924
310
91D4850204C617365724A65742035303030205365726965732050434C20362C01AAAAAAAAA547D11959985D5B1D08148C4D081C195B88185CDCDA59DB9B595B9D1CCB98DD18A69054D6F64656C901A800000000000000000000000000000000000000000000A1000000000000008902A6A6AAAA3
330
458D6
330
0
340
0
340
0
 94
        0
  0
MLINESTYLE
  5
458DA
102
{ACAD_REACTORS
330
458D9
102
}
100
AcDbMlineStyle
  2
STANDARD
 70
     0
  3

 62
   256
 51
90.0
 52
90.0
 71
     2
 49
0.5
 62
   256
  6
BYLAYER
 49
-0.5
 62
   256
  6
BYLAYER
  0
ACAD_PROXY_OBJECT
  5
458FA
102
{ACAD_REACTORS
330
458F9
102
}
100
AcDbProxyObject
 90
      499
 91
      502
 93
        0
 94
        0
  0
XRECORD
  5
87F30
102
{ACAD_REACTORS
330
87F26
102
}
100
AcDbXrecord
 90
        0
  0
XRECORD
  5
87F34
102
{ACAD_REACTORS
330
87F26
102
}
100
AcDbXrecord
1000
DSTYLE
1002
{
1070
   276
 70
     2
1070
   277
 70
     5
1070
   279
 70
     2
1070
   289
 70
     2
1002
}
  0
XRECORD
  5
87F31
102
{ACAD_REACTORS
330
87F26
102
}
100
AcDbXrecord
  1
{6E0CF4B8-225E-11D4-A150-00A0CC3303EC}
  0
XRECORD
  5
87F29
102
{ACAD_REACTORS
330
87F26
102
}
100
AcDbXrecord
  1

  0
XRECORD
  5
87F2F
102
{ACAD_REACTORS
330
87F26
102
}
100
AcDbXrecord
 90
        0
  0
XRECORD
  5
87F2B
102
{ACAD_REACTORS
330
87F26
102
}
100
AcDbXrecord
340
458FB
  0
XRECORD
  5
87F2E
102
{ACAD_REACTORS
330
87F26
102
}
100
AcDbXrecord
 90
    14877
  0
XRECORD
  5
87F2C
102
{ACAD_REACTORS
330
87F26
102
}
100
AcDbXrecord
340
458FC
  0
XRECORD
  5
87F2D
102
{ACAD_REACTORS
330
87F26
102
}
100
AcDbXrecord
340
458F9
  0
XRECORD
  5
87F33
102
{ACAD_REACTORS
330
87F26
102
}
100
AcDbXrecord
 40
0.0
  0
XRECORD
  5
87F37
102
{ACAD_REACTORS
330
87F26
102
}
100
AcDbXrecord
340
0
  0
XRECORD
  5
87F3D
102
{ACAD_REACTORS
330
87F26
102
}
100
AcDbXrecord
 10
0.0
 20
0.0
 30
0.0
  0
XRECORD
  5
87F39
102
{ACAD_REACTORS
330
87F26
102
}
100
AcDbXrecord
 10
0.0
 20
0.0
 30
0.0
  0
XRECORD
  5
87F3C
102
{ACAD_REACTORS
330
87F26
102
}
100
AcDbXrecord
 10
0.0
 20
0.0
 30
0.0
  0
XRECORD
  5
87F3A
102
{ACAD_REACTORS
330
87F26
102
}
100
AcDbXrecord
 10
0.0
 20
0.0
 30
0.0
  0
XRECORD
  5
87F3B
102
{ACAD_REACTORS
330
87F26
102
}
100
AcDbXrecord
 10
0.0
 20
0.0
 30
0.0
  0
XRECORD
  5
87F38
102
{ACAD_REACTORS
330
87F26
102
}
100
AcDbXrecord
 10
0.0
 20
0.0
 30
0.0
  0
XRECORD
  5
87F35
102
{ACAD_REACTORS
330
87F26
102
}
100
AcDbXrecord
340
0
  0
XRECORD
  5
87F36
102
{ACAD_REACTORS
330
87F26
102
}
100
AcDbXrecord
 70
     0
  0
XRECORD
  5
87F2A
102
{ACAD_REACTORS
330
87F26
102
}
100
AcDbXrecord
  1

  0
XRECORD
  5
87F27
102
{ACAD_REACTORS
330
87F26
102
}
100
AcDbXrecord
 90
        1
  0
XRECORD
  5
87F28
102
{ACAD_REACTORS
330
87F26
102
}
100
AcDbXrecord
 90
       70
  0
XRECORD
  5
87F40
102
{ACAD_REACTORS
330
87F26
102
}
100
AcDbXrecord
340
0
  0
XRECORD
  5
87F46
102
{ACAD_REACTORS
330
87F26
102
}
100
AcDbXrecord
 10
0.0
 20
0.0
 30
0.0
  0
XRECORD
  5
87F42
102
{ACAD_REACTORS
330
87F26
102
}
100
AcDbXrecord
 10
0.0
 20
0.0
 30
0.0
  0
XRECORD
  5
87F45
102
{ACAD_REACTORS
330
87F26
102
}
100
AcDbXrecord
 10
0.0
 20
0.0
 30
0.0
  0
XRECORD
  5
87F43
102
{ACAD_REACTORS
330
87F26
102
}
100
AcDbXrecord
 10
0.0
 20
0.0
 30
0.0
  0
XRECORD
  5
87F44
102
{ACAD_REACTORS
330
87F26
102
}
100
AcDbXrecord
 10
0.0
 20
0.0
 30
0.0
  0
XRECORD
  5
87F41
102
{ACAD_REACTORS
330
87F26
102
}
100
AcDbXrecord
 10
0.0
 20
0.0
 30
0.0
  0
XRECORD
  5
87F3E
102
{ACAD_REACTORS
330
87F26
102
}
100
AcDbXrecord
340
0
  0
XRECORD
  5
87F3F
102
{ACAD_REACTORS
330
87F26
102
}
100
AcDbXrecord
 70
     1
  0
XRECORD
  5
87F32
102
{ACAD_REACTORS
330
87F26
102
}
100
AcDbXrecord
  1
{1C237101-F8B3-4A44-B930-311C24207F55}
  0
DICTIONARYVAR
  5
458E2
102
{ACAD_REACTORS
330
458E1
102
}
100
DictionaryVariables
280
     0
  1
0
  0
XRECORD
  5
87F4C
102
{ACAD_REACTORS
330
87F4B
102
}
100
AcDbXrecord
102
EXTNAMES
  1
LAYOUT1
  2
Layout1
  1
MODEL
  2
Model
  0
ENDSEC
  0
EOF
