  0
SECTION
  2
HEADER
  9
$ACADVER
  1
AC1014
  9
$ACADMAINTVER
 70
     8
  9
$DWGCODEPAGE
  3
ANSI_1252
  9
$INSBASE
 10
0.0
 20
0.0
 30
0.0
  9
$EXTMIN
 10
-2.804922
 20
-8.327942
 30
0.0
  9
$EXTMAX
 10
4.230983
 20
0.887997
 30
4.55
  9
$LIMMIN
 10
0.0
 20
0.0
  9
$LIMMAX
 10
12.0
 20
9.0
  9
$ORTHOMODE
 70
     0
  9
$REGENMODE
 70
     1
  9
$FILLMODE
 70
     1
  9
$QTEXTMODE
 70
     0
  9
$MIRRTEXT
 70
     1
  9
$DRAGMODE
 70
     2
  9
$LTSCALE
 40
1.0
  9
$OSMODE
 70
    37
  9
$ATTMODE
 70
     1
  9
$TEXTSIZE
 40
0.12
  9
$TRACEWID
 40
0.05
  9
$TEXTSTYLE
  7
STANDARD
  9
$CLAYER
  8
0
  9
$CELTYPE
  6
BYLAYER
  9
$CECOLOR
 62
   256
  9
$CELTSCALE
 40
1.0
  9
$DELOBJ
 70
     1
  9
$DISPSILH
 70
     0
  9
$DIMSCALE
 40
1.0
  9
$DIMASZ
 40
0.2
  9
$DIMEXO
 40
0.1
  9
$DIMDLI
 40
0.375
  9
$DIMRND
 40
0.0
  9
$DIMDLE
 40
0.0
  9
$DIMEXE
 40
0.1
  9
$DIMTP
 40
0.0
  9
$DIMTM
 40
0.0
  9
$DIMTXT
 40
0.2
  9
$DIMCEN
 40
0.09
  9
$DIMTSZ
 40
0.0
  9
$DIMTOL
 70
     0
  9
$DIMLIM
 70
     0
  9
$DIMTIH
 70
     0
  9
$DIMTOH
 70
     1
  9
$DIMSE1
 70
     0
  9
$DIMSE2
 70
     0
  9
$DIMTAD
 70
     0
  9
$DIMZIN
 70
     4
  9
$DIMBLK
  1

  9
$DIMASO
 70
     1
  9
$DIMSHO
 70
     1
  9
$DIMPOST
  1

  9
$DIMAPOST
  1

  9
$DIMALT
 70
     1
  9
$DIMALTD
 70
     2
  9
$DIMALTF
 40
25.4
  9
$DIMLFAC
 40
1.0
  9
$DIMTOFL
 70
     0
  9
$DIMTVP
 40
0.0
  9
$DIMTIX
 70
     0
  9
$DIMSOXD
 70
     0
  9
$DIMSAH
 70
     0
  9
$DIMBLK1
  1

  9
$DIMBLK2
  1

  9
$DIMSTYLE
  2
ABECAD_3D
  9
$DIMCLRD
 70
     0
  9
$DIMCLRE
 70
     0
  9
$DIMCLRT
 70
     0
  9
$DIMTFAC
 40
1.5
  9
$DIMGAP
 40
0.09
  9
$DIMJUST
 70
     0
  9
$DIMSD1
 70
     0
  9
$DIMSD2
 70
     0
  9
$DIMTOLJ
 70
     1
  9
$DIMTZIN
 70
     4
  9
$DIMALTZ
 70
     4
  9
$DIMALTTZ
 70
     4
  9
$DIMFIT
 70
     5
  9
$DIMUPT
 70
     1
  9
$DIMUNIT
 70
     7
  9
$DIMDEC
 70
     6
  9
$DIMTDEC
 70
     6
  9
$DIMALTU
 70
     2
  9
$DIMALTTD
 70
     2
  9
$DIMTXSTY
  7
STANDARD
  9
$DIMAUNIT
 70
     0
  9
$LUNITS
 70
     2
  9
$LUPREC
 70
     4
  9
$SKETCHINC
 40
0.1
  9
$FILLETRAD
 40
0.0
  9
$AUNITS
 70
     0
  9
$AUPREC
 70
     0
  9
$MENU
  1
ACAD
  9
$ELEVATION
 40
0.0
  9
$PELEVATION
 40
0.0
  9
$THICKNESS
 40
0.0
  9
$LIMCHECK
 70
     0
  9
$BLIPMODE
 70
     0
  9
$CHAMFERA
 40
0.0
  9
$CHAMFERB
 40
0.0
  9
$CHAMFERC
 40
0.0
  9
$CHAMFERD
 40
0.0
  9
$SKPOLY
 70
     0
  9
$TDCREATE
 40
2451726.438389120
  9
$TDUPDATE
 40
2452010.490875578
  9
$TDINDWG
 40
1.0850665509
  9
$TDUSRTIMER
 40
1.0850665509
  9
$USRTIMER
 70
     1
  9
$ANGBASE
 50
0.0
  9
$ANGDIR
 70
     0
  9
$PDMODE
 70
     3
  9
$PDSIZE
 40
0.09
  9
$PLINEWID
 40
0.0
  9
$COORDS
 70
     1
  9
$SPLFRAME
 70
     1
  9
$SPLINETYPE
 70
     6
  9
$SPLINESEGS
 70
     8
  9
$ATTDIA
 70
     0
  9
$ATTREQ
 70
     1
  9
$HANDLING
 70
     1
  9
$HANDSEED
  5
89E37
  9
$SURFTAB1
 70
     6
  9
$SURFTAB2
 70
     6
  9
$SURFTYPE
 70
     6
  9
$SURFU
 70
     6
  9
$SURFV
 70
     6
  9
$UCSNAME
  2

  9
$UCSORG
 10
0.0
 20
0.0
 30
0.0
  9
$UCSXDIR
 10
1.0
 20
0.0
 30
0.0
  9
$UCSYDIR
 10
0.0
 20
1.0
 30
0.0
  9
$PUCSNAME
  2

  9
$PUCSORG
 10
0.0
 20
0.0
 30
0.0
  9
$PUCSXDIR
 10
1.0
 20
0.0
 30
0.0
  9
$PUCSYDIR
 10
0.0
 20
1.0
 30
0.0
  9
$USERI1
 70
     0
  9
$USERI2
 70
     0
  9
$USERI3
 70
     0
  9
$USERI4
 70
     0
  9
$USERI5
 70
     0
  9
$USERR1
 40
0.0
  9
$USERR2
 40
0.0
  9
$USERR3
 40
0.0
  9
$USERR4
 40
0.0
  9
$USERR5
 40
0.0
  9
$WORLDVIEW
 70
     1
  9
$SHADEDGE
 70
     3
  9
$SHADEDIF
 70
    70
  9
$TILEMODE
 70
     1
  9
$MAXACTVP
 70
    16
  9
$PINSBASE
 10
0.0
 20
0.0
 30
0.0
  9
$PLIMCHECK
 70
     0
  9
$PEXTMIN
 10
1.05
 20
0.8
 30
0.0
  9
$PEXTMAX
 10
9.45
 20
7.2
 30
0.0
  9
$PLIMMIN
 10
-0.25
 20
-0.25
  9
$PLIMMAX
 10
10.75
 20
8.25
  9
$UNITMODE
 70
     0
  9
$VISRETAIN
 70
     0
  9
$PLINEGEN
 70
     0
  9
$PSLTSCALE
 70
     1
  9
$TREEDEPTH
 70
  3020
  9
$PICKSTYLE
 70
     1
  9
$CMLSTYLE
  2
STANDARD
  9
$CMLJUST
 70
     0
  9
$CMLSCALE
 40
1.0
  9
$PROXYGRAPHICS
 70
     1
  9
$MEASUREMENT
 70
     0
  0
ENDSEC
  0
SECTION
  2
CLASSES
  0
CLASS
  1
DICTIONARYVAR
  2
AcDbDictionaryVar
  3
"AutoCAD"
 90
        0
280
     0
281
     0
  0
CLASS
  1
ACDBDICTIONARYWDFLT
  2
AcDbDictionaryWithDefault
  3
AutoCAD 2000
 90
        0
280
     0
281
     0
  0
CLASS
  1
ACDBPLACEHOLDER
  2
AcDbPlaceHolder
  3
AutoCAD 2000
 90
        0
280
     0
281
     0
  0
CLASS
  1
LAYOUT
  2
AcDbLayout
  3
AutoCAD 2000
 90
        0
280
     0
281
     0
  0
CLASS
  1
LONG_TRANSACTION
  2
AcDbLongTransaction
  3
AutoCAD 2000
 90
        0
280
     0
281
     0
  0
CLASS
  1
LWPOLYLINE
  2
AcDbPolyline
  3
"AutoCAD"
 90
        0
280
     0
281
     1
  0
CLASS
  1
HATCH
  2
AcDbHatch
  3
"ACAD_SEDONA"
 90
        0
280
     0
281
     1
  0
CLASS
  1
XRECORD
  2
AcDbXrecord
  3
"<Built In>"
 90
        0
280
     0
281
     0
  0
CLASS
  1
LONG_TRANSACTION
  2
AcDbLongTransaction
  3
AutoCAD 2000
 90
        0
280
     0
281
     0
  0
CLASS
  1
LWPOLYLINE
  2
AcDbPolyline
  3
"AutoCAD"
 90
        0
280
     0
281
     1
  0
CLASS
  1
HATCH
  2
AcDbHatch
  3
"ACAD_SEDONA"
 90
        0
280
     0
281
     1
  0
CLASS
  1
XRECORD
  2
AcDbXrecord
  3
"<Built In>"
 90
        0
280
     0
281
     0
  0
CLASS
  1
LONG_TRANSACTION
  2
AcDbLongTransaction
  3
AutoCAD 2000
 90
        0
280
     0
281
     0
  0
CLASS
  1
LWPOLYLINE
  2
AcDbPolyline
  3
"AutoCAD"
 90
        0
280
     0
281
     1
  0
CLASS
  1
HATCH
  2
AcDbHatch
  3
"ACAD_SEDONA"
 90
        0
280
     0
281
     1
  0
CLASS
  1
XRECORD
  2
AcDbXrecord
  3
"<Built In>"
 90
        0
280
     0
281
     0
  0
CLASS
  1
LONG_TRANSACTION
  2
AcDbLongTransaction
  3
AutoCAD 2000
 90
        0
280
     0
281
     0
  0
CLASS
  1
LWPOLYLINE
  2
AcDbPolyline
  3
"AutoCAD"
 90
        0
280
     0
281
     1
  0
CLASS
  1
HATCH
  2
AcDbHatch
  3
"ACAD_SEDONA"
 90
        0
280
     0
281
     1
  0
CLASS
  1
XRECORD
  2
AcDbXrecord
  3
"<Built In>"
 90
        0
280
     0
281
     0
  0
CLASS
  1
LONG_TRANSACTION
  2
AcDbLongTransaction
  3
AutoCAD 2000
 90
        0
280
     0
281
     0
  0
CLASS
  1
LWPOLYLINE
  2
AcDbPolyline
  3
"AutoCAD"
 90
        0
280
     0
281
     1
  0
CLASS
  1
HATCH
  2
AcDbHatch
  3
"ACAD_SEDONA"
 90
        0
280
     0
281
     1
  0
CLASS
  1
XRECORD
  2
AcDbXrecord
  3
"<Built In>"
 90
        0
280
     0
281
     0
  0
CLASS
  1
LONG_TRANSACTION
  2
AcDbLongTransaction
  3
AutoCAD 2000
 90
        0
280
     0
281
     0
  0
CLASS
  1
LWPOLYLINE
  2
AcDbPolyline
  3
"AutoCAD"
 90
        0
280
     0
281
     1
  0
CLASS
  1
HATCH
  2
AcDbHatch
  3
"ACAD_SEDONA"
 90
        0
280
     0
281
     1
  0
CLASS
  1
XRECORD
  2
AcDbXrecord
  3
"<Built In>"
 90
        0
280
     0
281
     0
  0
CLASS
  1
LONG_TRANSACTION
  2
AcDbLongTransaction
  3
AutoCAD 2000
 90
        0
280
     0
281
     0
  0
CLASS
  1
LWPOLYLINE
  2
AcDbPolyline
  3
"AutoCAD"
 90
        0
280
     0
281
     1
  0
CLASS
  1
HATCH
  2
AcDbHatch
  3
"ACAD_SEDONA"
 90
        0
280
     0
281
     1
  0
CLASS
  1
XRECORD
  2
AcDbXrecord
  3
"<Built In>"
 90
        0
280
     0
281
     0
  0
CLASS
  1
LONG_TRANSACTION
  2
AcDbLongTransaction
  3
AutoCAD 2000
 90
        0
280
     0
281
     0
  0
CLASS
  1
LWPOLYLINE
  2
AcDbPolyline
  3
"AutoCAD"
 90
        0
280
     0
281
     1
  0
CLASS
  1
HATCH
  2
AcDbHatch
  3
"ACAD_SEDONA"
 90
        0
280
     0
281
     1
  0
CLASS
  1
XRECORD
  2
AcDbXrecord
  3
"<Built In>"
 90
        0
280
     0
281
     0
  0
CLASS
  1
LONG_TRANSACTION
  2
AcDbLongTransaction
  3
AutoCAD 2000
 90
        0
280
     0
281
     0
  0
CLASS
  1
LWPOLYLINE
  2
AcDbPolyline
  3
"AutoCAD"
 90
        0
280
     0
281
     1
  0
CLASS
  1
HATCH
  2
AcDbHatch
  3
"ACAD_SEDONA"
 90
        0
280
     0
281
     1
  0
CLASS
  1
XRECORD
  2
AcDbXrecord
  3
"<Built In>"
 90
        0
280
     0
281
     0
  0
CLASS
  1
LONG_TRANSACTION
  2
AcDbLongTransaction
  3
AutoCAD 2000
 90
        0
280
     0
281
     0
  0
CLASS
  1
LWPOLYLINE
  2
AcDbPolyline
  3
"AutoCAD"
 90
        0
280
     0
281
     1
  0
CLASS
  1
HATCH
  2
AcDbHatch
  3
"ACAD_SEDONA"
 90
        0
280
     0
281
     1
  0
CLASS
  1
XRECORD
  2
AcDbXrecord
  3
"<Built In>"
 90
        0
280
     0
281
     0
  0
CLASS
  1
LONG_TRANSACTION
  2
AcDbLongTransaction
  3
AutoCAD 2000
 90
        0
280
     0
281
     0
  0
CLASS
  1
LWPOLYLINE
  2
AcDbPolyline
  3
"AutoCAD"
 90
        0
280
     0
281
     1
  0
CLASS
  1
HATCH
  2
AcDbHatch
  3
"ACAD_SEDONA"
 90
        0
280
     0
281
     1
  0
CLASS
  1
XRECORD
  2
AcDbXrecord
  3
"<Built In>"
 90
        0
280
     0
281
     0
  0
CLASS
  1
LONG_TRANSACTION
  2
AcDbLongTransaction
  3
AutoCAD 2000
 90
        0
280
     0
281
     0
  0
CLASS
  1
LWPOLYLINE
  2
AcDbPolyline
  3
"AutoCAD"
 90
        0
280
     0
281
     1
  0
CLASS
  1
HATCH
  2
AcDbHatch
  3
"ACAD_SEDONA"
 90
        0
280
     0
281
     1
  0
CLASS
  1
XRECORD
  2
AcDbXrecord
  3
"<Built In>"
 90
        0
280
     0
281
     0
  0
CLASS
  1
LONG_TRANSACTION
  2
AcDbLongTransaction
  3
AutoCAD 2000
 90
        0
280
     0
281
     0
  0
CLASS
  1
LWPOLYLINE
  2
AcDbPolyline
  3
"AutoCAD"
 90
        0
280
     0
281
     1
  0
CLASS
  1
HATCH
  2
AcDbHatch
  3
"ACAD_SEDONA"
 90
        0
280
     0
281
     1
  0
CLASS
  1
XRECORD
  2
AcDbXrecord
  3
"<Built In>"
 90
        0
280
     0
281
     0
  0
CLASS
  1
LONG_TRANSACTION
  2
AcDbLongTransaction
  3
AutoCAD 2000
 90
        0
280
     0
281
     0
  0
CLASS
  1
LWPOLYLINE
  2
AcDbPolyline
  3
"AutoCAD"
 90
        0
280
     0
281
     1
  0
CLASS
  1
HATCH
  2
AcDbHatch
  3
"ACAD_SEDONA"
 90
        0
280
     0
281
     1
  0
CLASS
  1
XRECORD
  2
AcDbXrecord
  3
"<Built In>"
 90
        0
280
     0
281
     0
  0
CLASS
  1
LONG_TRANSACTION
  2
AcDbLongTransaction
  3
AutoCAD 2000
 90
        0
280
     0
281
     0
  0
CLASS
  1
LWPOLYLINE
  2
AcDbPolyline
  3
"AutoCAD"
 90
        0
280
     0
281
     1
  0
CLASS
  1
HATCH
  2
AcDbHatch
  3
"ACAD_SEDONA"
 90
        0
280
     0
281
     1
  0
CLASS
  1
XRECORD
  2
AcDbXrecord
  3
"<Built In>"
 90
        0
280
     0
281
     0
  0
CLASS
  1
LONG_TRANSACTION
  2
AcDbLongTransaction
  3
AutoCAD 2000
 90
        0
280
     0
281
     0
  0
CLASS
  1
LWPOLYLINE
  2
AcDbPolyline
  3
"AutoCAD"
 90
        0
280
     0
281
     1
  0
CLASS
  1
HATCH
  2
AcDbHatch
  3
"ACAD_SEDONA"
 90
        0
280
     0
281
     1
  0
CLASS
  1
XRECORD
  2
AcDbXrecord
  3
"<Built In>"
 90
        0
280
     0
281
     0
  0
CLASS
  1
LONG_TRANSACTION
  2
AcDbLongTransaction
  3
AutoCAD 2000
 90
        0
280
     0
281
     0
  0
CLASS
  1
LWPOLYLINE
  2
AcDbPolyline
  3
"AutoCAD"
 90
        0
280
     0
281
     1
  0
CLASS
  1
HATCH
  2
AcDbHatch
  3
"ACAD_SEDONA"
 90
        0
280
     0
281
     1
  0
CLASS
  1
XRECORD
  2
AcDbXrecord
  3
"<Built In>"
 90
        0
280
     0
281
     0
  0
CLASS
  1
LONG_TRANSACTION
  2
AcDbLongTransaction
  3
AutoCAD 2000
 90
        0
280
     0
281
     0
  0
CLASS
  1
LWPOLYLINE
  2
AcDbPolyline
  3
"AutoCAD"
 90
        0
280
     0
281
     1
  0
CLASS
  1
HATCH
  2
AcDbHatch
  3
"ACAD_SEDONA"
 90
        0
280
     0
281
     1
  0
CLASS
  1
XRECORD
  2
AcDbXrecord
  3
"<Built In>"
 90
        0
280
     0
281
     0
  0
CLASS
  1
LONG_TRANSACTION
  2
AcDbLongTransaction
  3
AutoCAD 2000
 90
        0
280
     0
281
     0
  0
CLASS
  1
LWPOLYLINE
  2
AcDbPolyline
  3
"AutoCAD"
 90
        0
280
     0
281
     1
  0
CLASS
  1
HATCH
  2
AcDbHatch
  3
"ACAD_SEDONA"
 90
        0
280
     0
281
     1
  0
CLASS
  1
XRECORD
  2
AcDbXrecord
  3
"<Built In>"
 90
        0
280
     0
281
     0
  0
CLASS
  1
LONG_TRANSACTION
  2
AcDbLongTransaction
  3
AutoCAD 2000
 90
        0
280
     0
281
     0
  0
CLASS
  1
LWPOLYLINE
  2
AcDbPolyline
  3
"AutoCAD"
 90
        0
280
     0
281
     1
  0
CLASS
  1
HATCH
  2
AcDbHatch
  3
"ACAD_SEDONA"
 90
        0
280
     0
281
     1
  0
CLASS
  1
XRECORD
  2
AcDbXrecord
  3
"<Built In>"
 90
        0
280
     0
281
     0
  0
CLASS
  1
LONG_TRANSACTION
  2
AcDbLongTransaction
  3
AutoCAD 2000
 90
        0
280
     0
281
     0
  0
CLASS
  1
LWPOLYLINE
  2
AcDbPolyline
  3
"AutoCAD"
 90
        0
280
     0
281
     1
  0
CLASS
  1
HATCH
  2
AcDbHatch
  3
"ACAD_SEDONA"
 90
        0
280
     0
281
     1
  0
CLASS
  1
XRECORD
  2
AcDbXrecord
  3
"<Built In>"
 90
        0
280
     0
281
     0
  0
CLASS
  1
LONG_TRANSACTION
  2
AcDbLongTransaction
  3
AutoCAD 2000
 90
        0
280
     0
281
     0
  0
CLASS
  1
LWPOLYLINE
  2
AcDbPolyline
  3
"AutoCAD"
 90
        0
280
     0
281
     1
  0
CLASS
  1
HATCH
  2
AcDbHatch
  3
"ACAD_SEDONA"
 90
        0
280
     0
281
     1
  0
CLASS
  1
XRECORD
  2
AcDbXrecord
  3
"<Built In>"
 90
        0
280
     0
281
     0
  0
CLASS
  1
LONG_TRANSACTION
  2
AcDbLongTransaction
  3
AutoCAD 2000
 90
        0
280
     0
281
     0
  0
CLASS
  1
LWPOLYLINE
  2
AcDbPolyline
  3
"AutoCAD"
 90
        0
280
     0
281
     1
  0
CLASS
  1
HATCH
  2
AcDbHatch
  3
"ACAD_SEDONA"
 90
        0
280
     0
281
     1
  0
CLASS
  1
XRECORD
  2
AcDbXrecord
  3
"<Built In>"
 90
        0
280
     0
281
     0
  0
CLASS
  1
LONG_TRANSACTION
  2
AcDbLongTransaction
  3
AutoCAD 2000
 90
        0
280
     0
281
     0
  0
CLASS
  1
LWPOLYLINE
  2
AcDbPolyline
  3
"AutoCAD"
 90
        0
280
     0
281
     1
  0
CLASS
  1
HATCH
  2
AcDbHatch
  3
"ACAD_SEDONA"
 90
        0
280
     0
281
     1
  0
CLASS
  1
XRECORD
  2
AcDbXrecord
  3
"<Built In>"
 90
        0
280
     0
281
     0
  0
CLASS
  1
LONG_TRANSACTION
  2
AcDbLongTransaction
  3
AutoCAD 2000
 90
        0
280
     0
281
     0
  0
CLASS
  1
LWPOLYLINE
  2
AcDbPolyline
  3
"AutoCAD"
 90
        0
280
     0
281
     1
  0
CLASS
  1
HATCH
  2
AcDbHatch
  3
"ACAD_SEDONA"
 90
        0
280
     0
281
     1
  0
CLASS
  1
XRECORD
  2
AcDbXrecord
  3
"<Built In>"
 90
        0
280
     0
281
     0
  0
CLASS
  1
LONG_TRANSACTION
  2
AcDbLongTransaction
  3
AutoCAD 2000
 90
        0
280
     0
281
     0
  0
CLASS
  1
LWPOLYLINE
  2
AcDbPolyline
  3
"AutoCAD"
 90
        0
280
     0
281
     1
  0
CLASS
  1
HATCH
  2
AcDbHatch
  3
"ACAD_SEDONA"
 90
        0
280
     0
281
     1
  0
CLASS
  1
XRECORD
  2
AcDbXrecord
  3
"<Built In>"
 90
        0
280
     0
281
     0
  0
CLASS
  1
LONG_TRANSACTION
  2
AcDbLongTransaction
  3
AutoCAD 2000
 90
        0
280
     0
281
     0
  0
CLASS
  1
LWPOLYLINE
  2
AcDbPolyline
  3
"AutoCAD"
 90
        0
280
     0
281
     1
  0
CLASS
  1
HATCH
  2
AcDbHatch
  3
"ACAD_SEDONA"
 90
        0
280
     0
281
     1
  0
CLASS
  1
XRECORD
  2
AcDbXrecord
  3
"<Built In>"
 90
        0
280
     0
281
     0
  0
CLASS
  1
LONG_TRANSACTION
  2
AcDbLongTransaction
  3
AutoCAD 2000
 90
        0
280
     0
281
     0
  0
CLASS
  1
LWPOLYLINE
  2
AcDbPolyline
  3
"AutoCAD"
 90
        0
280
     0
281
     1
  0
CLASS
  1
HATCH
  2
AcDbHatch
  3
"ACAD_SEDONA"
 90
        0
280
     0
281
     1
  0
CLASS
  1
XRECORD
  2
AcDbXrecord
  3
"<Built In>"
 90
        0
280
     0
281
     0
  0
CLASS
  1
LONG_TRANSACTION
  2
AcDbLongTransaction
  3
AutoCAD 2000
 90
        0
280
     0
281
     0
  0
CLASS
  1
LWPOLYLINE
  2
AcDbPolyline
  3
"AutoCAD"
 90
        0
280
     0
281
     1
  0
CLASS
  1
HATCH
  2
AcDbHatch
  3
"ACAD_SEDONA"
 90
        0
280
     0
281
     1
  0
CLASS
  1
XRECORD
  2
AcDbXrecord
  3
"<Built In>"
 90
        0
280
     0
281
     0
  0
CLASS
  1
LONG_TRANSACTION
  2
AcDbLongTransaction
  3
AutoCAD 2000
 90
        0
280
     0
281
     0
  0
CLASS
  1
LWPOLYLINE
  2
AcDbPolyline
  3
"AutoCAD"
 90
        0
280
     0
281
     1
  0
CLASS
  1
HATCH
  2
AcDbHatch
  3
"ACAD_SEDONA"
 90
        0
280
     0
281
     1
  0
CLASS
  1
XRECORD
  2
AcDbXrecord
  3
"<Built In>"
 90
        0
280
     0
281
     0
  0
ENDSEC
  0
SECTION
  2
TABLES
  0
TABLE
  2
VPORT
  5
458C7
100
AcDbSymbolTable
 70
     1
  0
VPORT
  5
89E02
102
{ACAD_XDICTIONARY
360
89E05
102
}
100
AcDbSymbolTableRecord
100
AcDbViewportTableRecord
  2
*ACTIVE
 70
     0
 10
0.0
 20
0.0
 11
1.0
 21
1.0
 12
-5.906803
 22
-0.218703
 13
0.0
 23
0.0
 14
0.25
 24
0.25
 15
0.25
 25
0.25
 16
0.0
 26
0.0
 36
1.0
 17
6.619902
 27
-3.501216
 37
4.043999
 40
9.372012
 41
1.960674
 42
50.0
 43
0.0
 44
0.0
 50
0.0
 51
0.0
 71
     0
 72
 20000
 73
     1
 74
     1
 75
     0
 76
     0
 77
     0
 78
     0
  0
ENDTAB
  0
TABLE
  2
LTYPE
  5
458C4
100
AcDbSymbolTable
 70
     1
  0
LTYPE
  5
458D0
100
AcDbSymbolTableRecord
100
AcDbLinetypeTableRecord
  2
BYBLOCK
 70
     0
  3

 72
    65
 73
     0
 40
0.0
  0
LTYPE
  5
458D1
100
AcDbSymbolTableRecord
100
AcDbLinetypeTableRecord
  2
BYLAYER
 70
     0
  3

 72
    65
 73
     0
 40
0.0
  0
LTYPE
  5
458D2
100
AcDbSymbolTableRecord
100
AcDbLinetypeTableRecord
  2
CONTINUOUS
 70
     0
  3
Solid line
 72
    65
 73
     0
 40
0.0
  0
ENDTAB
  0
TABLE
  2
LAYER
  5
458C1
100
AcDbSymbolTable
 70
     7
  0
LAYER
  5
458CD
100
AcDbSymbolTableRecord
100
AcDbLayerTableRecord
  2
0
 70
     0
 62
     7
  6
CONTINUOUS
  0
LAYER
  5
458EA
100
AcDbSymbolTableRecord
100
AcDbLayerTableRecord
  2
DIMS-MTG-HOLES
 70
     0
 62
     1
  6
CONTINUOUS
  0
LAYER
  5
458EB
100
AcDbSymbolTableRecord
100
AcDbLayerTableRecord
  2
ATTRIBUTES
 70
     0
 62
     7
  6
CONTINUOUS
  0
LAYER
  5
4593B
102
{ACAD_XDICTIONARY
360
89E2E
102
}
100
AcDbSymbolTableRecord
100
AcDbLayerTableRecord
  2
AREA1
 70
     0
 62
    -7
  6
CONTINUOUS
  0
LAYER
  5
45940
102
{ACAD_XDICTIONARY
360
89E03
102
}
100
AcDbSymbolTableRecord
100
AcDbLayerTableRecord
  2
DEFPOINTS
 70
     0
 62
    -7
  6
CONTINUOUS
  0
LAYER
  5
45954
100
AcDbSymbolTableRecord
100
AcDbLayerTableRecord
  2
SCALE
 70
     0
 62
    -7
  6
CONTINUOUS
  0
LAYER
  5
4D59A
100
AcDbSymbolTableRecord
100
AcDbLayerTableRecord
  2
SNAP_POINTS
 70
     0
 62
    -1
  6
CONTINUOUS
  0
ENDTAB
  0
TABLE
  2
STYLE
  5
458C2
100
AcDbSymbolTable
 70
     1
  0
STYLE
  5
458CE
100
AcDbSymbolTableRecord
100
AcDbTextStyleTableRecord
  2
STANDARD
 70
     0
 40
0.0
 41
1.0
 50
0.0
 71
     0
 42
0.12
  3
txt
  4

  0
ENDTAB
  0
TABLE
  2
VIEW
  5
458C5
100
AcDbSymbolTable
 70
     0
  0
ENDTAB
  0
TABLE
  2
UCS
  5
458C6
100
AcDbSymbolTable
 70
     0
  0
ENDTAB
  0
TABLE
  2
APPID
  5
458C8
100
AcDbSymbolTable
 70
     2
  0
APPID
  5
458CF
100
AcDbSymbolTableRecord
100
AcDbRegAppTableRecord
  2
ACAD
 70
     0
  0
APPID
  5
5FD5B
100
AcDbSymbolTableRecord
100
AcDbRegAppTableRecord
  2
AVE_RENDER
 70
     0
  0
ENDTAB
  0
TABLE
  2
DIMSTYLE
  5
458C9
100
AcDbSymbolTable
 70
     1
  0
DIMSTYLE
105
458F6
102
{ACAD_XDICTIONARY
360
89E2A
102
}
102
{ACAD_REACTORS
330
89D82
330
89D90
102
}
100
AcDbSymbolTableRecord
100
AcDbDimStyleTableRecord
  2
ABECAD_3D
 70
     0
  3

  4

  5

  6

  7

 40
1.0
 41
0.2
 42
0.1
 43
0.375
 44
0.1
 45
0.0
 46
0.0
 47
0.0
 48
0.0
140
0.2
141
0.09
142
0.0
143
25.4
144
1.0
145
0.0
146
1.5
147
0.09
 71
     0
 72
     0
 73
     0
 74
     1
 75
     0
 76
     0
 77
     0
 78
     4
170
     1
171
     2
172
     0
173
     0
174
     0
175
     0
176
     0
177
     0
178
     0
270
     7
271
     6
272
     6
273
     2
274
     2
340
458CE
275
     0
280
     0
281
     0
282
     0
283
     1
284
     4
285
     4
286
     4
287
     5
288
     1
  0
ENDTAB
  0
TABLE
  2
BLOCK_RECORD
  5
458C0
100
AcDbSymbolTable
 70
     2
  0
BLOCK_RECORD
  5
458D6
102
{ACAD_XDICTIONARY
360
4592C
102
}
100
AcDbSymbolTableRecord
100
AcDbBlockTableRecord
  2
*MODEL_SPACE
  0
BLOCK_RECORD
  5
458D3
102
{ACAD_XDICTIONARY
360
4592A
102
}
100
AcDbSymbolTableRecord
100
AcDbBlockTableRecord
  2
*PAPER_SPACE
  0
BLOCK_RECORD
  5
89D83
100
AcDbSymbolTableRecord
100
AcDbBlockTableRecord
  2
*D0
  0
BLOCK_RECORD
  5
89D91
100
AcDbSymbolTableRecord
100
AcDbBlockTableRecord
  2
*D1
  0
ENDTAB
  0
ENDSEC
  0
SECTION
  2
BLOCKS
  0
BLOCK
  5
458DF
100
AcDbEntity
  8
0
100
AcDbBlockBegin
  2
*MODEL_SPACE
 70
     0
 10
0.0
 20
0.0
 30
0.0
  3
*MODEL_SPACE
  1

  0
ENDBLK
  5
458E0
100
AcDbEntity
  8
0
100
AcDbBlockEnd
  0
BLOCK
  5
458DD
100
AcDbEntity
 67
     1
  8
0
100
AcDbBlockBegin
  2
*PAPER_SPACE
 70
     0
 10
0.0
 20
0.0
 30
0.0
  3
*PAPER_SPACE
  1

  0
ENDBLK
  5
458DE
100
AcDbEntity
 67
     1
  8
0
100
AcDbBlockEnd
  0
BLOCK
  5
89D8E
100
AcDbEntity
  8
0
100
AcDbBlockBegin
  2
*D0
 70
     1
 10
0.0
 20
0.0
 30
0.0
  3
*D0
  1

  0
LINE
  5
89DB8
100
AcDbEntity
  8
AREA1
 62
     0
100
AcDbLine
 10
-1.265
 20
0.28
 30
0.0
 11
-2.804922
 21
0.28
 31
0.0
1001
ACAD
1000
RTLwPs
1070
   158
  0
LINE
  5
89DB9
100
AcDbEntity
  8
AREA1
 62
     0
100
AcDbLine
 10
-1.885
 20
-7.34
 30
0.0
 11
-2.804922
 21
-7.34
 31
0.0
1001
ACAD
1000
RTLwPs
1070
   158
  0
LINE
  5
89DBA
100
AcDbEntity
  8
AREA1
 62
     0
100
AcDbLine
 10
-2.704922
 20
0.08
 30
0.0
 11
-2.704922
 21
-2.451757
 31
0.0
1001
ACAD
1000
RTLwPs
1070
   158
  0
LINE
  5
89DBB
100
AcDbEntity
  8
AREA1
 62
     0
100
AcDbLine
 10
-2.704922
 20
-7.14
 30
0.0
 11
-2.704922
 21
-5.031757
 31
0.0
1001
ACAD
1000
RTLwPs
1070
   158
  0
MTEXT
  5
89DBC
100
AcDbEntity
  8
AREA1
 62
     0
100
AcDbMText
 10
-2.704922
 20
-3.741757
 30
0.0
 40
0.2
 41
0.0
 71
     5
 72
     1
  1
\A1;7 5/8 [193.55]
 11
0.0
 21
1.0
 31
0.0
1001
ACAD
1000
MTEXTBEGIN
1070
    73
1070
     1
1070
    44
1040
1.0
1070
    74
1070
     0
1000
MTEXTEND
1000
MTEXTBEGIN
1070
    73
1070
     1
1070
    44
1040
1.0
1070
    74
1070
     0
1000
MTEXTEND
  0
SOLID
  5
89DBD
100
AcDbEntity
  8
AREA1
 62
     0
100
AcDbTrace
 10
-2.738255
 20
0.08
 30
0.0
 11
-2.671589
 21
0.08
 31
0.0
 12
-2.704922
 22
0.28
 32
0.0
 13
-2.704922
 23
0.28
 33
0.0
  0
SOLID
  5
89DBE
100
AcDbEntity
  8
AREA1
 62
     0
100
AcDbTrace
 10
-2.738255
 20
-7.14
 30
0.0
 11
-2.671589
 21
-7.14
 31
0.0
 12
-2.704922
 22
-7.34
 32
0.0
 13
-2.704922
 23
-7.34
 33
0.0
  0
POINT
  5
89DBF
100
AcDbEntity
  8
DEFPOINTS
 62
     0
100
AcDbPoint
 10
-1.165
 20
0.28
 30
0.0
  0
POINT
  5
89DC0
100
AcDbEntity
  8
DEFPOINTS
 62
     0
100
AcDbPoint
 10
-1.785
 20
-7.34
 30
0.0
  0
POINT
  5
89DC1
100
AcDbEntity
  8
DEFPOINTS
 62
     0
100
AcDbPoint
 10
-2.704922
 20
-7.34
 30
0.0
  0
ENDBLK
  5
89D8F
100
AcDbEntity
  8
0
100
AcDbBlockEnd
  0
BLOCK
  5
89D9C
100
AcDbEntity
  8
0
100
AcDbBlockBegin
  2
*D1
 70
     1
 10
0.0
 20
0.0
 30
0.0
  3
*D1
  1

  0
LINE
  5
89DC2
100
AcDbEntity
  8
AREA1
 62
     0
100
AcDbLine
 10
-1.785
 20
-0.24
 30
0.0
 11
-1.785
 21
0.887997
 31
0.0
1001
ACAD
1000
RTLwPs
1070
   158
  0
LINE
  5
89DC3
100
AcDbEntity
  8
AREA1
 62
     0
100
AcDbLine
 10
1.775
 20
-0.24
 30
0.0
 11
1.775
 21
0.887997
 31
0.0
1001
ACAD
1000
RTLwPs
1070
   158
  0
LINE
  5
89DC4
100
AcDbEntity
  8
AREA1
 62
     0
100
AcDbLine
 10
-1.585
 20
0.787997
 30
0.0
 11
-1.305978
 21
0.787997
 31
0.0
1001
ACAD
1000
RTLwPs
1070
   158
  0
LINE
  5
89DC5
100
AcDbEntity
  8
AREA1
 62
     0
100
AcDbLine
 10
1.575
 20
0.787997
 30
0.0
 11
1.240689
 21
0.787997
 31
0.0
1001
ACAD
1000
RTLwPs
1070
   158
  0
MTEXT
  5
89DC6
100
AcDbEntity
  8
AREA1
 62
     0
100
AcDbMText
 10
-0.032644
 20
0.787997
 30
0.0
 40
0.2
 41
0.0
 71
     5
 72
     1
  1
\A1;3 9/16 [90.42]
1001
ACAD
1000
MTEXTBEGIN
1070
    73
1070
     1
1070
    44
1040
1.0
1070
    74
1070
     0
1000
MTEXTEND
1000
MTEXTBEGIN
1070
    73
1070
     1
1070
    44
1040
1.0
1070
    74
1070
     0
1000
MTEXTEND
  0
SOLID
  5
89DC7
100
AcDbEntity
  8
AREA1
 62
     0
100
AcDbTrace
 10
-1.585
 20
0.82133
 30
0.0
 11
-1.585
 21
0.754663
 31
0.0
 12
-1.785
 22
0.787997
 32
0.0
 13
-1.785
 23
0.787997
 33
0.0
  0
SOLID
  5
89DC8
100
AcDbEntity
  8
AREA1
 62
     0
100
AcDbTrace
 10
1.575
 20
0.82133
 30
0.0
 11
1.575
 21
0.754663
 31
0.0
 12
1.775
 22
0.787997
 32
0.0
 13
1.775
 23
0.787997
 33
0.0
  0
POINT
  5
89DC9
100
AcDbEntity
  8
DEFPOINTS
 62
     0
100
AcDbPoint
 10
-1.785
 20
-0.34
 30
0.0
  0
POINT
  5
89DCA
100
AcDbEntity
  8
DEFPOINTS
 62
     0
100
AcDbPoint
 10
1.775
 20
-0.34
 30
0.0
  0
POINT
  5
89DCB
100
AcDbEntity
  8
DEFPOINTS
 62
     0
100
AcDbPoint
 10
1.775
 20
0.787997
 30
0.0
  0
ENDBLK
  5
89D9D
100
AcDbEntity
  8
0
100
AcDbBlockEnd
  0
ENDSEC
  0
SECTION
  2
ENTITIES
  0
LINE
  5
89B55
100
AcDbEntity
  8
0
100
AcDbLine
 10
-1.68
 20
-4.82
 30
1.62
 11
-1.68
 21
-4.82
 31
2.85
  0
LINE
  5
89B56
100
AcDbEntity
  8
0
100
AcDbLine
 10
-1.28
 20
-7.34
 30
0.0
 11
-1.28
 21
-7.09
 31
0.0
  0
LINE
  5
89B57
100
AcDbEntity
  8
0
100
AcDbLine
 10
-1.28
 20
-7.34
 30
0.19
 11
-1.28
 21
-7.09
 31
0.19
  0
LINE
  5
89B58
100
AcDbEntity
  8
0
100
AcDbLine
 10
-1.48
 20
-7.09
 30
0.0
 11
-1.48
 21
-7.34
 31
0.0
  0
LINE
  5
89B59
100
AcDbEntity
  8
0
100
AcDbLine
 10
-1.48
 20
-7.09
 30
0.19
 11
-1.48
 21
-7.34
 31
0.19
  0
LINE
  5
89B5A
100
AcDbEntity
  8
0
100
AcDbLine
 10
-1.48
 20
-7.34
 30
0.0
 11
-1.48
 21
-7.34
 31
0.19
  0
LINE
  5
89B5B
100
AcDbEntity
  8
0
100
AcDbLine
 10
-1.28
 20
-7.09
 30
0.0
 11
-1.28
 21
-7.09
 31
0.19
  0
LINE
  5
89B5C
100
AcDbEntity
  8
0
100
AcDbLine
 10
-1.48
 20
-7.09
 30
0.0
 11
-1.48
 21
-7.09
 31
0.19
  0
ARC
  5
89B5D
100
AcDbEntity
  8
0
100
AcDbCircle
 10
-1.38
 20
-7.09
 30
0.0
 40
0.1
100
AcDbArc
 50
0.0
 51
179.999985
  0
ARC
  5
89B5E
100
AcDbEntity
  8
0
100
AcDbCircle
 10
-1.38
 20
-7.09
 30
0.19
 40
0.1
100
AcDbArc
 50
0.0
 51
179.999985
  0
3DFACE
  5
89B5F
100
AcDbEntity
  8
0
100
AcDbFace
 10
1.47
 20
-7.09
 30
0.19
 11
1.47
 21
-7.09
 31
0.0
 12
1.47
 22
-7.34
 32
0.0
 13
1.47
 23
-7.34
 33
0.19
 70
    14
  0
LINE
  5
89B60
100
AcDbEntity
  8
0
100
AcDbLine
 10
1.27
 20
-7.09
 30
0.0
 11
1.27
 21
-7.34
 31
0.0
  0
LINE
  5
89B61
100
AcDbEntity
  8
0
100
AcDbLine
 10
1.47
 20
-7.34
 30
0.0
 11
1.47
 21
-7.09
 31
0.0
  0
LINE
  5
89B62
100
AcDbEntity
  8
0
100
AcDbLine
 10
1.27
 20
-7.09
 30
0.19
 11
1.27
 21
-7.34
 31
0.19
  0
LINE
  5
89B63
100
AcDbEntity
  8
0
100
AcDbLine
 10
1.47
 20
-7.34
 30
0.19
 11
1.47
 21
-7.09
 31
0.19
  0
LINE
  5
89B64
100
AcDbEntity
  8
0
100
AcDbLine
 10
1.27
 20
-7.34
 30
0.0
 11
1.27
 21
-7.34
 31
0.19
  0
LINE
  5
89B65
100
AcDbEntity
  8
0
100
AcDbLine
 10
1.47
 20
-7.34
 30
0.0
 11
1.47
 21
-7.34
 31
0.19
  0
LINE
  5
89B66
100
AcDbEntity
  8
0
100
AcDbLine
 10
1.27
 20
-7.09
 30
0.0
 11
1.27
 21
-7.09
 31
0.19
  0
LINE
  5
89B67
100
AcDbEntity
  8
0
100
AcDbLine
 10
1.47
 20
-7.09
 30
0.0
 11
1.47
 21
-7.09
 31
0.19
  0
ARC
  5
89B68
100
AcDbEntity
  8
0
100
AcDbCircle
 10
1.37
 20
-7.09
 30
0.0
 40
0.1
100
AcDbArc
 50
0.0
 51
179.999985
  0
ARC
  5
89B69
100
AcDbEntity
  8
0
100
AcDbCircle
 10
1.37
 20
-7.09
 30
0.19
 40
0.1
100
AcDbArc
 50
0.0
 51
179.999985
  0
CIRCLE
  5
89B6A
100
AcDbEntity
  8
0
100
AcDbCircle
 10
-1.13
 20
-5.270363
 30
4.684778
 40
0.155
210
0.0
220
-0.3163624652213708
230
0.9486383876899864
  0
LINE
  5
89B6B
100
AcDbEntity
  8
0
100
AcDbLine
 10
-1.150075
 20
-6.627557
 30
2.728192
 11
-1.129586
 21
-6.334718
 31
2.825851
210
0.0
220
-0.3163624652213708
230
0.9486383876899864
  0
LINE
  5
89B6C
100
AcDbEntity
  8
0
100
AcDbLine
 10
-1.130958
 20
-6.628819
 30
2.727771
 11
-1.110469
 21
-6.33598
 31
2.82543
210
0.0
220
-0.3163624652213708
230
0.9486383876899864
  0
CIRCLE
  5
89B6D
100
AcDbEntity
  8
0
100
AcDbCircle
 10
-0.07
 20
-5.270363
 30
4.684778
 40
0.155
210
0.0
220
-0.3163624652213708
230
0.9486383876899864
  0
LINE
  5
89B6E
100
AcDbEntity
  8
0
100
AcDbLine
 10
-0.070958
 20
-6.628819
 30
2.727771
 11
-0.050469
 21
-6.33598
 31
2.82543
210
0.0
220
-0.3163624652213708
230
0.9486383876899864
  0
LINE
  5
89B6F
100
AcDbEntity
  8
0
100
AcDbLine
 10
-0.090075
 20
-6.627557
 30
2.728192
 11
-0.069586
 21
-6.334718
 31
2.825851
210
0.0
220
-0.3163624652213708
230
0.9486383876899864
  0
LINE
  5
89B70
100
AcDbEntity
  8
0
100
AcDbLine
 10
-0.723
 20
-5.32
 30
3.96
 11
-0.723
 21
-5.32
 31
3.64
  0
LINE
  5
89B71
100
AcDbEntity
  8
0
100
AcDbLine
 10
-0.473
 20
-5.32
 30
3.96
 11
-0.473
 21
-5.32
 31
3.64
  0
LINE
  5
89B72
100
AcDbEntity
  8
0
100
AcDbLine
 10
-0.473
 20
-5.07
 30
3.96
 11
-0.473
 21
-5.07
 31
3.64
  0
LINE
  5
89B73
100
AcDbEntity
  8
0
100
AcDbLine
 10
-0.723
 20
-5.07
 30
3.96
 11
-0.723
 21
-5.07
 31
3.64
  0
LINE
  5
89B74
100
AcDbEntity
  8
0
100
AcDbLine
 10
-0.473
 20
-5.07
 30
3.96
 11
-0.473
 21
-5.07
 31
3.64
  0
3DFACE
  5
89B75
100
AcDbEntity
  8
0
100
AcDbFace
 10
-0.473
 20
-5.32
 30
3.96
 11
-0.473
 21
-5.32
 31
3.64
 12
-0.473
 22
-5.07
 32
3.64
 13
-0.473
 23
-5.07
 33
3.96
 70
    14
  0
3DFACE
  5
89B76
100
AcDbEntity
  8
0
100
AcDbFace
 10
-0.473
 20
-5.07
 30
3.64
 11
-0.473
 21
-5.07
 31
3.96
 12
-0.473
 22
-5.32
 32
3.96
 13
-0.473
 23
-5.32
 33
3.64
 70
     3
  0
3DFACE
  5
89B77
100
AcDbEntity
  8
0
100
AcDbFace
 10
-0.473
 20
-5.32
 30
3.96
 11
-0.473
 21
-5.32
 31
3.64
 12
-0.473
 22
-5.07
 32
3.64
 13
-0.473
 23
-5.07
 33
3.64
 70
    14
  0
3DFACE
  5
89B78
100
AcDbEntity
  8
0
100
AcDbFace
 10
-0.473
 20
-5.07
 30
3.64
 11
-0.723
 21
-5.07
 31
3.64
 12
-0.723
 22
-5.07
 32
3.96
 13
-0.473
 23
-5.07
 33
3.96
 70
    14
  0
3DFACE
  5
89B79
100
AcDbEntity
  8
0
100
AcDbFace
 10
-0.723
 20
-5.07
 30
3.96
 11
-0.723
 21
-5.32
 31
3.96
 12
-0.723
 22
-5.32
 32
3.64
 13
-0.723
 23
-5.07
 33
3.64
 70
    14
  0
3DFACE
  5
89B7A
100
AcDbEntity
  8
0
100
AcDbFace
 10
-0.723
 20
-5.32
 30
3.96
 11
-0.723
 21
-5.32
 31
3.64
 12
-0.473
 22
-5.32
 32
3.64
 13
-0.473
 23
-5.32
 33
3.96
 70
    14
  0
LINE
  5
89B7B
100
AcDbEntity
  8
0
100
AcDbLine
 10
-0.473
 20
-5.32
 30
3.64
 11
-0.723
 21
-5.32
 31
3.64
  0
LINE
  5
89B7C
100
AcDbEntity
  8
0
100
AcDbLine
 10
-0.723
 20
-5.07
 30
3.64
 11
-0.473
 21
-5.07
 31
3.64
  0
LINE
  5
89B7D
100
AcDbEntity
  8
0
100
AcDbLine
 10
-0.723
 20
-5.32
 30
3.64
 11
-0.723
 21
-5.07
 31
3.64
  0
LINE
  5
89B7E
100
AcDbEntity
  8
0
100
AcDbLine
 10
-0.473
 20
-5.07
 30
3.64
 11
-0.473
 21
-5.32
 31
3.64
  0
3DFACE
  5
89B7F
100
AcDbEntity
  8
0
100
AcDbFace
 10
-0.908
 20
-4.82
 30
4.55
 11
-0.288
 21
-4.82
 31
4.55
 12
-0.288
 22
-4.82
 32
4.425
 13
-0.908
 23
-4.82
 33
4.425
 70
    14
  0
LINE
  5
89B80
100
AcDbEntity
  8
0
100
AcDbLine
 10
-0.908
 20
-4.82
 30
4.55
 11
-0.288
 21
-4.82
 31
4.55
  0
LINE
  5
89B81
100
AcDbEntity
  8
0
100
AcDbLine
 10
-0.908
 20
-4.82
 30
4.425
 11
-0.288
 21
-4.82
 31
4.425
  0
LINE
  5
89B82
100
AcDbEntity
  8
0
100
AcDbLine
 10
-0.848
 20
-4.945
 30
3.96
 11
-0.348
 21
-4.945
 31
3.96
  0
3DFACE
  5
89B83
100
AcDbEntity
  8
0
100
AcDbFace
 10
-0.288
 20
-4.82
 30
4.425
 11
-0.908
 21
-4.82
 31
4.425
 12
-0.848
 22
-4.945
 32
3.96
 13
-0.348
 23
-4.945
 33
3.96
 70
    14
  0
LINE
  5
89B84
100
AcDbEntity
  8
0
100
AcDbLine
 10
-0.288
 20
-5.57
 30
4.425
 11
-0.908
 21
-5.57
 31
4.425
  0
3DFACE
  5
89B85
100
AcDbEntity
  8
0
100
AcDbFace
 10
-0.908
 20
-5.57
 30
4.55
 11
-0.288
 21
-5.57
 31
4.55
 12
-0.288
 22
-5.57
 32
4.425
 13
-0.908
 23
-5.57
 33
4.425
 70
    14
  0
LINE
  5
89B86
100
AcDbEntity
  8
0
100
AcDbLine
 10
-0.288
 20
-5.57
 30
4.55
 11
-0.908
 21
-5.57
 31
4.55
  0
LINE
  5
89B87
100
AcDbEntity
  8
0
100
AcDbLine
 10
-0.348
 20
-5.445
 30
3.96
 11
-0.848
 21
-5.445
 31
3.96
  0
3DFACE
  5
89B88
100
AcDbEntity
  8
0
100
AcDbFace
 10
-0.908
 20
-5.57
 30
4.425
 11
-0.288
 21
-5.57
 31
4.425
 12
-0.348
 22
-5.445
 32
3.96
 13
-0.848
 23
-5.445
 33
3.96
 70
    14
  0
3DFACE
  5
89B89
100
AcDbEntity
  8
0
100
AcDbFace
 10
-0.908
 20
-4.82
 30
4.55
 11
-0.288
 21
-4.82
 31
4.55
 12
-0.288
 22
-5.57
 32
4.55
 13
-0.908
 23
-5.57
 33
4.55
 70
    14
  0
LINE
  5
89B8A
100
AcDbEntity
  8
0
100
AcDbLine
 10
-0.723
 20
-5.32
 30
3.96
 11
-0.473
 21
-5.32
 31
3.96
  0
LINE
  5
89B8B
100
AcDbEntity
  8
0
100
AcDbLine
 10
-0.723
 20
-5.07
 30
3.96
 11
-0.473
 21
-5.07
 31
3.96
  0
LINE
  5
89B8C
100
AcDbEntity
  8
0
100
AcDbLine
 10
-0.908
 20
-5.57
 30
4.425
 11
-0.908
 21
-4.82
 31
4.425
  0
3DFACE
  5
89B8D
100
AcDbEntity
  8
0
100
AcDbFace
 10
-0.908
 20
-4.82
 30
4.55
 11
-0.908
 21
-4.82
 31
4.425
 12
-0.908
 22
-5.57
 32
4.425
 13
-0.908
 23
-5.57
 33
4.55
 70
    14
  0
LINE
  5
89B8E
100
AcDbEntity
  8
0
100
AcDbLine
 10
-0.908
 20
-5.57
 30
4.55
 11
-0.908
 21
-4.82
 31
4.55
  0
LINE
  5
89B8F
100
AcDbEntity
  8
0
100
AcDbLine
 10
-0.848
 20
-4.945
 30
3.96
 11
-0.848
 21
-5.445
 31
3.96
  0
LINE
  5
89B90
100
AcDbEntity
  8
0
100
AcDbLine
 10
-0.723
 20
-5.32
 30
3.96
 11
-0.723
 21
-5.07
 31
3.96
  0
3DFACE
  5
89B91
100
AcDbEntity
  8
0
100
AcDbFace
 10
-0.908
 20
-4.82
 30
4.425
 11
-0.848
 21
-4.945
 31
3.96
 12
-0.848
 22
-5.445
 32
3.96
 13
-0.908
 23
-5.57
 33
4.425
 70
    14
  0
LINE
  5
89B92
100
AcDbEntity
  8
0
100
AcDbLine
 10
-0.848
 20
-5.445
 30
3.96
 11
-0.908
 21
-5.57
 31
4.425
  0
LINE
  5
89B93
100
AcDbEntity
  8
0
100
AcDbLine
 10
-0.908
 20
-5.57
 30
4.425
 11
-0.908
 21
-5.57
 31
4.55
  0
LINE
  5
89B94
100
AcDbEntity
  8
0
100
AcDbLine
 10
-0.908
 20
-4.82
 30
4.425
 11
-0.848
 21
-4.945
 31
3.96
  0
LINE
  5
89B95
100
AcDbEntity
  8
0
100
AcDbLine
 10
-0.908
 20
-4.82
 30
4.55
 11
-0.908
 21
-4.82
 31
4.425
  0
3DFACE
  5
89B96
100
AcDbEntity
  8
0
100
AcDbFace
 10
-0.288
 20
-4.82
 30
4.55
 11
-0.288
 21
-5.57
 31
4.55
 12
-0.288
 22
-5.57
 32
4.425
 13
-0.288
 23
-4.82
 33
4.425
 70
    14
  0
LINE
  5
89B97
100
AcDbEntity
  8
0
100
AcDbLine
 10
-0.288
 20
-4.82
 30
4.55
 11
-0.288
 21
-5.57
 31
4.55
  0
LINE
  5
89B98
100
AcDbEntity
  8
0
100
AcDbLine
 10
-0.288
 20
-4.82
 30
4.425
 11
-0.288
 21
-5.57
 31
4.425
  0
LINE
  5
89B99
100
AcDbEntity
  8
0
100
AcDbLine
 10
-0.473
 20
-5.07
 30
3.96
 11
-0.473
 21
-5.32
 31
3.96
  0
LINE
  5
89B9A
100
AcDbEntity
  8
0
100
AcDbLine
 10
-0.348
 20
-4.945
 30
3.96
 11
-0.348
 21
-5.445
 31
3.96
  0
3DFACE
  5
89B9B
100
AcDbEntity
  8
0
100
AcDbFace
 10
-0.288
 20
-5.57
 30
4.425
 11
-0.348
 21
-5.445
 31
3.96
 12
-0.348
 22
-4.945
 32
3.96
 13
-0.288
 23
-4.82
 33
4.425
 70
    14
  0
LINE
  5
89B9C
100
AcDbEntity
  8
0
100
AcDbLine
 10
-0.288
 20
-5.57
 30
4.425
 11
-0.348
 21
-5.445
 31
3.96
  0
LINE
  5
89B9D
100
AcDbEntity
  8
0
100
AcDbLine
 10
-0.288
 20
-5.57
 30
4.55
 11
-0.288
 21
-5.57
 31
4.425
  0
LINE
  5
89B9E
100
AcDbEntity
  8
0
100
AcDbLine
 10
-0.288
 20
-4.82
 30
4.425
 11
-0.348
 21
-4.945
 31
3.96
  0
LINE
  5
89B9F
100
AcDbEntity
  8
0
100
AcDbLine
 10
-0.288
 20
-4.82
 30
4.55
 11
-0.288
 21
-4.82
 31
4.425
  0
CIRCLE
  5
89BA0
100
AcDbEntity
  8
0
100
AcDbCircle
 10
0.99
 20
-5.270363
 30
4.684778
 40
0.155
210
0.0
220
-0.3163624652213708
230
0.9486383876899864
  0
LINE
  5
89BA1
100
AcDbEntity
  8
0
100
AcDbLine
 10
0.989042
 20
-6.628819
 30
2.727771
 11
1.009531
 21
-6.33598
 31
2.82543
210
0.0
220
-0.3163624652213708
230
0.9486383876899864
  0
LINE
  5
89BA2
100
AcDbEntity
  8
0
100
AcDbLine
 10
0.969925
 20
-6.627557
 30
2.728192
 11
0.990414
 21
-6.334718
 31
2.825851
210
0.0
220
-0.3163624652213708
230
0.9486383876899864
  0
CIRCLE
  5
89BA3
100
AcDbEntity
  8
0
100
AcDbCircle
 10
0.38
 20
0.0
 30
0.19
 40
0.1
  0
CIRCLE
  5
89BA4
100
AcDbEntity
  8
0
100
AcDbCircle
 10
0.38
 20
0.0
 30
0.19
 40
0.1
  0
LINE
  5
89BA5
100
AcDbEntity
  8
0
100
AcDbLine
 10
-0.285
 20
0.28
 30
0.0
 11
1.155
 21
0.28
 31
0.0
  0
LINE
  5
89BA6
100
AcDbEntity
  8
0
100
AcDbLine
 10
-0.285
 20
0.28
 30
0.19
 11
1.155
 21
0.28
 31
0.19
  0
3DFACE
  5
89BA7
100
AcDbEntity
  8
0
100
AcDbFace
 10
-0.975
 20
0.28
 30
0.19
 11
-1.165
 21
0.28
 31
0.19
 12
-1.165
 22
0.28
 32
0.0
 13
-0.975
 23
0.28
 33
0.0
 70
    14
  0
LINE
  5
89BA8
100
AcDbEntity
  8
0
100
AcDbLine
 10
-1.165
 20
0.28
 30
0.0
 11
-0.975
 21
0.28
 31
0.0
  0
LINE
  5
89BA9
100
AcDbEntity
  8
0
100
AcDbLine
 10
-1.165
 20
0.28
 30
0.19
 11
-0.975
 21
0.28
 31
0.19
  0
ARC
  5
89BAA
100
AcDbEntity
  8
0
100
AcDbCircle
 10
0.0
 20
0.0
 30
0.19
 40
0.1015
100
AcDbArc
 50
0.0
 51
179.999985
  0
ARC
  5
89BAB
100
AcDbEntity
  8
0
100
AcDbCircle
 10
0.0
 20
0.0
 30
0.19
 40
0.1015
100
AcDbArc
 50
0.0
 51
179.999985
  0
LINE
  5
89BAC
100
AcDbEntity
  8
0
100
AcDbLine
 10
0.1015
 20
-0.132159
 30
0.0
 11
0.1015
 21
-0.132159
 31
0.19
  0
LINE
  5
89BAD
100
AcDbEntity
  8
0
100
AcDbLine
 10
0.1015
 20
0.0
 30
0.0
 11
0.1015
 21
0.0
 31
0.19
  0
LINE
  5
89BAE
100
AcDbEntity
  8
0
100
AcDbLine
 10
-0.1015
 20
0.0
 30
0.0
 11
-0.1015
 21
0.0
 31
0.19
  0
ARC
  5
89BAF
100
AcDbEntity
  8
0
100
AcDbCircle
 10
0.0
 20
-0.343
 30
0.19
 40
0.234
100
AcDbArc
 50
115.70649
 51
64.293579
  0
ARC
  5
89BB0
100
AcDbEntity
  8
0
100
AcDbCircle
 10
0.0
 20
-0.343
 30
0.19
 40
0.234
100
AcDbArc
 50
115.70649
 51
64.293579
  0
LINE
  5
89BB1
100
AcDbEntity
  8
0
100
AcDbLine
 10
-0.1015
 20
0.0
 30
0.19
 11
-0.1015
 21
-0.132159
 31
0.19
  0
LINE
  5
89BB2
100
AcDbEntity
  8
0
100
AcDbLine
 10
-0.1015
 20
0.0
 30
0.19
 11
-0.1015
 21
-0.132159
 31
0.19
  0
LINE
  5
89BB3
100
AcDbEntity
  8
0
100
AcDbLine
 10
0.1015
 20
0.0
 30
0.19
 11
0.1015
 21
-0.132159
 31
0.19
  0
LINE
  5
89BB4
100
AcDbEntity
  8
0
100
AcDbLine
 10
0.1015
 20
0.0
 30
0.19
 11
0.1015
 21
-0.132159
 31
0.19
  0
LINE
  5
89BB5
100
AcDbEntity
  8
0
100
AcDbLine
 10
1.155
 20
0.28
 30
0.0
 11
1.775
 21
-0.34
 31
0.0
  0
LINE
  5
89BB6
100
AcDbEntity
  8
0
100
AcDbLine
 10
1.155
 20
0.28
 30
0.19
 11
1.775
 21
-0.34
 31
0.19
  0
LINE
  5
89BB7
100
AcDbEntity
  8
0
100
AcDbLine
 10
0.48
 20
0.0
 30
0.0
 11
0.48
 21
0.0
 31
0.19
  0
CIRCLE
  5
89BB8
100
AcDbEntity
  8
0
100
AcDbCircle
 10
0.38
 20
0.0
 30
0.0
 40
0.1
  0
ARC
  5
89BB9
100
AcDbEntity
  8
0
100
AcDbCircle
 10
0.0
 20
-0.343
 30
0.0
 40
0.234
100
AcDbArc
 50
115.70649
 51
64.293579
  0
LINE
  5
89BBA
100
AcDbEntity
  8
0
100
AcDbLine
 10
0.1015
 20
0.0
 30
0.0
 11
0.1015
 21
-0.132159
 31
0.0
  0
ARC
  5
89BBB
100
AcDbEntity
  8
0
100
AcDbCircle
 10
0.0
 20
0.0
 30
0.0
 40
0.1015
100
AcDbArc
 50
0.0
 51
179.999985
  0
LINE
  5
89BBC
100
AcDbEntity
  8
0
100
AcDbLine
 10
-0.1015
 20
0.0
 30
0.0
 11
-0.1015
 21
-0.132159
 31
0.0
  0
LINE
  5
89BBD
100
AcDbEntity
  8
0
100
AcDbLine
 10
-0.1015
 20
-0.132159
 30
0.0
 11
-0.1015
 21
-0.132159
 31
0.19
  0
POLYLINE
  5
89BBE
100
AcDbEntity
  8
0
100
AcDb3dPolyline
 66
     1
 10
0.0
 20
0.0
 30
0.0
 70
     8
  0
VERTEX
  5
89BBF
100
AcDbEntity
  8
0
100
AcDbVertex
100
AcDb3dPolylineVertex
 10
4.230983
 20
-1.865438
 30
0.19
 70
    32
  0
VERTEX
  5
89DFF
100
AcDbEntity
  8
0
100
AcDbVertex
100
AcDb3dPolylineVertex
 10
4.230983
 20
-1.865438
 30
0.19
 70
    32
  0
SEQEND
  5
89BC0
100
AcDbEntity
  8
0
  0
LINE
  5
89BC1
100
AcDbEntity
  8
0
100
AcDbLine
 10
-1.68
 20
-6.23
 30
2.85
 11
-1.68
 21
-6.23
 31
0.19
  0
LINE
  5
89BC2
100
AcDbEntity
  8
0
100
AcDbLine
 10
1.68
 20
-4.82
 30
1.62
 11
1.68
 21
-6.622911
 31
1.62
  0
LINE
  5
89BC3
100
AcDbEntity
  8
0
100
AcDbLine
 10
-1.68
 20
-6.64
 30
1.77
 11
-1.68
 21
-6.64
 31
1.62
  0
LINE
  5
89BC4
100
AcDbEntity
  8
0
100
AcDbLine
 10
-1.68
 20
-6.64
 30
1.62
 11
-1.68
 21
-6.64
 31
0.19
  0
POLYLINE
  5
89BC5
100
AcDbEntity
  8
0
100
AcDbPolygonMesh
 66
     1
 10
0.0
 20
0.0
 30
0.0
 70
    16
 71
     6
 72
     3
  0
VERTEX
  5
89BC6
100
AcDbEntity
  8
0
100
AcDbVertex
100
AcDbPolygonMeshVertex
 10
1.68
 20
-6.64
 30
2.7
 70
    64
  0
VERTEX
  5
89BC7
100
AcDbEntity
  8
0
100
AcDbVertex
100
AcDbPolygonMeshVertex
 10
1.68
 20
-6.64
 30
0.19
 70
    64
  0
VERTEX
  5
89BC8
100
AcDbEntity
  8
0
100
AcDbVertex
100
AcDbPolygonMeshVertex
 10
1.68
 20
-6.64
 30
0.19
 70
    64
  0
VERTEX
  5
89BC9
100
AcDbEntity
  8
0
100
AcDbVertex
100
AcDbPolygonMeshVertex
 10
-1.68
 20
-6.64
 30
2.7
 70
    64
  0
VERTEX
  5
89BCA
100
AcDbEntity
  8
0
100
AcDbVertex
100
AcDbPolygonMeshVertex
 10
-1.68
 20
-6.64
 30
0.19
 70
    64
  0
VERTEX
  5
89BCB
100
AcDbEntity
  8
0
100
AcDbVertex
100
AcDbPolygonMeshVertex
 10
-1.68
 20
-6.64
 30
0.19
 70
    64
  0
VERTEX
  5
89BCC
100
AcDbEntity
  8
0
100
AcDbVertex
100
AcDbPolygonMeshVertex
 10
-1.68
 20
-6.23
 30
2.7
 70
    64
  0
VERTEX
  5
89BCD
100
AcDbEntity
  8
0
100
AcDbVertex
100
AcDbPolygonMeshVertex
 10
-1.68
 20
-6.23
 30
0.19
 70
    64
  0
VERTEX
  5
89BCE
100
AcDbEntity
  8
0
100
AcDbVertex
100
AcDbPolygonMeshVertex
 10
-1.68
 20
-6.64
 30
0.19
 70
    64
  0
VERTEX
  5
89BCF
100
AcDbEntity
  8
0
100
AcDbVertex
100
AcDbPolygonMeshVertex
 10
1.68
 20
-6.23
 30
2.7
 70
    64
  0
VERTEX
  5
89BD0
100
AcDbEntity
  8
0
100
AcDbVertex
100
AcDbPolygonMeshVertex
 10
1.68
 20
-6.23
 30
0.19
 70
    64
  0
VERTEX
  5
89BD1
100
AcDbEntity
  8
0
100
AcDbVertex
100
AcDbPolygonMeshVertex
 10
1.68
 20
-6.64
 30
0.19
 70
    64
  0
VERTEX
  5
89BD2
100
AcDbEntity
  8
0
100
AcDbVertex
100
AcDbPolygonMeshVertex
 10
1.68
 20
-6.23
 30
2.7
 70
    64
  0
VERTEX
  5
89BD3
100
AcDbEntity
  8
0
100
AcDbVertex
100
AcDbPolygonMeshVertex
 10
1.68
 20
-6.23
 30
2.7
 70
    64
  0
VERTEX
  5
89BD4
100
AcDbEntity
  8
0
100
AcDbVertex
100
AcDbPolygonMeshVertex
 10
1.68
 20
-6.64
 30
2.7
 70
    64
  0
VERTEX
  5
89BD5
100
AcDbEntity
  8
0
100
AcDbVertex
100
AcDbPolygonMeshVertex
 10
-1.68
 20
-6.23
 30
2.7
 70
    64
  0
VERTEX
  5
89BD6
100
AcDbEntity
  8
0
100
AcDbVertex
100
AcDbPolygonMeshVertex
 10
-1.68
 20
-6.23
 30
2.7
 70
    64
  0
VERTEX
  5
89BD7
100
AcDbEntity
  8
0
100
AcDbVertex
100
AcDbPolygonMeshVertex
 10
-1.68
 20
-6.64
 30
2.7
 70
    64
  0
SEQEND
  5
89BD8
100
AcDbEntity
  8
0
  0
POLYLINE
  5
89BD9
100
AcDbEntity
  8
0
100
AcDbPolygonMesh
 66
     1
 10
0.0
 20
0.0
 30
0.0
 70
    16
 71
     6
 72
     3
  0
VERTEX
  5
89BDA
100
AcDbEntity
  8
0
100
AcDbVertex
100
AcDbPolygonMeshVertex
 10
-0.51
 20
-7.07
 30
0.5
 70
    64
  0
VERTEX
  5
89BDB
100
AcDbEntity
  8
0
100
AcDbVertex
100
AcDbPolygonMeshVertex
 10
-0.51
 20
-7.07
 30
0.19
 70
    64
  0
VERTEX
  5
89BDC
100
AcDbEntity
  8
0
100
AcDbVertex
100
AcDbPolygonMeshVertex
 10
-0.51
 20
-7.07
 30
0.19
 70
    64
  0
VERTEX
  5
89BDD
100
AcDbEntity
  8
0
100
AcDbVertex
100
AcDbPolygonMeshVertex
 10
-1.01
 20
-7.07
 30
0.5
 70
    64
  0
VERTEX
  5
89BDE
100
AcDbEntity
  8
0
100
AcDbVertex
100
AcDbPolygonMeshVertex
 10
-1.01
 20
-7.07
 30
0.19
 70
    64
  0
VERTEX
  5
89BDF
100
AcDbEntity
  8
0
100
AcDbVertex
100
AcDbPolygonMeshVertex
 10
-1.01
 20
-7.07
 30
0.19
 70
    64
  0
VERTEX
  5
89BE0
100
AcDbEntity
  8
0
100
AcDbVertex
100
AcDbPolygonMeshVertex
 10
-1.01
 20
-6.64
 30
0.5
 70
    64
  0
VERTEX
  5
89BE1
100
AcDbEntity
  8
0
100
AcDbVertex
100
AcDbPolygonMeshVertex
 10
-1.01
 20
-6.64
 30
0.19
 70
    64
  0
VERTEX
  5
89BE2
100
AcDbEntity
  8
0
100
AcDbVertex
100
AcDbPolygonMeshVertex
 10
-1.01
 20
-7.07
 30
0.19
 70
    64
  0
VERTEX
  5
89BE3
100
AcDbEntity
  8
0
100
AcDbVertex
100
AcDbPolygonMeshVertex
 10
-0.51
 20
-6.64
 30
0.5
 70
    64
  0
VERTEX
  5
89BE4
100
AcDbEntity
  8
0
100
AcDbVertex
100
AcDbPolygonMeshVertex
 10
-0.51
 20
-6.64
 30
0.19
 70
    64
  0
VERTEX
  5
89BE5
100
AcDbEntity
  8
0
100
AcDbVertex
100
AcDbPolygonMeshVertex
 10
-0.51
 20
-7.07
 30
0.19
 70
    64
  0
VERTEX
  5
89BE6
100
AcDbEntity
  8
0
100
AcDbVertex
100
AcDbPolygonMeshVertex
 10
-0.51
 20
-6.64
 30
0.5
 70
    64
  0
VERTEX
  5
89BE7
100
AcDbEntity
  8
0
100
AcDbVertex
100
AcDbPolygonMeshVertex
 10
-0.51
 20
-6.64
 30
0.5
 70
    64
  0
VERTEX
  5
89BE8
100
AcDbEntity
  8
0
100
AcDbVertex
100
AcDbPolygonMeshVertex
 10
-0.51
 20
-7.07
 30
0.5
 70
    64
  0
VERTEX
  5
89BE9
100
AcDbEntity
  8
0
100
AcDbVertex
100
AcDbPolygonMeshVertex
 10
-1.01
 20
-6.64
 30
0.5
 70
    64
  0
VERTEX
  5
89BEA
100
AcDbEntity
  8
0
100
AcDbVertex
100
AcDbPolygonMeshVertex
 10
-1.01
 20
-6.64
 30
0.5
 70
    64
  0
VERTEX
  5
89BEB
100
AcDbEntity
  8
0
100
AcDbVertex
100
AcDbPolygonMeshVertex
 10
-1.01
 20
-7.07
 30
0.5
 70
    64
  0
SEQEND
  5
89BEC
100
AcDbEntity
  8
0
  0
POLYLINE
  5
89BED
100
AcDbEntity
  8
0
100
AcDbPolygonMesh
 66
     1
 10
0.0
 20
0.0
 30
0.0
 70
    16
 71
     6
 72
     3
  0
VERTEX
  5
89BEE
100
AcDbEntity
  8
0
100
AcDbVertex
100
AcDbPolygonMeshVertex
 10
0.867
 20
-7.07
 30
0.5
 70
    64
  0
VERTEX
  5
89BEF
100
AcDbEntity
  8
0
100
AcDbVertex
100
AcDbPolygonMeshVertex
 10
0.867
 20
-7.07
 30
0.19
 70
    64
  0
VERTEX
  5
89BF0
100
AcDbEntity
  8
0
100
AcDbVertex
100
AcDbPolygonMeshVertex
 10
0.867
 20
-7.07
 30
0.19
 70
    64
  0
VERTEX
  5
89BF1
100
AcDbEntity
  8
0
100
AcDbVertex
100
AcDbPolygonMeshVertex
 10
0.367
 20
-7.07
 30
0.5
 70
    64
  0
VERTEX
  5
89BF2
100
AcDbEntity
  8
0
100
AcDbVertex
100
AcDbPolygonMeshVertex
 10
0.367
 20
-7.07
 30
0.19
 70
    64
  0
VERTEX
  5
89BF3
100
AcDbEntity
  8
0
100
AcDbVertex
100
AcDbPolygonMeshVertex
 10
0.367
 20
-7.07
 30
0.19
 70
    64
  0
VERTEX
  5
89BF4
100
AcDbEntity
  8
0
100
AcDbVertex
100
AcDbPolygonMeshVertex
 10
0.367
 20
-6.64
 30
0.5
 70
    64
  0
VERTEX
  5
89BF5
100
AcDbEntity
  8
0
100
AcDbVertex
100
AcDbPolygonMeshVertex
 10
0.367
 20
-6.64
 30
0.19
 70
    64
  0
VERTEX
  5
89BF6
100
AcDbEntity
  8
0
100
AcDbVertex
100
AcDbPolygonMeshVertex
 10
0.367
 20
-7.07
 30
0.19
 70
    64
  0
VERTEX
  5
89BF7
100
AcDbEntity
  8
0
100
AcDbVertex
100
AcDbPolygonMeshVertex
 10
0.867
 20
-6.64
 30
0.5
 70
    64
  0
VERTEX
  5
89BF8
100
AcDbEntity
  8
0
100
AcDbVertex
100
AcDbPolygonMeshVertex
 10
0.867
 20
-6.64
 30
0.19
 70
    64
  0
VERTEX
  5
89BF9
100
AcDbEntity
  8
0
100
AcDbVertex
100
AcDbPolygonMeshVertex
 10
0.867
 20
-7.07
 30
0.19
 70
    64
  0
VERTEX
  5
89BFA
100
AcDbEntity
  8
0
100
AcDbVertex
100
AcDbPolygonMeshVertex
 10
0.867
 20
-6.64
 30
0.5
 70
    64
  0
VERTEX
  5
89BFB
100
AcDbEntity
  8
0
100
AcDbVertex
100
AcDbPolygonMeshVertex
 10
0.867
 20
-6.64
 30
0.5
 70
    64
  0
VERTEX
  5
89BFC
100
AcDbEntity
  8
0
100
AcDbVertex
100
AcDbPolygonMeshVertex
 10
0.867
 20
-7.07
 30
0.5
 70
    64
  0
VERTEX
  5
89BFD
100
AcDbEntity
  8
0
100
AcDbVertex
100
AcDbPolygonMeshVertex
 10
0.367
 20
-6.64
 30
0.5
 70
    64
  0
VERTEX
  5
89BFE
100
AcDbEntity
  8
0
100
AcDbVertex
100
AcDbPolygonMeshVertex
 10
0.367
 20
-6.64
 30
0.5
 70
    64
  0
VERTEX
  5
89BFF
100
AcDbEntity
  8
0
100
AcDbVertex
100
AcDbPolygonMeshVertex
 10
0.367
 20
-7.07
 30
0.5
 70
    64
  0
SEQEND
  5
89C00
100
AcDbEntity
  8
0
  0
POLYLINE
  5
89C01
100
AcDbEntity
  8
0
100
AcDbPolygonMesh
 66
     1
 10
0.0
 20
0.0
 30
0.0
 70
    16
 71
     6
 72
     3
  0
VERTEX
  5
89C02
100
AcDbEntity
  8
0
100
AcDbVertex
100
AcDbPolygonMeshVertex
 10
-1.68
 20
-6.64
 30
2.7
 70
    64
  0
VERTEX
  5
89C03
100
AcDbEntity
  8
0
100
AcDbVertex
100
AcDbPolygonMeshVertex
 10
-1.68
 20
-6.64
 30
2.7
 70
    64
  0
VERTEX
  5
89C04
100
AcDbEntity
  8
0
100
AcDbVertex
100
AcDbPolygonMeshVertex
 10
-1.68
 20
-6.64
 30
2.7
 70
    64
  0
VERTEX
  5
89C05
100
AcDbEntity
  8
0
100
AcDbVertex
100
AcDbPolygonMeshVertex
 10
-1.68
 20
-6.23
 30
2.85
 70
    64
  0
VERTEX
  5
89C06
100
AcDbEntity
  8
0
100
AcDbVertex
100
AcDbPolygonMeshVertex
 10
-1.68
 20
-6.23
 30
2.7
 70
    64
  0
VERTEX
  5
89C07
100
AcDbEntity
  8
0
100
AcDbVertex
100
AcDbPolygonMeshVertex
 10
-1.68
 20
-6.23
 30
2.7
 70
    64
  0
VERTEX
  5
89C08
100
AcDbEntity
  8
0
100
AcDbVertex
100
AcDbPolygonMeshVertex
 10
1.68
 20
-6.23
 30
2.85
 70
    64
  0
VERTEX
  5
89C09
100
AcDbEntity
  8
0
100
AcDbVertex
100
AcDbPolygonMeshVertex
 10
1.68
 20
-6.23
 30
2.7
 70
    64
  0
VERTEX
  5
89C0A
100
AcDbEntity
  8
0
100
AcDbVertex
100
AcDbPolygonMeshVertex
 10
-1.68
 20
-6.23
 30
2.7
 70
    64
  0
VERTEX
  5
89C0B
100
AcDbEntity
  8
0
100
AcDbVertex
100
AcDbPolygonMeshVertex
 10
1.68
 20
-6.64
 30
2.7
 70
    64
  0
VERTEX
  5
89C0C
100
AcDbEntity
  8
0
100
AcDbVertex
100
AcDbPolygonMeshVertex
 10
1.68
 20
-6.64
 30
2.7
 70
    64
  0
VERTEX
  5
89C0D
100
AcDbEntity
  8
0
100
AcDbVertex
100
AcDbPolygonMeshVertex
 10
-1.68
 20
-6.64
 30
2.7
 70
    64
  0
VERTEX
  5
89C0E
100
AcDbEntity
  8
0
100
AcDbVertex
100
AcDbPolygonMeshVertex
 10
1.68
 20
-6.64
 30
2.7
 70
    64
  0
VERTEX
  5
89C0F
100
AcDbEntity
  8
0
100
AcDbVertex
100
AcDbPolygonMeshVertex
 10
1.68
 20
-6.64
 30
2.7
 70
    64
  0
VERTEX
  5
89C10
100
AcDbEntity
  8
0
100
AcDbVertex
100
AcDbPolygonMeshVertex
 10
-1.68
 20
-6.64
 30
2.7
 70
    64
  0
VERTEX
  5
89C11
100
AcDbEntity
  8
0
100
AcDbVertex
100
AcDbPolygonMeshVertex
 10
1.68
 20
-6.23
 30
2.85
 70
    64
  0
VERTEX
  5
89C12
100
AcDbEntity
  8
0
100
AcDbVertex
100
AcDbPolygonMeshVertex
 10
1.68
 20
-6.23
 30
2.85
 70
    64
  0
VERTEX
  5
89C13
100
AcDbEntity
  8
0
100
AcDbVertex
100
AcDbPolygonMeshVertex
 10
-1.68
 20
-6.23
 30
2.85
 70
    64
  0
SEQEND
  5
89C14
100
AcDbEntity
  8
0
  0
POLYLINE
  5
89C15
100
AcDbEntity
  8
0
100
AcDbPolygonMesh
 66
     1
 10
0.0
 20
0.0
 30
0.0
 70
    16
 71
     6
 72
     3
  0
VERTEX
  5
89C16
100
AcDbEntity
  8
0
100
AcDbVertex
100
AcDbPolygonMeshVertex
 10
1.68
 20
-6.23
 30
3.64
 70
    64
  0
VERTEX
  5
89C17
100
AcDbEntity
  8
0
100
AcDbVertex
100
AcDbPolygonMeshVertex
 10
1.68
 20
-6.23
 30
0.19
 70
    64
  0
VERTEX
  5
89C18
100
AcDbEntity
  8
0
100
AcDbVertex
100
AcDbPolygonMeshVertex
 10
1.68
 20
-6.23
 30
0.19
 70
    64
  0
VERTEX
  5
89C19
100
AcDbEntity
  8
0
100
AcDbVertex
100
AcDbPolygonMeshVertex
 10
-1.68
 20
-6.23
 30
3.64
 70
    64
  0
VERTEX
  5
89C1A
100
AcDbEntity
  8
0
100
AcDbVertex
100
AcDbPolygonMeshVertex
 10
-1.68
 20
-6.23
 30
0.19
 70
    64
  0
VERTEX
  5
89C1B
100
AcDbEntity
  8
0
100
AcDbVertex
100
AcDbPolygonMeshVertex
 10
-1.68
 20
-6.23
 30
0.19
 70
    64
  0
VERTEX
  5
89C1C
100
AcDbEntity
  8
0
100
AcDbVertex
100
AcDbPolygonMeshVertex
 10
-1.68
 20
-4.82
 30
3.64
 70
    64
  0
VERTEX
  5
89C1D
100
AcDbEntity
  8
0
100
AcDbVertex
100
AcDbPolygonMeshVertex
 10
-1.68
 20
-4.82
 30
0.19
 70
    64
  0
VERTEX
  5
89C1E
100
AcDbEntity
  8
0
100
AcDbVertex
100
AcDbPolygonMeshVertex
 10
-1.68
 20
-6.23
 30
0.19
 70
    64
  0
VERTEX
  5
89C1F
100
AcDbEntity
  8
0
100
AcDbVertex
100
AcDbPolygonMeshVertex
 10
1.68
 20
-4.82
 30
3.64
 70
    64
  0
VERTEX
  5
89C20
100
AcDbEntity
  8
0
100
AcDbVertex
100
AcDbPolygonMeshVertex
 10
1.68
 20
-4.82
 30
0.19
 70
    64
  0
VERTEX
  5
89C21
100
AcDbEntity
  8
0
100
AcDbVertex
100
AcDbPolygonMeshVertex
 10
1.68
 20
-6.23
 30
0.19
 70
    64
  0
VERTEX
  5
89C22
100
AcDbEntity
  8
0
100
AcDbVertex
100
AcDbPolygonMeshVertex
 10
1.68
 20
-4.82
 30
3.64
 70
    64
  0
VERTEX
  5
89C23
100
AcDbEntity
  8
0
100
AcDbVertex
100
AcDbPolygonMeshVertex
 10
1.68
 20
-4.82
 30
3.64
 70
    64
  0
VERTEX
  5
89C24
100
AcDbEntity
  8
0
100
AcDbVertex
100
AcDbPolygonMeshVertex
 10
1.68
 20
-6.23
 30
3.64
 70
    64
  0
VERTEX
  5
89C25
100
AcDbEntity
  8
0
100
AcDbVertex
100
AcDbPolygonMeshVertex
 10
-1.68
 20
-4.82
 30
3.64
 70
    64
  0
VERTEX
  5
89C26
100
AcDbEntity
  8
0
100
AcDbVertex
100
AcDbPolygonMeshVertex
 10
-1.68
 20
-4.82
 30
3.64
 70
    64
  0
VERTEX
  5
89C27
100
AcDbEntity
  8
0
100
AcDbVertex
100
AcDbPolygonMeshVertex
 10
-1.68
 20
-6.23
 30
3.64
 70
    64
  0
SEQEND
  5
89C28
100
AcDbEntity
  8
0
  0
LINE
  5
89C29
100
AcDbEntity
  8
0
100
AcDbLine
 10
-0.579326
 20
-2.855015
 30
4.47
 11
-0.46471
 21
-3.005138
 31
4.47
  0
LINE
  5
89C2A
100
AcDbEntity
  8
0
100
AcDbLine
 10
-0.595515
 20
-2.871205
 30
4.47
 11
-0.480899
 21
-3.021327
 31
4.47
  0
CIRCLE
  5
89C2B
100
AcDbEntity
  8
0
100
AcDbCircle
 10
-0.53
 20
-2.94
 30
4.47
 40
0.095
  0
LINE
  5
89C2C
100
AcDbEntity
  8
0
100
AcDbLine
 10
0.480674
 20
-2.855015
 30
4.47
 11
0.59529
 21
-3.005138
 31
4.47
  0
LINE
  5
89C2D
100
AcDbEntity
  8
0
100
AcDbLine
 10
0.464485
 20
-2.871205
 30
4.47
 11
0.5791
 21
-3.021327
 31
4.47
  0
CIRCLE
  5
89C2E
100
AcDbEntity
  8
0
100
AcDbCircle
 10
0.53
 20
-2.94
 30
4.47
 40
0.095
  0
CIRCLE
  5
89C2F
100
AcDbEntity
  8
0
100
AcDbCircle
 10
1.06
 20
-0.795
 30
4.28
 40
0.19
  0
POLYLINE
  5
89C30
100
AcDbEntity
  8
0
100
AcDbPolygonMesh
 66
     1
 10
0.0
 20
0.0
 30
0.0
 70
    16
 71
     6
 72
     3
  0
VERTEX
  5
89C31
100
AcDbEntity
  8
0
100
AcDbVertex
100
AcDbPolygonMeshVertex
 10
0.94
 20
-3.47
 30
4.0
 70
    64
  0
VERTEX
  5
89C32
100
AcDbEntity
  8
0
100
AcDbVertex
100
AcDbPolygonMeshVertex
 10
0.94
 20
-3.47
 30
3.63
 70
    64
  0
VERTEX
  5
89C33
100
AcDbEntity
  8
0
100
AcDbVertex
100
AcDbPolygonMeshVertex
 10
0.94
 20
-3.47
 30
3.63
 70
    64
  0
VERTEX
  5
89C34
100
AcDbEntity
  8
0
100
AcDbVertex
100
AcDbPolygonMeshVertex
 10
-0.94
 20
-3.47
 30
4.0
 70
    64
  0
VERTEX
  5
89C35
100
AcDbEntity
  8
0
100
AcDbVertex
100
AcDbPolygonMeshVertex
 10
-0.94
 20
-3.47
 30
3.63
 70
    64
  0
VERTEX
  5
89C36
100
AcDbEntity
  8
0
100
AcDbVertex
100
AcDbPolygonMeshVertex
 10
-0.94
 20
-3.47
 30
3.63
 70
    64
  0
VERTEX
  5
89C37
100
AcDbEntity
  8
0
100
AcDbVertex
100
AcDbPolygonMeshVertex
 10
-0.94
 20
-2.63
 30
4.0
 70
    64
  0
VERTEX
  5
89C38
100
AcDbEntity
  8
0
100
AcDbVertex
100
AcDbPolygonMeshVertex
 10
-0.94
 20
-2.63
 30
3.63
 70
    64
  0
VERTEX
  5
89C39
100
AcDbEntity
  8
0
100
AcDbVertex
100
AcDbPolygonMeshVertex
 10
-0.94
 20
-3.47
 30
3.63
 70
    64
  0
VERTEX
  5
89C3A
100
AcDbEntity
  8
0
100
AcDbVertex
100
AcDbPolygonMeshVertex
 10
0.94
 20
-2.63
 30
4.0
 70
    64
  0
VERTEX
  5
89C3B
100
AcDbEntity
  8
0
100
AcDbVertex
100
AcDbPolygonMeshVertex
 10
0.94
 20
-2.63
 30
3.63
 70
    64
  0
VERTEX
  5
89C3C
100
AcDbEntity
  8
0
100
AcDbVertex
100
AcDbPolygonMeshVertex
 10
0.94
 20
-3.47
 30
3.63
 70
    64
  0
VERTEX
  5
89C3D
100
AcDbEntity
  8
0
100
AcDbVertex
100
AcDbPolygonMeshVertex
 10
0.94
 20
-2.63
 30
4.0
 70
    64
  0
VERTEX
  5
89C3E
100
AcDbEntity
  8
0
100
AcDbVertex
100
AcDbPolygonMeshVertex
 10
0.94
 20
-2.63
 30
4.0
 70
    64
  0
VERTEX
  5
89C3F
100
AcDbEntity
  8
0
100
AcDbVertex
100
AcDbPolygonMeshVertex
 10
0.94
 20
-3.47
 30
4.0
 70
    64
  0
VERTEX
  5
89C40
100
AcDbEntity
  8
0
100
AcDbVertex
100
AcDbPolygonMeshVertex
 10
-0.94
 20
-2.63
 30
4.0
 70
    64
  0
VERTEX
  5
89C41
100
AcDbEntity
  8
0
100
AcDbVertex
100
AcDbPolygonMeshVertex
 10
-0.94
 20
-2.63
 30
4.0
 70
    64
  0
VERTEX
  5
89C42
100
AcDbEntity
  8
0
100
AcDbVertex
100
AcDbPolygonMeshVertex
 10
-0.94
 20
-3.47
 30
4.0
 70
    64
  0
SEQEND
  5
89C43
100
AcDbEntity
  8
0
  0
POLYLINE
  5
89C44
100
AcDbEntity
  8
0
100
AcDbPolygonMesh
 66
     1
 10
0.0
 20
0.0
 30
0.0
 70
    16
 71
     6
 72
     3
  0
VERTEX
  5
89C45
100
AcDbEntity
  8
0
100
AcDbVertex
100
AcDbPolygonMeshVertex
 10
0.75
 20
-3.07
 30
4.47
 70
    64
  0
VERTEX
  5
89C46
100
AcDbEntity
  8
0
100
AcDbVertex
100
AcDbPolygonMeshVertex
 10
0.75
 20
-3.07
 30
4.0
 70
    64
  0
VERTEX
  5
89C47
100
AcDbEntity
  8
0
100
AcDbVertex
100
AcDbPolygonMeshVertex
 10
0.75
 20
-3.07
 30
4.0
 70
    64
  0
VERTEX
  5
89C48
100
AcDbEntity
  8
0
100
AcDbVertex
100
AcDbPolygonMeshVertex
 10
0.31
 20
-3.07
 30
4.47
 70
    64
  0
VERTEX
  5
89C49
100
AcDbEntity
  8
0
100
AcDbVertex
100
AcDbPolygonMeshVertex
 10
0.31
 20
-3.07
 30
4.0
 70
    64
  0
VERTEX
  5
89C4A
100
AcDbEntity
  8
0
100
AcDbVertex
100
AcDbPolygonMeshVertex
 10
0.31
 20
-3.07
 30
4.0
 70
    64
  0
VERTEX
  5
89C4B
100
AcDbEntity
  8
0
100
AcDbVertex
100
AcDbPolygonMeshVertex
 10
0.31
 20
-2.69
 30
4.47
 70
    64
  0
VERTEX
  5
89C4C
100
AcDbEntity
  8
0
100
AcDbVertex
100
AcDbPolygonMeshVertex
 10
0.31
 20
-2.69
 30
4.0
 70
    64
  0
VERTEX
  5
89C4D
100
AcDbEntity
  8
0
100
AcDbVertex
100
AcDbPolygonMeshVertex
 10
0.31
 20
-3.07
 30
4.0
 70
    64
  0
VERTEX
  5
89C4E
100
AcDbEntity
  8
0
100
AcDbVertex
100
AcDbPolygonMeshVertex
 10
0.75
 20
-2.69
 30
4.47
 70
    64
  0
VERTEX
  5
89C4F
100
AcDbEntity
  8
0
100
AcDbVertex
100
AcDbPolygonMeshVertex
 10
0.75
 20
-2.69
 30
4.0
 70
    64
  0
VERTEX
  5
89C50
100
AcDbEntity
  8
0
100
AcDbVertex
100
AcDbPolygonMeshVertex
 10
0.75
 20
-3.07
 30
4.0
 70
    64
  0
VERTEX
  5
89C51
100
AcDbEntity
  8
0
100
AcDbVertex
100
AcDbPolygonMeshVertex
 10
0.75
 20
-2.69
 30
4.47
 70
    64
  0
VERTEX
  5
89C52
100
AcDbEntity
  8
0
100
AcDbVertex
100
AcDbPolygonMeshVertex
 10
0.75
 20
-2.69
 30
4.47
 70
    64
  0
VERTEX
  5
89C53
100
AcDbEntity
  8
0
100
AcDbVertex
100
AcDbPolygonMeshVertex
 10
0.75
 20
-3.07
 30
4.47
 70
    64
  0
VERTEX
  5
89C54
100
AcDbEntity
  8
0
100
AcDbVertex
100
AcDbPolygonMeshVertex
 10
0.31
 20
-2.69
 30
4.47
 70
    64
  0
VERTEX
  5
89C55
100
AcDbEntity
  8
0
100
AcDbVertex
100
AcDbPolygonMeshVertex
 10
0.31
 20
-2.69
 30
4.47
 70
    64
  0
VERTEX
  5
89C56
100
AcDbEntity
  8
0
100
AcDbVertex
100
AcDbPolygonMeshVertex
 10
0.31
 20
-3.07
 30
4.47
 70
    64
  0
SEQEND
  5
89C57
100
AcDbEntity
  8
0
  0
POLYLINE
  5
89C58
100
AcDbEntity
  8
0
100
AcDbPolygonMesh
 66
     1
 10
0.0
 20
0.0
 30
0.0
 70
    16
 71
     6
 72
     3
  0
VERTEX
  5
89C59
100
AcDbEntity
  8
0
100
AcDbVertex
100
AcDbPolygonMeshVertex
 10
-0.31
 20
-3.07
 30
4.47
 70
    64
  0
VERTEX
  5
89C5A
100
AcDbEntity
  8
0
100
AcDbVertex
100
AcDbPolygonMeshVertex
 10
-0.31
 20
-3.07
 30
4.0
 70
    64
  0
VERTEX
  5
89C5B
100
AcDbEntity
  8
0
100
AcDbVertex
100
AcDbPolygonMeshVertex
 10
-0.31
 20
-3.07
 30
4.0
 70
    64
  0
VERTEX
  5
89C5C
100
AcDbEntity
  8
0
100
AcDbVertex
100
AcDbPolygonMeshVertex
 10
-0.75
 20
-3.07
 30
4.47
 70
    64
  0
VERTEX
  5
89C5D
100
AcDbEntity
  8
0
100
AcDbVertex
100
AcDbPolygonMeshVertex
 10
-0.75
 20
-3.07
 30
4.0
 70
    64
  0
VERTEX
  5
89C5E
100
AcDbEntity
  8
0
100
AcDbVertex
100
AcDbPolygonMeshVertex
 10
-0.75
 20
-3.07
 30
4.0
 70
    64
  0
VERTEX
  5
89C5F
100
AcDbEntity
  8
0
100
AcDbVertex
100
AcDbPolygonMeshVertex
 10
-0.75
 20
-2.69
 30
4.47
 70
    64
  0
VERTEX
  5
89C60
100
AcDbEntity
  8
0
100
AcDbVertex
100
AcDbPolygonMeshVertex
 10
-0.75
 20
-2.69
 30
4.0
 70
    64
  0
VERTEX
  5
89C61
100
AcDbEntity
  8
0
100
AcDbVertex
100
AcDbPolygonMeshVertex
 10
-0.75
 20
-3.07
 30
4.0
 70
    64
  0
VERTEX
  5
89C62
100
AcDbEntity
  8
0
100
AcDbVertex
100
AcDbPolygonMeshVertex
 10
-0.31
 20
-2.69
 30
4.47
 70
    64
  0
VERTEX
  5
89C63
100
AcDbEntity
  8
0
100
AcDbVertex
100
AcDbPolygonMeshVertex
 10
-0.31
 20
-2.69
 30
4.0
 70
    64
  0
VERTEX
  5
89C64
100
AcDbEntity
  8
0
100
AcDbVertex
100
AcDbPolygonMeshVertex
 10
-0.31
 20
-3.07
 30
4.0
 70
    64
  0
VERTEX
  5
89C65
100
AcDbEntity
  8
0
100
AcDbVertex
100
AcDbPolygonMeshVertex
 10
-0.31
 20
-2.69
 30
4.47
 70
    64
  0
VERTEX
  5
89C66
100
AcDbEntity
  8
0
100
AcDbVertex
100
AcDbPolygonMeshVertex
 10
-0.31
 20
-2.69
 30
4.47
 70
    64
  0
VERTEX
  5
89C67
100
AcDbEntity
  8
0
100
AcDbVertex
100
AcDbPolygonMeshVertex
 10
-0.31
 20
-3.07
 30
4.47
 70
    64
  0
VERTEX
  5
89C68
100
AcDbEntity
  8
0
100
AcDbVertex
100
AcDbPolygonMeshVertex
 10
-0.75
 20
-2.69
 30
4.47
 70
    64
  0
VERTEX
  5
89C69
100
AcDbEntity
  8
0
100
AcDbVertex
100
AcDbPolygonMeshVertex
 10
-0.75
 20
-2.69
 30
4.47
 70
    64
  0
VERTEX
  5
89C6A
100
AcDbEntity
  8
0
100
AcDbVertex
100
AcDbPolygonMeshVertex
 10
-0.75
 20
-3.07
 30
4.47
 70
    64
  0
SEQEND
  5
89C6B
100
AcDbEntity
  8
0
  0
LINE
  5
89C6C
100
AcDbEntity
  8
0
100
AcDbLine
 10
-1.68
 20
-1.18
 30
3.63
 11
-1.68
 21
-1.18
 31
0.19
  0
POLYLINE
  5
89C6D
100
AcDbEntity
  8
0
100
AcDbPolygonMesh
 66
     1
 10
0.0
 20
0.0
 30
0.0
 70
    16
 71
     6
 72
     3
  0
VERTEX
  5
89C6E
100
AcDbEntity
  8
0
100
AcDbVertex
100
AcDbPolygonMeshVertex
 10
1.68
 20
-4.57
 30
3.63
 70
    64
  0
VERTEX
  5
89C6F
100
AcDbEntity
  8
0
100
AcDbVertex
100
AcDbPolygonMeshVertex
 10
1.68
 20
-4.57
 30
0.19
 70
    64
  0
VERTEX
  5
89C70
100
AcDbEntity
  8
0
100
AcDbVertex
100
AcDbPolygonMeshVertex
 10
1.68
 20
-4.57
 30
0.19
 70
    64
  0
VERTEX
  5
89C71
100
AcDbEntity
  8
0
100
AcDbVertex
100
AcDbPolygonMeshVertex
 10
-1.68
 20
-4.57
 30
3.63
 70
    64
  0
VERTEX
  5
89C72
100
AcDbEntity
  8
0
100
AcDbVertex
100
AcDbPolygonMeshVertex
 10
-1.68
 20
-4.57
 30
0.19
 70
    64
  0
VERTEX
  5
89C73
100
AcDbEntity
  8
0
100
AcDbVertex
100
AcDbPolygonMeshVertex
 10
-1.68
 20
-4.57
 30
0.19
 70
    64
  0
VERTEX
  5
89C74
100
AcDbEntity
  8
0
100
AcDbVertex
100
AcDbPolygonMeshVertex
 10
-1.68
 20
-1.18
 30
3.63
 70
    64
  0
VERTEX
  5
89C75
100
AcDbEntity
  8
0
100
AcDbVertex
100
AcDbPolygonMeshVertex
 10
-1.68
 20
-1.18
 30
0.19
 70
    64
  0
VERTEX
  5
89C76
100
AcDbEntity
  8
0
100
AcDbVertex
100
AcDbPolygonMeshVertex
 10
-1.68
 20
-4.57
 30
0.19
 70
    64
  0
VERTEX
  5
89C77
100
AcDbEntity
  8
0
100
AcDbVertex
100
AcDbPolygonMeshVertex
 10
1.68
 20
-1.18
 30
3.63
 70
    64
  0
VERTEX
  5
89C78
100
AcDbEntity
  8
0
100
AcDbVertex
100
AcDbPolygonMeshVertex
 10
1.68
 20
-1.18
 30
0.19
 70
    64
  0
VERTEX
  5
89C79
100
AcDbEntity
  8
0
100
AcDbVertex
100
AcDbPolygonMeshVertex
 10
1.68
 20
-4.57
 30
0.19
 70
    64
  0
VERTEX
  5
89C7A
100
AcDbEntity
  8
0
100
AcDbVertex
100
AcDbPolygonMeshVertex
 10
1.68
 20
-1.18
 30
3.63
 70
    64
  0
VERTEX
  5
89C7B
100
AcDbEntity
  8
0
100
AcDbVertex
100
AcDbPolygonMeshVertex
 10
1.68
 20
-1.18
 30
3.63
 70
    64
  0
VERTEX
  5
89C7C
100
AcDbEntity
  8
0
100
AcDbVertex
100
AcDbPolygonMeshVertex
 10
1.68
 20
-4.57
 30
3.63
 70
    64
  0
VERTEX
  5
89C7D
100
AcDbEntity
  8
0
100
AcDbVertex
100
AcDbPolygonMeshVertex
 10
-1.68
 20
-1.18
 30
3.63
 70
    64
  0
VERTEX
  5
89C7E
100
AcDbEntity
  8
0
100
AcDbVertex
100
AcDbPolygonMeshVertex
 10
-1.68
 20
-1.18
 30
3.63
 70
    64
  0
VERTEX
  5
89C7F
100
AcDbEntity
  8
0
100
AcDbVertex
100
AcDbPolygonMeshVertex
 10
-1.68
 20
-4.57
 30
3.63
 70
    64
  0
SEQEND
  5
89C80
100
AcDbEntity
  8
0
  0
POLYLINE
  5
89C81
100
AcDbEntity
  8
0
100
AcDbPolygonMesh
 66
     1
 10
0.0
 20
0.0
 30
0.0
 70
    16
 71
     6
 72
     3
  0
VERTEX
  5
89C82
100
AcDbEntity
  8
0
100
AcDbVertex
100
AcDbPolygonMeshVertex
 10
1.68
 20
-4.82
 30
2.85
 70
    64
  0
VERTEX
  5
89C83
100
AcDbEntity
  8
0
100
AcDbVertex
100
AcDbPolygonMeshVertex
 10
1.68
 20
-4.82
 30
1.62
 70
    64
  0
VERTEX
  5
89C84
100
AcDbEntity
  8
0
100
AcDbVertex
100
AcDbPolygonMeshVertex
 10
1.68
 20
-4.82
 30
1.62
 70
    64
  0
VERTEX
  5
89C85
100
AcDbEntity
  8
0
100
AcDbVertex
100
AcDbPolygonMeshVertex
 10
-1.68
 20
-4.82
 30
2.85
 70
    64
  0
VERTEX
  5
89C86
100
AcDbEntity
  8
0
100
AcDbVertex
100
AcDbPolygonMeshVertex
 10
-1.68
 20
-4.82
 30
1.62
 70
    64
  0
VERTEX
  5
89C87
100
AcDbEntity
  8
0
100
AcDbVertex
100
AcDbPolygonMeshVertex
 10
-1.68
 20
-4.82
 30
1.62
 70
    64
  0
VERTEX
  5
89C88
100
AcDbEntity
  8
0
100
AcDbVertex
100
AcDbPolygonMeshVertex
 10
-1.68
 20
-4.57
 30
2.85
 70
    64
  0
VERTEX
  5
89C89
100
AcDbEntity
  8
0
100
AcDbVertex
100
AcDbPolygonMeshVertex
 10
-1.68
 20
-4.57
 30
1.62
 70
    64
  0
VERTEX
  5
89C8A
100
AcDbEntity
  8
0
100
AcDbVertex
100
AcDbPolygonMeshVertex
 10
-1.68
 20
-4.82
 30
1.62
 70
    64
  0
VERTEX
  5
89C8B
100
AcDbEntity
  8
0
100
AcDbVertex
100
AcDbPolygonMeshVertex
 10
1.68
 20
-4.57
 30
2.85
 70
    64
  0
VERTEX
  5
89C8C
100
AcDbEntity
  8
0
100
AcDbVertex
100
AcDbPolygonMeshVertex
 10
1.68
 20
-4.57
 30
1.62
 70
    64
  0
VERTEX
  5
89C8D
100
AcDbEntity
  8
0
100
AcDbVertex
100
AcDbPolygonMeshVertex
 10
1.68
 20
-4.82
 30
1.62
 70
    64
  0
VERTEX
  5
89C8E
100
AcDbEntity
  8
0
100
AcDbVertex
100
AcDbPolygonMeshVertex
 10
1.68
 20
-4.57
 30
2.85
 70
    64
  0
VERTEX
  5
89C8F
100
AcDbEntity
  8
0
100
AcDbVertex
100
AcDbPolygonMeshVertex
 10
1.68
 20
-4.57
 30
2.85
 70
    64
  0
VERTEX
  5
89C90
100
AcDbEntity
  8
0
100
AcDbVertex
100
AcDbPolygonMeshVertex
 10
1.68
 20
-4.82
 30
2.85
 70
    64
  0
VERTEX
  5
89C91
100
AcDbEntity
  8
0
100
AcDbVertex
100
AcDbPolygonMeshVertex
 10
-1.68
 20
-4.57
 30
2.85
 70
    64
  0
VERTEX
  5
89C92
100
AcDbEntity
  8
0
100
AcDbVertex
100
AcDbPolygonMeshVertex
 10
-1.68
 20
-4.57
 30
2.85
 70
    64
  0
VERTEX
  5
89C93
100
AcDbEntity
  8
0
100
AcDbVertex
100
AcDbPolygonMeshVertex
 10
-1.68
 20
-4.82
 30
2.85
 70
    64
  0
SEQEND
  5
89C94
100
AcDbEntity
  8
0
  0
POLYLINE
  5
89C95
100
AcDbEntity
  8
0
100
AcDbPolygonMesh
 66
     1
 10
0.0
 20
0.0
 30
0.0
 70
    16
 71
     6
 72
     3
  0
VERTEX
  5
89C96
100
AcDbEntity
  8
0
100
AcDbVertex
100
AcDbPolygonMeshVertex
 10
-1.68
 20
-4.57
 30
0.19
 70
    64
  0
VERTEX
  5
89C97
100
AcDbEntity
  8
0
100
AcDbVertex
100
AcDbPolygonMeshVertex
 10
-1.68
 20
-4.57
 30
0.19
 70
    64
  0
VERTEX
  5
89C98
100
AcDbEntity
  8
0
100
AcDbVertex
100
AcDbPolygonMeshVertex
 10
-1.68
 20
-4.57
 30
0.19
 70
    64
  0
VERTEX
  5
89C99
100
AcDbEntity
  8
0
100
AcDbVertex
100
AcDbPolygonMeshVertex
 10
-1.68
 20
-4.82
 30
1.62
 70
    64
  0
VERTEX
  5
89C9A
100
AcDbEntity
  8
0
100
AcDbVertex
100
AcDbPolygonMeshVertex
 10
-1.68
 20
-4.57
 30
1.62
 70
    64
  0
VERTEX
  5
89C9B
100
AcDbEntity
  8
0
100
AcDbVertex
100
AcDbPolygonMeshVertex
 10
-1.68
 20
-4.57
 30
1.62
 70
    64
  0
VERTEX
  5
89C9C
100
AcDbEntity
  8
0
100
AcDbVertex
100
AcDbPolygonMeshVertex
 10
1.68
 20
-4.82
 30
1.62
 70
    64
  0
VERTEX
  5
89C9D
100
AcDbEntity
  8
0
100
AcDbVertex
100
AcDbPolygonMeshVertex
 10
1.68
 20
-4.57
 30
1.62
 70
    64
  0
VERTEX
  5
89C9E
100
AcDbEntity
  8
0
100
AcDbVertex
100
AcDbPolygonMeshVertex
 10
-1.68
 20
-4.57
 30
1.62
 70
    64
  0
VERTEX
  5
89C9F
100
AcDbEntity
  8
0
100
AcDbVertex
100
AcDbPolygonMeshVertex
 10
1.68
 20
-4.57
 30
0.19
 70
    64
  0
VERTEX
  5
89CA0
100
AcDbEntity
  8
0
100
AcDbVertex
100
AcDbPolygonMeshVertex
 10
1.68
 20
-4.57
 30
0.19
 70
    64
  0
VERTEX
  5
89CA1
100
AcDbEntity
  8
0
100
AcDbVertex
100
AcDbPolygonMeshVertex
 10
-1.68
 20
-4.57
 30
0.19
 70
    64
  0
VERTEX
  5
89CA2
100
AcDbEntity
  8
0
100
AcDbVertex
100
AcDbPolygonMeshVertex
 10
1.68
 20
-4.57
 30
0.19
 70
    64
  0
VERTEX
  5
89CA3
100
AcDbEntity
  8
0
100
AcDbVertex
100
AcDbPolygonMeshVertex
 10
1.68
 20
-4.57
 30
0.19
 70
    64
  0
VERTEX
  5
89CA4
100
AcDbEntity
  8
0
100
AcDbVertex
100
AcDbPolygonMeshVertex
 10
-1.68
 20
-4.57
 30
0.19
 70
    64
  0
VERTEX
  5
89CA5
100
AcDbEntity
  8
0
100
AcDbVertex
100
AcDbPolygonMeshVertex
 10
1.68
 20
-4.82
 30
1.62
 70
    64
  0
VERTEX
  5
89CA6
100
AcDbEntity
  8
0
100
AcDbVertex
100
AcDbPolygonMeshVertex
 10
1.68
 20
-4.82
 30
1.62
 70
    64
  0
VERTEX
  5
89CA7
100
AcDbEntity
  8
0
100
AcDbVertex
100
AcDbPolygonMeshVertex
 10
-1.68
 20
-4.82
 30
1.62
 70
    64
  0
SEQEND
  5
89CA8
100
AcDbEntity
  8
0
  0
POLYLINE
  5
89CA9
100
AcDbEntity
  8
0
100
AcDbPolygonMesh
 66
     1
 10
0.0
 20
0.0
 30
0.0
 70
    16
 71
     6
 72
     3
  0
VERTEX
  5
89CAA
100
AcDbEntity
  8
0
100
AcDbVertex
100
AcDbPolygonMeshVertex
 10
1.68
 20
-1.18
 30
4.09
 70
    64
  0
VERTEX
  5
89CAB
100
AcDbEntity
  8
0
100
AcDbVertex
100
AcDbPolygonMeshVertex
 10
1.68
 20
-1.18
 30
0.19
 70
    64
  0
VERTEX
  5
89CAC
100
AcDbEntity
  8
0
100
AcDbVertex
100
AcDbPolygonMeshVertex
 10
1.68
 20
-1.18
 30
0.19
 70
    64
  0
VERTEX
  5
89CAD
100
AcDbEntity
  8
0
100
AcDbVertex
100
AcDbPolygonMeshVertex
 10
-1.68
 20
-1.18
 30
4.09
 70
    64
  0
VERTEX
  5
89CAE
100
AcDbEntity
  8
0
100
AcDbVertex
100
AcDbPolygonMeshVertex
 10
-1.68
 20
-1.18
 30
0.19
 70
    64
  0
VERTEX
  5
89CAF
100
AcDbEntity
  8
0
100
AcDbVertex
100
AcDbPolygonMeshVertex
 10
-1.68
 20
-1.18
 30
0.19
 70
    64
  0
VERTEX
  5
89CB0
100
AcDbEntity
  8
0
100
AcDbVertex
100
AcDbPolygonMeshVertex
 10
-1.68
 20
-0.5
 30
4.09
 70
    64
  0
VERTEX
  5
89CB1
100
AcDbEntity
  8
0
100
AcDbVertex
100
AcDbPolygonMeshVertex
 10
-1.68
 20
-0.5
 30
0.19
 70
    64
  0
VERTEX
  5
89CB2
100
AcDbEntity
  8
0
100
AcDbVertex
100
AcDbPolygonMeshVertex
 10
-1.68
 20
-1.18
 30
0.19
 70
    64
  0
VERTEX
  5
89CB3
100
AcDbEntity
  8
0
100
AcDbVertex
100
AcDbPolygonMeshVertex
 10
1.68
 20
-0.5
 30
4.09
 70
    64
  0
VERTEX
  5
89CB4
100
AcDbEntity
  8
0
100
AcDbVertex
100
AcDbPolygonMeshVertex
 10
1.68
 20
-0.5
 30
0.19
 70
    64
  0
VERTEX
  5
89CB5
100
AcDbEntity
  8
0
100
AcDbVertex
100
AcDbPolygonMeshVertex
 10
1.68
 20
-1.18
 30
0.19
 70
    64
  0
VERTEX
  5
89CB6
100
AcDbEntity
  8
0
100
AcDbVertex
100
AcDbPolygonMeshVertex
 10
1.68
 20
-0.5
 30
4.09
 70
    64
  0
VERTEX
  5
89CB7
100
AcDbEntity
  8
0
100
AcDbVertex
100
AcDbPolygonMeshVertex
 10
1.68
 20
-0.5
 30
4.09
 70
    64
  0
VERTEX
  5
89CB8
100
AcDbEntity
  8
0
100
AcDbVertex
100
AcDbPolygonMeshVertex
 10
1.68
 20
-1.18
 30
4.09
 70
    64
  0
VERTEX
  5
89CB9
100
AcDbEntity
  8
0
100
AcDbVertex
100
AcDbPolygonMeshVertex
 10
-1.68
 20
-0.5
 30
4.09
 70
    64
  0
VERTEX
  5
89CBA
100
AcDbEntity
  8
0
100
AcDbVertex
100
AcDbPolygonMeshVertex
 10
-1.68
 20
-0.5
 30
4.09
 70
    64
  0
VERTEX
  5
89CBB
100
AcDbEntity
  8
0
100
AcDbVertex
100
AcDbPolygonMeshVertex
 10
-1.68
 20
-1.18
 30
4.09
 70
    64
  0
SEQEND
  5
89CBC
100
AcDbEntity
  8
0
  0
LINE
  5
89CBD
100
AcDbEntity
  8
0
100
AcDbLine
 10
0.62
 20
-0.5
 30
4.09
 11
0.62
 21
-0.37
 31
4.09
  0
LINE
  5
89CBE
100
AcDbEntity
  8
0
100
AcDbLine
 10
0.62
 20
-0.37
 30
4.09
 11
0.44
 21
-0.37
 31
4.09
  0
POLYLINE
  5
89CBF
100
AcDbEntity
  8
0
100
AcDbPolygonMesh
 66
     1
 10
0.0
 20
0.0
 30
0.0
 70
    16
 71
     6
 72
     3
  0
VERTEX
  5
89CC0
100
AcDbEntity
  8
0
100
AcDbVertex
100
AcDbPolygonMeshVertex
 10
0.44
 20
-0.37
 30
4.47
 70
    64
  0
VERTEX
  5
89CC1
100
AcDbEntity
  8
0
100
AcDbVertex
100
AcDbPolygonMeshVertex
 10
0.44
 20
-0.37
 30
4.09
 70
    64
  0
VERTEX
  5
89CC2
100
AcDbEntity
  8
0
100
AcDbVertex
100
AcDbPolygonMeshVertex
 10
0.44
 20
-0.37
 30
4.09
 70
    64
  0
VERTEX
  5
89CC3
100
AcDbEntity
  8
0
100
AcDbVertex
100
AcDbPolygonMeshVertex
 10
0.62
 20
-0.37
 30
4.47
 70
    64
  0
VERTEX
  5
89CC4
100
AcDbEntity
  8
0
100
AcDbVertex
100
AcDbPolygonMeshVertex
 10
0.62
 20
-0.37
 30
4.09
 70
    64
  0
VERTEX
  5
89CC5
100
AcDbEntity
  8
0
100
AcDbVertex
100
AcDbPolygonMeshVertex
 10
0.62
 20
-0.37
 30
4.09
 70
    64
  0
VERTEX
  5
89CC6
100
AcDbEntity
  8
0
100
AcDbVertex
100
AcDbPolygonMeshVertex
 10
0.62
 20
-1.18
 30
4.47
 70
    64
  0
VERTEX
  5
89CC7
100
AcDbEntity
  8
0
100
AcDbVertex
100
AcDbPolygonMeshVertex
 10
0.62
 20
-1.18
 30
4.09
 70
    64
  0
VERTEX
  5
89CC8
100
AcDbEntity
  8
0
100
AcDbVertex
100
AcDbPolygonMeshVertex
 10
0.62
 20
-0.37
 30
4.09
 70
    64
  0
VERTEX
  5
89CC9
100
AcDbEntity
  8
0
100
AcDbVertex
100
AcDbPolygonMeshVertex
 10
0.44
 20
-1.18
 30
4.47
 70
    64
  0
VERTEX
  5
89CCA
100
AcDbEntity
  8
0
100
AcDbVertex
100
AcDbPolygonMeshVertex
 10
0.44
 20
-1.18
 30
4.09
 70
    64
  0
VERTEX
  5
89CCB
100
AcDbEntity
  8
0
100
AcDbVertex
100
AcDbPolygonMeshVertex
 10
0.44
 20
-0.37
 30
4.09
 70
    64
  0
VERTEX
  5
89CCC
100
AcDbEntity
  8
0
100
AcDbVertex
100
AcDbPolygonMeshVertex
 10
0.44
 20
-1.18
 30
4.47
 70
    64
  0
VERTEX
  5
89CCD
100
AcDbEntity
  8
0
100
AcDbVertex
100
AcDbPolygonMeshVertex
 10
0.44
 20
-1.18
 30
4.47
 70
    64
  0
VERTEX
  5
89CCE
100
AcDbEntity
  8
0
100
AcDbVertex
100
AcDbPolygonMeshVertex
 10
0.44
 20
-0.37
 30
4.47
 70
    64
  0
VERTEX
  5
89CCF
100
AcDbEntity
  8
0
100
AcDbVertex
100
AcDbPolygonMeshVertex
 10
0.62
 20
-1.18
 30
4.47
 70
    64
  0
VERTEX
  5
89CD0
100
AcDbEntity
  8
0
100
AcDbVertex
100
AcDbPolygonMeshVertex
 10
0.62
 20
-1.18
 30
4.47
 70
    64
  0
VERTEX
  5
89CD1
100
AcDbEntity
  8
0
100
AcDbVertex
100
AcDbPolygonMeshVertex
 10
0.62
 20
-0.37
 30
4.47
 70
    64
  0
SEQEND
  5
89CD2
100
AcDbEntity
  8
0
  0
POLYLINE
  5
89CD3
100
AcDbEntity
  8
0
100
AcDbPolygonMesh
 66
     1
 10
0.0
 20
0.0
 30
0.0
 70
    16
 71
     6
 72
     3
  0
VERTEX
  5
89CD4
100
AcDbEntity
  8
0
100
AcDbVertex
100
AcDbPolygonMeshVertex
 10
0.44
 20
-0.37
 30
4.09
 70
    64
  0
VERTEX
  5
89CD5
100
AcDbEntity
  8
0
100
AcDbVertex
100
AcDbPolygonMeshVertex
 10
0.44
 20
-0.37
 30
2.97
 70
    64
  0
VERTEX
  5
89CD6
100
AcDbEntity
  8
0
100
AcDbVertex
100
AcDbPolygonMeshVertex
 10
0.44
 20
-0.37
 30
2.97
 70
    64
  0
VERTEX
  5
89CD7
100
AcDbEntity
  8
0
100
AcDbVertex
100
AcDbPolygonMeshVertex
 10
0.62
 20
-0.37
 30
4.09
 70
    64
  0
VERTEX
  5
89CD8
100
AcDbEntity
  8
0
100
AcDbVertex
100
AcDbPolygonMeshVertex
 10
0.62
 20
-0.37
 30
2.97
 70
    64
  0
VERTEX
  5
89CD9
100
AcDbEntity
  8
0
100
AcDbVertex
100
AcDbPolygonMeshVertex
 10
0.62
 20
-0.37
 30
2.97
 70
    64
  0
VERTEX
  5
89CDA
100
AcDbEntity
  8
0
100
AcDbVertex
100
AcDbPolygonMeshVertex
 10
0.62
 20
-0.5
 30
4.09
 70
    64
  0
VERTEX
  5
89CDB
100
AcDbEntity
  8
0
100
AcDbVertex
100
AcDbPolygonMeshVertex
 10
0.62
 20
-0.5
 30
2.97
 70
    64
  0
VERTEX
  5
89CDC
100
AcDbEntity
  8
0
100
AcDbVertex
100
AcDbPolygonMeshVertex
 10
0.62
 20
-0.37
 30
2.97
 70
    64
  0
VERTEX
  5
89CDD
100
AcDbEntity
  8
0
100
AcDbVertex
100
AcDbPolygonMeshVertex
 10
0.44
 20
-0.5
 30
4.09
 70
    64
  0
VERTEX
  5
89CDE
100
AcDbEntity
  8
0
100
AcDbVertex
100
AcDbPolygonMeshVertex
 10
0.44
 20
-0.5
 30
2.97
 70
    64
  0
VERTEX
  5
89CDF
100
AcDbEntity
  8
0
100
AcDbVertex
100
AcDbPolygonMeshVertex
 10
0.44
 20
-0.37
 30
2.97
 70
    64
  0
VERTEX
  5
89CE0
100
AcDbEntity
  8
0
100
AcDbVertex
100
AcDbPolygonMeshVertex
 10
0.44
 20
-0.5
 30
4.09
 70
    64
  0
VERTEX
  5
89CE1
100
AcDbEntity
  8
0
100
AcDbVertex
100
AcDbPolygonMeshVertex
 10
0.44
 20
-0.5
 30
4.09
 70
    64
  0
VERTEX
  5
89CE2
100
AcDbEntity
  8
0
100
AcDbVertex
100
AcDbPolygonMeshVertex
 10
0.44
 20
-0.37
 30
4.09
 70
    64
  0
VERTEX
  5
89CE3
100
AcDbEntity
  8
0
100
AcDbVertex
100
AcDbPolygonMeshVertex
 10
0.62
 20
-0.5
 30
4.09
 70
    64
  0
VERTEX
  5
89CE4
100
AcDbEntity
  8
0
100
AcDbVertex
100
AcDbPolygonMeshVertex
 10
0.62
 20
-0.5
 30
4.09
 70
    64
  0
VERTEX
  5
89CE5
100
AcDbEntity
  8
0
100
AcDbVertex
100
AcDbPolygonMeshVertex
 10
0.62
 20
-0.37
 30
4.09
 70
    64
  0
SEQEND
  5
89CE6
100
AcDbEntity
  8
0
  0
POLYLINE
  5
89CE7
100
AcDbEntity
  8
0
100
AcDbPolygonMesh
 66
     1
 10
0.0
 20
0.0
 30
0.0
 70
    16
 71
     6
 72
     3
  0
VERTEX
  5
89CE8
100
AcDbEntity
  8
0
100
AcDbVertex
100
AcDbPolygonMeshVertex
 10
-0.62
 20
-0.37
 30
4.47
 70
    64
  0
VERTEX
  5
89CE9
100
AcDbEntity
  8
0
100
AcDbVertex
100
AcDbPolygonMeshVertex
 10
-0.62
 20
-0.37
 30
4.09
 70
    64
  0
VERTEX
  5
89CEA
100
AcDbEntity
  8
0
100
AcDbVertex
100
AcDbPolygonMeshVertex
 10
-0.62
 20
-0.37
 30
4.09
 70
    64
  0
VERTEX
  5
89CEB
100
AcDbEntity
  8
0
100
AcDbVertex
100
AcDbPolygonMeshVertex
 10
-0.44
 20
-0.37
 30
4.47
 70
    64
  0
VERTEX
  5
89CEC
100
AcDbEntity
  8
0
100
AcDbVertex
100
AcDbPolygonMeshVertex
 10
-0.44
 20
-0.37
 30
4.09
 70
    64
  0
VERTEX
  5
89CED
100
AcDbEntity
  8
0
100
AcDbVertex
100
AcDbPolygonMeshVertex
 10
-0.44
 20
-0.37
 30
4.09
 70
    64
  0
VERTEX
  5
89CEE
100
AcDbEntity
  8
0
100
AcDbVertex
100
AcDbPolygonMeshVertex
 10
-0.44
 20
-1.18
 30
4.47
 70
    64
  0
VERTEX
  5
89CEF
100
AcDbEntity
  8
0
100
AcDbVertex
100
AcDbPolygonMeshVertex
 10
-0.44
 20
-1.18
 30
4.09
 70
    64
  0
VERTEX
  5
89CF0
100
AcDbEntity
  8
0
100
AcDbVertex
100
AcDbPolygonMeshVertex
 10
-0.44
 20
-0.37
 30
4.09
 70
    64
  0
VERTEX
  5
89CF1
100
AcDbEntity
  8
0
100
AcDbVertex
100
AcDbPolygonMeshVertex
 10
-0.62
 20
-1.18
 30
4.47
 70
    64
  0
VERTEX
  5
89CF2
100
AcDbEntity
  8
0
100
AcDbVertex
100
AcDbPolygonMeshVertex
 10
-0.62
 20
-1.18
 30
4.09
 70
    64
  0
VERTEX
  5
89CF3
100
AcDbEntity
  8
0
100
AcDbVertex
100
AcDbPolygonMeshVertex
 10
-0.62
 20
-0.37
 30
4.09
 70
    64
  0
VERTEX
  5
89CF4
100
AcDbEntity
  8
0
100
AcDbVertex
100
AcDbPolygonMeshVertex
 10
-0.62
 20
-1.18
 30
4.47
 70
    64
  0
VERTEX
  5
89CF5
100
AcDbEntity
  8
0
100
AcDbVertex
100
AcDbPolygonMeshVertex
 10
-0.62
 20
-1.18
 30
4.47
 70
    64
  0
VERTEX
  5
89CF6
100
AcDbEntity
  8
0
100
AcDbVertex
100
AcDbPolygonMeshVertex
 10
-0.62
 20
-0.37
 30
4.47
 70
    64
  0
VERTEX
  5
89CF7
100
AcDbEntity
  8
0
100
AcDbVertex
100
AcDbPolygonMeshVertex
 10
-0.44
 20
-1.18
 30
4.47
 70
    64
  0
VERTEX
  5
89CF8
100
AcDbEntity
  8
0
100
AcDbVertex
100
AcDbPolygonMeshVertex
 10
-0.44
 20
-1.18
 30
4.47
 70
    64
  0
VERTEX
  5
89CF9
100
AcDbEntity
  8
0
100
AcDbVertex
100
AcDbPolygonMeshVertex
 10
-0.44
 20
-0.37
 30
4.47
 70
    64
  0
SEQEND
  5
89CFA
100
AcDbEntity
  8
0
  0
POLYLINE
  5
89CFB
100
AcDbEntity
  8
0
100
AcDbPolygonMesh
 66
     1
 10
0.0
 20
0.0
 30
0.0
 70
    16
 71
     6
 72
     3
  0
VERTEX
  5
89CFC
100
AcDbEntity
  8
0
100
AcDbVertex
100
AcDbPolygonMeshVertex
 10
-0.62
 20
-0.37
 30
4.09
 70
    64
  0
VERTEX
  5
89CFD
100
AcDbEntity
  8
0
100
AcDbVertex
100
AcDbPolygonMeshVertex
 10
-0.62
 20
-0.37
 30
2.97
 70
    64
  0
VERTEX
  5
89CFE
100
AcDbEntity
  8
0
100
AcDbVertex
100
AcDbPolygonMeshVertex
 10
-0.62
 20
-0.37
 30
2.97
 70
    64
  0
VERTEX
  5
89CFF
100
AcDbEntity
  8
0
100
AcDbVertex
100
AcDbPolygonMeshVertex
 10
-0.44
 20
-0.37
 30
4.09
 70
    64
  0
VERTEX
  5
89D00
100
AcDbEntity
  8
0
100
AcDbVertex
100
AcDbPolygonMeshVertex
 10
-0.44
 20
-0.37
 30
2.97
 70
    64
  0
VERTEX
  5
89D01
100
AcDbEntity
  8
0
100
AcDbVertex
100
AcDbPolygonMeshVertex
 10
-0.44
 20
-0.37
 30
2.97
 70
    64
  0
VERTEX
  5
89D02
100
AcDbEntity
  8
0
100
AcDbVertex
100
AcDbPolygonMeshVertex
 10
-0.44
 20
-0.5
 30
4.09
 70
    64
  0
VERTEX
  5
89D03
100
AcDbEntity
  8
0
100
AcDbVertex
100
AcDbPolygonMeshVertex
 10
-0.44
 20
-0.5
 30
2.97
 70
    64
  0
VERTEX
  5
89D04
100
AcDbEntity
  8
0
100
AcDbVertex
100
AcDbPolygonMeshVertex
 10
-0.44
 20
-0.37
 30
2.97
 70
    64
  0
VERTEX
  5
89D05
100
AcDbEntity
  8
0
100
AcDbVertex
100
AcDbPolygonMeshVertex
 10
-0.62
 20
-0.5
 30
4.09
 70
    64
  0
VERTEX
  5
89D06
100
AcDbEntity
  8
0
100
AcDbVertex
100
AcDbPolygonMeshVertex
 10
-0.62
 20
-0.5
 30
2.97
 70
    64
  0
VERTEX
  5
89D07
100
AcDbEntity
  8
0
100
AcDbVertex
100
AcDbPolygonMeshVertex
 10
-0.62
 20
-0.37
 30
2.97
 70
    64
  0
VERTEX
  5
89D08
100
AcDbEntity
  8
0
100
AcDbVertex
100
AcDbPolygonMeshVertex
 10
-0.62
 20
-0.5
 30
4.09
 70
    64
  0
VERTEX
  5
89D09
100
AcDbEntity
  8
0
100
AcDbVertex
100
AcDbPolygonMeshVertex
 10
-0.62
 20
-0.5
 30
4.09
 70
    64
  0
VERTEX
  5
89D0A
100
AcDbEntity
  8
0
100
AcDbVertex
100
AcDbPolygonMeshVertex
 10
-0.62
 20
-0.37
 30
4.09
 70
    64
  0
VERTEX
  5
89D0B
100
AcDbEntity
  8
0
100
AcDbVertex
100
AcDbPolygonMeshVertex
 10
-0.44
 20
-0.5
 30
4.09
 70
    64
  0
VERTEX
  5
89D0C
100
AcDbEntity
  8
0
100
AcDbVertex
100
AcDbPolygonMeshVertex
 10
-0.44
 20
-0.5
 30
4.09
 70
    64
  0
VERTEX
  5
89D0D
100
AcDbEntity
  8
0
100
AcDbVertex
100
AcDbPolygonMeshVertex
 10
-0.44
 20
-0.37
 30
4.09
 70
    64
  0
SEQEND
  5
89D0E
100
AcDbEntity
  8
0
  0
POLYLINE
  5
89D0F
100
AcDbEntity
  8
0
100
AcDbPolygonMesh
 66
     1
 10
0.0
 20
0.0
 30
0.0
 70
    16
 71
     6
 72
     3
  0
VERTEX
  5
89D10
100
AcDbEntity
  8
0
100
AcDbVertex
100
AcDbPolygonMeshVertex
 10
0.81
 20
-0.59
 30
4.28
 70
    64
  0
VERTEX
  5
89D11
100
AcDbEntity
  8
0
100
AcDbVertex
100
AcDbPolygonMeshVertex
 10
0.81
 20
-0.59
 30
4.09
 70
    64
  0
VERTEX
  5
89D12
100
AcDbEntity
  8
0
100
AcDbVertex
100
AcDbPolygonMeshVertex
 10
0.81
 20
-0.59
 30
4.09
 70
    64
  0
VERTEX
  5
89D13
100
AcDbEntity
  8
0
100
AcDbVertex
100
AcDbPolygonMeshVertex
 10
1.31
 20
-0.59
 30
4.28
 70
    64
  0
VERTEX
  5
89D14
100
AcDbEntity
  8
0
100
AcDbVertex
100
AcDbPolygonMeshVertex
 10
1.31
 20
-0.59
 30
4.09
 70
    64
  0
VERTEX
  5
89D15
100
AcDbEntity
  8
0
100
AcDbVertex
100
AcDbPolygonMeshVertex
 10
1.31
 20
-0.59
 30
4.09
 70
    64
  0
VERTEX
  5
89D16
100
AcDbEntity
  8
0
100
AcDbVertex
100
AcDbPolygonMeshVertex
 10
1.31
 20
-1.0
 30
4.28
 70
    64
  0
VERTEX
  5
89D17
100
AcDbEntity
  8
0
100
AcDbVertex
100
AcDbPolygonMeshVertex
 10
1.31
 20
-1.0
 30
4.09
 70
    64
  0
VERTEX
  5
89D18
100
AcDbEntity
  8
0
100
AcDbVertex
100
AcDbPolygonMeshVertex
 10
1.31
 20
-0.59
 30
4.09
 70
    64
  0
VERTEX
  5
89D19
100
AcDbEntity
  8
0
100
AcDbVertex
100
AcDbPolygonMeshVertex
 10
0.81
 20
-1.0
 30
4.28
 70
    64
  0
VERTEX
  5
89D1A
100
AcDbEntity
  8
0
100
AcDbVertex
100
AcDbPolygonMeshVertex
 10
0.81
 20
-1.0
 30
4.09
 70
    64
  0
VERTEX
  5
89D1B
100
AcDbEntity
  8
0
100
AcDbVertex
100
AcDbPolygonMeshVertex
 10
0.81
 20
-0.59
 30
4.09
 70
    64
  0
VERTEX
  5
89D1C
100
AcDbEntity
  8
0
100
AcDbVertex
100
AcDbPolygonMeshVertex
 10
0.81
 20
-1.0
 30
4.28
 70
    64
  0
VERTEX
  5
89D1D
100
AcDbEntity
  8
0
100
AcDbVertex
100
AcDbPolygonMeshVertex
 10
0.81
 20
-1.0
 30
4.28
 70
    64
  0
VERTEX
  5
89D1E
100
AcDbEntity
  8
0
100
AcDbVertex
100
AcDbPolygonMeshVertex
 10
0.81
 20
-0.59
 30
4.28
 70
    64
  0
VERTEX
  5
89D1F
100
AcDbEntity
  8
0
100
AcDbVertex
100
AcDbPolygonMeshVertex
 10
1.31
 20
-1.0
 30
4.28
 70
    64
  0
VERTEX
  5
89D20
100
AcDbEntity
  8
0
100
AcDbVertex
100
AcDbPolygonMeshVertex
 10
1.31
 20
-1.0
 30
4.28
 70
    64
  0
VERTEX
  5
89D21
100
AcDbEntity
  8
0
100
AcDbVertex
100
AcDbPolygonMeshVertex
 10
1.31
 20
-0.59
 30
4.28
 70
    64
  0
SEQEND
  5
89D22
100
AcDbEntity
  8
0
  0
CIRCLE
  5
89D23
100
AcDbEntity
  8
0
100
AcDbCircle
 10
0.0
 20
-0.795
 30
4.28
 40
0.19
  0
POLYLINE
  5
89D24
100
AcDbEntity
  8
0
100
AcDbPolygonMesh
 66
     1
 10
0.0
 20
0.0
 30
0.0
 70
    16
 71
     6
 72
     3
  0
VERTEX
  5
89D25
100
AcDbEntity
  8
0
100
AcDbVertex
100
AcDbPolygonMeshVertex
 10
-0.25
 20
-0.59
 30
4.28
 70
    64
  0
VERTEX
  5
89D26
100
AcDbEntity
  8
0
100
AcDbVertex
100
AcDbPolygonMeshVertex
 10
-0.25
 20
-0.59
 30
4.09
 70
    64
  0
VERTEX
  5
89D27
100
AcDbEntity
  8
0
100
AcDbVertex
100
AcDbPolygonMeshVertex
 10
-0.25
 20
-0.59
 30
4.09
 70
    64
  0
VERTEX
  5
89D28
100
AcDbEntity
  8
0
100
AcDbVertex
100
AcDbPolygonMeshVertex
 10
0.25
 20
-0.59
 30
4.28
 70
    64
  0
VERTEX
  5
89D29
100
AcDbEntity
  8
0
100
AcDbVertex
100
AcDbPolygonMeshVertex
 10
0.25
 20
-0.59
 30
4.09
 70
    64
  0
VERTEX
  5
89D2A
100
AcDbEntity
  8
0
100
AcDbVertex
100
AcDbPolygonMeshVertex
 10
0.25
 20
-0.59
 30
4.09
 70
    64
  0
VERTEX
  5
89D2B
100
AcDbEntity
  8
0
100
AcDbVertex
100
AcDbPolygonMeshVertex
 10
0.25
 20
-1.0
 30
4.28
 70
    64
  0
VERTEX
  5
89D2C
100
AcDbEntity
  8
0
100
AcDbVertex
100
AcDbPolygonMeshVertex
 10
0.25
 20
-1.0
 30
4.09
 70
    64
  0
VERTEX
  5
89D2D
100
AcDbEntity
  8
0
100
AcDbVertex
100
AcDbPolygonMeshVertex
 10
0.25
 20
-0.59
 30
4.09
 70
    64
  0
VERTEX
  5
89D2E
100
AcDbEntity
  8
0
100
AcDbVertex
100
AcDbPolygonMeshVertex
 10
-0.25
 20
-1.0
 30
4.28
 70
    64
  0
VERTEX
  5
89D2F
100
AcDbEntity
  8
0
100
AcDbVertex
100
AcDbPolygonMeshVertex
 10
-0.25
 20
-1.0
 30
4.09
 70
    64
  0
VERTEX
  5
89D30
100
AcDbEntity
  8
0
100
AcDbVertex
100
AcDbPolygonMeshVertex
 10
-0.25
 20
-0.59
 30
4.09
 70
    64
  0
VERTEX
  5
89D31
100
AcDbEntity
  8
0
100
AcDbVertex
100
AcDbPolygonMeshVertex
 10
-0.25
 20
-1.0
 30
4.28
 70
    64
  0
VERTEX
  5
89D32
100
AcDbEntity
  8
0
100
AcDbVertex
100
AcDbPolygonMeshVertex
 10
-0.25
 20
-1.0
 30
4.28
 70
    64
  0
VERTEX
  5
89D33
100
AcDbEntity
  8
0
100
AcDbVertex
100
AcDbPolygonMeshVertex
 10
-0.25
 20
-0.59
 30
4.28
 70
    64
  0
VERTEX
  5
89D34
100
AcDbEntity
  8
0
100
AcDbVertex
100
AcDbPolygonMeshVertex
 10
0.25
 20
-1.0
 30
4.28
 70
    64
  0
VERTEX
  5
89D35
100
AcDbEntity
  8
0
100
AcDbVertex
100
AcDbPolygonMeshVertex
 10
0.25
 20
-1.0
 30
4.28
 70
    64
  0
VERTEX
  5
89D36
100
AcDbEntity
  8
0
100
AcDbVertex
100
AcDbPolygonMeshVertex
 10
0.25
 20
-0.59
 30
4.28
 70
    64
  0
SEQEND
  5
89D37
100
AcDbEntity
  8
0
  0
CIRCLE
  5
89D38
100
AcDbEntity
  8
0
100
AcDbCircle
 10
-1.06
 20
-0.795
 30
4.28
 40
0.19
  0
POLYLINE
  5
89D39
100
AcDbEntity
  8
0
100
AcDbPolygonMesh
 66
     1
 10
0.0
 20
0.0
 30
0.0
 70
    16
 71
     6
 72
     3
  0
VERTEX
  5
89D3A
100
AcDbEntity
  8
0
100
AcDbVertex
100
AcDbPolygonMeshVertex
 10
-1.31
 20
-0.59
 30
4.28
 70
    64
  0
VERTEX
  5
89D3B
100
AcDbEntity
  8
0
100
AcDbVertex
100
AcDbPolygonMeshVertex
 10
-1.31
 20
-0.59
 30
4.09
 70
    64
  0
VERTEX
  5
89D3C
100
AcDbEntity
  8
0
100
AcDbVertex
100
AcDbPolygonMeshVertex
 10
-1.31
 20
-0.59
 30
4.09
 70
    64
  0
VERTEX
  5
89D3D
100
AcDbEntity
  8
0
100
AcDbVertex
100
AcDbPolygonMeshVertex
 10
-0.81
 20
-0.59
 30
4.28
 70
    64
  0
VERTEX
  5
89D3E
100
AcDbEntity
  8
0
100
AcDbVertex
100
AcDbPolygonMeshVertex
 10
-0.81
 20
-0.59
 30
4.09
 70
    64
  0
VERTEX
  5
89D3F
100
AcDbEntity
  8
0
100
AcDbVertex
100
AcDbPolygonMeshVertex
 10
-0.81
 20
-0.59
 30
4.09
 70
    64
  0
VERTEX
  5
89D40
100
AcDbEntity
  8
0
100
AcDbVertex
100
AcDbPolygonMeshVertex
 10
-0.81
 20
-1.0
 30
4.28
 70
    64
  0
VERTEX
  5
89D41
100
AcDbEntity
  8
0
100
AcDbVertex
100
AcDbPolygonMeshVertex
 10
-0.81
 20
-1.0
 30
4.09
 70
    64
  0
VERTEX
  5
89D42
100
AcDbEntity
  8
0
100
AcDbVertex
100
AcDbPolygonMeshVertex
 10
-0.81
 20
-0.59
 30
4.09
 70
    64
  0
VERTEX
  5
89D43
100
AcDbEntity
  8
0
100
AcDbVertex
100
AcDbPolygonMeshVertex
 10
-1.31
 20
-1.0
 30
4.28
 70
    64
  0
VERTEX
  5
89D44
100
AcDbEntity
  8
0
100
AcDbVertex
100
AcDbPolygonMeshVertex
 10
-1.31
 20
-1.0
 30
4.09
 70
    64
  0
VERTEX
  5
89D45
100
AcDbEntity
  8
0
100
AcDbVertex
100
AcDbPolygonMeshVertex
 10
-1.31
 20
-0.59
 30
4.09
 70
    64
  0
VERTEX
  5
89D46
100
AcDbEntity
  8
0
100
AcDbVertex
100
AcDbPolygonMeshVertex
 10
-1.31
 20
-1.0
 30
4.28
 70
    64
  0
VERTEX
  5
89D47
100
AcDbEntity
  8
0
100
AcDbVertex
100
AcDbPolygonMeshVertex
 10
-1.31
 20
-1.0
 30
4.28
 70
    64
  0
VERTEX
  5
89D48
100
AcDbEntity
  8
0
100
AcDbVertex
100
AcDbPolygonMeshVertex
 10
-1.31
 20
-0.59
 30
4.28
 70
    64
  0
VERTEX
  5
89D49
100
AcDbEntity
  8
0
100
AcDbVertex
100
AcDbPolygonMeshVertex
 10
-0.81
 20
-1.0
 30
4.28
 70
    64
  0
VERTEX
  5
89D4A
100
AcDbEntity
  8
0
100
AcDbVertex
100
AcDbPolygonMeshVertex
 10
-0.81
 20
-1.0
 30
4.28
 70
    64
  0
VERTEX
  5
89D4B
100
AcDbEntity
  8
0
100
AcDbVertex
100
AcDbPolygonMeshVertex
 10
-0.81
 20
-0.59
 30
4.28
 70
    64
  0
SEQEND
  5
89D4C
100
AcDbEntity
  8
0
  0
POLYLINE
  5
89D4D
100
AcDbEntity
  8
0
100
AcDbPolygonMesh
 66
     1
 10
0.0
 20
0.0
 30
0.0
 70
    16
 71
     6
 72
     3
  0
VERTEX
  5
89D4E
100
AcDbEntity
  8
0
100
AcDbVertex
100
AcDbPolygonMeshVertex
 10
1.775
 20
-7.34
 30
0.19
 70
    64
  0
VERTEX
  5
89D4F
100
AcDbEntity
  8
0
100
AcDbVertex
100
AcDbPolygonMeshVertex
 10
1.775
 20
-7.34
 30
0.0
 70
    64
  0
VERTEX
  5
89D50
100
AcDbEntity
  8
0
100
AcDbVertex
100
AcDbPolygonMeshVertex
 10
1.775
 20
-7.34
 30
0.0
 70
    64
  0
VERTEX
  5
89D51
100
AcDbEntity
  8
0
100
AcDbVertex
100
AcDbPolygonMeshVertex
 10
-1.785
 20
-7.34
 30
0.19
 70
    64
  0
VERTEX
  5
89D52
100
AcDbEntity
  8
0
100
AcDbVertex
100
AcDbPolygonMeshVertex
 10
-1.785
 20
-7.34
 30
0.0
 70
    64
  0
VERTEX
  5
89D53
100
AcDbEntity
  8
0
100
AcDbVertex
100
AcDbPolygonMeshVertex
 10
-1.785
 20
-7.34
 30
0.0
 70
    64
  0
VERTEX
  5
89D54
100
AcDbEntity
  8
0
100
AcDbVertex
100
AcDbPolygonMeshVertex
 10
-1.785
 20
-0.34
 30
0.19
 70
    64
  0
VERTEX
  5
89D55
100
AcDbEntity
  8
0
100
AcDbVertex
100
AcDbPolygonMeshVertex
 10
-1.785
 20
-0.34
 30
0.0
 70
    64
  0
VERTEX
  5
89D56
100
AcDbEntity
  8
0
100
AcDbVertex
100
AcDbPolygonMeshVertex
 10
-1.785
 20
-7.34
 30
0.0
 70
    64
  0
VERTEX
  5
89D57
100
AcDbEntity
  8
0
100
AcDbVertex
100
AcDbPolygonMeshVertex
 10
1.775
 20
-0.34
 30
0.19
 70
    64
  0
VERTEX
  5
89D58
100
AcDbEntity
  8
0
100
AcDbVertex
100
AcDbPolygonMeshVertex
 10
1.775
 20
-0.34
 30
0.0
 70
    64
  0
VERTEX
  5
89D59
100
AcDbEntity
  8
0
100
AcDbVertex
100
AcDbPolygonMeshVertex
 10
1.775
 20
-7.34
 30
0.0
 70
    64
  0
VERTEX
  5
89D5A
100
AcDbEntity
  8
0
100
AcDbVertex
100
AcDbPolygonMeshVertex
 10
1.775
 20
-0.34
 30
0.19
 70
    64
  0
VERTEX
  5
89D5B
100
AcDbEntity
  8
0
100
AcDbVertex
100
AcDbPolygonMeshVertex
 10
1.775
 20
-0.34
 30
0.19
 70
    64
  0
VERTEX
  5
89D5C
100
AcDbEntity
  8
0
100
AcDbVertex
100
AcDbPolygonMeshVertex
 10
1.775
 20
-7.34
 30
0.19
 70
    64
  0
VERTEX
  5
89D5D
100
AcDbEntity
  8
0
100
AcDbVertex
100
AcDbPolygonMeshVertex
 10
-1.785
 20
-0.34
 30
0.19
 70
    64
  0
VERTEX
  5
89D5E
100
AcDbEntity
  8
0
100
AcDbVertex
100
AcDbPolygonMeshVertex
 10
-1.785
 20
-0.34
 30
0.19
 70
    64
  0
VERTEX
  5
89D5F
100
AcDbEntity
  8
0
100
AcDbVertex
100
AcDbPolygonMeshVertex
 10
-1.785
 20
-7.34
 30
0.19
 70
    64
  0
SEQEND
  5
89D60
100
AcDbEntity
  8
0
  0
LINE
  5
89D61
100
AcDbEntity
  8
0
100
AcDbLine
 10
-1.28
 20
-7.34
 30
0.19
 11
-1.28
 21
-7.34
 31
0.0
  0
3DFACE
  5
89D62
100
AcDbEntity
  8
0
100
AcDbFace
 10
1.775
 20
-0.34
 30
0.19
 11
1.155
 21
0.28
 31
0.19
 12
-0.285
 22
0.28
 32
0.19
 13
-0.385
 23
0.0
 33
0.19
 70
     8
  0
3DFACE
  5
89D63
100
AcDbEntity
  8
0
100
AcDbFace
 10
-0.875
 20
0.0
 30
0.19
 11
-0.975
 21
0.28
 31
0.19
 12
-1.165
 22
0.28
 32
0.19
 13
-1.785
 23
-0.34
 33
0.19
 70
     8
  0
3DFACE
  5
89D64
100
AcDbEntity
  8
0
100
AcDbFace
 10
-0.875
 20
0.0
 30
0.19
 11
-1.785
 21
-0.34
 31
0.19
 12
1.775
 22
-0.34
 32
0.19
 13
-0.385
 23
0.0
 33
0.19
 70
    15
  0
3DFACE
  5
89D65
100
AcDbEntity
  8
0
100
AcDbFace
 10
-0.875
 20
0.0
 30
0.0
 11
-1.785
 21
-0.34
 31
0.0
 12
1.775
 22
-0.34
 32
0.0
 13
-0.385
 23
0.0
 33
0.0
 70
    15
  0
3DFACE
  5
89D66
100
AcDbEntity
  8
0
100
AcDbFace
 10
1.775
 20
-0.34
 30
0.0
 11
1.155
 21
0.28
 31
0.0
 12
-0.285
 22
0.28
 32
0.0
 13
-0.385
 23
0.0
 33
0.0
 70
     8
  0
3DFACE
  5
89D67
100
AcDbEntity
  8
0
100
AcDbFace
 10
-0.875
 20
0.0
 30
0.0
 11
-0.975
 21
0.28
 31
0.0
 12
-1.165
 22
0.28
 32
0.0
 13
-1.785
 23
-0.34
 33
0.0
 70
     8
  0
3DFACE
  5
89D68
100
AcDbEntity
  8
0
100
AcDbFace
 10
1.775
 20
-0.34
 30
0.0
 11
1.775
 21
-0.34
 31
0.19
 12
1.155
 22
0.28
 32
0.19
 13
1.155
 23
0.28
 33
0.0
  0
3DFACE
  5
89D69
100
AcDbEntity
  8
0
100
AcDbFace
 10
1.155
 20
0.28
 30
0.19
 11
-0.285
 21
0.28
 31
0.19
 12
-0.285
 22
0.28
 32
0.0
 13
1.155
 23
0.28
 33
0.0
  0
3DFACE
  5
89D6A
100
AcDbEntity
  8
0
100
AcDbFace
 10
-0.875
 20
0.0
 30
0.19
 11
-0.875
 21
0.0
 31
0.0
 12
-0.975
 22
0.28
 32
0.0
 13
-0.975
 23
0.28
 33
0.19
  0
3DFACE
  5
89D6B
100
AcDbEntity
  8
0
100
AcDbFace
 10
-0.385
 20
0.0
 30
0.19
 11
-0.385
 21
0.0
 31
0.0
 12
-0.875
 22
0.0
 32
0.0
 13
-0.875
 23
0.0
 33
0.19
  0
3DFACE
  5
89D6C
100
AcDbEntity
  8
0
100
AcDbFace
 10
-0.975
 20
0.28
 30
0.19
 11
-0.975
 21
0.28
 31
0.0
 12
-1.165
 22
0.28
 32
0.0
 13
-1.165
 23
0.28
 33
0.19
  0
3DFACE
  5
89D6D
100
AcDbEntity
  8
0
100
AcDbFace
 10
-0.385
 20
0.0
 30
0.19
 11
-0.385
 21
0.0
 31
0.0
 12
-0.285
 22
0.28
 32
0.0
 13
-0.285
 23
0.28
 33
0.19
  0
3DFACE
  5
89D6E
100
AcDbEntity
  8
0
100
AcDbFace
 10
-1.165
 20
0.28
 30
0.0
 11
-1.165
 21
0.28
 31
0.19
 12
-1.785
 22
-0.34
 32
0.19
 13
-1.785
 23
-0.34
 33
0.0
  0
TEXT
  5
89D6F
100
AcDbEntity
  8
0
100
AcDbText
 10
-1.151915
 20
-0.86698
 30
4.28
 40
0.182402
  1
L1
100
AcDbText
  0
TEXT
  5
89D70
100
AcDbEntity
  8
0
100
AcDbText
 10
-0.126788
 20
-0.888324
 30
4.28
 40
0.182402
  1
L2
100
AcDbText
  0
TEXT
  5
89D71
100
AcDbEntity
  8
0
100
AcDbText
 10
0.933688
 20
-0.897891
 30
4.28
 40
0.182402
  1
L3
100
AcDbText
  0
TEXT
  5
89D72
100
AcDbEntity
  8
0
100
AcDbText
 10
-1.251633
 20
-6.189352
 30
3.64
 40
0.182402
  1
T1
100
AcDbText
  0
TEXT
  5
89D73
100
AcDbEntity
  8
0
100
AcDbText
 10
-0.214723
 20
-6.198919
 30
3.64
 40
0.182402
  1
T2
100
AcDbText
  0
TEXT
  5
89D74
100
AcDbEntity
  8
0
100
AcDbText
 10
0.845752
 20
-6.208486
 30
3.64
 40
0.182402
  1
T3
100
AcDbText
  0
ATTDEF
  5
89D75
100
AcDbEntity
  8
ATTRIBUTES
100
AcDbText
 10
-1.570949
 20
-3.889241
 30
0.19
 40
0.12
  1
ALLEN-BRADLEY
100
AcDbAttributeDefinition
  3
MANUFACTURER NAME?
  2
AC_VND_LABEL
 70
     1
  0
ATTDEF
  5
89D76
100
AcDbEntity
  8
ATTRIBUTES
100
AcDbText
 10
-1.570949
 20
-4.139241
 30
0.19
 40
0.12
  1
509-A
100
AcDbAttributeDefinition
  3
CATALOG NUMBER?
  2
AC_PART_NO
 70
     1
  0
ATTDEF
  5
89D77
100
AcDbEntity
  8
ATTRIBUTES
100
AcDbText
 10
-1.570949
 20
-4.389241
 30
0.19
 40
0.12
  1
NON-REVERSING STARTER w/ EUTECTIC ALLOY OLR; SIZE 0 & 1; 3P
100
AcDbAttributeDefinition
  3
PART DESCRIPTION?
  2
AC_DESCRIPTION
 70
     1
  0
ATTDEF
  5
89D78
100
AcDbEntity
  8
ATTRIBUTES
100
AcDbText
 10
-1.570949
 20
-4.639241
 30
0.19
 40
0.12
  1

100
AcDbAttributeDefinition
  3
DEVICE ID?
  2
DEVICE_ID
 70
     1
  0
ATTDEF
  5
89D79
100
AcDbEntity
  8
ATTRIBUTES
100
AcDbText
 10
-1.570949
 20
-4.889241
 30
0.19
 40
0.12
  1

100
AcDbAttributeDefinition
  3
CUSTOMER PART NUMBER?
  2
AC_CPART_NO
 70
     1
  0
ATTDEF
  5
89D7A
100
AcDbEntity
  8
ATTRIBUTES
100
AcDbText
 10
-1.570949
 20
-5.139241
 30
0.19
 40
0.12
  1

100
AcDbAttributeDefinition
  3
CUSTOMER NOTE?
  2
AC_NOTE
 70
     1
  0
ATTDEF
  5
89D7B
100
AcDbEntity
  8
ATTRIBUTES
100
AcDbText
 10
-1.570949
 20
-5.389241
 30
0.19
 40
0.12
  1

100
AcDbAttributeDefinition
  3
FASTENER DATA?
  2
FASTENER
 70
     1
  0
ATTDEF
  5
89D7C
100
AcDbEntity
  8
ATTRIBUTES
100
AcDbText
 10
-1.570949
 20
-5.639241
 30
0.19
 40
0.12
  1
INCH
100
AcDbAttributeDefinition
  3
UNIT OF SCALE?
  2
AC_SCALE_UNIT
 70
     1
  0
ATTDEF
  5
89D7D
100
AcDbEntity
  8
ATTRIBUTES
100
AcDbText
 10
-1.570949
 20
-5.889241
 30
0.19
 40
0.12
  1
0
100
AcDbAttributeDefinition
  3
VIEW CODE?
  2
AC_VIEW_CODE
 70
     1
  0
POINT
  5
89D7E
100
AcDbEntity
  8
DIMS-MTG-HOLES
100
AcDbPoint
 10
-1.38
 20
-7.09
 30
0.0
  0
POINT
  5
89D7F
100
AcDbEntity
  8
DIMS-MTG-HOLES
100
AcDbPoint
 10
1.37
 20
-7.09
 30
0.0
  0
POINT
  5
89D80
100
AcDbEntity
  8
DIMS-MTG-HOLES
100
AcDbPoint
 10
0.38
 20
0.0
 30
0.0
  0
POINT
  5
89D81
100
AcDbEntity
  8
DIMS-MTG-HOLES
100
AcDbPoint
 10
0.0
 20
0.0
 30
0.0
  0
DIMENSION
  5
89D82
100
AcDbEntity
  8
AREA1
100
AcDbDimension
  2
*D0
 10
-2.704922
 20
-7.34
 30
0.0
 11
-2.704922
 21
-3.741757
 31
0.0
 70
   160
  3
ABECAD_3D
100
AcDbAlignedDimension
 13
-1.165
 23
0.28
 33
0.0
 14
-1.785
 24
-7.34
 34
0.0
 50
90.0
100
AcDbRotatedDimension
  0
DIMENSION
  5
89D90
100
AcDbEntity
  8
AREA1
100
AcDbDimension
  2
*D1
 10
1.775
 20
0.787997
 30
0.0
 11
-0.032644
 21
0.787997
 31
0.0
 70
   160
  3
ABECAD_3D
100
AcDbAlignedDimension
 13
-1.785
 23
-0.34
 33
0.0
 14
1.775
 24
-0.34
 34
0.0
100
AcDbRotatedDimension
  0
LWPOLYLINE
  5
89DAD
100
AcDbEntity
  8
SCALE
100
AcDbPolyline
 90
        4
 70
     1
 43
0.0
 10
-0.606669
 20
-7.486332
 10
0.52896
 20
-7.486332
 10
0.52896
 20
-8.327942
 10
-0.606669
 20
-8.327942
  0
LINE
  5
89DAE
100
AcDbEntity
  8
SCALE
100
AcDbLine
 10
-0.54867
 20
-7.86641
 30
0.0
 11
0.45133
 21
-7.86641
 31
0.0
  0
LINE
  5
89DAF
100
AcDbEntity
  8
SCALE
100
AcDbLine
 10
-0.54867
 20
-8.16641
 30
0.0
 11
-0.15497
 21
-8.16641
 31
0.0
  0
LINE
  5
89DB0
100
AcDbEntity
  8
SCALE
100
AcDbLine
 10
-0.54867
 20
-7.96641
 30
0.0
 11
-0.54867
 21
-7.76641
 31
0.0
  0
TEXT
  5
89DB1
100
AcDbEntity
  8
SCALE
100
AcDbText
 10
-0.492694
 20
-8.118725
 30
0.0
 40
0.0625
  1
[10mm]
100
AcDbText
  0
LINE
  5
89DB2
100
AcDbEntity
  8
SCALE
100
AcDbLine
 10
-0.54867
 20
-8.26641
 30
0.0
 11
-0.54867
 21
-8.06641
 31
0.0
  0
TEXT
  5
89DB3
100
AcDbEntity
  8
SCALE
100
AcDbText
 10
-0.54714
 20
-7.591533
 30
0.0
 40
0.0625
  1
SCALE:
100
AcDbText
  0
LINE
  5
89DB4
100
AcDbEntity
  8
SCALE
100
AcDbLine
 10
-0.15497
 20
-8.26641
 30
0.0
 11
-0.15497
 21
-8.06641
 31
0.0
  0
TEXT
  5
89DB5
100
AcDbEntity
  8
SCALE
100
AcDbText
 10
-0.185387
 20
-7.797362
 30
0.0
 40
0.0625
  1
1 Inch
100
AcDbText
  0
LINE
  5
89DB6
100
AcDbEntity
  8
SCALE
100
AcDbLine
 10
0.45133
 20
-7.86641
 30
0.0
 11
0.45133
 21
-7.96641
 31
0.0
  0
LINE
  5
89DB7
100
AcDbEntity
  8
SCALE
100
AcDbLine
 10
0.45133
 20
-7.96641
 30
0.0
 11
0.45133
 21
-7.76641
 31
0.0
  0
VIEWPORT
  5
5677D
102
{ACAD_XDICTIONARY
360
89E30
102
}
100
AcDbEntity
 67
     1
  8
0
100
AcDbViewport
 10
5.25
 20
4.0
 30
0.0
 40
16.386862
 41
8.993
 68
    -1
 69
     1
1001
ACAD
1000
MVIEW
1002
{
1070
    16
1010
0.0
1020
0.0
1030
0.0
1010
0.0
1020
0.0
1030
1.0
1040
0.0
1040
8.993
1040
5.25
1040
4.0
1040
50.0
1040
0.0
1040
0.0
1070
     0
1070
 20000
1070
     1
1070
     1
1070
     0
1070
     0
1070
     0
1070
     0
1040
0.0
1040
0.0
1040
0.0
1040
0.5
1040
0.5
1040
0.5
1040
0.5
1070
     0
1002
{
1002
}
1002
}
  0
VIEWPORT
  5
5677F
102
{ACAD_XDICTIONARY
360
89E32
102
}
100
AcDbEntity
 67
     1
  8
AREA1
100
AcDbViewport
 10
5.25
 20
4.0
 30
0.0
 40
8.4
 41
6.4
 68
     1
 69
     2
1001
ACAD
1000
MVIEW
1002
{
1070
    16
1010
0.563444
1020
-0.880137
1030
1.686493
1010
0.0
1020
0.0
1030
1.0
1040
0.0
1040
4.582914
1040
-1.017175
1040
0.747813
1040
50.0
1040
0.0
1040
0.0
1070
     0
1070
 20000
1070
     1
1070
     1
1070
     0
1070
     0
1070
     0
1070
     0
1040
0.0
1040
0.0
1040
0.0
1040
0.25
1040
0.25
1040
0.25
1040
0.25
1070
     0
1002
{
1002
}
1002
}
  0
ENDSEC
  0
SECTION
  2
OBJECTS
  0
DICTIONARY
  5
458CB
100
AcDbDictionary
  3
ACAD_GROUP
350
458CC
  3
ACAD_LAYOUT
350
458FB
  3
ACAD_MLINESTYLE
350
458D9
  3
ACAD_PLOTSETTINGS
350
458FC
  3
ACAD_PLOTSTYLENAME
350
458F9
  3
ACDBHEADERROUNDTRIPXREC
350
89E07
  3
ACDBVARIABLEDICTIONARY
350
458E1
  3
DWGPROPS
350
45901
  0
DICTIONARY
  5
89E05
100
AcDbDictionary
280
     1
  3
ACAD_XREC_ROUNDTRIP
360
89E06
  0
DICTIONARY
  5
89E2E
100
AcDbDictionary
280
     1
  3
ACAD_XREC_ROUNDTRIP
360
89E2F
  0
DICTIONARY
  5
89E03
100
AcDbDictionary
280
     1
  3
ACAD_XREC_ROUNDTRIP
360
89E04
  0
DICTIONARY
  5
89E2A
100
AcDbDictionary
280
     1
  3
ACAD_XREC_ROUNDTRIP
360
89E2B
  0
DICTIONARY
  5
4592C
100
AcDbDictionary
280
     1
  3
ACAD_LAYOUTSELFREF
360
89E29
  0
DICTIONARY
  5
4592A
100
AcDbDictionary
280
     1
  3
ACAD_LAYOUTSELFREF
360
89E28
  0
DICTIONARY
  5
89E30
100
AcDbDictionary
280
     1
  3
ACAD_XREC_ROUNDTRIP
360
89E31
  0
DICTIONARY
  5
89E32
100
AcDbDictionary
280
     1
  3
ACAD_XREC_ROUNDTRIP
360
89E33
  0
DICTIONARY
  5
458CC
102
{ACAD_REACTORS
330
458CB
102
}
100
AcDbDictionary
  0
DICTIONARY
  5
458FB
102
{ACAD_XDICTIONARY
360
89E2C
102
}
102
{ACAD_REACTORS
330
458CB
102
}
100
AcDbDictionary
  3
LAYOUT1
350
458FE
  3
MODEL
350
458FD
  0
DICTIONARY
  5
458D9
102
{ACAD_REACTORS
330
458CB
102
}
100
AcDbDictionary
  3
STANDARD
350
458DA
  0
DICTIONARY
  5
458FC
102
{ACAD_REACTORS
330
458CB
102
}
100
AcDbDictionary
  0
ACAD_PROXY_OBJECT
  5
458F9
102
{ACAD_REACTORS
330
458CB
102
}
100
AcDbProxyObject
 90
      499
 91
      501
 93
       86
310
405010041939BDC9B585B0
350
458FA
340
458FA
 94
        0
  0
DICTIONARY
  5
89E07
102
{ACAD_REACTORS
330
458CB
102
}
100
AcDbDictionary
  3
CEPSNTYPE
350
89E11
  3
DIMSTYLEDATA
350
89E15
  3
FINGERPRINTGUID
350
89E12
  3
HYPERLINKBASE
350
89E0A
  3
INSUNITS
350
89E10
  3
LAYOUTDICT
350
89E0C
  3
LWETCUNION
350
89E0F
  3
PLOTSETDICT
350
89E0D
  3
PLOTSTYLNAMDICT
350
89E0E
  3
PSVPSCALE
350
89E14
  3
PUCSBASE
350
89E18
  3
PUCSORGBACK
350
89E1E
  3
PUCSORGBOTTOM
350
89E1A
  3
PUCSORGFRONT
350
89E1D
  3
PUCSORGLEFT
350
89E1B
  3
PUCSORGRIGHT
350
89E1C
  3
PUCSORGTOP
350
89E19
  3
PUCSORTHOREF
350
89E16
  3
PUCSORTHOVIEW
350
89E17
  3
STYLESHEET
350
89E0B
  3
TSTACKALIGN
350
89E08
  3
TSTACKSIZE
350
89E09
  3
UCSBASE
350
89E21
  3
UCSORGBACK
350
89E27
  3
UCSORGBOTTOM
350
89E23
  3
UCSORGFRONT
350
89E26
  3
UCSORGLEFT
350
89E24
  3
UCSORGRIGHT
350
89E25
  3
UCSORGTOP
350
89E22
  3
UCSORTHOREF
350
89E1F
  3
UCSORTHOVIEW
350
89E20
  3
VERSIONGUID
350
89E13
  0
DICTIONARY
  5
458E1
102
{ACAD_REACTORS
330
458CB
102
}
100
AcDbDictionary
  3
DIMADEC
350
458E2
  0
XRECORD
  5
45901
102
{ACAD_REACTORS
330
458CB
102
}
100
AcDbXrecord
  1
DWGPROPS COOKIE
  2

  3

  4

  6

  7

  8
colin
  9

300
=
301
=
302
=
303
=
304
=
305
=
306
=
307
=
308
=
309
=
 40
0.000599
 41
2451670.444777
 42
2451670.445376
  1

 90
        0
  0
XRECORD
  5
89E06
102
{ACAD_REACTORS
330
89E05
102
}
100
AcDbXrecord
102
EXTNAMES
  1
*ACTIVE
  2
*Active
102
UCS
 74
     0
 71
     1
 10
0.0
 20
0.0
 30
0.0
 10
1.0
 20
0.0
 30
0.0
 10
0.0
 20
1.0
 30
0.0
146
0.0
 79
     1
102
VIEW
281
     1
  0
XRECORD
  5
89E2F
102
{ACAD_REACTORS
330
89E2E
102
}
100
AcDbXrecord
102
PLOTBIT
280
     0
  0
XRECORD
  5
89E04
102
{ACAD_REACTORS
330
89E03
102
}
100
AcDbXrecord
102
EXTNAMES
  1
DEFPOINTS
  2
Defpoints
102
PLOTBIT
280
     0
  0
XRECORD
  5
89E2B
102
{ACAD_REACTORS
330
89E2A
102
}
100
AcDbXrecord
102
ACADR14ROUNDTRIP
1000
DSTYLE
1002
{
1070
   276
 70
     2
1070
   277
 70
     5
1070
   279
 70
     2
1070
   289
 70
     2
1002
}
  0
XRECORD
  5
89E29
102
{ACAD_REACTORS
330
4592C
102
}
100
AcDbXrecord
340
458D6
  0
XRECORD
  5
89E28
102
{ACAD_REACTORS
330
4592A
102
}
100
AcDbXrecord
340
458D3
  0
XRECORD
  5
89E31
102
{ACAD_REACTORS
330
89E30
102
}
100
AcDbXrecord
102
UCS
 74
     0
 71
     1
 10
0.0
 20
0.0
 30
0.0
 10
1.0
 20
0.0
 30
0.0
 10
0.0
 20
1.0
 30
0.0
146
0.0
 79
     0
102
VIEW
281
     0
102
NEWVIEWCONTROL
280
     4
  0
XRECORD
  5
89E33
102
{ACAD_REACTORS
330
89E32
102
}
100
AcDbXrecord
102
UCS
 74
     0
 71
     1
 10
0.0
 20
0.0
 30
0.0
 10
1.0
 20
0.0
 30
0.0
 10
0.0
 20
1.0
 30
0.0
146
0.0
 79
     1
102
VIEW
281
     1
102
NEWVIEWCONTROL
280
     4
  0
DICTIONARY
  5
89E2C
100
AcDbDictionary
280
     1
  3
ACAD_XREC_ROUNDTRIP
360
89E2D
  0
ACAD_PROXY_OBJECT
  5
458FE
102
{ACAD_REACTORS
330
458FB
102
}
100
AcDbProxyObject
 90
      499
 91
      503
 93
     1700
310
90B6E6F6E655F6465766963652C0080000006066661940000000181999865000000000068661940000000001A1986500000000C0CCFC6A4000000018199D9C5011C4C65747465725F28382E35305F785F31312E30305F496E6368657329A901416AA547D11959985D5B1D08148C4D081C195B88185CDCDA59DB9B595B9D1CC
310
B98DD1891069074C61796F75743140501A840201008040342FEFF7FBFDFFFFF3EFDFAFF7FBFFDFC9501008043E3FDFC8102A6A6A0000003033333C0FC000000809999E93F8FFFFFF5766E622403FFFFFEBF333071020
330
458D3
330
5677D
340
0
340
0
 94
        0
  0
ACAD_PROXY_OBJECT
  5
458FD
102
{ACAD_REACTORS
330
458FB
102
}
100
AcDbProxyObject
 90
      499
 91
      503
 93
      924
310
91D4850204C617365724A65742035303030205365726965732050434C20362C01AAAAAAAAA547D11959985D5B1D08148C4D081C195B88185CDCDA59DB9B595B9D1CCB98DD18A69054D6F64656C901A800000000000000000000000000000000000000000000A1000000000000008902A6A6AAAA0
330
458D6
330
0
340
0
340
0
 94
        0
  0
MLINESTYLE
  5
458DA
102
{ACAD_REACTORS
330
458D9
102
}
100
AcDbMlineStyle
  2
STANDARD
 70
     0
  3

 62
   256
 51
90.0
 52
90.0
 71
     2
 49
0.5
 62
   256
  6
BYLAYER
 49
-0.5
 62
   256
  6
BYLAYER
  0
ACAD_PROXY_OBJECT
  5
458FA
102
{ACAD_REACTORS
330
458F9
102
}
100
AcDbProxyObject
 90
      499
 91
      502
 93
        0
 94
        0
  0
XRECORD
  5
89E11
102
{ACAD_REACTORS
330
89E07
102
}
100
AcDbXrecord
 90
        0
  0
XRECORD
  5
89E15
102
{ACAD_REACTORS
330
89E07
102
}
100
AcDbXrecord
1000
DSTYLE
1002
{
1070
   276
 70
     2
1070
   277
 70
     5
1070
   279
 70
     2
1070
   289
 70
     2
1002
}
  0
XRECORD
  5
89E12
102
{ACAD_REACTORS
330
89E07
102
}
100
AcDbXrecord
  1
{6E0CF4B8-225E-11D4-A150-00A0CC3303EC}
  0
XRECORD
  5
89E0A
102
{ACAD_REACTORS
330
89E07
102
}
100
AcDbXrecord
  1

  0
XRECORD
  5
89E10
102
{ACAD_REACTORS
330
89E07
102
}
100
AcDbXrecord
 90
        0
  0
XRECORD
  5
89E0C
102
{ACAD_REACTORS
330
89E07
102
}
100
AcDbXrecord
340
458FB
  0
XRECORD
  5
89E0F
102
{ACAD_REACTORS
330
89E07
102
}
100
AcDbXrecord
 90
    14877
  0
XRECORD
  5
89E0D
102
{ACAD_REACTORS
330
89E07
102
}
100
AcDbXrecord
340
458FC
  0
XRECORD
  5
89E0E
102
{ACAD_REACTORS
330
89E07
102
}
100
AcDbXrecord
340
458F9
  0
XRECORD
  5
89E14
102
{ACAD_REACTORS
330
89E07
102
}
100
AcDbXrecord
 40
0.0
  0
XRECORD
  5
89E18
102
{ACAD_REACTORS
330
89E07
102
}
100
AcDbXrecord
340
0
  0
XRECORD
  5
89E1E
102
{ACAD_REACTORS
330
89E07
102
}
100
AcDbXrecord
 10
0.0
 20
0.0
 30
0.0
  0
XRECORD
  5
89E1A
102
{ACAD_REACTORS
330
89E07
102
}
100
AcDbXrecord
 10
0.0
 20
0.0
 30
0.0
  0
XRECORD
  5
89E1D
102
{ACAD_REACTORS
330
89E07
102
}
100
AcDbXrecord
 10
0.0
 20
0.0
 30
0.0
  0
XRECORD
  5
89E1B
102
{ACAD_REACTORS
330
89E07
102
}
100
AcDbXrecord
 10
0.0
 20
0.0
 30
0.0
  0
XRECORD
  5
89E1C
102
{ACAD_REACTORS
330
89E07
102
}
100
AcDbXrecord
 10
0.0
 20
0.0
 30
0.0
  0
XRECORD
  5
89E19
102
{ACAD_REACTORS
330
89E07
102
}
100
AcDbXrecord
 10
0.0
 20
0.0
 30
0.0
  0
XRECORD
  5
89E16
102
{ACAD_REACTORS
330
89E07
102
}
100
AcDbXrecord
340
0
  0
XRECORD
  5
89E17
102
{ACAD_REACTORS
330
89E07
102
}
100
AcDbXrecord
 70
     0
  0
XRECORD
  5
89E0B
102
{ACAD_REACTORS
330
89E07
102
}
100
AcDbXrecord
  1

  0
XRECORD
  5
89E08
102
{ACAD_REACTORS
330
89E07
102
}
100
AcDbXrecord
 90
        1
  0
XRECORD
  5
89E09
102
{ACAD_REACTORS
330
89E07
102
}
100
AcDbXrecord
 90
       70
  0
XRECORD
  5
89E21
102
{ACAD_REACTORS
330
89E07
102
}
100
AcDbXrecord
340
0
  0
XRECORD
  5
89E27
102
{ACAD_REACTORS
330
89E07
102
}
100
AcDbXrecord
 10
0.0
 20
0.0
 30
0.0
  0
XRECORD
  5
89E23
102
{ACAD_REACTORS
330
89E07
102
}
100
AcDbXrecord
 10
0.0
 20
0.0
 30
0.0
  0
XRECORD
  5
89E26
102
{ACAD_REACTORS
330
89E07
102
}
100
AcDbXrecord
 10
0.0
 20
0.0
 30
0.0
  0
XRECORD
  5
89E24
102
{ACAD_REACTORS
330
89E07
102
}
100
AcDbXrecord
 10
0.0
 20
0.0
 30
0.0
  0
XRECORD
  5
89E25
102
{ACAD_REACTORS
330
89E07
102
}
100
AcDbXrecord
 10
0.0
 20
0.0
 30
0.0
  0
XRECORD
  5
89E22
102
{ACAD_REACTORS
330
89E07
102
}
100
AcDbXrecord
 10
0.0
 20
0.0
 30
0.0
  0
XRECORD
  5
89E1F
102
{ACAD_REACTORS
330
89E07
102
}
100
AcDbXrecord
340
0
  0
XRECORD
  5
89E20
102
{ACAD_REACTORS
330
89E07
102
}
100
AcDbXrecord
 70
     1
  0
XRECORD
  5
89E13
102
{ACAD_REACTORS
330
89E07
102
}
100
AcDbXrecord
  1
{64C60AB8-1D23-4A5C-976A-42AEE8E03D87}
  0
DICTIONARYVAR
  5
458E2
102
{ACAD_REACTORS
330
458E1
102
}
100
DictionaryVariables
280
     0
  1
0
  0
XRECORD
  5
89E2D
102
{ACAD_REACTORS
330
89E2C
102
}
100
AcDbXrecord
102
EXTNAMES
  1
LAYOUT1
  2
Layout1
  1
MODEL
  2
Model
  0
ENDSEC
  0
EOF
