  0
SECTION
  2
HEADER
  9
$ACADVER
  1
AC1014
  9
$ACADMAINTVER
 70
     8
  9
$DWGCODEPAGE
  3
ANSI_1252
  9
$INSBASE
 10
0.0
 20
0.0
 30
0.0
  9
$EXTMIN
 10
-3.408267
 20
-9.90494
 30
0.0
  9
$EXTMAX
 10
1.97
 20
1.299149
 30
4.72
  9
$LIMMIN
 10
0.0
 20
0.0
  9
$LIMMAX
 10
12.0
 20
9.0
  9
$ORTHOMODE
 70
     0
  9
$REGENMODE
 70
     1
  9
$FILLMODE
 70
     1
  9
$QTEXTMODE
 70
     0
  9
$MIRRTEXT
 70
     1
  9
$DRAGMODE
 70
     2
  9
$LTSCALE
 40
1.0
  9
$OSMODE
 70
    37
  9
$ATTMODE
 70
     1
  9
$TEXTSIZE
 40
0.12
  9
$TRACEWID
 40
0.05
  9
$TEXTSTYLE
  7
STANDARD
  9
$CLAYER
  8
0
  9
$CELTYPE
  6
BYLAYER
  9
$CECOLOR
 62
   256
  9
$CELTSCALE
 40
1.0
  9
$DELOBJ
 70
     1
  9
$DISPSILH
 70
     0
  9
$DIMSCALE
 40
1.0
  9
$DIMASZ
 40
0.2
  9
$DIMEXO
 40
0.1
  9
$DIMDLI
 40
0.375
  9
$DIMRND
 40
0.0
  9
$DIMDLE
 40
0.0
  9
$DIMEXE
 40
0.1
  9
$DIMTP
 40
0.0
  9
$DIMTM
 40
0.0
  9
$DIMTXT
 40
0.2
  9
$DIMCEN
 40
0.09
  9
$DIMTSZ
 40
0.0
  9
$DIMTOL
 70
     0
  9
$DIMLIM
 70
     0
  9
$DIMTIH
 70
     0
  9
$DIMTOH
 70
     1
  9
$DIMSE1
 70
     0
  9
$DIMSE2
 70
     0
  9
$DIMTAD
 70
     0
  9
$DIMZIN
 70
     4
  9
$DIMBLK
  1

  9
$DIMASO
 70
     1
  9
$DIMSHO
 70
     1
  9
$DIMPOST
  1

  9
$DIMAPOST
  1

  9
$DIMALT
 70
     1
  9
$DIMALTD
 70
     2
  9
$DIMALTF
 40
25.4
  9
$DIMLFAC
 40
1.0
  9
$DIMTOFL
 70
     0
  9
$DIMTVP
 40
0.0
  9
$DIMTIX
 70
     0
  9
$DIMSOXD
 70
     0
  9
$DIMSAH
 70
     0
  9
$DIMBLK1
  1

  9
$DIMBLK2
  1

  9
$DIMSTYLE
  2
ABECAD_3D
  9
$DIMCLRD
 70
     0
  9
$DIMCLRE
 70
     0
  9
$DIMCLRT
 70
     0
  9
$DIMTFAC
 40
1.5
  9
$DIMGAP
 40
0.09
  9
$DIMJUST
 70
     0
  9
$DIMSD1
 70
     0
  9
$DIMSD2
 70
     0
  9
$DIMTOLJ
 70
     1
  9
$DIMTZIN
 70
     4
  9
$DIMALTZ
 70
     4
  9
$DIMALTTZ
 70
     4
  9
$DIMFIT
 70
     5
  9
$DIMUPT
 70
     1
  9
$DIMUNIT
 70
     7
  9
$DIMDEC
 70
     6
  9
$DIMTDEC
 70
     6
  9
$DIMALTU
 70
     2
  9
$DIMALTTD
 70
     2
  9
$DIMTXSTY
  7
STANDARD
  9
$DIMAUNIT
 70
     0
  9
$LUNITS
 70
     2
  9
$LUPREC
 70
     4
  9
$SKETCHINC
 40
0.1
  9
$FILLETRAD
 40
0.0
  9
$AUNITS
 70
     0
  9
$AUPREC
 70
     0
  9
$MENU
  1
ACAD
  9
$ELEVATION
 40
0.0
  9
$PELEVATION
 40
0.0
  9
$THICKNESS
 40
0.0
  9
$LIMCHECK
 70
     0
  9
$BLIPMODE
 70
     0
  9
$CHAMFERA
 40
0.0
  9
$CHAMFERB
 40
0.0
  9
$CHAMFERC
 40
0.0
  9
$CHAMFERD
 40
0.0
  9
$SKPOLY
 70
     0
  9
$TDCREATE
 40
2451726.438389120
  9
$TDUPDATE
 40
2452010.490883796
  9
$TDINDWG
 40
1.0879100694
  9
$TDUSRTIMER
 40
1.0879100694
  9
$USRTIMER
 70
     1
  9
$ANGBASE
 50
0.0
  9
$ANGDIR
 70
     0
  9
$PDMODE
 70
     3
  9
$PDSIZE
 40
0.09
  9
$PLINEWID
 40
0.0
  9
$COORDS
 70
     1
  9
$SPLFRAME
 70
     1
  9
$SPLINETYPE
 70
     6
  9
$SPLINESEGS
 70
     8
  9
$ATTDIA
 70
     0
  9
$ATTREQ
 70
     1
  9
$HANDLING
 70
     1
  9
$HANDSEED
  5
8A45F
  9
$SURFTAB1
 70
     6
  9
$SURFTAB2
 70
     6
  9
$SURFTYPE
 70
     6
  9
$SURFU
 70
     6
  9
$SURFV
 70
     6
  9
$UCSNAME
  2

  9
$UCSORG
 10
0.0
 20
0.0
 30
0.0
  9
$UCSXDIR
 10
1.0
 20
0.0
 30
0.0
  9
$UCSYDIR
 10
0.0
 20
1.0
 30
0.0
  9
$PUCSNAME
  2

  9
$PUCSORG
 10
0.0
 20
0.0
 30
0.0
  9
$PUCSXDIR
 10
1.0
 20
0.0
 30
0.0
  9
$PUCSYDIR
 10
0.0
 20
1.0
 30
0.0
  9
$USERI1
 70
     0
  9
$USERI2
 70
     0
  9
$USERI3
 70
     0
  9
$USERI4
 70
     0
  9
$USERI5
 70
     0
  9
$USERR1
 40
0.0
  9
$USERR2
 40
0.0
  9
$USERR3
 40
0.0
  9
$USERR4
 40
0.0
  9
$USERR5
 40
0.0
  9
$WORLDVIEW
 70
     1
  9
$SHADEDGE
 70
     3
  9
$SHADEDIF
 70
    70
  9
$TILEMODE
 70
     1
  9
$MAXACTVP
 70
    16
  9
$PINSBASE
 10
0.0
 20
0.0
 30
0.0
  9
$PLIMCHECK
 70
     0
  9
$PEXTMIN
 10
1.05
 20
0.8
 30
0.0
  9
$PEXTMAX
 10
9.45
 20
7.2
 30
0.0
  9
$PLIMMIN
 10
-0.25
 20
-0.25
  9
$PLIMMAX
 10
10.75
 20
8.25
  9
$UNITMODE
 70
     0
  9
$VISRETAIN
 70
     0
  9
$PLINEGEN
 70
     0
  9
$PSLTSCALE
 70
     1
  9
$TREEDEPTH
 70
  3020
  9
$PICKSTYLE
 70
     1
  9
$CMLSTYLE
  2
STANDARD
  9
$CMLJUST
 70
     0
  9
$CMLSCALE
 40
1.0
  9
$PROXYGRAPHICS
 70
     1
  9
$MEASUREMENT
 70
     0
  0
ENDSEC
  0
SECTION
  2
CLASSES
  0
CLASS
  1
DICTIONARYVAR
  2
AcDbDictionaryVar
  3
"AutoCAD"
 90
        0
280
     0
281
     0
  0
CLASS
  1
ACDBDICTIONARYWDFLT
  2
AcDbDictionaryWithDefault
  3
AutoCAD 2000
 90
        0
280
     0
281
     0
  0
CLASS
  1
ACDBPLACEHOLDER
  2
AcDbPlaceHolder
  3
AutoCAD 2000
 90
        0
280
     0
281
     0
  0
CLASS
  1
LAYOUT
  2
AcDbLayout
  3
AutoCAD 2000
 90
        0
280
     0
281
     0
  0
CLASS
  1
LONG_TRANSACTION
  2
AcDbLongTransaction
  3
AutoCAD 2000
 90
        0
280
     0
281
     0
  0
CLASS
  1
LWPOLYLINE
  2
AcDbPolyline
  3
"AutoCAD"
 90
        0
280
     0
281
     1
  0
CLASS
  1
HATCH
  2
AcDbHatch
  3
"ACAD_SEDONA"
 90
        0
280
     0
281
     1
  0
CLASS
  1
XRECORD
  2
AcDbXrecord
  3
"<Built In>"
 90
        0
280
     0
281
     0
  0
CLASS
  1
LONG_TRANSACTION
  2
AcDbLongTransaction
  3
AutoCAD 2000
 90
        0
280
     0
281
     0
  0
CLASS
  1
LWPOLYLINE
  2
AcDbPolyline
  3
"AutoCAD"
 90
        0
280
     0
281
     1
  0
CLASS
  1
HATCH
  2
AcDbHatch
  3
"ACAD_SEDONA"
 90
        0
280
     0
281
     1
  0
CLASS
  1
XRECORD
  2
AcDbXrecord
  3
"<Built In>"
 90
        0
280
     0
281
     0
  0
CLASS
  1
LONG_TRANSACTION
  2
AcDbLongTransaction
  3
AutoCAD 2000
 90
        0
280
     0
281
     0
  0
CLASS
  1
LWPOLYLINE
  2
AcDbPolyline
  3
"AutoCAD"
 90
        0
280
     0
281
     1
  0
CLASS
  1
HATCH
  2
AcDbHatch
  3
"ACAD_SEDONA"
 90
        0
280
     0
281
     1
  0
CLASS
  1
XRECORD
  2
AcDbXrecord
  3
"<Built In>"
 90
        0
280
     0
281
     0
  0
CLASS
  1
LONG_TRANSACTION
  2
AcDbLongTransaction
  3
AutoCAD 2000
 90
        0
280
     0
281
     0
  0
CLASS
  1
LWPOLYLINE
  2
AcDbPolyline
  3
"AutoCAD"
 90
        0
280
     0
281
     1
  0
CLASS
  1
HATCH
  2
AcDbHatch
  3
"ACAD_SEDONA"
 90
        0
280
     0
281
     1
  0
CLASS
  1
XRECORD
  2
AcDbXrecord
  3
"<Built In>"
 90
        0
280
     0
281
     0
  0
CLASS
  1
LONG_TRANSACTION
  2
AcDbLongTransaction
  3
AutoCAD 2000
 90
        0
280
     0
281
     0
  0
CLASS
  1
LWPOLYLINE
  2
AcDbPolyline
  3
"AutoCAD"
 90
        0
280
     0
281
     1
  0
CLASS
  1
HATCH
  2
AcDbHatch
  3
"ACAD_SEDONA"
 90
        0
280
     0
281
     1
  0
CLASS
  1
XRECORD
  2
AcDbXrecord
  3
"<Built In>"
 90
        0
280
     0
281
     0
  0
CLASS
  1
LONG_TRANSACTION
  2
AcDbLongTransaction
  3
AutoCAD 2000
 90
        0
280
     0
281
     0
  0
CLASS
  1
LWPOLYLINE
  2
AcDbPolyline
  3
"AutoCAD"
 90
        0
280
     0
281
     1
  0
CLASS
  1
HATCH
  2
AcDbHatch
  3
"ACAD_SEDONA"
 90
        0
280
     0
281
     1
  0
CLASS
  1
XRECORD
  2
AcDbXrecord
  3
"<Built In>"
 90
        0
280
     0
281
     0
  0
CLASS
  1
LONG_TRANSACTION
  2
AcDbLongTransaction
  3
AutoCAD 2000
 90
        0
280
     0
281
     0
  0
CLASS
  1
LWPOLYLINE
  2
AcDbPolyline
  3
"AutoCAD"
 90
        0
280
     0
281
     1
  0
CLASS
  1
HATCH
  2
AcDbHatch
  3
"ACAD_SEDONA"
 90
        0
280
     0
281
     1
  0
CLASS
  1
XRECORD
  2
AcDbXrecord
  3
"<Built In>"
 90
        0
280
     0
281
     0
  0
CLASS
  1
LONG_TRANSACTION
  2
AcDbLongTransaction
  3
AutoCAD 2000
 90
        0
280
     0
281
     0
  0
CLASS
  1
LWPOLYLINE
  2
AcDbPolyline
  3
"AutoCAD"
 90
        0
280
     0
281
     1
  0
CLASS
  1
HATCH
  2
AcDbHatch
  3
"ACAD_SEDONA"
 90
        0
280
     0
281
     1
  0
CLASS
  1
XRECORD
  2
AcDbXrecord
  3
"<Built In>"
 90
        0
280
     0
281
     0
  0
CLASS
  1
LONG_TRANSACTION
  2
AcDbLongTransaction
  3
AutoCAD 2000
 90
        0
280
     0
281
     0
  0
CLASS
  1
LWPOLYLINE
  2
AcDbPolyline
  3
"AutoCAD"
 90
        0
280
     0
281
     1
  0
CLASS
  1
HATCH
  2
AcDbHatch
  3
"ACAD_SEDONA"
 90
        0
280
     0
281
     1
  0
CLASS
  1
XRECORD
  2
AcDbXrecord
  3
"<Built In>"
 90
        0
280
     0
281
     0
  0
CLASS
  1
LONG_TRANSACTION
  2
AcDbLongTransaction
  3
AutoCAD 2000
 90
        0
280
     0
281
     0
  0
CLASS
  1
LWPOLYLINE
  2
AcDbPolyline
  3
"AutoCAD"
 90
        0
280
     0
281
     1
  0
CLASS
  1
HATCH
  2
AcDbHatch
  3
"ACAD_SEDONA"
 90
        0
280
     0
281
     1
  0
CLASS
  1
XRECORD
  2
AcDbXrecord
  3
"<Built In>"
 90
        0
280
     0
281
     0
  0
CLASS
  1
LONG_TRANSACTION
  2
AcDbLongTransaction
  3
AutoCAD 2000
 90
        0
280
     0
281
     0
  0
CLASS
  1
LWPOLYLINE
  2
AcDbPolyline
  3
"AutoCAD"
 90
        0
280
     0
281
     1
  0
CLASS
  1
HATCH
  2
AcDbHatch
  3
"ACAD_SEDONA"
 90
        0
280
     0
281
     1
  0
CLASS
  1
XRECORD
  2
AcDbXrecord
  3
"<Built In>"
 90
        0
280
     0
281
     0
  0
CLASS
  1
LONG_TRANSACTION
  2
AcDbLongTransaction
  3
AutoCAD 2000
 90
        0
280
     0
281
     0
  0
CLASS
  1
LWPOLYLINE
  2
AcDbPolyline
  3
"AutoCAD"
 90
        0
280
     0
281
     1
  0
CLASS
  1
HATCH
  2
AcDbHatch
  3
"ACAD_SEDONA"
 90
        0
280
     0
281
     1
  0
CLASS
  1
XRECORD
  2
AcDbXrecord
  3
"<Built In>"
 90
        0
280
     0
281
     0
  0
CLASS
  1
LONG_TRANSACTION
  2
AcDbLongTransaction
  3
AutoCAD 2000
 90
        0
280
     0
281
     0
  0
CLASS
  1
LWPOLYLINE
  2
AcDbPolyline
  3
"AutoCAD"
 90
        0
280
     0
281
     1
  0
CLASS
  1
HATCH
  2
AcDbHatch
  3
"ACAD_SEDONA"
 90
        0
280
     0
281
     1
  0
CLASS
  1
XRECORD
  2
AcDbXrecord
  3
"<Built In>"
 90
        0
280
     0
281
     0
  0
CLASS
  1
LONG_TRANSACTION
  2
AcDbLongTransaction
  3
AutoCAD 2000
 90
        0
280
     0
281
     0
  0
CLASS
  1
LWPOLYLINE
  2
AcDbPolyline
  3
"AutoCAD"
 90
        0
280
     0
281
     1
  0
CLASS
  1
HATCH
  2
AcDbHatch
  3
"ACAD_SEDONA"
 90
        0
280
     0
281
     1
  0
CLASS
  1
XRECORD
  2
AcDbXrecord
  3
"<Built In>"
 90
        0
280
     0
281
     0
  0
CLASS
  1
LONG_TRANSACTION
  2
AcDbLongTransaction
  3
AutoCAD 2000
 90
        0
280
     0
281
     0
  0
CLASS
  1
LWPOLYLINE
  2
AcDbPolyline
  3
"AutoCAD"
 90
        0
280
     0
281
     1
  0
CLASS
  1
HATCH
  2
AcDbHatch
  3
"ACAD_SEDONA"
 90
        0
280
     0
281
     1
  0
CLASS
  1
XRECORD
  2
AcDbXrecord
  3
"<Built In>"
 90
        0
280
     0
281
     0
  0
CLASS
  1
LONG_TRANSACTION
  2
AcDbLongTransaction
  3
AutoCAD 2000
 90
        0
280
     0
281
     0
  0
CLASS
  1
LWPOLYLINE
  2
AcDbPolyline
  3
"AutoCAD"
 90
        0
280
     0
281
     1
  0
CLASS
  1
HATCH
  2
AcDbHatch
  3
"ACAD_SEDONA"
 90
        0
280
     0
281
     1
  0
CLASS
  1
XRECORD
  2
AcDbXrecord
  3
"<Built In>"
 90
        0
280
     0
281
     0
  0
CLASS
  1
LONG_TRANSACTION
  2
AcDbLongTransaction
  3
AutoCAD 2000
 90
        0
280
     0
281
     0
  0
CLASS
  1
LWPOLYLINE
  2
AcDbPolyline
  3
"AutoCAD"
 90
        0
280
     0
281
     1
  0
CLASS
  1
HATCH
  2
AcDbHatch
  3
"ACAD_SEDONA"
 90
        0
280
     0
281
     1
  0
CLASS
  1
XRECORD
  2
AcDbXrecord
  3
"<Built In>"
 90
        0
280
     0
281
     0
  0
CLASS
  1
LONG_TRANSACTION
  2
AcDbLongTransaction
  3
AutoCAD 2000
 90
        0
280
     0
281
     0
  0
CLASS
  1
LWPOLYLINE
  2
AcDbPolyline
  3
"AutoCAD"
 90
        0
280
     0
281
     1
  0
CLASS
  1
HATCH
  2
AcDbHatch
  3
"ACAD_SEDONA"
 90
        0
280
     0
281
     1
  0
CLASS
  1
XRECORD
  2
AcDbXrecord
  3
"<Built In>"
 90
        0
280
     0
281
     0
  0
CLASS
  1
LONG_TRANSACTION
  2
AcDbLongTransaction
  3
AutoCAD 2000
 90
        0
280
     0
281
     0
  0
CLASS
  1
LWPOLYLINE
  2
AcDbPolyline
  3
"AutoCAD"
 90
        0
280
     0
281
     1
  0
CLASS
  1
HATCH
  2
AcDbHatch
  3
"ACAD_SEDONA"
 90
        0
280
     0
281
     1
  0
CLASS
  1
XRECORD
  2
AcDbXrecord
  3
"<Built In>"
 90
        0
280
     0
281
     0
  0
CLASS
  1
LONG_TRANSACTION
  2
AcDbLongTransaction
  3
AutoCAD 2000
 90
        0
280
     0
281
     0
  0
CLASS
  1
LWPOLYLINE
  2
AcDbPolyline
  3
"AutoCAD"
 90
        0
280
     0
281
     1
  0
CLASS
  1
HATCH
  2
AcDbHatch
  3
"ACAD_SEDONA"
 90
        0
280
     0
281
     1
  0
CLASS
  1
XRECORD
  2
AcDbXrecord
  3
"<Built In>"
 90
        0
280
     0
281
     0
  0
CLASS
  1
LONG_TRANSACTION
  2
AcDbLongTransaction
  3
AutoCAD 2000
 90
        0
280
     0
281
     0
  0
CLASS
  1
LWPOLYLINE
  2
AcDbPolyline
  3
"AutoCAD"
 90
        0
280
     0
281
     1
  0
CLASS
  1
HATCH
  2
AcDbHatch
  3
"ACAD_SEDONA"
 90
        0
280
     0
281
     1
  0
CLASS
  1
XRECORD
  2
AcDbXrecord
  3
"<Built In>"
 90
        0
280
     0
281
     0
  0
CLASS
  1
LONG_TRANSACTION
  2
AcDbLongTransaction
  3
AutoCAD 2000
 90
        0
280
     0
281
     0
  0
CLASS
  1
LWPOLYLINE
  2
AcDbPolyline
  3
"AutoCAD"
 90
        0
280
     0
281
     1
  0
CLASS
  1
HATCH
  2
AcDbHatch
  3
"ACAD_SEDONA"
 90
        0
280
     0
281
     1
  0
CLASS
  1
XRECORD
  2
AcDbXrecord
  3
"<Built In>"
 90
        0
280
     0
281
     0
  0
CLASS
  1
LONG_TRANSACTION
  2
AcDbLongTransaction
  3
AutoCAD 2000
 90
        0
280
     0
281
     0
  0
CLASS
  1
LWPOLYLINE
  2
AcDbPolyline
  3
"AutoCAD"
 90
        0
280
     0
281
     1
  0
CLASS
  1
HATCH
  2
AcDbHatch
  3
"ACAD_SEDONA"
 90
        0
280
     0
281
     1
  0
CLASS
  1
XRECORD
  2
AcDbXrecord
  3
"<Built In>"
 90
        0
280
     0
281
     0
  0
CLASS
  1
LONG_TRANSACTION
  2
AcDbLongTransaction
  3
AutoCAD 2000
 90
        0
280
     0
281
     0
  0
CLASS
  1
LWPOLYLINE
  2
AcDbPolyline
  3
"AutoCAD"
 90
        0
280
     0
281
     1
  0
CLASS
  1
HATCH
  2
AcDbHatch
  3
"ACAD_SEDONA"
 90
        0
280
     0
281
     1
  0
CLASS
  1
XRECORD
  2
AcDbXrecord
  3
"<Built In>"
 90
        0
280
     0
281
     0
  0
CLASS
  1
LONG_TRANSACTION
  2
AcDbLongTransaction
  3
AutoCAD 2000
 90
        0
280
     0
281
     0
  0
CLASS
  1
LWPOLYLINE
  2
AcDbPolyline
  3
"AutoCAD"
 90
        0
280
     0
281
     1
  0
CLASS
  1
HATCH
  2
AcDbHatch
  3
"ACAD_SEDONA"
 90
        0
280
     0
281
     1
  0
CLASS
  1
XRECORD
  2
AcDbXrecord
  3
"<Built In>"
 90
        0
280
     0
281
     0
  0
CLASS
  1
LONG_TRANSACTION
  2
AcDbLongTransaction
  3
AutoCAD 2000
 90
        0
280
     0
281
     0
  0
CLASS
  1
LWPOLYLINE
  2
AcDbPolyline
  3
"AutoCAD"
 90
        0
280
     0
281
     1
  0
CLASS
  1
HATCH
  2
AcDbHatch
  3
"ACAD_SEDONA"
 90
        0
280
     0
281
     1
  0
CLASS
  1
XRECORD
  2
AcDbXrecord
  3
"<Built In>"
 90
        0
280
     0
281
     0
  0
CLASS
  1
LONG_TRANSACTION
  2
AcDbLongTransaction
  3
AutoCAD 2000
 90
        0
280
     0
281
     0
  0
CLASS
  1
LWPOLYLINE
  2
AcDbPolyline
  3
"AutoCAD"
 90
        0
280
     0
281
     1
  0
CLASS
  1
HATCH
  2
AcDbHatch
  3
"ACAD_SEDONA"
 90
        0
280
     0
281
     1
  0
CLASS
  1
XRECORD
  2
AcDbXrecord
  3
"<Built In>"
 90
        0
280
     0
281
     0
  0
CLASS
  1
LONG_TRANSACTION
  2
AcDbLongTransaction
  3
AutoCAD 2000
 90
        0
280
     0
281
     0
  0
CLASS
  1
LWPOLYLINE
  2
AcDbPolyline
  3
"AutoCAD"
 90
        0
280
     0
281
     1
  0
CLASS
  1
HATCH
  2
AcDbHatch
  3
"ACAD_SEDONA"
 90
        0
280
     0
281
     1
  0
CLASS
  1
XRECORD
  2
AcDbXrecord
  3
"<Built In>"
 90
        0
280
     0
281
     0
  0
CLASS
  1
LONG_TRANSACTION
  2
AcDbLongTransaction
  3
AutoCAD 2000
 90
        0
280
     0
281
     0
  0
CLASS
  1
LWPOLYLINE
  2
AcDbPolyline
  3
"AutoCAD"
 90
        0
280
     0
281
     1
  0
CLASS
  1
HATCH
  2
AcDbHatch
  3
"ACAD_SEDONA"
 90
        0
280
     0
281
     1
  0
CLASS
  1
XRECORD
  2
AcDbXrecord
  3
"<Built In>"
 90
        0
280
     0
281
     0
  0
CLASS
  1
LONG_TRANSACTION
  2
AcDbLongTransaction
  3
AutoCAD 2000
 90
        0
280
     0
281
     0
  0
CLASS
  1
LWPOLYLINE
  2
AcDbPolyline
  3
"AutoCAD"
 90
        0
280
     0
281
     1
  0
CLASS
  1
HATCH
  2
AcDbHatch
  3
"ACAD_SEDONA"
 90
        0
280
     0
281
     1
  0
CLASS
  1
XRECORD
  2
AcDbXrecord
  3
"<Built In>"
 90
        0
280
     0
281
     0
  0
ENDSEC
  0
SECTION
  2
TABLES
  0
TABLE
  2
VPORT
  5
458C7
100
AcDbSymbolTable
 70
     1
  0
VPORT
  5
8A42A
102
{ACAD_XDICTIONARY
360
8A42D
102
}
100
AcDbSymbolTableRecord
100
AcDbViewportTableRecord
  2
*ACTIVE
 70
     0
 10
0.0
 20
0.0
 11
1.0
 21
1.0
 12
-7.338964
 22
-0.801561
 13
0.0
 23
0.0
 14
0.25
 24
0.25
 15
0.25
 25
0.25
 16
0.0
 26
0.0
 36
1.0
 17
6.619902
 27
-3.501216
 37
4.043999
 40
11.393809
 41
1.960674
 42
50.0
 43
0.0
 44
0.0
 50
0.0
 51
0.0
 71
     0
 72
 20000
 73
     1
 74
     1
 75
     0
 76
     0
 77
     0
 78
     0
  0
ENDTAB
  0
TABLE
  2
LTYPE
  5
458C4
100
AcDbSymbolTable
 70
     1
  0
LTYPE
  5
458D0
100
AcDbSymbolTableRecord
100
AcDbLinetypeTableRecord
  2
BYBLOCK
 70
     0
  3

 72
    65
 73
     0
 40
0.0
  0
LTYPE
  5
458D1
100
AcDbSymbolTableRecord
100
AcDbLinetypeTableRecord
  2
BYLAYER
 70
     0
  3

 72
    65
 73
     0
 40
0.0
  0
LTYPE
  5
458D2
100
AcDbSymbolTableRecord
100
AcDbLinetypeTableRecord
  2
CONTINUOUS
 70
     0
  3
Solid line
 72
    65
 73
     0
 40
0.0
  0
ENDTAB
  0
TABLE
  2
LAYER
  5
458C1
100
AcDbSymbolTable
 70
     7
  0
LAYER
  5
458CD
100
AcDbSymbolTableRecord
100
AcDbLayerTableRecord
  2
0
 70
     0
 62
     7
  6
CONTINUOUS
  0
LAYER
  5
458EA
100
AcDbSymbolTableRecord
100
AcDbLayerTableRecord
  2
DIMS-MTG-HOLES
 70
     0
 62
     1
  6
CONTINUOUS
  0
LAYER
  5
458EB
100
AcDbSymbolTableRecord
100
AcDbLayerTableRecord
  2
ATTRIBUTES
 70
     0
 62
     7
  6
CONTINUOUS
  0
LAYER
  5
4593B
102
{ACAD_XDICTIONARY
360
8A456
102
}
100
AcDbSymbolTableRecord
100
AcDbLayerTableRecord
  2
AREA1
 70
     0
 62
    -7
  6
CONTINUOUS
  0
LAYER
  5
45940
102
{ACAD_XDICTIONARY
360
8A42B
102
}
100
AcDbSymbolTableRecord
100
AcDbLayerTableRecord
  2
DEFPOINTS
 70
     0
 62
    -7
  6
CONTINUOUS
  0
LAYER
  5
45954
100
AcDbSymbolTableRecord
100
AcDbLayerTableRecord
  2
SCALE
 70
     0
 62
    -7
  6
CONTINUOUS
  0
LAYER
  5
4D59A
100
AcDbSymbolTableRecord
100
AcDbLayerTableRecord
  2
SNAP_POINTS
 70
     0
 62
    -1
  6
CONTINUOUS
  0
ENDTAB
  0
TABLE
  2
STYLE
  5
458C2
100
AcDbSymbolTable
 70
     1
  0
STYLE
  5
458CE
100
AcDbSymbolTableRecord
100
AcDbTextStyleTableRecord
  2
STANDARD
 70
     0
 40
0.0
 41
1.0
 50
0.0
 71
     0
 42
0.12
  3
txt
  4

  0
ENDTAB
  0
TABLE
  2
VIEW
  5
458C5
100
AcDbSymbolTable
 70
     0
  0
ENDTAB
  0
TABLE
  2
UCS
  5
458C6
100
AcDbSymbolTable
 70
     0
  0
ENDTAB
  0
TABLE
  2
APPID
  5
458C8
100
AcDbSymbolTable
 70
     2
  0
APPID
  5
458CF
100
AcDbSymbolTableRecord
100
AcDbRegAppTableRecord
  2
ACAD
 70
     0
  0
APPID
  5
5FD5B
100
AcDbSymbolTableRecord
100
AcDbRegAppTableRecord
  2
AVE_RENDER
 70
     0
  0
ENDTAB
  0
TABLE
  2
DIMSTYLE
  5
458C9
100
AcDbSymbolTable
 70
     1
  0
DIMSTYLE
105
458F6
102
{ACAD_XDICTIONARY
360
8A452
102
}
102
{ACAD_REACTORS
330
8A3BF
330
8A3CD
102
}
100
AcDbSymbolTableRecord
100
AcDbDimStyleTableRecord
  2
ABECAD_3D
 70
     0
  3

  4

  5

  6

  7

 40
1.0
 41
0.2
 42
0.1
 43
0.375
 44
0.1
 45
0.0
 46
0.0
 47
0.0
 48
0.0
140
0.2
141
0.09
142
0.0
143
25.4
144
1.0
145
0.0
146
1.5
147
0.09
 71
     0
 72
     0
 73
     0
 74
     1
 75
     0
 76
     0
 77
     0
 78
     4
170
     1
171
     2
172
     0
173
     0
174
     0
175
     0
176
     0
177
     0
178
     0
270
     7
271
     6
272
     6
273
     2
274
     2
340
458CE
275
     0
280
     0
281
     0
282
     0
283
     1
284
     4
285
     4
286
     4
287
     5
288
     1
  0
ENDTAB
  0
TABLE
  2
BLOCK_RECORD
  5
458C0
100
AcDbSymbolTable
 70
     2
  0
BLOCK_RECORD
  5
458D6
102
{ACAD_XDICTIONARY
360
4592C
102
}
100
AcDbSymbolTableRecord
100
AcDbBlockTableRecord
  2
*MODEL_SPACE
  0
BLOCK_RECORD
  5
458D3
102
{ACAD_XDICTIONARY
360
4592A
102
}
100
AcDbSymbolTableRecord
100
AcDbBlockTableRecord
  2
*PAPER_SPACE
  0
BLOCK_RECORD
  5
8A3C0
100
AcDbSymbolTableRecord
100
AcDbBlockTableRecord
  2
*D0
  0
BLOCK_RECORD
  5
8A3CE
100
AcDbSymbolTableRecord
100
AcDbBlockTableRecord
  2
*D1
  0
ENDTAB
  0
ENDSEC
  0
SECTION
  2
BLOCKS
  0
BLOCK
  5
458DF
100
AcDbEntity
  8
0
100
AcDbBlockBegin
  2
*MODEL_SPACE
 70
     0
 10
0.0
 20
0.0
 30
0.0
  3
*MODEL_SPACE
  1

  0
ENDBLK
  5
458E0
100
AcDbEntity
  8
0
100
AcDbBlockEnd
  0
BLOCK
  5
458DD
100
AcDbEntity
 67
     1
  8
0
100
AcDbBlockBegin
  2
*PAPER_SPACE
 70
     0
 10
0.0
 20
0.0
 30
0.0
  3
*PAPER_SPACE
  1

  0
ENDBLK
  5
458DE
100
AcDbEntity
 67
     1
  8
0
100
AcDbBlockEnd
  0
BLOCK
  5
8A3CB
100
AcDbEntity
  8
0
100
AcDbBlockBegin
  2
*D0
 70
     1
 10
0.0
 20
0.0
 30
0.0
  3
*D0
  1

  0
LINE
  5
8A3C1
100
AcDbEntity
  8
AREA1
 62
     0
100
AcDbLine
 10
-1.45
 20
0.28
 30
0.0
 11
-3.408267
 21
0.28
 31
0.0
1001
ACAD
1000
RTLwPs
1070
   158
  0
LINE
  5
8A3C2
100
AcDbEntity
  8
AREA1
 62
     0
100
AcDbLine
 10
-1.41
 20
-8.88
 30
0.0
 11
-3.408267
 21
-8.88
 31
0.0
1001
ACAD
1000
RTLwPs
1070
   158
  0
LINE
  5
8A3C3
100
AcDbEntity
  8
AREA1
 62
     0
100
AcDbLine
 10
-3.308267
 20
0.08
 30
0.0
 11
-3.308267
 21
-3.010069
 31
0.0
1001
ACAD
1000
RTLwPs
1070
   158
  0
LINE
  5
8A3C4
100
AcDbEntity
  8
AREA1
 62
     0
100
AcDbLine
 10
-3.308267
 20
-8.68
 30
0.0
 11
-3.308267
 21
-5.856736
 31
0.0
1001
ACAD
1000
RTLwPs
1070
   158
  0
MTEXT
  5
8A3C5
100
AcDbEntity
  8
AREA1
 62
     0
100
AcDbMText
 10
-3.308267
 20
-4.433403
 30
0.0
 40
0.2
 41
0.0
 71
     5
 72
     1
  1
\A1;9 5/32 [232.66]
 11
0.0
 21
1.0
 31
0.0
1001
ACAD
1000
MTEXTBEGIN
1070
    73
1070
     1
1070
    44
1040
1.0
1070
    74
1070
     0
1000
MTEXTEND
1000
MTEXTBEGIN
1070
    73
1070
     1
1070
    44
1040
1.0
1070
    74
1070
     0
1000
MTEXTEND
  0
SOLID
  5
8A3C6
100
AcDbEntity
  8
AREA1
 62
     0
100
AcDbTrace
 10
-3.341601
 20
0.08
 30
0.0
 11
-3.274934
 21
0.08
 31
0.0
 12
-3.308267
 22
0.28
 32
0.0
 13
-3.308267
 23
0.28
 33
0.0
  0
SOLID
  5
8A3C7
100
AcDbEntity
  8
AREA1
 62
     0
100
AcDbTrace
 10
-3.341601
 20
-8.68
 30
0.0
 11
-3.274934
 21
-8.68
 31
0.0
 12
-3.308267
 22
-8.88
 32
0.0
 13
-3.308267
 23
-8.88
 33
0.0
  0
POINT
  5
8A3C8
100
AcDbEntity
  8
DEFPOINTS
 62
     0
100
AcDbPoint
 10
-1.35
 20
0.28
 30
0.0
  0
POINT
  5
8A3C9
100
AcDbEntity
  8
DEFPOINTS
 62
     0
100
AcDbPoint
 10
-1.31
 20
-8.88
 30
2.06
  0
POINT
  5
8A3CA
100
AcDbEntity
  8
DEFPOINTS
 62
     0
100
AcDbPoint
 10
-3.308267
 20
-8.88
 30
0.0
  0
ENDBLK
  5
8A3CC
100
AcDbEntity
  8
0
100
AcDbBlockEnd
  0
BLOCK
  5
8A3D9
100
AcDbEntity
  8
0
100
AcDbBlockBegin
  2
*D1
 70
     1
 10
0.0
 20
0.0
 30
0.0
  3
*D1
  1

  0
LINE
  5
8A3CF
100
AcDbEntity
  8
AREA1
 62
     0
100
AcDbLine
 10
-1.97
 20
-0.24
 30
0.0
 11
-1.97
 21
1.299149
 31
0.0
1001
ACAD
1000
RTLwPs
1070
   158
  0
LINE
  5
8A3D0
100
AcDbEntity
  8
AREA1
 62
     0
100
AcDbLine
 10
1.97
 20
-0.24
 30
0.0
 11
1.97
 21
1.299149
 31
0.0
1001
ACAD
1000
RTLwPs
1070
   158
  0
LINE
  5
8A3D1
100
AcDbEntity
  8
AREA1
 62
     0
100
AcDbLine
 10
-1.77
 20
1.199149
 30
0.0
 11
-1.417839
 21
1.199149
 31
0.0
1001
ACAD
1000
RTLwPs
1070
   158
  0
LINE
  5
8A3D2
100
AcDbEntity
  8
AREA1
 62
     0
100
AcDbLine
 10
1.77
 20
1.199149
 30
0.0
 11
1.328828
 21
1.199149
 31
0.0
1001
ACAD
1000
RTLwPs
1070
   158
  0
MTEXT
  5
8A3D3
100
AcDbEntity
  8
AREA1
 62
     0
100
AcDbMText
 10
-0.044506
 20
1.199149
 30
0.0
 40
0.2
 41
0.0
 71
     5
 72
     1
  1
\A1;3 15/16 [100.08]
1001
ACAD
1000
MTEXTBEGIN
1070
    73
1070
     1
1070
    44
1040
1.0
1070
    74
1070
     0
1000
MTEXTEND
1000
MTEXTBEGIN
1070
    73
1070
     1
1070
    44
1040
1.0
1070
    74
1070
     0
1000
MTEXTEND
  0
SOLID
  5
8A3D4
100
AcDbEntity
  8
AREA1
 62
     0
100
AcDbTrace
 10
-1.77
 20
1.232483
 30
0.0
 11
-1.77
 21
1.165816
 31
0.0
 12
-1.97
 22
1.199149
 32
0.0
 13
-1.97
 23
1.199149
 33
0.0
  0
SOLID
  5
8A3D5
100
AcDbEntity
  8
AREA1
 62
     0
100
AcDbTrace
 10
1.77
 20
1.232483
 30
0.0
 11
1.77
 21
1.165816
 31
0.0
 12
1.97
 22
1.199149
 32
0.0
 13
1.97
 23
1.199149
 33
0.0
  0
POINT
  5
8A3D6
100
AcDbEntity
  8
DEFPOINTS
 62
     0
100
AcDbPoint
 10
-1.97
 20
-0.34
 30
0.0
  0
POINT
  5
8A3D7
100
AcDbEntity
  8
DEFPOINTS
 62
     0
100
AcDbPoint
 10
1.97
 20
-0.34
 30
0.0
  0
POINT
  5
8A3D8
100
AcDbEntity
  8
DEFPOINTS
 62
     0
100
AcDbPoint
 10
1.97
 20
1.199149
 30
0.0
  0
ENDBLK
  5
8A3DA
100
AcDbEntity
  8
0
100
AcDbBlockEnd
  0
ENDSEC
  0
SECTION
  2
ENTITIES
  0
ARC
  5
8A0E6
100
AcDbEntity
  8
0
100
AcDbCircle
 10
0.0
 20
-0.343
 30
0.19
 40
0.234
100
AcDbArc
 50
115.299522
 51
64.70047
  0
ARC
  5
8A0E7
100
AcDbEntity
  8
0
100
AcDbCircle
 10
0.0
 20
-0.343
 30
0.0
 40
0.234
100
AcDbArc
 50
115.299522
 51
64.70047
  0
ARC
  5
8A0E8
100
AcDbEntity
  8
0
100
AcDbCircle
 10
0.0
 20
0.0
 30
0.0
 40
0.1
100
AcDbArc
 50
0.0
 51
179.999985
  0
ARC
  5
8A0E9
100
AcDbEntity
  8
0
100
AcDbCircle
 10
0.0
 20
0.0
 30
0.19
 40
0.1
100
AcDbArc
 50
0.0
 51
179.999985
  0
ARC
  5
8A0EA
100
AcDbEntity
  8
0
100
AcDbCircle
 10
-1.58
 20
-8.66
 30
0.19
 40
0.1
100
AcDbArc
 50
0.0
 51
179.999985
  0
ARC
  5
8A0EB
100
AcDbEntity
  8
0
100
AcDbCircle
 10
-1.58
 20
-8.66
 30
0.0
 40
0.1
100
AcDbArc
 50
0.0
 51
179.999985
  0
LINE
  5
8A0EC
100
AcDbEntity
  8
0
100
AcDbLine
 10
-1.48
 20
-8.87
 30
0.0
 11
-1.48
 21
-8.87
 31
0.19
  0
LINE
  5
8A0ED
100
AcDbEntity
  8
0
100
AcDbLine
 10
-1.48
 20
-8.66
 30
0.0
 11
-1.48
 21
-8.66
 31
0.19
  0
LINE
  5
8A0EE
100
AcDbEntity
  8
0
100
AcDbLine
 10
-1.68
 20
-8.66
 30
0.0
 11
-1.68
 21
-8.66
 31
0.19
  0
LINE
  5
8A0EF
100
AcDbEntity
  8
0
100
AcDbLine
 10
-1.68
 20
-8.87
 30
0.0
 11
-1.68
 21
-8.87
 31
0.19
  0
3DFACE
  5
8A0F0
100
AcDbEntity
  8
0
100
AcDbFace
 10
-1.48
 20
-8.66
 30
0.19
 11
-1.48
 21
-8.66
 31
0.0
 12
-1.48
 22
-8.87
 32
0.0
 13
-1.48
 23
-8.87
 33
0.19
 70
    14
  0
LINE
  5
8A0F1
100
AcDbEntity
  8
0
100
AcDbLine
 10
-1.68
 20
-8.66
 30
0.0
 11
-1.68
 21
-8.87
 31
0.0
  0
LINE
  5
8A0F2
100
AcDbEntity
  8
0
100
AcDbLine
 10
-1.48
 20
-8.87
 30
0.0
 11
-1.48
 21
-8.66
 31
0.0
  0
LINE
  5
8A0F3
100
AcDbEntity
  8
0
100
AcDbLine
 10
-1.68
 20
-8.66
 30
0.19
 11
-1.68
 21
-8.87
 31
0.19
  0
LINE
  5
8A0F4
100
AcDbEntity
  8
0
100
AcDbLine
 10
-1.48
 20
-8.87
 30
0.19
 11
-1.48
 21
-8.66
 31
0.19
  0
CIRCLE
  5
8A0F5
100
AcDbEntity
  8
0
100
AcDbCircle
 10
-1.06
 20
-8.63
 30
2.53
 40
0.155
  0
CIRCLE
  5
8A0F6
100
AcDbEntity
  8
0
100
AcDbCircle
 10
-1.06
 20
-8.63
 30
2.53
 40
0.125
  0
3DFACE
  5
8A0F7
100
AcDbEntity
  8
0
100
AcDbFace
 10
-0.66
 20
-6.28
 30
3.56
 11
-0.4
 21
-6.28
 31
3.56
 12
-0.4
 22
-6.28
 32
3.88
 13
-0.66
 23
-6.28
 33
3.88
 70
    14
  0
3DFACE
  5
8A0F8
100
AcDbEntity
  8
0
100
AcDbFace
 10
-0.4
 20
-6.54
 30
3.56
 11
-0.4
 21
-6.54
 31
3.88
 12
-0.66
 22
-6.54
 32
3.88
 13
-0.66
 23
-6.54
 33
3.56
 70
    14
  0
LINE
  5
8A0F9
100
AcDbEntity
  8
0
100
AcDbLine
 10
-0.66
 20
-6.28
 30
3.88
 11
-0.66
 21
-6.28
 31
3.56
  0
LINE
  5
8A0FA
100
AcDbEntity
  8
0
100
AcDbLine
 10
-0.66
 20
-6.54
 30
3.88
 11
-0.66
 21
-6.54
 31
3.56
  0
3DFACE
  5
8A0FB
100
AcDbEntity
  8
0
100
AcDbFace
 10
-0.66
 20
-6.54
 30
3.56
 11
-0.66
 21
-6.28
 31
3.56
 12
-0.66
 22
-6.28
 32
3.88
 13
-0.66
 23
-6.54
 33
3.88
 70
    14
  0
LINE
  5
8A0FC
100
AcDbEntity
  8
0
100
AcDbLine
 10
-0.4
 20
-6.28
 30
3.88
 11
-0.4
 21
-6.28
 31
3.56
  0
LINE
  5
8A0FD
100
AcDbEntity
  8
0
100
AcDbLine
 10
-0.4
 20
-6.54
 30
3.88
 11
-0.4
 21
-6.54
 31
3.56
  0
3DFACE
  5
8A0FE
100
AcDbEntity
  8
0
100
AcDbFace
 10
-0.4
 20
-6.28
 30
3.56
 11
-0.4
 21
-6.54
 31
3.56
 12
-0.4
 22
-6.54
 32
3.88
 13
-0.4
 23
-6.28
 33
3.88
 70
    14
  0
3DFACE
  5
8A0FF
100
AcDbEntity
  8
0
100
AcDbFace
 10
-0.4
 20
-6.28
 30
3.56
 11
-0.4
 21
-6.54
 31
3.56
 12
-0.4
 22
-6.54
 32
3.88
 13
-0.4
 23
-6.28
 33
3.88
 70
    14
  0
LINE
  5
8A100
100
AcDbEntity
  8
0
100
AcDbLine
 10
-0.4
 20
-6.28
 30
3.56
 11
-0.66
 21
-6.28
 31
3.56
  0
LINE
  5
8A101
100
AcDbEntity
  8
0
100
AcDbLine
 10
-0.66
 20
-6.54
 30
3.56
 11
-0.4
 21
-6.54
 31
3.56
  0
LINE
  5
8A102
100
AcDbEntity
  8
0
100
AcDbLine
 10
-0.66
 20
-6.28
 30
3.56
 11
-0.66
 21
-6.54
 31
3.56
  0
LINE
  5
8A103
100
AcDbEntity
  8
0
100
AcDbLine
 10
-0.4
 20
-6.54
 30
3.56
 11
-0.4
 21
-6.28
 31
3.56
  0
LINE
  5
8A104
100
AcDbEntity
  8
0
100
AcDbLine
 10
-0.22
 20
-6.035
 30
4.38
 11
-0.84
 21
-6.035
 31
4.38
  0
LINE
  5
8A105
100
AcDbEntity
  8
0
100
AcDbLine
 10
-0.22
 20
-6.035
 30
4.5
 11
-0.84
 21
-6.035
 31
4.5
  0
3DFACE
  5
8A106
100
AcDbEntity
  8
0
100
AcDbFace
 10
-0.22
 20
-6.035
 30
4.5
 11
-0.22
 21
-6.035
 31
4.38
 12
-0.84
 22
-6.035
 32
4.38
 13
-0.84
 23
-6.035
 33
4.5
 70
    14
  0
LINE
  5
8A107
100
AcDbEntity
  8
0
100
AcDbLine
 10
-0.28
 20
-6.16
 30
3.88
 11
-0.78
 21
-6.16
 31
3.88
  0
LINE
  5
8A108
100
AcDbEntity
  8
0
100
AcDbLine
 10
-0.4
 20
-6.28
 30
3.88
 11
-0.66
 21
-6.28
 31
3.88
  0
3DFACE
  5
8A109
100
AcDbEntity
  8
0
100
AcDbFace
 10
-0.22
 20
-6.035
 30
4.38
 11
-0.84
 21
-6.035
 31
4.38
 12
-0.78
 22
-6.16
 32
3.88
 13
-0.28
 23
-6.16
 33
3.88
 70
    14
  0
LINE
  5
8A10A
100
AcDbEntity
  8
0
100
AcDbLine
 10
-0.84
 20
-6.785
 30
4.38
 11
-0.22
 21
-6.785
 31
4.38
  0
LINE
  5
8A10B
100
AcDbEntity
  8
0
100
AcDbLine
 10
-0.84
 20
-6.785
 30
4.5
 11
-0.22
 21
-6.785
 31
4.5
  0
3DFACE
  5
8A10C
100
AcDbEntity
  8
0
100
AcDbFace
 10
-0.84
 20
-6.785
 30
4.38
 11
-0.22
 21
-6.785
 31
4.38
 12
-0.22
 22
-6.785
 32
4.5
 13
-0.84
 23
-6.785
 33
4.5
 70
    14
  0
LINE
  5
8A10D
100
AcDbEntity
  8
0
100
AcDbLine
 10
-0.78
 20
-6.66
 30
3.88
 11
-0.28
 21
-6.66
 31
3.88
  0
LINE
  5
8A10E
100
AcDbEntity
  8
0
100
AcDbLine
 10
-0.66
 20
-6.54
 30
3.88
 11
-0.4
 21
-6.54
 31
3.88
  0
3DFACE
  5
8A10F
100
AcDbEntity
  8
0
100
AcDbFace
 10
-0.78
 20
-6.66
 30
3.88
 11
-0.28
 21
-6.66
 31
3.88
 12
-0.22
 22
-6.785
 32
4.38
 13
-0.84
 23
-6.785
 33
4.38
 70
    14
  0
3DFACE
  5
8A110
100
AcDbEntity
  8
0
100
AcDbFace
 10
-0.22
 20
-6.785
 30
4.5
 11
-0.22
 21
-6.035
 31
4.5
 12
-0.84
 22
-6.035
 32
4.5
 13
-0.84
 23
-6.785
 33
4.5
 70
    14
  0
3DFACE
  5
8A111
100
AcDbEntity
  8
0
100
AcDbFace
 10
-0.78
 20
-6.66
 30
3.88
 11
-0.78
 21
-6.16
 31
3.88
 12
-0.84
 22
-6.035
 32
4.38
 13
-0.84
 23
-6.785
 33
4.38
 70
    14
  0
LINE
  5
8A112
100
AcDbEntity
  8
0
100
AcDbLine
 10
-0.78
 20
-6.16
 30
3.88
 11
-0.78
 21
-6.66
 31
3.88
  0
LINE
  5
8A113
100
AcDbEntity
  8
0
100
AcDbLine
 10
-0.84
 20
-6.035
 30
4.38
 11
-0.84
 21
-6.785
 31
4.38
  0
LINE
  5
8A114
100
AcDbEntity
  8
0
100
AcDbLine
 10
-0.84
 20
-6.035
 30
4.5
 11
-0.84
 21
-6.785
 31
4.5
  0
3DFACE
  5
8A115
100
AcDbEntity
  8
0
100
AcDbFace
 10
-0.84
 20
-6.785
 30
4.38
 11
-0.84
 21
-6.785
 31
4.5
 12
-0.84
 22
-6.035
 32
4.5
 13
-0.84
 23
-6.035
 33
4.38
 70
    14
  0
LINE
  5
8A116
100
AcDbEntity
  8
0
100
AcDbLine
 10
-0.66
 20
-6.28
 30
3.88
 11
-0.66
 21
-6.54
 31
3.88
  0
LINE
  5
8A117
100
AcDbEntity
  8
0
100
AcDbLine
 10
-0.84
 20
-6.785
 30
4.38
 11
-0.78
 21
-6.66
 31
3.88
  0
LINE
  5
8A118
100
AcDbEntity
  8
0
100
AcDbLine
 10
-0.84
 20
-6.785
 30
4.5
 11
-0.84
 21
-6.785
 31
4.38
  0
LINE
  5
8A119
100
AcDbEntity
  8
0
100
AcDbLine
 10
-0.84
 20
-6.035
 30
4.38
 11
-0.78
 21
-6.16
 31
3.88
  0
LINE
  5
8A11A
100
AcDbEntity
  8
0
100
AcDbLine
 10
-0.84
 20
-6.035
 30
4.5
 11
-0.84
 21
-6.035
 31
4.38
  0
LINE
  5
8A11B
100
AcDbEntity
  8
0
100
AcDbLine
 10
-0.4
 20
-6.54
 30
3.88
 11
-0.4
 21
-6.28
 31
3.88
  0
3DFACE
  5
8A11C
100
AcDbEntity
  8
0
100
AcDbFace
 10
-0.22
 20
-6.035
 30
4.38
 11
-0.28
 21
-6.16
 31
3.88
 12
-0.28
 22
-6.66
 32
3.88
 13
-0.22
 23
-6.785
 33
4.38
 70
    14
  0
LINE
  5
8A11D
100
AcDbEntity
  8
0
100
AcDbLine
 10
-0.28
 20
-6.66
 30
3.88
 11
-0.28
 21
-6.16
 31
3.88
  0
LINE
  5
8A11E
100
AcDbEntity
  8
0
100
AcDbLine
 10
-0.22
 20
-6.785
 30
4.38
 11
-0.22
 21
-6.035
 31
4.38
  0
LINE
  5
8A11F
100
AcDbEntity
  8
0
100
AcDbLine
 10
-0.22
 20
-6.785
 30
4.5
 11
-0.22
 21
-6.035
 31
4.5
  0
3DFACE
  5
8A120
100
AcDbEntity
  8
0
100
AcDbFace
 10
-0.22
 20
-6.785
 30
4.5
 11
-0.22
 21
-6.035
 31
4.5
 12
-0.22
 22
-6.035
 32
4.38
 13
-0.22
 23
-6.785
 33
4.38
 70
    14
  0
LINE
  5
8A121
100
AcDbEntity
  8
0
100
AcDbLine
 10
-0.22
 20
-6.785
 30
4.38
 11
-0.28
 21
-6.66
 31
3.88
  0
LINE
  5
8A122
100
AcDbEntity
  8
0
100
AcDbLine
 10
-0.22
 20
-6.785
 30
4.5
 11
-0.22
 21
-6.785
 31
4.38
  0
LINE
  5
8A123
100
AcDbEntity
  8
0
100
AcDbLine
 10
-0.22
 20
-6.035
 30
4.38
 11
-0.28
 21
-6.16
 31
3.88
  0
LINE
  5
8A124
100
AcDbEntity
  8
0
100
AcDbLine
 10
-0.22
 20
-6.035
 30
4.5
 11
-0.22
 21
-6.035
 31
4.38
  0
LINE
  5
8A125
100
AcDbEntity
  8
0
100
AcDbLine
 10
-0.1
 20
0.0
 30
0.19
 11
-0.1
 21
-0.131444
 31
0.19
  0
LINE
  5
8A126
100
AcDbEntity
  8
0
100
AcDbLine
 10
-0.1
 20
0.0
 30
0.0
 11
-0.1
 21
-0.131444
 31
0.0
  0
LINE
  5
8A127
100
AcDbEntity
  8
0
100
AcDbLine
 10
-0.1
 20
-0.131444
 30
0.0
 11
-0.1
 21
-0.131444
 31
0.19
  0
LINE
  5
8A128
100
AcDbEntity
  8
0
100
AcDbLine
 10
-0.1
 20
0.0
 30
0.0
 11
-0.1
 21
0.0
 31
0.19
  0
ARC
  5
8A129
100
AcDbEntity
  8
0
100
AcDbCircle
 10
1.58
 20
-8.66
 30
0.19
 40
0.1
100
AcDbArc
 50
0.0
 51
179.999985
  0
ARC
  5
8A12A
100
AcDbEntity
  8
0
100
AcDbCircle
 10
1.58
 20
-8.66
 30
0.0
 40
0.1
100
AcDbArc
 50
0.0
 51
179.999985
  0
LINE
  5
8A12B
100
AcDbEntity
  8
0
100
AcDbLine
 10
1.68
 20
-8.87
 30
0.0
 11
1.68
 21
-8.87
 31
0.19
  0
LINE
  5
8A12C
100
AcDbEntity
  8
0
100
AcDbLine
 10
1.68
 20
-8.66
 30
0.0
 11
1.68
 21
-8.66
 31
0.19
  0
LINE
  5
8A12D
100
AcDbEntity
  8
0
100
AcDbLine
 10
1.48
 20
-8.66
 30
0.0
 11
1.48
 21
-8.66
 31
0.19
  0
LINE
  5
8A12E
100
AcDbEntity
  8
0
100
AcDbLine
 10
1.48
 20
-8.87
 30
0.0
 11
1.48
 21
-8.87
 31
0.19
  0
3DFACE
  5
8A12F
100
AcDbEntity
  8
0
100
AcDbFace
 10
1.68
 20
-8.66
 30
0.19
 11
1.68
 21
-8.66
 31
0.0
 12
1.68
 22
-8.87
 32
0.0
 13
1.68
 23
-8.87
 33
0.19
 70
    14
  0
LINE
  5
8A130
100
AcDbEntity
  8
0
100
AcDbLine
 39
0.19
 10
1.48
 20
-8.66
 30
0.0
 11
1.48
 21
-8.87
 31
0.0
  0
LINE
  5
8A131
100
AcDbEntity
  8
0
100
AcDbLine
 10
1.68
 20
-8.87
 30
0.0
 11
1.68
 21
-8.66
 31
0.0
  0
LINE
  5
8A132
100
AcDbEntity
  8
0
100
AcDbLine
 10
1.48
 20
-8.66
 30
0.19
 11
1.48
 21
-8.87
 31
0.19
  0
LINE
  5
8A133
100
AcDbEntity
  8
0
100
AcDbLine
 10
1.68
 20
-8.87
 30
0.19
 11
1.68
 21
-8.66
 31
0.19
  0
LINE
  5
8A134
100
AcDbEntity
  8
0
100
AcDbLine
 10
0.1
 20
0.0
 30
0.19
 11
0.1
 21
-0.131444
 31
0.19
  0
LINE
  5
8A135
100
AcDbEntity
  8
0
100
AcDbLine
 10
0.1
 20
0.0
 30
0.0
 11
0.1
 21
-0.131444
 31
0.0
  0
CIRCLE
  5
8A136
100
AcDbEntity
  8
0
100
AcDbCircle
 10
0.38
 20
0.0
 30
0.19
 40
0.1015
  0
CIRCLE
  5
8A137
100
AcDbEntity
  8
0
100
AcDbCircle
 10
0.38
 20
0.0
 30
0.0
 40
0.1015
  0
LINE
  5
8A138
100
AcDbEntity
  8
0
100
AcDbLine
 10
0.1
 20
-0.131444
 30
0.0
 11
0.1
 21
-0.131444
 31
0.19
  0
LINE
  5
8A139
100
AcDbEntity
  8
0
100
AcDbLine
 10
0.1
 20
0.0
 30
0.0
 11
0.1
 21
0.0
 31
0.19
  0
LINE
  5
8A13A
100
AcDbEntity
  8
0
100
AcDbLine
 10
0.4815
 20
0.0
 30
0.0
 11
0.4815
 21
0.0
 31
0.19
  0
CIRCLE
  5
8A13B
100
AcDbEntity
  8
0
100
AcDbCircle
 10
-0.47
 20
-4.04
 30
4.32
 40
0.095
  0
LINE
  5
8A13C
100
AcDbEntity
  8
0
100
AcDbLine
 10
-0.490713
 20
-3.947285
 30
4.32
 11
-0.438826
 21
-4.12974
 31
4.32
  0
LINE
  5
8A13D
100
AcDbEntity
  8
0
100
AcDbLine
 10
-0.502227
 20
-3.950356
 30
4.32
 11
-0.450339
 21
-4.13281
 31
4.32
  0
CIRCLE
  5
8A13E
100
AcDbEntity
  8
0
100
AcDbCircle
 10
0.47
 20
-4.04
 30
4.32
 40
0.095
  0
LINE
  5
8A13F
100
AcDbEntity
  8
0
100
AcDbLine
 10
0.449287
 20
-3.947285
 30
4.32
 11
0.501174
 21
-4.12974
 31
4.32
  0
LINE
  5
8A140
100
AcDbEntity
  8
0
100
AcDbLine
 10
0.437773
 20
-3.950356
 30
4.32
 11
0.489661
 21
-4.13281
 31
4.32
  0
CIRCLE
  5
8A141
100
AcDbEntity
  8
0
100
AcDbCircle
 10
1.06
 20
-0.54
 30
4.47
 40
0.155
  0
CIRCLE
  5
8A142
100
AcDbEntity
  8
0
100
AcDbCircle
 10
1.06
 20
-0.54
 30
4.47
 40
0.125
  0
LINE
  5
8A143
100
AcDbEntity
  8
0
100
AcDbLine
 10
-1.91
 20
-2.69
 30
3.69
 11
-1.91
 21
-0.91
 31
3.69
  0
LINE
  5
8A144
100
AcDbEntity
  8
0
100
AcDbLine
 10
-1.91
 20
-1.6
 30
3.83
 11
-1.91
 21
-1.6
 31
3.69
  0
POLYLINE
  5
8A145
100
AcDbEntity
  8
0
100
AcDbPolygonMesh
 66
     1
 10
0.0
 20
0.0
 30
0.0
 70
    16
 71
     6
 72
     3
  0
VERTEX
  5
8A146
100
AcDbEntity
  8
0
100
AcDbVertex
100
AcDbPolygonMeshVertex
 10
1.91
 20
-6.07
 30
2.89
 70
    64
  0
VERTEX
  5
8A147
100
AcDbEntity
  8
0
100
AcDbVertex
100
AcDbPolygonMeshVertex
 10
1.91
 20
-6.07
 30
1.72
 70
    64
  0
VERTEX
  5
8A148
100
AcDbEntity
  8
0
100
AcDbVertex
100
AcDbPolygonMeshVertex
 10
1.91
 20
-6.07
 30
1.72
 70
    64
  0
VERTEX
  5
8A149
100
AcDbEntity
  8
0
100
AcDbVertex
100
AcDbPolygonMeshVertex
 10
-1.91
 20
-6.07
 30
2.89
 70
    64
  0
VERTEX
  5
8A14A
100
AcDbEntity
  8
0
100
AcDbVertex
100
AcDbPolygonMeshVertex
 10
-1.91
 20
-6.07
 30
1.72
 70
    64
  0
VERTEX
  5
8A14B
100
AcDbEntity
  8
0
100
AcDbVertex
100
AcDbPolygonMeshVertex
 10
-1.91
 20
-6.07
 30
1.72
 70
    64
  0
VERTEX
  5
8A14C
100
AcDbEntity
  8
0
100
AcDbVertex
100
AcDbPolygonMeshVertex
 10
-1.91
 20
-5.59
 30
2.89
 70
    64
  0
VERTEX
  5
8A14D
100
AcDbEntity
  8
0
100
AcDbVertex
100
AcDbPolygonMeshVertex
 10
-1.91
 20
-5.59
 30
1.72
 70
    64
  0
VERTEX
  5
8A14E
100
AcDbEntity
  8
0
100
AcDbVertex
100
AcDbPolygonMeshVertex
 10
-1.91
 20
-6.07
 30
1.72
 70
    64
  0
VERTEX
  5
8A14F
100
AcDbEntity
  8
0
100
AcDbVertex
100
AcDbPolygonMeshVertex
 10
1.91
 20
-5.59
 30
2.89
 70
    64
  0
VERTEX
  5
8A150
100
AcDbEntity
  8
0
100
AcDbVertex
100
AcDbPolygonMeshVertex
 10
1.91
 20
-5.59
 30
1.72
 70
    64
  0
VERTEX
  5
8A151
100
AcDbEntity
  8
0
100
AcDbVertex
100
AcDbPolygonMeshVertex
 10
1.91
 20
-6.07
 30
1.72
 70
    64
  0
VERTEX
  5
8A152
100
AcDbEntity
  8
0
100
AcDbVertex
100
AcDbPolygonMeshVertex
 10
1.91
 20
-5.59
 30
2.89
 70
    64
  0
VERTEX
  5
8A153
100
AcDbEntity
  8
0
100
AcDbVertex
100
AcDbPolygonMeshVertex
 10
1.91
 20
-5.59
 30
2.89
 70
    64
  0
VERTEX
  5
8A154
100
AcDbEntity
  8
0
100
AcDbVertex
100
AcDbPolygonMeshVertex
 10
1.91
 20
-6.07
 30
2.89
 70
    64
  0
VERTEX
  5
8A155
100
AcDbEntity
  8
0
100
AcDbVertex
100
AcDbPolygonMeshVertex
 10
-1.91
 20
-5.59
 30
2.89
 70
    64
  0
VERTEX
  5
8A156
100
AcDbEntity
  8
0
100
AcDbVertex
100
AcDbPolygonMeshVertex
 10
-1.91
 20
-5.59
 30
2.89
 70
    64
  0
VERTEX
  5
8A157
100
AcDbEntity
  8
0
100
AcDbVertex
100
AcDbPolygonMeshVertex
 10
-1.91
 20
-6.07
 30
2.89
 70
    64
  0
SEQEND
  5
8A158
100
AcDbEntity
  8
0
  0
POLYLINE
  5
8A159
100
AcDbEntity
  8
0
100
AcDbPolygonMesh
 66
     1
 10
0.0
 20
0.0
 30
0.0
 70
    16
 71
     6
 72
     3
  0
VERTEX
  5
8A15A
100
AcDbEntity
  8
0
100
AcDbVertex
100
AcDbPolygonMeshVertex
 10
-1.91
 20
-5.59
 30
0.19
 70
    64
  0
VERTEX
  5
8A15B
100
AcDbEntity
  8
0
100
AcDbVertex
100
AcDbPolygonMeshVertex
 10
-1.91
 20
-5.59
 30
0.19
 70
    64
  0
VERTEX
  5
8A15C
100
AcDbEntity
  8
0
100
AcDbVertex
100
AcDbPolygonMeshVertex
 10
-1.91
 20
-5.59
 30
0.19
 70
    64
  0
VERTEX
  5
8A15D
100
AcDbEntity
  8
0
100
AcDbVertex
100
AcDbPolygonMeshVertex
 10
-1.91
 20
-6.07
 30
1.72
 70
    64
  0
VERTEX
  5
8A15E
100
AcDbEntity
  8
0
100
AcDbVertex
100
AcDbPolygonMeshVertex
 10
-1.91
 20
-5.59
 30
1.72
 70
    64
  0
VERTEX
  5
8A15F
100
AcDbEntity
  8
0
100
AcDbVertex
100
AcDbPolygonMeshVertex
 10
-1.91
 20
-5.59
 30
1.72
 70
    64
  0
VERTEX
  5
8A160
100
AcDbEntity
  8
0
100
AcDbVertex
100
AcDbPolygonMeshVertex
 10
1.91
 20
-6.07
 30
1.72
 70
    64
  0
VERTEX
  5
8A161
100
AcDbEntity
  8
0
100
AcDbVertex
100
AcDbPolygonMeshVertex
 10
1.91
 20
-5.59
 30
1.72
 70
    64
  0
VERTEX
  5
8A162
100
AcDbEntity
  8
0
100
AcDbVertex
100
AcDbPolygonMeshVertex
 10
-1.91
 20
-5.59
 30
1.72
 70
    64
  0
VERTEX
  5
8A163
100
AcDbEntity
  8
0
100
AcDbVertex
100
AcDbPolygonMeshVertex
 10
1.91
 20
-5.59
 30
0.19
 70
    64
  0
VERTEX
  5
8A164
100
AcDbEntity
  8
0
100
AcDbVertex
100
AcDbPolygonMeshVertex
 10
1.91
 20
-5.59
 30
0.19
 70
    64
  0
VERTEX
  5
8A165
100
AcDbEntity
  8
0
100
AcDbVertex
100
AcDbPolygonMeshVertex
 10
-1.91
 20
-5.59
 30
0.19
 70
    64
  0
VERTEX
  5
8A166
100
AcDbEntity
  8
0
100
AcDbVertex
100
AcDbPolygonMeshVertex
 10
1.91
 20
-5.59
 30
0.19
 70
    64
  0
VERTEX
  5
8A167
100
AcDbEntity
  8
0
100
AcDbVertex
100
AcDbPolygonMeshVertex
 10
1.91
 20
-5.59
 30
0.19
 70
    64
  0
VERTEX
  5
8A168
100
AcDbEntity
  8
0
100
AcDbVertex
100
AcDbPolygonMeshVertex
 10
-1.91
 20
-5.59
 30
0.19
 70
    64
  0
VERTEX
  5
8A169
100
AcDbEntity
  8
0
100
AcDbVertex
100
AcDbPolygonMeshVertex
 10
1.91
 20
-6.07
 30
1.72
 70
    64
  0
VERTEX
  5
8A16A
100
AcDbEntity
  8
0
100
AcDbVertex
100
AcDbPolygonMeshVertex
 10
1.91
 20
-6.07
 30
1.72
 70
    64
  0
VERTEX
  5
8A16B
100
AcDbEntity
  8
0
100
AcDbVertex
100
AcDbPolygonMeshVertex
 10
-1.91
 20
-6.07
 30
1.72
 70
    64
  0
SEQEND
  5
8A16C
100
AcDbEntity
  8
0
  0
POLYLINE
  5
8A16D
100
AcDbEntity
  8
0
100
AcDbPolygonMesh
 66
     1
 10
0.0
 20
0.0
 30
0.0
 70
    16
 71
     6
 72
     3
  0
VERTEX
  5
8A16E
100
AcDbEntity
  8
0
100
AcDbVertex
100
AcDbPolygonMeshVertex
 10
1.91
 20
-5.59
 30
3.69
 70
    64
  0
VERTEX
  5
8A16F
100
AcDbEntity
  8
0
100
AcDbVertex
100
AcDbPolygonMeshVertex
 10
1.91
 20
-5.59
 30
0.19
 70
    64
  0
VERTEX
  5
8A170
100
AcDbEntity
  8
0
100
AcDbVertex
100
AcDbPolygonMeshVertex
 10
1.91
 20
-5.59
 30
0.19
 70
    64
  0
VERTEX
  5
8A171
100
AcDbEntity
  8
0
100
AcDbVertex
100
AcDbPolygonMeshVertex
 10
-1.91
 20
-5.59
 30
3.69
 70
    64
  0
VERTEX
  5
8A172
100
AcDbEntity
  8
0
100
AcDbVertex
100
AcDbPolygonMeshVertex
 10
-1.91
 20
-5.59
 30
0.19
 70
    64
  0
VERTEX
  5
8A173
100
AcDbEntity
  8
0
100
AcDbVertex
100
AcDbPolygonMeshVertex
 10
-1.91
 20
-5.59
 30
0.19
 70
    64
  0
VERTEX
  5
8A174
100
AcDbEntity
  8
0
100
AcDbVertex
100
AcDbPolygonMeshVertex
 10
-1.91
 20
-0.91
 30
3.69
 70
    64
  0
VERTEX
  5
8A175
100
AcDbEntity
  8
0
100
AcDbVertex
100
AcDbPolygonMeshVertex
 10
-1.91
 20
-0.91
 30
0.19
 70
    64
  0
VERTEX
  5
8A176
100
AcDbEntity
  8
0
100
AcDbVertex
100
AcDbPolygonMeshVertex
 10
-1.91
 20
-5.59
 30
0.19
 70
    64
  0
VERTEX
  5
8A177
100
AcDbEntity
  8
0
100
AcDbVertex
100
AcDbPolygonMeshVertex
 10
1.91
 20
-0.91
 30
3.69
 70
    64
  0
VERTEX
  5
8A178
100
AcDbEntity
  8
0
100
AcDbVertex
100
AcDbPolygonMeshVertex
 10
1.91
 20
-0.91
 30
0.19
 70
    64
  0
VERTEX
  5
8A179
100
AcDbEntity
  8
0
100
AcDbVertex
100
AcDbPolygonMeshVertex
 10
1.91
 20
-5.59
 30
0.19
 70
    64
  0
VERTEX
  5
8A17A
100
AcDbEntity
  8
0
100
AcDbVertex
100
AcDbPolygonMeshVertex
 10
1.91
 20
-0.91
 30
3.69
 70
    64
  0
VERTEX
  5
8A17B
100
AcDbEntity
  8
0
100
AcDbVertex
100
AcDbPolygonMeshVertex
 10
1.91
 20
-0.91
 30
3.69
 70
    64
  0
VERTEX
  5
8A17C
100
AcDbEntity
  8
0
100
AcDbVertex
100
AcDbPolygonMeshVertex
 10
1.91
 20
-5.59
 30
3.69
 70
    64
  0
VERTEX
  5
8A17D
100
AcDbEntity
  8
0
100
AcDbVertex
100
AcDbPolygonMeshVertex
 10
-1.91
 20
-0.91
 30
3.69
 70
    64
  0
VERTEX
  5
8A17E
100
AcDbEntity
  8
0
100
AcDbVertex
100
AcDbPolygonMeshVertex
 10
-1.91
 20
-0.91
 30
3.69
 70
    64
  0
VERTEX
  5
8A17F
100
AcDbEntity
  8
0
100
AcDbVertex
100
AcDbPolygonMeshVertex
 10
-1.91
 20
-5.59
 30
3.69
 70
    64
  0
SEQEND
  5
8A180
100
AcDbEntity
  8
0
  0
POLYLINE
  5
8A181
100
AcDbEntity
  8
0
100
AcDbPolygonMesh
 66
     1
 10
0.0
 20
0.0
 30
0.0
 70
    16
 71
     6
 72
     3
  0
VERTEX
  5
8A182
100
AcDbEntity
  8
0
100
AcDbVertex
100
AcDbPolygonMeshVertex
 10
1.91
 20
-2.69
 30
3.83
 70
    64
  0
VERTEX
  5
8A183
100
AcDbEntity
  8
0
100
AcDbVertex
100
AcDbPolygonMeshVertex
 10
1.91
 20
-2.69
 30
3.69
 70
    64
  0
VERTEX
  5
8A184
100
AcDbEntity
  8
0
100
AcDbVertex
100
AcDbPolygonMeshVertex
 10
1.91
 20
-2.69
 30
3.69
 70
    64
  0
VERTEX
  5
8A185
100
AcDbEntity
  8
0
100
AcDbVertex
100
AcDbPolygonMeshVertex
 10
-1.91
 20
-2.69
 30
3.83
 70
    64
  0
VERTEX
  5
8A186
100
AcDbEntity
  8
0
100
AcDbVertex
100
AcDbPolygonMeshVertex
 10
-1.91
 20
-2.69
 30
3.69
 70
    64
  0
VERTEX
  5
8A187
100
AcDbEntity
  8
0
100
AcDbVertex
100
AcDbPolygonMeshVertex
 10
-1.91
 20
-2.69
 30
3.69
 70
    64
  0
VERTEX
  5
8A188
100
AcDbEntity
  8
0
100
AcDbVertex
100
AcDbPolygonMeshVertex
 10
-1.91
 20
-1.6
 30
3.83
 70
    64
  0
VERTEX
  5
8A189
100
AcDbEntity
  8
0
100
AcDbVertex
100
AcDbPolygonMeshVertex
 10
-1.91
 20
-1.6
 30
3.69
 70
    64
  0
VERTEX
  5
8A18A
100
AcDbEntity
  8
0
100
AcDbVertex
100
AcDbPolygonMeshVertex
 10
-1.91
 20
-2.69
 30
3.69
 70
    64
  0
VERTEX
  5
8A18B
100
AcDbEntity
  8
0
100
AcDbVertex
100
AcDbPolygonMeshVertex
 10
1.91
 20
-1.6
 30
3.83
 70
    64
  0
VERTEX
  5
8A18C
100
AcDbEntity
  8
0
100
AcDbVertex
100
AcDbPolygonMeshVertex
 10
1.91
 20
-1.6
 30
3.69
 70
    64
  0
VERTEX
  5
8A18D
100
AcDbEntity
  8
0
100
AcDbVertex
100
AcDbPolygonMeshVertex
 10
1.91
 20
-2.69
 30
3.69
 70
    64
  0
VERTEX
  5
8A18E
100
AcDbEntity
  8
0
100
AcDbVertex
100
AcDbPolygonMeshVertex
 10
1.91
 20
-1.6
 30
3.83
 70
    64
  0
VERTEX
  5
8A18F
100
AcDbEntity
  8
0
100
AcDbVertex
100
AcDbPolygonMeshVertex
 10
1.91
 20
-1.6
 30
3.83
 70
    64
  0
VERTEX
  5
8A190
100
AcDbEntity
  8
0
100
AcDbVertex
100
AcDbPolygonMeshVertex
 10
1.91
 20
-2.69
 30
3.83
 70
    64
  0
VERTEX
  5
8A191
100
AcDbEntity
  8
0
100
AcDbVertex
100
AcDbPolygonMeshVertex
 10
-1.91
 20
-1.6
 30
3.83
 70
    64
  0
VERTEX
  5
8A192
100
AcDbEntity
  8
0
100
AcDbVertex
100
AcDbPolygonMeshVertex
 10
-1.91
 20
-1.6
 30
3.83
 70
    64
  0
VERTEX
  5
8A193
100
AcDbEntity
  8
0
100
AcDbVertex
100
AcDbPolygonMeshVertex
 10
-1.91
 20
-2.69
 30
3.83
 70
    64
  0
SEQEND
  5
8A194
100
AcDbEntity
  8
0
  0
POLYLINE
  5
8A195
100
AcDbEntity
  8
0
100
AcDbPolygonMesh
 66
     1
 10
0.0
 20
0.0
 30
0.0
 70
    16
 71
     6
 72
     3
  0
VERTEX
  5
8A196
100
AcDbEntity
  8
0
100
AcDbVertex
100
AcDbPolygonMeshVertex
 10
1.91
 20
-1.6
 30
4.0
 70
    64
  0
VERTEX
  5
8A197
100
AcDbEntity
  8
0
100
AcDbVertex
100
AcDbPolygonMeshVertex
 10
1.91
 20
-1.6
 30
3.69
 70
    64
  0
VERTEX
  5
8A198
100
AcDbEntity
  8
0
100
AcDbVertex
100
AcDbPolygonMeshVertex
 10
1.91
 20
-1.6
 30
3.69
 70
    64
  0
VERTEX
  5
8A199
100
AcDbEntity
  8
0
100
AcDbVertex
100
AcDbPolygonMeshVertex
 10
-1.91
 20
-1.6
 30
4.0
 70
    64
  0
VERTEX
  5
8A19A
100
AcDbEntity
  8
0
100
AcDbVertex
100
AcDbPolygonMeshVertex
 10
-1.91
 20
-1.6
 30
3.69
 70
    64
  0
VERTEX
  5
8A19B
100
AcDbEntity
  8
0
100
AcDbVertex
100
AcDbPolygonMeshVertex
 10
-1.91
 20
-1.6
 30
3.69
 70
    64
  0
VERTEX
  5
8A19C
100
AcDbEntity
  8
0
100
AcDbVertex
100
AcDbPolygonMeshVertex
 10
-1.91
 20
-0.91
 30
4.0
 70
    64
  0
VERTEX
  5
8A19D
100
AcDbEntity
  8
0
100
AcDbVertex
100
AcDbPolygonMeshVertex
 10
-1.91
 20
-0.91
 30
3.69
 70
    64
  0
VERTEX
  5
8A19E
100
AcDbEntity
  8
0
100
AcDbVertex
100
AcDbPolygonMeshVertex
 10
-1.91
 20
-1.6
 30
3.69
 70
    64
  0
VERTEX
  5
8A19F
100
AcDbEntity
  8
0
100
AcDbVertex
100
AcDbPolygonMeshVertex
 10
1.91
 20
-0.91
 30
4.0
 70
    64
  0
VERTEX
  5
8A1A0
100
AcDbEntity
  8
0
100
AcDbVertex
100
AcDbPolygonMeshVertex
 10
1.91
 20
-0.91
 30
3.69
 70
    64
  0
VERTEX
  5
8A1A1
100
AcDbEntity
  8
0
100
AcDbVertex
100
AcDbPolygonMeshVertex
 10
1.91
 20
-1.6
 30
3.69
 70
    64
  0
VERTEX
  5
8A1A2
100
AcDbEntity
  8
0
100
AcDbVertex
100
AcDbPolygonMeshVertex
 10
1.91
 20
-0.91
 30
4.0
 70
    64
  0
VERTEX
  5
8A1A3
100
AcDbEntity
  8
0
100
AcDbVertex
100
AcDbPolygonMeshVertex
 10
1.91
 20
-0.91
 30
4.0
 70
    64
  0
VERTEX
  5
8A1A4
100
AcDbEntity
  8
0
100
AcDbVertex
100
AcDbPolygonMeshVertex
 10
1.91
 20
-1.6
 30
4.0
 70
    64
  0
VERTEX
  5
8A1A5
100
AcDbEntity
  8
0
100
AcDbVertex
100
AcDbPolygonMeshVertex
 10
-1.91
 20
-0.91
 30
4.0
 70
    64
  0
VERTEX
  5
8A1A6
100
AcDbEntity
  8
0
100
AcDbVertex
100
AcDbPolygonMeshVertex
 10
-1.91
 20
-0.91
 30
4.0
 70
    64
  0
VERTEX
  5
8A1A7
100
AcDbEntity
  8
0
100
AcDbVertex
100
AcDbPolygonMeshVertex
 10
-1.91
 20
-1.6
 30
4.0
 70
    64
  0
SEQEND
  5
8A1A8
100
AcDbEntity
  8
0
  0
POLYLINE
  5
8A1A9
100
AcDbEntity
  8
0
100
AcDbPolygonMesh
 66
     1
 10
0.0
 20
0.0
 30
0.0
 70
    16
 71
     6
 72
     3
  0
VERTEX
  5
8A1AA
100
AcDbEntity
  8
0
100
AcDbVertex
100
AcDbPolygonMeshVertex
 10
0.94
 20
-4.53
 30
4.0
 70
    64
  0
VERTEX
  5
8A1AB
100
AcDbEntity
  8
0
100
AcDbVertex
100
AcDbPolygonMeshVertex
 10
0.94
 20
-4.53
 30
3.69
 70
    64
  0
VERTEX
  5
8A1AC
100
AcDbEntity
  8
0
100
AcDbVertex
100
AcDbPolygonMeshVertex
 10
0.94
 20
-4.53
 30
3.69
 70
    64
  0
VERTEX
  5
8A1AD
100
AcDbEntity
  8
0
100
AcDbVertex
100
AcDbPolygonMeshVertex
 10
-0.94
 20
-4.53
 30
4.0
 70
    64
  0
VERTEX
  5
8A1AE
100
AcDbEntity
  8
0
100
AcDbVertex
100
AcDbPolygonMeshVertex
 10
-0.94
 20
-4.53
 30
3.69
 70
    64
  0
VERTEX
  5
8A1AF
100
AcDbEntity
  8
0
100
AcDbVertex
100
AcDbPolygonMeshVertex
 10
-0.94
 20
-4.53
 30
3.69
 70
    64
  0
VERTEX
  5
8A1B0
100
AcDbEntity
  8
0
100
AcDbVertex
100
AcDbPolygonMeshVertex
 10
-0.94
 20
-3.7
 30
4.0
 70
    64
  0
VERTEX
  5
8A1B1
100
AcDbEntity
  8
0
100
AcDbVertex
100
AcDbPolygonMeshVertex
 10
-0.94
 20
-3.7
 30
3.69
 70
    64
  0
VERTEX
  5
8A1B2
100
AcDbEntity
  8
0
100
AcDbVertex
100
AcDbPolygonMeshVertex
 10
-0.94
 20
-4.53
 30
3.69
 70
    64
  0
VERTEX
  5
8A1B3
100
AcDbEntity
  8
0
100
AcDbVertex
100
AcDbPolygonMeshVertex
 10
0.94
 20
-3.7
 30
4.0
 70
    64
  0
VERTEX
  5
8A1B4
100
AcDbEntity
  8
0
100
AcDbVertex
100
AcDbPolygonMeshVertex
 10
0.94
 20
-3.7
 30
3.69
 70
    64
  0
VERTEX
  5
8A1B5
100
AcDbEntity
  8
0
100
AcDbVertex
100
AcDbPolygonMeshVertex
 10
0.94
 20
-4.53
 30
3.69
 70
    64
  0
VERTEX
  5
8A1B6
100
AcDbEntity
  8
0
100
AcDbVertex
100
AcDbPolygonMeshVertex
 10
0.94
 20
-3.7
 30
4.0
 70
    64
  0
VERTEX
  5
8A1B7
100
AcDbEntity
  8
0
100
AcDbVertex
100
AcDbPolygonMeshVertex
 10
0.94
 20
-3.7
 30
4.0
 70
    64
  0
VERTEX
  5
8A1B8
100
AcDbEntity
  8
0
100
AcDbVertex
100
AcDbPolygonMeshVertex
 10
0.94
 20
-4.53
 30
4.0
 70
    64
  0
VERTEX
  5
8A1B9
100
AcDbEntity
  8
0
100
AcDbVertex
100
AcDbPolygonMeshVertex
 10
-0.94
 20
-3.7
 30
4.0
 70
    64
  0
VERTEX
  5
8A1BA
100
AcDbEntity
  8
0
100
AcDbVertex
100
AcDbPolygonMeshVertex
 10
-0.94
 20
-3.7
 30
4.0
 70
    64
  0
VERTEX
  5
8A1BB
100
AcDbEntity
  8
0
100
AcDbVertex
100
AcDbPolygonMeshVertex
 10
-0.94
 20
-4.53
 30
4.0
 70
    64
  0
SEQEND
  5
8A1BC
100
AcDbEntity
  8
0
  0
POLYLINE
  5
8A1BD
100
AcDbEntity
  8
0
100
AcDbPolygonMesh
 66
     1
 10
0.0
 20
0.0
 30
0.0
 70
    16
 71
     6
 72
     3
  0
VERTEX
  5
8A1BE
100
AcDbEntity
  8
0
100
AcDbVertex
100
AcDbPolygonMeshVertex
 10
-0.28
 20
-4.23
 30
4.32
 70
    64
  0
VERTEX
  5
8A1BF
100
AcDbEntity
  8
0
100
AcDbVertex
100
AcDbPolygonMeshVertex
 10
-0.28
 20
-4.23
 30
4.0
 70
    64
  0
VERTEX
  5
8A1C0
100
AcDbEntity
  8
0
100
AcDbVertex
100
AcDbPolygonMeshVertex
 10
-0.28
 20
-4.23
 30
4.0
 70
    64
  0
VERTEX
  5
8A1C1
100
AcDbEntity
  8
0
100
AcDbVertex
100
AcDbPolygonMeshVertex
 10
-0.66
 20
-4.23
 30
4.32
 70
    64
  0
VERTEX
  5
8A1C2
100
AcDbEntity
  8
0
100
AcDbVertex
100
AcDbPolygonMeshVertex
 10
-0.66
 20
-4.23
 30
4.0
 70
    64
  0
VERTEX
  5
8A1C3
100
AcDbEntity
  8
0
100
AcDbVertex
100
AcDbPolygonMeshVertex
 10
-0.66
 20
-4.23
 30
4.0
 70
    64
  0
VERTEX
  5
8A1C4
100
AcDbEntity
  8
0
100
AcDbVertex
100
AcDbPolygonMeshVertex
 10
-0.66
 20
-3.79
 30
4.32
 70
    64
  0
VERTEX
  5
8A1C5
100
AcDbEntity
  8
0
100
AcDbVertex
100
AcDbPolygonMeshVertex
 10
-0.66
 20
-3.79
 30
4.0
 70
    64
  0
VERTEX
  5
8A1C6
100
AcDbEntity
  8
0
100
AcDbVertex
100
AcDbPolygonMeshVertex
 10
-0.66
 20
-4.23
 30
4.0
 70
    64
  0
VERTEX
  5
8A1C7
100
AcDbEntity
  8
0
100
AcDbVertex
100
AcDbPolygonMeshVertex
 10
-0.28
 20
-3.79
 30
4.32
 70
    64
  0
VERTEX
  5
8A1C8
100
AcDbEntity
  8
0
100
AcDbVertex
100
AcDbPolygonMeshVertex
 10
-0.28
 20
-3.79
 30
4.0
 70
    64
  0
VERTEX
  5
8A1C9
100
AcDbEntity
  8
0
100
AcDbVertex
100
AcDbPolygonMeshVertex
 10
-0.28
 20
-4.23
 30
4.0
 70
    64
  0
VERTEX
  5
8A1CA
100
AcDbEntity
  8
0
100
AcDbVertex
100
AcDbPolygonMeshVertex
 10
-0.28
 20
-3.79
 30
4.32
 70
    64
  0
VERTEX
  5
8A1CB
100
AcDbEntity
  8
0
100
AcDbVertex
100
AcDbPolygonMeshVertex
 10
-0.28
 20
-3.79
 30
4.32
 70
    64
  0
VERTEX
  5
8A1CC
100
AcDbEntity
  8
0
100
AcDbVertex
100
AcDbPolygonMeshVertex
 10
-0.28
 20
-4.23
 30
4.32
 70
    64
  0
VERTEX
  5
8A1CD
100
AcDbEntity
  8
0
100
AcDbVertex
100
AcDbPolygonMeshVertex
 10
-0.66
 20
-3.79
 30
4.32
 70
    64
  0
VERTEX
  5
8A1CE
100
AcDbEntity
  8
0
100
AcDbVertex
100
AcDbPolygonMeshVertex
 10
-0.66
 20
-3.79
 30
4.32
 70
    64
  0
VERTEX
  5
8A1CF
100
AcDbEntity
  8
0
100
AcDbVertex
100
AcDbPolygonMeshVertex
 10
-0.66
 20
-4.23
 30
4.32
 70
    64
  0
SEQEND
  5
8A1D0
100
AcDbEntity
  8
0
  0
POLYLINE
  5
8A1D1
100
AcDbEntity
  8
0
100
AcDbPolygonMesh
 66
     1
 10
0.0
 20
0.0
 30
0.0
 70
    16
 71
     6
 72
     3
  0
VERTEX
  5
8A1D2
100
AcDbEntity
  8
0
100
AcDbVertex
100
AcDbPolygonMeshVertex
 10
0.66
 20
-4.23
 30
4.32
 70
    64
  0
VERTEX
  5
8A1D3
100
AcDbEntity
  8
0
100
AcDbVertex
100
AcDbPolygonMeshVertex
 10
0.66
 20
-4.23
 30
4.0
 70
    64
  0
VERTEX
  5
8A1D4
100
AcDbEntity
  8
0
100
AcDbVertex
100
AcDbPolygonMeshVertex
 10
0.66
 20
-4.23
 30
4.0
 70
    64
  0
VERTEX
  5
8A1D5
100
AcDbEntity
  8
0
100
AcDbVertex
100
AcDbPolygonMeshVertex
 10
0.28
 20
-4.23
 30
4.32
 70
    64
  0
VERTEX
  5
8A1D6
100
AcDbEntity
  8
0
100
AcDbVertex
100
AcDbPolygonMeshVertex
 10
0.28
 20
-4.23
 30
4.0
 70
    64
  0
VERTEX
  5
8A1D7
100
AcDbEntity
  8
0
100
AcDbVertex
100
AcDbPolygonMeshVertex
 10
0.28
 20
-4.23
 30
4.0
 70
    64
  0
VERTEX
  5
8A1D8
100
AcDbEntity
  8
0
100
AcDbVertex
100
AcDbPolygonMeshVertex
 10
0.28
 20
-3.79
 30
4.32
 70
    64
  0
VERTEX
  5
8A1D9
100
AcDbEntity
  8
0
100
AcDbVertex
100
AcDbPolygonMeshVertex
 10
0.28
 20
-3.79
 30
4.0
 70
    64
  0
VERTEX
  5
8A1DA
100
AcDbEntity
  8
0
100
AcDbVertex
100
AcDbPolygonMeshVertex
 10
0.28
 20
-4.23
 30
4.0
 70
    64
  0
VERTEX
  5
8A1DB
100
AcDbEntity
  8
0
100
AcDbVertex
100
AcDbPolygonMeshVertex
 10
0.66
 20
-3.79
 30
4.32
 70
    64
  0
VERTEX
  5
8A1DC
100
AcDbEntity
  8
0
100
AcDbVertex
100
AcDbPolygonMeshVertex
 10
0.66
 20
-3.79
 30
4.0
 70
    64
  0
VERTEX
  5
8A1DD
100
AcDbEntity
  8
0
100
AcDbVertex
100
AcDbPolygonMeshVertex
 10
0.66
 20
-4.23
 30
4.0
 70
    64
  0
VERTEX
  5
8A1DE
100
AcDbEntity
  8
0
100
AcDbVertex
100
AcDbPolygonMeshVertex
 10
0.66
 20
-3.79
 30
4.32
 70
    64
  0
VERTEX
  5
8A1DF
100
AcDbEntity
  8
0
100
AcDbVertex
100
AcDbPolygonMeshVertex
 10
0.66
 20
-3.79
 30
4.32
 70
    64
  0
VERTEX
  5
8A1E0
100
AcDbEntity
  8
0
100
AcDbVertex
100
AcDbPolygonMeshVertex
 10
0.66
 20
-4.23
 30
4.32
 70
    64
  0
VERTEX
  5
8A1E1
100
AcDbEntity
  8
0
100
AcDbVertex
100
AcDbPolygonMeshVertex
 10
0.28
 20
-3.79
 30
4.32
 70
    64
  0
VERTEX
  5
8A1E2
100
AcDbEntity
  8
0
100
AcDbVertex
100
AcDbPolygonMeshVertex
 10
0.28
 20
-3.79
 30
4.32
 70
    64
  0
VERTEX
  5
8A1E3
100
AcDbEntity
  8
0
100
AcDbVertex
100
AcDbPolygonMeshVertex
 10
0.28
 20
-4.23
 30
4.32
 70
    64
  0
SEQEND
  5
8A1E4
100
AcDbEntity
  8
0
  0
LINE
  5
8A1E5
100
AcDbEntity
  8
0
100
AcDbLine
 10
1.31
 20
-0.79
 30
4.34
 11
1.31
 21
-0.29
 31
4.34
  0
POLYLINE
  5
8A1E6
100
AcDbEntity
  8
0
100
AcDbPolygonMesh
 66
     1
 10
0.0
 20
0.0
 30
0.0
 70
    16
 71
     6
 72
     3
  0
VERTEX
  5
8A1E7
100
AcDbEntity
  8
0
100
AcDbVertex
100
AcDbPolygonMeshVertex
 10
0.81
 20
-0.29
 30
4.34
 70
    64
  0
VERTEX
  5
8A1E8
100
AcDbEntity
  8
0
100
AcDbVertex
100
AcDbPolygonMeshVertex
 10
0.81
 20
-0.29
 30
4.0
 70
    64
  0
VERTEX
  5
8A1E9
100
AcDbEntity
  8
0
100
AcDbVertex
100
AcDbPolygonMeshVertex
 10
0.81
 20
-0.29
 30
4.0
 70
    64
  0
VERTEX
  5
8A1EA
100
AcDbEntity
  8
0
100
AcDbVertex
100
AcDbPolygonMeshVertex
 10
1.31
 20
-0.29
 30
4.34
 70
    64
  0
VERTEX
  5
8A1EB
100
AcDbEntity
  8
0
100
AcDbVertex
100
AcDbPolygonMeshVertex
 10
1.31
 20
-0.29
 30
4.0
 70
    64
  0
VERTEX
  5
8A1EC
100
AcDbEntity
  8
0
100
AcDbVertex
100
AcDbPolygonMeshVertex
 10
1.31
 20
-0.29
 30
4.0
 70
    64
  0
VERTEX
  5
8A1ED
100
AcDbEntity
  8
0
100
AcDbVertex
100
AcDbPolygonMeshVertex
 10
1.31
 20
-1.41
 30
4.34
 70
    64
  0
VERTEX
  5
8A1EE
100
AcDbEntity
  8
0
100
AcDbVertex
100
AcDbPolygonMeshVertex
 10
1.31
 20
-1.41
 30
4.0
 70
    64
  0
VERTEX
  5
8A1EF
100
AcDbEntity
  8
0
100
AcDbVertex
100
AcDbPolygonMeshVertex
 10
1.31
 20
-0.29
 30
4.0
 70
    64
  0
VERTEX
  5
8A1F0
100
AcDbEntity
  8
0
100
AcDbVertex
100
AcDbPolygonMeshVertex
 10
0.81
 20
-1.41
 30
4.34
 70
    64
  0
VERTEX
  5
8A1F1
100
AcDbEntity
  8
0
100
AcDbVertex
100
AcDbPolygonMeshVertex
 10
0.81
 20
-1.41
 30
4.0
 70
    64
  0
VERTEX
  5
8A1F2
100
AcDbEntity
  8
0
100
AcDbVertex
100
AcDbPolygonMeshVertex
 10
0.81
 20
-0.29
 30
4.0
 70
    64
  0
VERTEX
  5
8A1F3
100
AcDbEntity
  8
0
100
AcDbVertex
100
AcDbPolygonMeshVertex
 10
0.81
 20
-1.41
 30
4.34
 70
    64
  0
VERTEX
  5
8A1F4
100
AcDbEntity
  8
0
100
AcDbVertex
100
AcDbPolygonMeshVertex
 10
0.81
 20
-1.41
 30
4.34
 70
    64
  0
VERTEX
  5
8A1F5
100
AcDbEntity
  8
0
100
AcDbVertex
100
AcDbPolygonMeshVertex
 10
0.81
 20
-0.29
 30
4.34
 70
    64
  0
VERTEX
  5
8A1F6
100
AcDbEntity
  8
0
100
AcDbVertex
100
AcDbPolygonMeshVertex
 10
1.31
 20
-1.41
 30
4.34
 70
    64
  0
VERTEX
  5
8A1F7
100
AcDbEntity
  8
0
100
AcDbVertex
100
AcDbPolygonMeshVertex
 10
1.31
 20
-1.41
 30
4.34
 70
    64
  0
VERTEX
  5
8A1F8
100
AcDbEntity
  8
0
100
AcDbVertex
100
AcDbPolygonMeshVertex
 10
1.31
 20
-0.29
 30
4.34
 70
    64
  0
SEQEND
  5
8A1F9
100
AcDbEntity
  8
0
  0
POLYLINE
  5
8A1FA
100
AcDbEntity
  8
0
100
AcDbPolygonMesh
 66
     1
 10
0.0
 20
0.0
 30
0.0
 70
    16
 71
     6
 72
     3
  0
VERTEX
  5
8A1FB
100
AcDbEntity
  8
0
100
AcDbVertex
100
AcDbPolygonMeshVertex
 10
0.81
 20
-0.29
 30
4.47
 70
    64
  0
VERTEX
  5
8A1FC
100
AcDbEntity
  8
0
100
AcDbVertex
100
AcDbPolygonMeshVertex
 10
0.81
 20
-0.29
 30
4.34
 70
    64
  0
VERTEX
  5
8A1FD
100
AcDbEntity
  8
0
100
AcDbVertex
100
AcDbPolygonMeshVertex
 10
0.81
 20
-0.29
 30
4.34
 70
    64
  0
VERTEX
  5
8A1FE
100
AcDbEntity
  8
0
100
AcDbVertex
100
AcDbPolygonMeshVertex
 10
1.31
 20
-0.29
 30
4.47
 70
    64
  0
VERTEX
  5
8A1FF
100
AcDbEntity
  8
0
100
AcDbVertex
100
AcDbPolygonMeshVertex
 10
1.31
 20
-0.29
 30
4.34
 70
    64
  0
VERTEX
  5
8A200
100
AcDbEntity
  8
0
100
AcDbVertex
100
AcDbPolygonMeshVertex
 10
1.31
 20
-0.29
 30
4.34
 70
    64
  0
VERTEX
  5
8A201
100
AcDbEntity
  8
0
100
AcDbVertex
100
AcDbPolygonMeshVertex
 10
1.31
 20
-0.79
 30
4.47
 70
    64
  0
VERTEX
  5
8A202
100
AcDbEntity
  8
0
100
AcDbVertex
100
AcDbPolygonMeshVertex
 10
1.31
 20
-0.79
 30
4.34
 70
    64
  0
VERTEX
  5
8A203
100
AcDbEntity
  8
0
100
AcDbVertex
100
AcDbPolygonMeshVertex
 10
1.31
 20
-0.29
 30
4.34
 70
    64
  0
VERTEX
  5
8A204
100
AcDbEntity
  8
0
100
AcDbVertex
100
AcDbPolygonMeshVertex
 10
0.81
 20
-0.79
 30
4.47
 70
    64
  0
VERTEX
  5
8A205
100
AcDbEntity
  8
0
100
AcDbVertex
100
AcDbPolygonMeshVertex
 10
0.81
 20
-0.79
 30
4.34
 70
    64
  0
VERTEX
  5
8A206
100
AcDbEntity
  8
0
100
AcDbVertex
100
AcDbPolygonMeshVertex
 10
0.81
 20
-0.29
 30
4.34
 70
    64
  0
VERTEX
  5
8A207
100
AcDbEntity
  8
0
100
AcDbVertex
100
AcDbPolygonMeshVertex
 10
0.81
 20
-0.79
 30
4.47
 70
    64
  0
VERTEX
  5
8A208
100
AcDbEntity
  8
0
100
AcDbVertex
100
AcDbPolygonMeshVertex
 10
0.81
 20
-0.79
 30
4.47
 70
    64
  0
VERTEX
  5
8A209
100
AcDbEntity
  8
0
100
AcDbVertex
100
AcDbPolygonMeshVertex
 10
0.81
 20
-0.29
 30
4.47
 70
    64
  0
VERTEX
  5
8A20A
100
AcDbEntity
  8
0
100
AcDbVertex
100
AcDbPolygonMeshVertex
 10
1.31
 20
-0.79
 30
4.47
 70
    64
  0
VERTEX
  5
8A20B
100
AcDbEntity
  8
0
100
AcDbVertex
100
AcDbPolygonMeshVertex
 10
1.31
 20
-0.79
 30
4.47
 70
    64
  0
VERTEX
  5
8A20C
100
AcDbEntity
  8
0
100
AcDbVertex
100
AcDbPolygonMeshVertex
 10
1.31
 20
-0.29
 30
4.47
 70
    64
  0
SEQEND
  5
8A20D
100
AcDbEntity
  8
0
  0
POLYLINE
  5
8A20E
100
AcDbEntity
  8
0
100
AcDbPolygonMesh
 66
     1
 10
0.0
 20
0.0
 30
0.0
 70
    16
 71
     6
 72
     3
  0
VERTEX
  5
8A20F
100
AcDbEntity
  8
0
100
AcDbVertex
100
AcDbPolygonMeshVertex
 10
-0.25
 20
-0.29
 30
4.34
 70
    64
  0
VERTEX
  5
8A210
100
AcDbEntity
  8
0
100
AcDbVertex
100
AcDbPolygonMeshVertex
 10
-0.25
 20
-0.29
 30
4.0
 70
    64
  0
VERTEX
  5
8A211
100
AcDbEntity
  8
0
100
AcDbVertex
100
AcDbPolygonMeshVertex
 10
-0.25
 20
-0.29
 30
4.0
 70
    64
  0
VERTEX
  5
8A212
100
AcDbEntity
  8
0
100
AcDbVertex
100
AcDbPolygonMeshVertex
 10
0.25
 20
-0.29
 30
4.34
 70
    64
  0
VERTEX
  5
8A213
100
AcDbEntity
  8
0
100
AcDbVertex
100
AcDbPolygonMeshVertex
 10
0.25
 20
-0.29
 30
4.0
 70
    64
  0
VERTEX
  5
8A214
100
AcDbEntity
  8
0
100
AcDbVertex
100
AcDbPolygonMeshVertex
 10
0.25
 20
-0.29
 30
4.0
 70
    64
  0
VERTEX
  5
8A215
100
AcDbEntity
  8
0
100
AcDbVertex
100
AcDbPolygonMeshVertex
 10
0.25
 20
-1.41
 30
4.34
 70
    64
  0
VERTEX
  5
8A216
100
AcDbEntity
  8
0
100
AcDbVertex
100
AcDbPolygonMeshVertex
 10
0.25
 20
-1.41
 30
4.0
 70
    64
  0
VERTEX
  5
8A217
100
AcDbEntity
  8
0
100
AcDbVertex
100
AcDbPolygonMeshVertex
 10
0.25
 20
-0.29
 30
4.0
 70
    64
  0
VERTEX
  5
8A218
100
AcDbEntity
  8
0
100
AcDbVertex
100
AcDbPolygonMeshVertex
 10
-0.25
 20
-1.41
 30
4.34
 70
    64
  0
VERTEX
  5
8A219
100
AcDbEntity
  8
0
100
AcDbVertex
100
AcDbPolygonMeshVertex
 10
-0.25
 20
-1.41
 30
4.0
 70
    64
  0
VERTEX
  5
8A21A
100
AcDbEntity
  8
0
100
AcDbVertex
100
AcDbPolygonMeshVertex
 10
-0.25
 20
-0.29
 30
4.0
 70
    64
  0
VERTEX
  5
8A21B
100
AcDbEntity
  8
0
100
AcDbVertex
100
AcDbPolygonMeshVertex
 10
-0.25
 20
-1.41
 30
4.34
 70
    64
  0
VERTEX
  5
8A21C
100
AcDbEntity
  8
0
100
AcDbVertex
100
AcDbPolygonMeshVertex
 10
-0.25
 20
-1.41
 30
4.34
 70
    64
  0
VERTEX
  5
8A21D
100
AcDbEntity
  8
0
100
AcDbVertex
100
AcDbPolygonMeshVertex
 10
-0.25
 20
-0.29
 30
4.34
 70
    64
  0
VERTEX
  5
8A21E
100
AcDbEntity
  8
0
100
AcDbVertex
100
AcDbPolygonMeshVertex
 10
0.25
 20
-1.41
 30
4.34
 70
    64
  0
VERTEX
  5
8A21F
100
AcDbEntity
  8
0
100
AcDbVertex
100
AcDbPolygonMeshVertex
 10
0.25
 20
-1.41
 30
4.34
 70
    64
  0
VERTEX
  5
8A220
100
AcDbEntity
  8
0
100
AcDbVertex
100
AcDbPolygonMeshVertex
 10
0.25
 20
-0.29
 30
4.34
 70
    64
  0
SEQEND
  5
8A221
100
AcDbEntity
  8
0
  0
POLYLINE
  5
8A222
100
AcDbEntity
  8
0
100
AcDbPolygonMesh
 66
     1
 10
0.0
 20
0.0
 30
0.0
 70
    16
 71
     6
 72
     3
  0
VERTEX
  5
8A223
100
AcDbEntity
  8
0
100
AcDbVertex
100
AcDbPolygonMeshVertex
 10
-0.25
 20
-0.29
 30
4.47
 70
    64
  0
VERTEX
  5
8A224
100
AcDbEntity
  8
0
100
AcDbVertex
100
AcDbPolygonMeshVertex
 10
-0.25
 20
-0.29
 30
4.34
 70
    64
  0
VERTEX
  5
8A225
100
AcDbEntity
  8
0
100
AcDbVertex
100
AcDbPolygonMeshVertex
 10
-0.25
 20
-0.29
 30
4.34
 70
    64
  0
VERTEX
  5
8A226
100
AcDbEntity
  8
0
100
AcDbVertex
100
AcDbPolygonMeshVertex
 10
0.25
 20
-0.29
 30
4.47
 70
    64
  0
VERTEX
  5
8A227
100
AcDbEntity
  8
0
100
AcDbVertex
100
AcDbPolygonMeshVertex
 10
0.25
 20
-0.29
 30
4.34
 70
    64
  0
VERTEX
  5
8A228
100
AcDbEntity
  8
0
100
AcDbVertex
100
AcDbPolygonMeshVertex
 10
0.25
 20
-0.29
 30
4.34
 70
    64
  0
VERTEX
  5
8A229
100
AcDbEntity
  8
0
100
AcDbVertex
100
AcDbPolygonMeshVertex
 10
0.25
 20
-0.79
 30
4.47
 70
    64
  0
VERTEX
  5
8A22A
100
AcDbEntity
  8
0
100
AcDbVertex
100
AcDbPolygonMeshVertex
 10
0.25
 20
-0.79
 30
4.34
 70
    64
  0
VERTEX
  5
8A22B
100
AcDbEntity
  8
0
100
AcDbVertex
100
AcDbPolygonMeshVertex
 10
0.25
 20
-0.29
 30
4.34
 70
    64
  0
VERTEX
  5
8A22C
100
AcDbEntity
  8
0
100
AcDbVertex
100
AcDbPolygonMeshVertex
 10
-0.25
 20
-0.79
 30
4.47
 70
    64
  0
VERTEX
  5
8A22D
100
AcDbEntity
  8
0
100
AcDbVertex
100
AcDbPolygonMeshVertex
 10
-0.25
 20
-0.79
 30
4.34
 70
    64
  0
VERTEX
  5
8A22E
100
AcDbEntity
  8
0
100
AcDbVertex
100
AcDbPolygonMeshVertex
 10
-0.25
 20
-0.29
 30
4.34
 70
    64
  0
VERTEX
  5
8A22F
100
AcDbEntity
  8
0
100
AcDbVertex
100
AcDbPolygonMeshVertex
 10
-0.25
 20
-0.79
 30
4.47
 70
    64
  0
VERTEX
  5
8A230
100
AcDbEntity
  8
0
100
AcDbVertex
100
AcDbPolygonMeshVertex
 10
-0.25
 20
-0.79
 30
4.47
 70
    64
  0
VERTEX
  5
8A231
100
AcDbEntity
  8
0
100
AcDbVertex
100
AcDbPolygonMeshVertex
 10
-0.25
 20
-0.29
 30
4.47
 70
    64
  0
VERTEX
  5
8A232
100
AcDbEntity
  8
0
100
AcDbVertex
100
AcDbPolygonMeshVertex
 10
0.25
 20
-0.79
 30
4.47
 70
    64
  0
VERTEX
  5
8A233
100
AcDbEntity
  8
0
100
AcDbVertex
100
AcDbPolygonMeshVertex
 10
0.25
 20
-0.79
 30
4.47
 70
    64
  0
VERTEX
  5
8A234
100
AcDbEntity
  8
0
100
AcDbVertex
100
AcDbPolygonMeshVertex
 10
0.25
 20
-0.29
 30
4.47
 70
    64
  0
SEQEND
  5
8A235
100
AcDbEntity
  8
0
  0
CIRCLE
  5
8A236
100
AcDbEntity
  8
0
100
AcDbCircle
 10
0.0
 20
-0.54
 30
4.47
 40
0.125
  0
CIRCLE
  5
8A237
100
AcDbEntity
  8
0
100
AcDbCircle
 10
0.0
 20
-0.54
 30
4.47
 40
0.155
  0
POLYLINE
  5
8A238
100
AcDbEntity
  8
0
100
AcDbPolygonMesh
 66
     1
 10
0.0
 20
0.0
 30
0.0
 70
    16
 71
     6
 72
     3
  0
VERTEX
  5
8A239
100
AcDbEntity
  8
0
100
AcDbVertex
100
AcDbPolygonMeshVertex
 10
-1.31
 20
-0.29
 30
4.34
 70
    64
  0
VERTEX
  5
8A23A
100
AcDbEntity
  8
0
100
AcDbVertex
100
AcDbPolygonMeshVertex
 10
-1.31
 20
-0.29
 30
4.0
 70
    64
  0
VERTEX
  5
8A23B
100
AcDbEntity
  8
0
100
AcDbVertex
100
AcDbPolygonMeshVertex
 10
-1.31
 20
-0.29
 30
4.0
 70
    64
  0
VERTEX
  5
8A23C
100
AcDbEntity
  8
0
100
AcDbVertex
100
AcDbPolygonMeshVertex
 10
-0.81
 20
-0.29
 30
4.34
 70
    64
  0
VERTEX
  5
8A23D
100
AcDbEntity
  8
0
100
AcDbVertex
100
AcDbPolygonMeshVertex
 10
-0.81
 20
-0.29
 30
4.0
 70
    64
  0
VERTEX
  5
8A23E
100
AcDbEntity
  8
0
100
AcDbVertex
100
AcDbPolygonMeshVertex
 10
-0.81
 20
-0.29
 30
4.0
 70
    64
  0
VERTEX
  5
8A23F
100
AcDbEntity
  8
0
100
AcDbVertex
100
AcDbPolygonMeshVertex
 10
-0.81
 20
-1.41
 30
4.34
 70
    64
  0
VERTEX
  5
8A240
100
AcDbEntity
  8
0
100
AcDbVertex
100
AcDbPolygonMeshVertex
 10
-0.81
 20
-1.41
 30
4.0
 70
    64
  0
VERTEX
  5
8A241
100
AcDbEntity
  8
0
100
AcDbVertex
100
AcDbPolygonMeshVertex
 10
-0.81
 20
-0.29
 30
4.0
 70
    64
  0
VERTEX
  5
8A242
100
AcDbEntity
  8
0
100
AcDbVertex
100
AcDbPolygonMeshVertex
 10
-1.31
 20
-1.41
 30
4.34
 70
    64
  0
VERTEX
  5
8A243
100
AcDbEntity
  8
0
100
AcDbVertex
100
AcDbPolygonMeshVertex
 10
-1.31
 20
-1.41
 30
4.0
 70
    64
  0
VERTEX
  5
8A244
100
AcDbEntity
  8
0
100
AcDbVertex
100
AcDbPolygonMeshVertex
 10
-1.31
 20
-0.29
 30
4.0
 70
    64
  0
VERTEX
  5
8A245
100
AcDbEntity
  8
0
100
AcDbVertex
100
AcDbPolygonMeshVertex
 10
-1.31
 20
-1.41
 30
4.34
 70
    64
  0
VERTEX
  5
8A246
100
AcDbEntity
  8
0
100
AcDbVertex
100
AcDbPolygonMeshVertex
 10
-1.31
 20
-1.41
 30
4.34
 70
    64
  0
VERTEX
  5
8A247
100
AcDbEntity
  8
0
100
AcDbVertex
100
AcDbPolygonMeshVertex
 10
-1.31
 20
-0.29
 30
4.34
 70
    64
  0
VERTEX
  5
8A248
100
AcDbEntity
  8
0
100
AcDbVertex
100
AcDbPolygonMeshVertex
 10
-0.81
 20
-1.41
 30
4.34
 70
    64
  0
VERTEX
  5
8A249
100
AcDbEntity
  8
0
100
AcDbVertex
100
AcDbPolygonMeshVertex
 10
-0.81
 20
-1.41
 30
4.34
 70
    64
  0
VERTEX
  5
8A24A
100
AcDbEntity
  8
0
100
AcDbVertex
100
AcDbPolygonMeshVertex
 10
-0.81
 20
-0.29
 30
4.34
 70
    64
  0
SEQEND
  5
8A24B
100
AcDbEntity
  8
0
  0
POLYLINE
  5
8A24C
100
AcDbEntity
  8
0
100
AcDbPolygonMesh
 66
     1
 10
0.0
 20
0.0
 30
0.0
 70
    16
 71
     6
 72
     3
  0
VERTEX
  5
8A24D
100
AcDbEntity
  8
0
100
AcDbVertex
100
AcDbPolygonMeshVertex
 10
-1.31
 20
-0.29
 30
4.47
 70
    64
  0
VERTEX
  5
8A24E
100
AcDbEntity
  8
0
100
AcDbVertex
100
AcDbPolygonMeshVertex
 10
-1.31
 20
-0.29
 30
4.34
 70
    64
  0
VERTEX
  5
8A24F
100
AcDbEntity
  8
0
100
AcDbVertex
100
AcDbPolygonMeshVertex
 10
-1.31
 20
-0.29
 30
4.34
 70
    64
  0
VERTEX
  5
8A250
100
AcDbEntity
  8
0
100
AcDbVertex
100
AcDbPolygonMeshVertex
 10
-0.81
 20
-0.29
 30
4.47
 70
    64
  0
VERTEX
  5
8A251
100
AcDbEntity
  8
0
100
AcDbVertex
100
AcDbPolygonMeshVertex
 10
-0.81
 20
-0.29
 30
4.34
 70
    64
  0
VERTEX
  5
8A252
100
AcDbEntity
  8
0
100
AcDbVertex
100
AcDbPolygonMeshVertex
 10
-0.81
 20
-0.29
 30
4.34
 70
    64
  0
VERTEX
  5
8A253
100
AcDbEntity
  8
0
100
AcDbVertex
100
AcDbPolygonMeshVertex
 10
-0.81
 20
-0.79
 30
4.47
 70
    64
  0
VERTEX
  5
8A254
100
AcDbEntity
  8
0
100
AcDbVertex
100
AcDbPolygonMeshVertex
 10
-0.81
 20
-0.79
 30
4.34
 70
    64
  0
VERTEX
  5
8A255
100
AcDbEntity
  8
0
100
AcDbVertex
100
AcDbPolygonMeshVertex
 10
-0.81
 20
-0.29
 30
4.34
 70
    64
  0
VERTEX
  5
8A256
100
AcDbEntity
  8
0
100
AcDbVertex
100
AcDbPolygonMeshVertex
 10
-1.31
 20
-0.79
 30
4.47
 70
    64
  0
VERTEX
  5
8A257
100
AcDbEntity
  8
0
100
AcDbVertex
100
AcDbPolygonMeshVertex
 10
-1.31
 20
-0.79
 30
4.34
 70
    64
  0
VERTEX
  5
8A258
100
AcDbEntity
  8
0
100
AcDbVertex
100
AcDbPolygonMeshVertex
 10
-1.31
 20
-0.29
 30
4.34
 70
    64
  0
VERTEX
  5
8A259
100
AcDbEntity
  8
0
100
AcDbVertex
100
AcDbPolygonMeshVertex
 10
-1.31
 20
-0.79
 30
4.47
 70
    64
  0
VERTEX
  5
8A25A
100
AcDbEntity
  8
0
100
AcDbVertex
100
AcDbPolygonMeshVertex
 10
-1.31
 20
-0.79
 30
4.47
 70
    64
  0
VERTEX
  5
8A25B
100
AcDbEntity
  8
0
100
AcDbVertex
100
AcDbPolygonMeshVertex
 10
-1.31
 20
-0.29
 30
4.47
 70
    64
  0
VERTEX
  5
8A25C
100
AcDbEntity
  8
0
100
AcDbVertex
100
AcDbPolygonMeshVertex
 10
-0.81
 20
-0.79
 30
4.47
 70
    64
  0
VERTEX
  5
8A25D
100
AcDbEntity
  8
0
100
AcDbVertex
100
AcDbPolygonMeshVertex
 10
-0.81
 20
-0.79
 30
4.47
 70
    64
  0
VERTEX
  5
8A25E
100
AcDbEntity
  8
0
100
AcDbVertex
100
AcDbPolygonMeshVertex
 10
-0.81
 20
-0.29
 30
4.47
 70
    64
  0
SEQEND
  5
8A25F
100
AcDbEntity
  8
0
  0
CIRCLE
  5
8A260
100
AcDbEntity
  8
0
100
AcDbCircle
 10
-1.06
 20
-0.54
 30
4.47
 40
0.125
  0
CIRCLE
  5
8A261
100
AcDbEntity
  8
0
100
AcDbCircle
 10
-1.06
 20
-0.54
 30
4.47
 40
0.155
  0
POLYLINE
  5
8A262
100
AcDbEntity
  8
0
100
AcDbPolygonMesh
 66
     1
 10
0.0
 20
0.0
 30
0.0
 70
    16
 71
     6
 72
     3
  0
VERTEX
  5
8A263
100
AcDbEntity
  8
0
100
AcDbVertex
100
AcDbPolygonMeshVertex
 10
0.5
 20
-0.63
 30
4.72
 70
    64
  0
VERTEX
  5
8A264
100
AcDbEntity
  8
0
100
AcDbVertex
100
AcDbPolygonMeshVertex
 10
0.5
 20
-0.63
 30
3.83
 70
    64
  0
VERTEX
  5
8A265
100
AcDbEntity
  8
0
100
AcDbVertex
100
AcDbPolygonMeshVertex
 10
0.5
 20
-0.63
 30
3.83
 70
    64
  0
VERTEX
  5
8A266
100
AcDbEntity
  8
0
100
AcDbVertex
100
AcDbPolygonMeshVertex
 10
0.66
 20
-0.63
 30
4.72
 70
    64
  0
VERTEX
  5
8A267
100
AcDbEntity
  8
0
100
AcDbVertex
100
AcDbPolygonMeshVertex
 10
0.66
 20
-0.63
 30
3.83
 70
    64
  0
VERTEX
  5
8A268
100
AcDbEntity
  8
0
100
AcDbVertex
100
AcDbPolygonMeshVertex
 10
0.66
 20
-0.63
 30
3.83
 70
    64
  0
VERTEX
  5
8A269
100
AcDbEntity
  8
0
100
AcDbVertex
100
AcDbPolygonMeshVertex
 10
0.66
 20
-1.6
 30
4.72
 70
    64
  0
VERTEX
  5
8A26A
100
AcDbEntity
  8
0
100
AcDbVertex
100
AcDbPolygonMeshVertex
 10
0.66
 20
-1.6
 30
3.83
 70
    64
  0
VERTEX
  5
8A26B
100
AcDbEntity
  8
0
100
AcDbVertex
100
AcDbPolygonMeshVertex
 10
0.66
 20
-0.63
 30
3.83
 70
    64
  0
VERTEX
  5
8A26C
100
AcDbEntity
  8
0
100
AcDbVertex
100
AcDbPolygonMeshVertex
 10
0.5
 20
-1.6
 30
4.72
 70
    64
  0
VERTEX
  5
8A26D
100
AcDbEntity
  8
0
100
AcDbVertex
100
AcDbPolygonMeshVertex
 10
0.5
 20
-1.6
 30
3.83
 70
    64
  0
VERTEX
  5
8A26E
100
AcDbEntity
  8
0
100
AcDbVertex
100
AcDbPolygonMeshVertex
 10
0.5
 20
-0.63
 30
3.83
 70
    64
  0
VERTEX
  5
8A26F
100
AcDbEntity
  8
0
100
AcDbVertex
100
AcDbPolygonMeshVertex
 10
0.5
 20
-1.6
 30
4.72
 70
    64
  0
VERTEX
  5
8A270
100
AcDbEntity
  8
0
100
AcDbVertex
100
AcDbPolygonMeshVertex
 10
0.5
 20
-1.6
 30
4.72
 70
    64
  0
VERTEX
  5
8A271
100
AcDbEntity
  8
0
100
AcDbVertex
100
AcDbPolygonMeshVertex
 10
0.5
 20
-0.63
 30
4.72
 70
    64
  0
VERTEX
  5
8A272
100
AcDbEntity
  8
0
100
AcDbVertex
100
AcDbPolygonMeshVertex
 10
0.66
 20
-1.6
 30
4.72
 70
    64
  0
VERTEX
  5
8A273
100
AcDbEntity
  8
0
100
AcDbVertex
100
AcDbPolygonMeshVertex
 10
0.66
 20
-1.6
 30
4.72
 70
    64
  0
VERTEX
  5
8A274
100
AcDbEntity
  8
0
100
AcDbVertex
100
AcDbPolygonMeshVertex
 10
0.66
 20
-0.63
 30
4.72
 70
    64
  0
SEQEND
  5
8A275
100
AcDbEntity
  8
0
  0
POLYLINE
  5
8A276
100
AcDbEntity
  8
0
100
AcDbPolygonMesh
 66
     1
 10
0.0
 20
0.0
 30
0.0
 70
    16
 71
     6
 72
     3
  0
VERTEX
  5
8A277
100
AcDbEntity
  8
0
100
AcDbVertex
100
AcDbPolygonMeshVertex
 10
0.5
 20
-0.63
 30
3.83
 70
    64
  0
VERTEX
  5
8A278
100
AcDbEntity
  8
0
100
AcDbVertex
100
AcDbPolygonMeshVertex
 10
0.5
 20
-0.63
 30
2.56
 70
    64
  0
VERTEX
  5
8A279
100
AcDbEntity
  8
0
100
AcDbVertex
100
AcDbPolygonMeshVertex
 10
0.5
 20
-0.63
 30
2.56
 70
    64
  0
VERTEX
  5
8A27A
100
AcDbEntity
  8
0
100
AcDbVertex
100
AcDbPolygonMeshVertex
 10
0.66
 20
-0.63
 30
3.83
 70
    64
  0
VERTEX
  5
8A27B
100
AcDbEntity
  8
0
100
AcDbVertex
100
AcDbPolygonMeshVertex
 10
0.66
 20
-0.63
 30
2.56
 70
    64
  0
VERTEX
  5
8A27C
100
AcDbEntity
  8
0
100
AcDbVertex
100
AcDbPolygonMeshVertex
 10
0.66
 20
-0.63
 30
2.56
 70
    64
  0
VERTEX
  5
8A27D
100
AcDbEntity
  8
0
100
AcDbVertex
100
AcDbPolygonMeshVertex
 10
0.66
 20
-0.91
 30
3.83
 70
    64
  0
VERTEX
  5
8A27E
100
AcDbEntity
  8
0
100
AcDbVertex
100
AcDbPolygonMeshVertex
 10
0.66
 20
-0.91
 30
2.56
 70
    64
  0
VERTEX
  5
8A27F
100
AcDbEntity
  8
0
100
AcDbVertex
100
AcDbPolygonMeshVertex
 10
0.66
 20
-0.63
 30
2.56
 70
    64
  0
VERTEX
  5
8A280
100
AcDbEntity
  8
0
100
AcDbVertex
100
AcDbPolygonMeshVertex
 10
0.5
 20
-0.91
 30
3.83
 70
    64
  0
VERTEX
  5
8A281
100
AcDbEntity
  8
0
100
AcDbVertex
100
AcDbPolygonMeshVertex
 10
0.5
 20
-0.91
 30
2.56
 70
    64
  0
VERTEX
  5
8A282
100
AcDbEntity
  8
0
100
AcDbVertex
100
AcDbPolygonMeshVertex
 10
0.5
 20
-0.63
 30
2.56
 70
    64
  0
VERTEX
  5
8A283
100
AcDbEntity
  8
0
100
AcDbVertex
100
AcDbPolygonMeshVertex
 10
0.5
 20
-0.91
 30
3.83
 70
    64
  0
VERTEX
  5
8A284
100
AcDbEntity
  8
0
100
AcDbVertex
100
AcDbPolygonMeshVertex
 10
0.5
 20
-0.91
 30
3.83
 70
    64
  0
VERTEX
  5
8A285
100
AcDbEntity
  8
0
100
AcDbVertex
100
AcDbPolygonMeshVertex
 10
0.5
 20
-0.63
 30
3.83
 70
    64
  0
VERTEX
  5
8A286
100
AcDbEntity
  8
0
100
AcDbVertex
100
AcDbPolygonMeshVertex
 10
0.66
 20
-0.91
 30
3.83
 70
    64
  0
VERTEX
  5
8A287
100
AcDbEntity
  8
0
100
AcDbVertex
100
AcDbPolygonMeshVertex
 10
0.66
 20
-0.91
 30
3.83
 70
    64
  0
VERTEX
  5
8A288
100
AcDbEntity
  8
0
100
AcDbVertex
100
AcDbPolygonMeshVertex
 10
0.66
 20
-0.63
 30
3.83
 70
    64
  0
SEQEND
  5
8A289
100
AcDbEntity
  8
0
  0
POLYLINE
  5
8A28A
100
AcDbEntity
  8
0
100
AcDbPolygonMesh
 66
     1
 10
0.0
 20
0.0
 30
0.0
 70
    16
 71
     6
 72
     3
  0
VERTEX
  5
8A28B
100
AcDbEntity
  8
0
100
AcDbVertex
100
AcDbPolygonMeshVertex
 10
-0.66
 20
-0.63
 30
3.83
 70
    64
  0
VERTEX
  5
8A28C
100
AcDbEntity
  8
0
100
AcDbVertex
100
AcDbPolygonMeshVertex
 10
-0.66
 20
-0.63
 30
2.56
 70
    64
  0
VERTEX
  5
8A28D
100
AcDbEntity
  8
0
100
AcDbVertex
100
AcDbPolygonMeshVertex
 10
-0.66
 20
-0.63
 30
2.56
 70
    64
  0
VERTEX
  5
8A28E
100
AcDbEntity
  8
0
100
AcDbVertex
100
AcDbPolygonMeshVertex
 10
-0.5
 20
-0.63
 30
3.83
 70
    64
  0
VERTEX
  5
8A28F
100
AcDbEntity
  8
0
100
AcDbVertex
100
AcDbPolygonMeshVertex
 10
-0.5
 20
-0.63
 30
2.56
 70
    64
  0
VERTEX
  5
8A290
100
AcDbEntity
  8
0
100
AcDbVertex
100
AcDbPolygonMeshVertex
 10
-0.5
 20
-0.63
 30
2.56
 70
    64
  0
VERTEX
  5
8A291
100
AcDbEntity
  8
0
100
AcDbVertex
100
AcDbPolygonMeshVertex
 10
-0.5
 20
-0.91
 30
3.83
 70
    64
  0
VERTEX
  5
8A292
100
AcDbEntity
  8
0
100
AcDbVertex
100
AcDbPolygonMeshVertex
 10
-0.5
 20
-0.91
 30
2.56
 70
    64
  0
VERTEX
  5
8A293
100
AcDbEntity
  8
0
100
AcDbVertex
100
AcDbPolygonMeshVertex
 10
-0.5
 20
-0.63
 30
2.56
 70
    64
  0
VERTEX
  5
8A294
100
AcDbEntity
  8
0
100
AcDbVertex
100
AcDbPolygonMeshVertex
 10
-0.66
 20
-0.91
 30
3.83
 70
    64
  0
VERTEX
  5
8A295
100
AcDbEntity
  8
0
100
AcDbVertex
100
AcDbPolygonMeshVertex
 10
-0.66
 20
-0.91
 30
2.56
 70
    64
  0
VERTEX
  5
8A296
100
AcDbEntity
  8
0
100
AcDbVertex
100
AcDbPolygonMeshVertex
 10
-0.66
 20
-0.63
 30
2.56
 70
    64
  0
VERTEX
  5
8A297
100
AcDbEntity
  8
0
100
AcDbVertex
100
AcDbPolygonMeshVertex
 10
-0.66
 20
-0.91
 30
3.83
 70
    64
  0
VERTEX
  5
8A298
100
AcDbEntity
  8
0
100
AcDbVertex
100
AcDbPolygonMeshVertex
 10
-0.66
 20
-0.91
 30
3.83
 70
    64
  0
VERTEX
  5
8A299
100
AcDbEntity
  8
0
100
AcDbVertex
100
AcDbPolygonMeshVertex
 10
-0.66
 20
-0.63
 30
3.83
 70
    64
  0
VERTEX
  5
8A29A
100
AcDbEntity
  8
0
100
AcDbVertex
100
AcDbPolygonMeshVertex
 10
-0.5
 20
-0.91
 30
3.83
 70
    64
  0
VERTEX
  5
8A29B
100
AcDbEntity
  8
0
100
AcDbVertex
100
AcDbPolygonMeshVertex
 10
-0.5
 20
-0.91
 30
3.83
 70
    64
  0
VERTEX
  5
8A29C
100
AcDbEntity
  8
0
100
AcDbVertex
100
AcDbPolygonMeshVertex
 10
-0.5
 20
-0.63
 30
3.83
 70
    64
  0
SEQEND
  5
8A29D
100
AcDbEntity
  8
0
  0
POLYLINE
  5
8A29E
100
AcDbEntity
  8
0
100
AcDbPolygonMesh
 66
     1
 10
0.0
 20
0.0
 30
0.0
 70
    16
 71
     6
 72
     3
  0
VERTEX
  5
8A29F
100
AcDbEntity
  8
0
100
AcDbVertex
100
AcDbPolygonMeshVertex
 10
-0.66
 20
-0.63
 30
4.72
 70
    64
  0
VERTEX
  5
8A2A0
100
AcDbEntity
  8
0
100
AcDbVertex
100
AcDbPolygonMeshVertex
 10
-0.66
 20
-0.63
 30
3.83
 70
    64
  0
VERTEX
  5
8A2A1
100
AcDbEntity
  8
0
100
AcDbVertex
100
AcDbPolygonMeshVertex
 10
-0.66
 20
-0.63
 30
3.83
 70
    64
  0
VERTEX
  5
8A2A2
100
AcDbEntity
  8
0
100
AcDbVertex
100
AcDbPolygonMeshVertex
 10
-0.5
 20
-0.63
 30
4.72
 70
    64
  0
VERTEX
  5
8A2A3
100
AcDbEntity
  8
0
100
AcDbVertex
100
AcDbPolygonMeshVertex
 10
-0.5
 20
-0.63
 30
3.83
 70
    64
  0
VERTEX
  5
8A2A4
100
AcDbEntity
  8
0
100
AcDbVertex
100
AcDbPolygonMeshVertex
 10
-0.5
 20
-0.63
 30
3.83
 70
    64
  0
VERTEX
  5
8A2A5
100
AcDbEntity
  8
0
100
AcDbVertex
100
AcDbPolygonMeshVertex
 10
-0.5
 20
-1.6
 30
4.72
 70
    64
  0
VERTEX
  5
8A2A6
100
AcDbEntity
  8
0
100
AcDbVertex
100
AcDbPolygonMeshVertex
 10
-0.5
 20
-1.6
 30
3.83
 70
    64
  0
VERTEX
  5
8A2A7
100
AcDbEntity
  8
0
100
AcDbVertex
100
AcDbPolygonMeshVertex
 10
-0.5
 20
-0.63
 30
3.83
 70
    64
  0
VERTEX
  5
8A2A8
100
AcDbEntity
  8
0
100
AcDbVertex
100
AcDbPolygonMeshVertex
 10
-0.66
 20
-1.6
 30
4.72
 70
    64
  0
VERTEX
  5
8A2A9
100
AcDbEntity
  8
0
100
AcDbVertex
100
AcDbPolygonMeshVertex
 10
-0.66
 20
-1.6
 30
3.83
 70
    64
  0
VERTEX
  5
8A2AA
100
AcDbEntity
  8
0
100
AcDbVertex
100
AcDbPolygonMeshVertex
 10
-0.66
 20
-0.63
 30
3.83
 70
    64
  0
VERTEX
  5
8A2AB
100
AcDbEntity
  8
0
100
AcDbVertex
100
AcDbPolygonMeshVertex
 10
-0.66
 20
-1.6
 30
4.72
 70
    64
  0
VERTEX
  5
8A2AC
100
AcDbEntity
  8
0
100
AcDbVertex
100
AcDbPolygonMeshVertex
 10
-0.66
 20
-1.6
 30
4.72
 70
    64
  0
VERTEX
  5
8A2AD
100
AcDbEntity
  8
0
100
AcDbVertex
100
AcDbPolygonMeshVertex
 10
-0.66
 20
-0.63
 30
4.72
 70
    64
  0
VERTEX
  5
8A2AE
100
AcDbEntity
  8
0
100
AcDbVertex
100
AcDbPolygonMeshVertex
 10
-0.5
 20
-1.6
 30
4.72
 70
    64
  0
VERTEX
  5
8A2AF
100
AcDbEntity
  8
0
100
AcDbVertex
100
AcDbPolygonMeshVertex
 10
-0.5
 20
-1.6
 30
4.72
 70
    64
  0
VERTEX
  5
8A2B0
100
AcDbEntity
  8
0
100
AcDbVertex
100
AcDbPolygonMeshVertex
 10
-0.5
 20
-0.63
 30
4.72
 70
    64
  0
SEQEND
  5
8A2B1
100
AcDbEntity
  8
0
  0
POLYLINE
  5
8A2B2
100
AcDbEntity
  8
0
100
AcDbPolygonMesh
 66
     1
 10
0.0
 20
0.0
 30
0.0
 70
    16
 71
     6
 72
     3
  0
VERTEX
  5
8A2B3
100
AcDbEntity
  8
0
100
AcDbVertex
100
AcDbPolygonMeshVertex
 10
1.81
 20
-7.94
 30
3.56
 70
    64
  0
VERTEX
  5
8A2B4
100
AcDbEntity
  8
0
100
AcDbVertex
100
AcDbPolygonMeshVertex
 10
1.81
 20
-7.94
 30
0.19
 70
    64
  0
VERTEX
  5
8A2B5
100
AcDbEntity
  8
0
100
AcDbVertex
100
AcDbPolygonMeshVertex
 10
1.81
 20
-7.94
 30
0.19
 70
    64
  0
VERTEX
  5
8A2B6
100
AcDbEntity
  8
0
100
AcDbVertex
100
AcDbPolygonMeshVertex
 10
-1.81
 20
-7.94
 30
3.56
 70
    64
  0
VERTEX
  5
8A2B7
100
AcDbEntity
  8
0
100
AcDbVertex
100
AcDbPolygonMeshVertex
 10
-1.81
 20
-7.94
 30
0.19
 70
    64
  0
VERTEX
  5
8A2B8
100
AcDbEntity
  8
0
100
AcDbVertex
100
AcDbPolygonMeshVertex
 10
-1.81
 20
-7.94
 30
0.19
 70
    64
  0
VERTEX
  5
8A2B9
100
AcDbEntity
  8
0
100
AcDbVertex
100
AcDbPolygonMeshVertex
 10
-1.81
 20
-6.12
 30
3.56
 70
    64
  0
VERTEX
  5
8A2BA
100
AcDbEntity
  8
0
100
AcDbVertex
100
AcDbPolygonMeshVertex
 10
-1.81
 20
-6.12
 30
0.19
 70
    64
  0
VERTEX
  5
8A2BB
100
AcDbEntity
  8
0
100
AcDbVertex
100
AcDbPolygonMeshVertex
 10
-1.81
 20
-7.94
 30
0.19
 70
    64
  0
VERTEX
  5
8A2BC
100
AcDbEntity
  8
0
100
AcDbVertex
100
AcDbPolygonMeshVertex
 10
1.81
 20
-6.12
 30
3.56
 70
    64
  0
VERTEX
  5
8A2BD
100
AcDbEntity
  8
0
100
AcDbVertex
100
AcDbPolygonMeshVertex
 10
1.81
 20
-6.12
 30
0.19
 70
    64
  0
VERTEX
  5
8A2BE
100
AcDbEntity
  8
0
100
AcDbVertex
100
AcDbPolygonMeshVertex
 10
1.81
 20
-7.94
 30
0.19
 70
    64
  0
VERTEX
  5
8A2BF
100
AcDbEntity
  8
0
100
AcDbVertex
100
AcDbPolygonMeshVertex
 10
1.81
 20
-6.12
 30
3.56
 70
    64
  0
VERTEX
  5
8A2C0
100
AcDbEntity
  8
0
100
AcDbVertex
100
AcDbPolygonMeshVertex
 10
1.81
 20
-6.12
 30
3.56
 70
    64
  0
VERTEX
  5
8A2C1
100
AcDbEntity
  8
0
100
AcDbVertex
100
AcDbPolygonMeshVertex
 10
1.81
 20
-7.94
 30
3.56
 70
    64
  0
VERTEX
  5
8A2C2
100
AcDbEntity
  8
0
100
AcDbVertex
100
AcDbPolygonMeshVertex
 10
-1.81
 20
-6.12
 30
3.56
 70
    64
  0
VERTEX
  5
8A2C3
100
AcDbEntity
  8
0
100
AcDbVertex
100
AcDbPolygonMeshVertex
 10
-1.81
 20
-6.12
 30
3.56
 70
    64
  0
VERTEX
  5
8A2C4
100
AcDbEntity
  8
0
100
AcDbVertex
100
AcDbPolygonMeshVertex
 10
-1.81
 20
-7.94
 30
3.56
 70
    64
  0
SEQEND
  5
8A2C5
100
AcDbEntity
  8
0
  0
LINE
  5
8A2C6
100
AcDbEntity
  8
0
100
AcDbLine
 10
-1.81
 20
-8.4
 30
1.68
 11
-1.81
 21
-7.94
 31
1.68
  0
POLYLINE
  5
8A2C7
100
AcDbEntity
  8
0
100
AcDbPolygonMesh
 66
     1
 10
0.0
 20
0.0
 30
0.0
 70
    16
 71
     6
 72
     3
  0
VERTEX
  5
8A2C8
100
AcDbEntity
  8
0
100
AcDbVertex
100
AcDbPolygonMeshVertex
 10
-1.81
 20
-7.94
 30
0.19
 70
    64
  0
VERTEX
  5
8A2C9
100
AcDbEntity
  8
0
100
AcDbVertex
100
AcDbPolygonMeshVertex
 10
-1.81
 20
-7.94
 30
0.19
 70
    64
  0
VERTEX
  5
8A2CA
100
AcDbEntity
  8
0
100
AcDbVertex
100
AcDbPolygonMeshVertex
 10
-1.81
 20
-7.94
 30
0.19
 70
    64
  0
VERTEX
  5
8A2CB
100
AcDbEntity
  8
0
100
AcDbVertex
100
AcDbPolygonMeshVertex
 10
-1.81
 20
-8.4
 30
1.68
 70
    64
  0
VERTEX
  5
8A2CC
100
AcDbEntity
  8
0
100
AcDbVertex
100
AcDbPolygonMeshVertex
 10
-1.81
 20
-7.94
 30
1.68
 70
    64
  0
VERTEX
  5
8A2CD
100
AcDbEntity
  8
0
100
AcDbVertex
100
AcDbPolygonMeshVertex
 10
-1.81
 20
-7.94
 30
1.68
 70
    64
  0
VERTEX
  5
8A2CE
100
AcDbEntity
  8
0
100
AcDbVertex
100
AcDbPolygonMeshVertex
 10
1.81
 20
-8.4
 30
1.68
 70
    64
  0
VERTEX
  5
8A2CF
100
AcDbEntity
  8
0
100
AcDbVertex
100
AcDbPolygonMeshVertex
 10
1.81
 20
-7.94
 30
1.68
 70
    64
  0
VERTEX
  5
8A2D0
100
AcDbEntity
  8
0
100
AcDbVertex
100
AcDbPolygonMeshVertex
 10
-1.81
 20
-7.94
 30
1.68
 70
    64
  0
VERTEX
  5
8A2D1
100
AcDbEntity
  8
0
100
AcDbVertex
100
AcDbPolygonMeshVertex
 10
1.81
 20
-7.94
 30
0.19
 70
    64
  0
VERTEX
  5
8A2D2
100
AcDbEntity
  8
0
100
AcDbVertex
100
AcDbPolygonMeshVertex
 10
1.81
 20
-7.94
 30
0.19
 70
    64
  0
VERTEX
  5
8A2D3
100
AcDbEntity
  8
0
100
AcDbVertex
100
AcDbPolygonMeshVertex
 10
-1.81
 20
-7.94
 30
0.19
 70
    64
  0
VERTEX
  5
8A2D4
100
AcDbEntity
  8
0
100
AcDbVertex
100
AcDbPolygonMeshVertex
 10
1.81
 20
-7.94
 30
0.19
 70
    64
  0
VERTEX
  5
8A2D5
100
AcDbEntity
  8
0
100
AcDbVertex
100
AcDbPolygonMeshVertex
 10
1.81
 20
-7.94
 30
0.19
 70
    64
  0
VERTEX
  5
8A2D6
100
AcDbEntity
  8
0
100
AcDbVertex
100
AcDbPolygonMeshVertex
 10
-1.81
 20
-7.94
 30
0.19
 70
    64
  0
VERTEX
  5
8A2D7
100
AcDbEntity
  8
0
100
AcDbVertex
100
AcDbPolygonMeshVertex
 10
1.81
 20
-8.4
 30
1.68
 70
    64
  0
VERTEX
  5
8A2D8
100
AcDbEntity
  8
0
100
AcDbVertex
100
AcDbPolygonMeshVertex
 10
1.81
 20
-8.4
 30
1.68
 70
    64
  0
VERTEX
  5
8A2D9
100
AcDbEntity
  8
0
100
AcDbVertex
100
AcDbPolygonMeshVertex
 10
-1.81
 20
-8.4
 30
1.68
 70
    64
  0
SEQEND
  5
8A2DA
100
AcDbEntity
  8
0
  0
POLYLINE
  5
8A2DB
100
AcDbEntity
  8
0
100
AcDbPolygonMesh
 66
     1
 10
0.0
 20
0.0
 30
0.0
 70
    16
 71
     6
 72
     3
  0
VERTEX
  5
8A2DC
100
AcDbEntity
  8
0
100
AcDbVertex
100
AcDbPolygonMeshVertex
 10
1.81
 20
-8.4
 30
2.06
 70
    64
  0
VERTEX
  5
8A2DD
100
AcDbEntity
  8
0
100
AcDbVertex
100
AcDbPolygonMeshVertex
 10
1.81
 20
-8.4
 30
1.68
 70
    64
  0
VERTEX
  5
8A2DE
100
AcDbEntity
  8
0
100
AcDbVertex
100
AcDbPolygonMeshVertex
 10
1.81
 20
-8.4
 30
1.68
 70
    64
  0
VERTEX
  5
8A2DF
100
AcDbEntity
  8
0
100
AcDbVertex
100
AcDbPolygonMeshVertex
 10
-1.81
 20
-8.4
 30
2.06
 70
    64
  0
VERTEX
  5
8A2E0
100
AcDbEntity
  8
0
100
AcDbVertex
100
AcDbPolygonMeshVertex
 10
-1.81
 20
-8.4
 30
1.68
 70
    64
  0
VERTEX
  5
8A2E1
100
AcDbEntity
  8
0
100
AcDbVertex
100
AcDbPolygonMeshVertex
 10
-1.81
 20
-8.4
 30
1.68
 70
    64
  0
VERTEX
  5
8A2E2
100
AcDbEntity
  8
0
100
AcDbVertex
100
AcDbPolygonMeshVertex
 10
-1.81
 20
-7.94
 30
2.06
 70
    64
  0
VERTEX
  5
8A2E3
100
AcDbEntity
  8
0
100
AcDbVertex
100
AcDbPolygonMeshVertex
 10
-1.81
 20
-7.94
 30
1.68
 70
    64
  0
VERTEX
  5
8A2E4
100
AcDbEntity
  8
0
100
AcDbVertex
100
AcDbPolygonMeshVertex
 10
-1.81
 20
-8.4
 30
1.68
 70
    64
  0
VERTEX
  5
8A2E5
100
AcDbEntity
  8
0
100
AcDbVertex
100
AcDbPolygonMeshVertex
 10
1.81
 20
-7.94
 30
2.06
 70
    64
  0
VERTEX
  5
8A2E6
100
AcDbEntity
  8
0
100
AcDbVertex
100
AcDbPolygonMeshVertex
 10
1.81
 20
-7.94
 30
1.68
 70
    64
  0
VERTEX
  5
8A2E7
100
AcDbEntity
  8
0
100
AcDbVertex
100
AcDbPolygonMeshVertex
 10
1.81
 20
-8.4
 30
1.68
 70
    64
  0
VERTEX
  5
8A2E8
100
AcDbEntity
  8
0
100
AcDbVertex
100
AcDbPolygonMeshVertex
 10
1.81
 20
-7.94
 30
2.06
 70
    64
  0
VERTEX
  5
8A2E9
100
AcDbEntity
  8
0
100
AcDbVertex
100
AcDbPolygonMeshVertex
 10
1.81
 20
-7.94
 30
2.06
 70
    64
  0
VERTEX
  5
8A2EA
100
AcDbEntity
  8
0
100
AcDbVertex
100
AcDbPolygonMeshVertex
 10
1.81
 20
-8.4
 30
2.06
 70
    64
  0
VERTEX
  5
8A2EB
100
AcDbEntity
  8
0
100
AcDbVertex
100
AcDbPolygonMeshVertex
 10
-1.81
 20
-7.94
 30
2.06
 70
    64
  0
VERTEX
  5
8A2EC
100
AcDbEntity
  8
0
100
AcDbVertex
100
AcDbPolygonMeshVertex
 10
-1.81
 20
-7.94
 30
2.06
 70
    64
  0
VERTEX
  5
8A2ED
100
AcDbEntity
  8
0
100
AcDbVertex
100
AcDbPolygonMeshVertex
 10
-1.81
 20
-8.4
 30
2.06
 70
    64
  0
SEQEND
  5
8A2EE
100
AcDbEntity
  8
0
  0
POLYLINE
  5
8A2EF
100
AcDbEntity
  8
0
100
AcDbPolygonMesh
 66
     1
 10
0.0
 20
0.0
 30
0.0
 70
    16
 71
     6
 72
     3
  0
VERTEX
  5
8A2F0
100
AcDbEntity
  8
0
100
AcDbVertex
100
AcDbPolygonMeshVertex
 10
-1.31
 20
-7.94
 30
2.4
 70
    64
  0
VERTEX
  5
8A2F1
100
AcDbEntity
  8
0
100
AcDbVertex
100
AcDbPolygonMeshVertex
 10
-1.31
 20
-7.94
 30
2.06
 70
    64
  0
VERTEX
  5
8A2F2
100
AcDbEntity
  8
0
100
AcDbVertex
100
AcDbPolygonMeshVertex
 10
-1.31
 20
-7.94
 30
2.06
 70
    64
  0
VERTEX
  5
8A2F3
100
AcDbEntity
  8
0
100
AcDbVertex
100
AcDbPolygonMeshVertex
 10
-0.81
 20
-7.94
 30
2.4
 70
    64
  0
VERTEX
  5
8A2F4
100
AcDbEntity
  8
0
100
AcDbVertex
100
AcDbPolygonMeshVertex
 10
-0.81
 20
-7.94
 30
2.06
 70
    64
  0
VERTEX
  5
8A2F5
100
AcDbEntity
  8
0
100
AcDbVertex
100
AcDbPolygonMeshVertex
 10
-0.81
 20
-7.94
 30
2.06
 70
    64
  0
VERTEX
  5
8A2F6
100
AcDbEntity
  8
0
100
AcDbVertex
100
AcDbPolygonMeshVertex
 10
-0.81
 20
-8.88
 30
2.4
 70
    64
  0
VERTEX
  5
8A2F7
100
AcDbEntity
  8
0
100
AcDbVertex
100
AcDbPolygonMeshVertex
 10
-0.81
 20
-8.88
 30
2.06
 70
    64
  0
VERTEX
  5
8A2F8
100
AcDbEntity
  8
0
100
AcDbVertex
100
AcDbPolygonMeshVertex
 10
-0.81
 20
-7.94
 30
2.06
 70
    64
  0
VERTEX
  5
8A2F9
100
AcDbEntity
  8
0
100
AcDbVertex
100
AcDbPolygonMeshVertex
 10
-1.31
 20
-8.88
 30
2.4
 70
    64
  0
VERTEX
  5
8A2FA
100
AcDbEntity
  8
0
100
AcDbVertex
100
AcDbPolygonMeshVertex
 10
-1.31
 20
-8.88
 30
2.06
 70
    64
  0
VERTEX
  5
8A2FB
100
AcDbEntity
  8
0
100
AcDbVertex
100
AcDbPolygonMeshVertex
 10
-1.31
 20
-7.94
 30
2.06
 70
    64
  0
VERTEX
  5
8A2FC
100
AcDbEntity
  8
0
100
AcDbVertex
100
AcDbPolygonMeshVertex
 10
-1.31
 20
-8.88
 30
2.4
 70
    64
  0
VERTEX
  5
8A2FD
100
AcDbEntity
  8
0
100
AcDbVertex
100
AcDbPolygonMeshVertex
 10
-1.31
 20
-8.88
 30
2.4
 70
    64
  0
VERTEX
  5
8A2FE
100
AcDbEntity
  8
0
100
AcDbVertex
100
AcDbPolygonMeshVertex
 10
-1.31
 20
-7.94
 30
2.4
 70
    64
  0
VERTEX
  5
8A2FF
100
AcDbEntity
  8
0
100
AcDbVertex
100
AcDbPolygonMeshVertex
 10
-0.81
 20
-8.88
 30
2.4
 70
    64
  0
VERTEX
  5
8A300
100
AcDbEntity
  8
0
100
AcDbVertex
100
AcDbPolygonMeshVertex
 10
-0.81
 20
-8.88
 30
2.4
 70
    64
  0
VERTEX
  5
8A301
100
AcDbEntity
  8
0
100
AcDbVertex
100
AcDbPolygonMeshVertex
 10
-0.81
 20
-7.94
 30
2.4
 70
    64
  0
SEQEND
  5
8A302
100
AcDbEntity
  8
0
  0
POLYLINE
  5
8A303
100
AcDbEntity
  8
0
100
AcDbPolygonMesh
 66
     1
 10
0.0
 20
0.0
 30
0.0
 70
    16
 71
     6
 72
     3
  0
VERTEX
  5
8A304
100
AcDbEntity
  8
0
100
AcDbVertex
100
AcDbPolygonMeshVertex
 10
-0.81
 20
-8.88
 30
2.53
 70
    64
  0
VERTEX
  5
8A305
100
AcDbEntity
  8
0
100
AcDbVertex
100
AcDbPolygonMeshVertex
 10
-0.81
 20
-8.88
 30
2.4
 70
    64
  0
VERTEX
  5
8A306
100
AcDbEntity
  8
0
100
AcDbVertex
100
AcDbPolygonMeshVertex
 10
-0.81
 20
-8.88
 30
2.4
 70
    64
  0
VERTEX
  5
8A307
100
AcDbEntity
  8
0
100
AcDbVertex
100
AcDbPolygonMeshVertex
 10
-1.31
 20
-8.88
 30
2.53
 70
    64
  0
VERTEX
  5
8A308
100
AcDbEntity
  8
0
100
AcDbVertex
100
AcDbPolygonMeshVertex
 10
-1.31
 20
-8.88
 30
2.4
 70
    64
  0
VERTEX
  5
8A309
100
AcDbEntity
  8
0
100
AcDbVertex
100
AcDbPolygonMeshVertex
 10
-1.31
 20
-8.88
 30
2.4
 70
    64
  0
VERTEX
  5
8A30A
100
AcDbEntity
  8
0
100
AcDbVertex
100
AcDbPolygonMeshVertex
 10
-1.31
 20
-8.38
 30
2.53
 70
    64
  0
VERTEX
  5
8A30B
100
AcDbEntity
  8
0
100
AcDbVertex
100
AcDbPolygonMeshVertex
 10
-1.31
 20
-8.38
 30
2.4
 70
    64
  0
VERTEX
  5
8A30C
100
AcDbEntity
  8
0
100
AcDbVertex
100
AcDbPolygonMeshVertex
 10
-1.31
 20
-8.88
 30
2.4
 70
    64
  0
VERTEX
  5
8A30D
100
AcDbEntity
  8
0
100
AcDbVertex
100
AcDbPolygonMeshVertex
 10
-0.81
 20
-8.38
 30
2.53
 70
    64
  0
VERTEX
  5
8A30E
100
AcDbEntity
  8
0
100
AcDbVertex
100
AcDbPolygonMeshVertex
 10
-0.81
 20
-8.38
 30
2.4
 70
    64
  0
VERTEX
  5
8A30F
100
AcDbEntity
  8
0
100
AcDbVertex
100
AcDbPolygonMeshVertex
 10
-0.81
 20
-8.88
 30
2.4
 70
    64
  0
VERTEX
  5
8A310
100
AcDbEntity
  8
0
100
AcDbVertex
100
AcDbPolygonMeshVertex
 10
-0.81
 20
-8.38
 30
2.53
 70
    64
  0
VERTEX
  5
8A311
100
AcDbEntity
  8
0
100
AcDbVertex
100
AcDbPolygonMeshVertex
 10
-0.81
 20
-8.38
 30
2.53
 70
    64
  0
VERTEX
  5
8A312
100
AcDbEntity
  8
0
100
AcDbVertex
100
AcDbPolygonMeshVertex
 10
-0.81
 20
-8.88
 30
2.53
 70
    64
  0
VERTEX
  5
8A313
100
AcDbEntity
  8
0
100
AcDbVertex
100
AcDbPolygonMeshVertex
 10
-1.31
 20
-8.38
 30
2.53
 70
    64
  0
VERTEX
  5
8A314
100
AcDbEntity
  8
0
100
AcDbVertex
100
AcDbPolygonMeshVertex
 10
-1.31
 20
-8.38
 30
2.53
 70
    64
  0
VERTEX
  5
8A315
100
AcDbEntity
  8
0
100
AcDbVertex
100
AcDbPolygonMeshVertex
 10
-1.31
 20
-8.88
 30
2.53
 70
    64
  0
SEQEND
  5
8A316
100
AcDbEntity
  8
0
  0
POLYLINE
  5
8A317
100
AcDbEntity
  8
0
100
AcDbPolygonMesh
 66
     1
 10
0.0
 20
0.0
 30
0.0
 70
    16
 71
     6
 72
     3
  0
VERTEX
  5
8A318
100
AcDbEntity
  8
0
100
AcDbVertex
100
AcDbPolygonMeshVertex
 10
-0.38
 20
-8.4
 30
2.65
 70
    64
  0
VERTEX
  5
8A319
100
AcDbEntity
  8
0
100
AcDbVertex
100
AcDbPolygonMeshVertex
 10
-0.38
 20
-8.4
 30
2.06
 70
    64
  0
VERTEX
  5
8A31A
100
AcDbEntity
  8
0
100
AcDbVertex
100
AcDbPolygonMeshVertex
 10
-0.38
 20
-8.4
 30
2.06
 70
    64
  0
VERTEX
  5
8A31B
100
AcDbEntity
  8
0
100
AcDbVertex
100
AcDbPolygonMeshVertex
 10
-0.69
 20
-8.4
 30
2.65
 70
    64
  0
VERTEX
  5
8A31C
100
AcDbEntity
  8
0
100
AcDbVertex
100
AcDbPolygonMeshVertex
 10
-0.69
 20
-8.4
 30
2.06
 70
    64
  0
VERTEX
  5
8A31D
100
AcDbEntity
  8
0
100
AcDbVertex
100
AcDbPolygonMeshVertex
 10
-0.69
 20
-8.4
 30
2.06
 70
    64
  0
VERTEX
  5
8A31E
100
AcDbEntity
  8
0
100
AcDbVertex
100
AcDbPolygonMeshVertex
 10
-0.69
 20
-7.94
 30
2.65
 70
    64
  0
VERTEX
  5
8A31F
100
AcDbEntity
  8
0
100
AcDbVertex
100
AcDbPolygonMeshVertex
 10
-0.69
 20
-7.94
 30
2.06
 70
    64
  0
VERTEX
  5
8A320
100
AcDbEntity
  8
0
100
AcDbVertex
100
AcDbPolygonMeshVertex
 10
-0.69
 20
-8.4
 30
2.06
 70
    64
  0
VERTEX
  5
8A321
100
AcDbEntity
  8
0
100
AcDbVertex
100
AcDbPolygonMeshVertex
 10
-0.38
 20
-7.94
 30
2.65
 70
    64
  0
VERTEX
  5
8A322
100
AcDbEntity
  8
0
100
AcDbVertex
100
AcDbPolygonMeshVertex
 10
-0.38
 20
-7.94
 30
2.06
 70
    64
  0
VERTEX
  5
8A323
100
AcDbEntity
  8
0
100
AcDbVertex
100
AcDbPolygonMeshVertex
 10
-0.38
 20
-8.4
 30
2.06
 70
    64
  0
VERTEX
  5
8A324
100
AcDbEntity
  8
0
100
AcDbVertex
100
AcDbPolygonMeshVertex
 10
-0.38
 20
-7.94
 30
2.65
 70
    64
  0
VERTEX
  5
8A325
100
AcDbEntity
  8
0
100
AcDbVertex
100
AcDbPolygonMeshVertex
 10
-0.38
 20
-7.94
 30
2.65
 70
    64
  0
VERTEX
  5
8A326
100
AcDbEntity
  8
0
100
AcDbVertex
100
AcDbPolygonMeshVertex
 10
-0.38
 20
-8.4
 30
2.65
 70
    64
  0
VERTEX
  5
8A327
100
AcDbEntity
  8
0
100
AcDbVertex
100
AcDbPolygonMeshVertex
 10
-0.69
 20
-7.94
 30
2.65
 70
    64
  0
VERTEX
  5
8A328
100
AcDbEntity
  8
0
100
AcDbVertex
100
AcDbPolygonMeshVertex
 10
-0.69
 20
-7.94
 30
2.65
 70
    64
  0
VERTEX
  5
8A329
100
AcDbEntity
  8
0
100
AcDbVertex
100
AcDbPolygonMeshVertex
 10
-0.69
 20
-8.4
 30
2.65
 70
    64
  0
SEQEND
  5
8A32A
100
AcDbEntity
  8
0
  0
POLYLINE
  5
8A32B
100
AcDbEntity
  8
0
100
AcDbPolygonMesh
 66
     1
 10
0.0
 20
0.0
 30
0.0
 70
    16
 71
     6
 72
     3
  0
VERTEX
  5
8A32C
100
AcDbEntity
  8
0
100
AcDbVertex
100
AcDbPolygonMeshVertex
 10
-0.25
 20
-7.94
 30
2.4
 70
    64
  0
VERTEX
  5
8A32D
100
AcDbEntity
  8
0
100
AcDbVertex
100
AcDbPolygonMeshVertex
 10
-0.25
 20
-7.94
 30
2.06
 70
    64
  0
VERTEX
  5
8A32E
100
AcDbEntity
  8
0
100
AcDbVertex
100
AcDbPolygonMeshVertex
 10
-0.25
 20
-7.94
 30
2.06
 70
    64
  0
VERTEX
  5
8A32F
100
AcDbEntity
  8
0
100
AcDbVertex
100
AcDbPolygonMeshVertex
 10
0.25
 20
-7.94
 30
2.4
 70
    64
  0
VERTEX
  5
8A330
100
AcDbEntity
  8
0
100
AcDbVertex
100
AcDbPolygonMeshVertex
 10
0.25
 20
-7.94
 30
2.06
 70
    64
  0
VERTEX
  5
8A331
100
AcDbEntity
  8
0
100
AcDbVertex
100
AcDbPolygonMeshVertex
 10
0.25
 20
-7.94
 30
2.06
 70
    64
  0
VERTEX
  5
8A332
100
AcDbEntity
  8
0
100
AcDbVertex
100
AcDbPolygonMeshVertex
 10
0.25
 20
-8.88
 30
2.4
 70
    64
  0
VERTEX
  5
8A333
100
AcDbEntity
  8
0
100
AcDbVertex
100
AcDbPolygonMeshVertex
 10
0.25
 20
-8.88
 30
2.06
 70
    64
  0
VERTEX
  5
8A334
100
AcDbEntity
  8
0
100
AcDbVertex
100
AcDbPolygonMeshVertex
 10
0.25
 20
-7.94
 30
2.06
 70
    64
  0
VERTEX
  5
8A335
100
AcDbEntity
  8
0
100
AcDbVertex
100
AcDbPolygonMeshVertex
 10
-0.25
 20
-8.88
 30
2.4
 70
    64
  0
VERTEX
  5
8A336
100
AcDbEntity
  8
0
100
AcDbVertex
100
AcDbPolygonMeshVertex
 10
-0.25
 20
-8.88
 30
2.06
 70
    64
  0
VERTEX
  5
8A337
100
AcDbEntity
  8
0
100
AcDbVertex
100
AcDbPolygonMeshVertex
 10
-0.25
 20
-7.94
 30
2.06
 70
    64
  0
VERTEX
  5
8A338
100
AcDbEntity
  8
0
100
AcDbVertex
100
AcDbPolygonMeshVertex
 10
-0.25
 20
-8.88
 30
2.4
 70
    64
  0
VERTEX
  5
8A339
100
AcDbEntity
  8
0
100
AcDbVertex
100
AcDbPolygonMeshVertex
 10
-0.25
 20
-8.88
 30
2.4
 70
    64
  0
VERTEX
  5
8A33A
100
AcDbEntity
  8
0
100
AcDbVertex
100
AcDbPolygonMeshVertex
 10
-0.25
 20
-7.94
 30
2.4
 70
    64
  0
VERTEX
  5
8A33B
100
AcDbEntity
  8
0
100
AcDbVertex
100
AcDbPolygonMeshVertex
 10
0.25
 20
-8.88
 30
2.4
 70
    64
  0
VERTEX
  5
8A33C
100
AcDbEntity
  8
0
100
AcDbVertex
100
AcDbPolygonMeshVertex
 10
0.25
 20
-8.88
 30
2.4
 70
    64
  0
VERTEX
  5
8A33D
100
AcDbEntity
  8
0
100
AcDbVertex
100
AcDbPolygonMeshVertex
 10
0.25
 20
-7.94
 30
2.4
 70
    64
  0
SEQEND
  5
8A33E
100
AcDbEntity
  8
0
  0
POLYLINE
  5
8A33F
100
AcDbEntity
  8
0
100
AcDbPolygonMesh
 66
     1
 10
0.0
 20
0.0
 30
0.0
 70
    16
 71
     6
 72
     3
  0
VERTEX
  5
8A340
100
AcDbEntity
  8
0
100
AcDbVertex
100
AcDbPolygonMeshVertex
 10
0.25
 20
-8.88
 30
2.53
 70
    64
  0
VERTEX
  5
8A341
100
AcDbEntity
  8
0
100
AcDbVertex
100
AcDbPolygonMeshVertex
 10
0.25
 20
-8.88
 30
2.4
 70
    64
  0
VERTEX
  5
8A342
100
AcDbEntity
  8
0
100
AcDbVertex
100
AcDbPolygonMeshVertex
 10
0.25
 20
-8.88
 30
2.4
 70
    64
  0
VERTEX
  5
8A343
100
AcDbEntity
  8
0
100
AcDbVertex
100
AcDbPolygonMeshVertex
 10
-0.25
 20
-8.88
 30
2.53
 70
    64
  0
VERTEX
  5
8A344
100
AcDbEntity
  8
0
100
AcDbVertex
100
AcDbPolygonMeshVertex
 10
-0.25
 20
-8.88
 30
2.4
 70
    64
  0
VERTEX
  5
8A345
100
AcDbEntity
  8
0
100
AcDbVertex
100
AcDbPolygonMeshVertex
 10
-0.25
 20
-8.88
 30
2.4
 70
    64
  0
VERTEX
  5
8A346
100
AcDbEntity
  8
0
100
AcDbVertex
100
AcDbPolygonMeshVertex
 10
-0.25
 20
-8.38
 30
2.53
 70
    64
  0
VERTEX
  5
8A347
100
AcDbEntity
  8
0
100
AcDbVertex
100
AcDbPolygonMeshVertex
 10
-0.25
 20
-8.38
 30
2.4
 70
    64
  0
VERTEX
  5
8A348
100
AcDbEntity
  8
0
100
AcDbVertex
100
AcDbPolygonMeshVertex
 10
-0.25
 20
-8.88
 30
2.4
 70
    64
  0
VERTEX
  5
8A349
100
AcDbEntity
  8
0
100
AcDbVertex
100
AcDbPolygonMeshVertex
 10
0.25
 20
-8.38
 30
2.53
 70
    64
  0
VERTEX
  5
8A34A
100
AcDbEntity
  8
0
100
AcDbVertex
100
AcDbPolygonMeshVertex
 10
0.25
 20
-8.38
 30
2.4
 70
    64
  0
VERTEX
  5
8A34B
100
AcDbEntity
  8
0
100
AcDbVertex
100
AcDbPolygonMeshVertex
 10
0.25
 20
-8.88
 30
2.4
 70
    64
  0
VERTEX
  5
8A34C
100
AcDbEntity
  8
0
100
AcDbVertex
100
AcDbPolygonMeshVertex
 10
0.25
 20
-8.38
 30
2.53
 70
    64
  0
VERTEX
  5
8A34D
100
AcDbEntity
  8
0
100
AcDbVertex
100
AcDbPolygonMeshVertex
 10
0.25
 20
-8.38
 30
2.53
 70
    64
  0
VERTEX
  5
8A34E
100
AcDbEntity
  8
0
100
AcDbVertex
100
AcDbPolygonMeshVertex
 10
0.25
 20
-8.88
 30
2.53
 70
    64
  0
VERTEX
  5
8A34F
100
AcDbEntity
  8
0
100
AcDbVertex
100
AcDbPolygonMeshVertex
 10
-0.25
 20
-8.38
 30
2.53
 70
    64
  0
VERTEX
  5
8A350
100
AcDbEntity
  8
0
100
AcDbVertex
100
AcDbPolygonMeshVertex
 10
-0.25
 20
-8.38
 30
2.53
 70
    64
  0
VERTEX
  5
8A351
100
AcDbEntity
  8
0
100
AcDbVertex
100
AcDbPolygonMeshVertex
 10
-0.25
 20
-8.88
 30
2.53
 70
    64
  0
SEQEND
  5
8A352
100
AcDbEntity
  8
0
  0
CIRCLE
  5
8A353
100
AcDbEntity
  8
0
100
AcDbCircle
 10
0.0
 20
-8.63
 30
2.53
 40
0.155
  0
CIRCLE
  5
8A354
100
AcDbEntity
  8
0
100
AcDbCircle
 10
0.0
 20
-8.63
 30
2.53
 40
0.125
  0
POLYLINE
  5
8A355
100
AcDbEntity
  8
0
100
AcDbPolygonMesh
 66
     1
 10
0.0
 20
0.0
 30
0.0
 70
    16
 71
     6
 72
     3
  0
VERTEX
  5
8A356
100
AcDbEntity
  8
0
100
AcDbVertex
100
AcDbPolygonMeshVertex
 10
0.81
 20
-7.94
 30
2.4
 70
    64
  0
VERTEX
  5
8A357
100
AcDbEntity
  8
0
100
AcDbVertex
100
AcDbPolygonMeshVertex
 10
0.81
 20
-7.94
 30
2.06
 70
    64
  0
VERTEX
  5
8A358
100
AcDbEntity
  8
0
100
AcDbVertex
100
AcDbPolygonMeshVertex
 10
0.81
 20
-7.94
 30
2.06
 70
    64
  0
VERTEX
  5
8A359
100
AcDbEntity
  8
0
100
AcDbVertex
100
AcDbPolygonMeshVertex
 10
1.31
 20
-7.94
 30
2.4
 70
    64
  0
VERTEX
  5
8A35A
100
AcDbEntity
  8
0
100
AcDbVertex
100
AcDbPolygonMeshVertex
 10
1.31
 20
-7.94
 30
2.06
 70
    64
  0
VERTEX
  5
8A35B
100
AcDbEntity
  8
0
100
AcDbVertex
100
AcDbPolygonMeshVertex
 10
1.31
 20
-7.94
 30
2.06
 70
    64
  0
VERTEX
  5
8A35C
100
AcDbEntity
  8
0
100
AcDbVertex
100
AcDbPolygonMeshVertex
 10
1.31
 20
-8.88
 30
2.4
 70
    64
  0
VERTEX
  5
8A35D
100
AcDbEntity
  8
0
100
AcDbVertex
100
AcDbPolygonMeshVertex
 10
1.31
 20
-8.88
 30
2.06
 70
    64
  0
VERTEX
  5
8A35E
100
AcDbEntity
  8
0
100
AcDbVertex
100
AcDbPolygonMeshVertex
 10
1.31
 20
-7.94
 30
2.06
 70
    64
  0
VERTEX
  5
8A35F
100
AcDbEntity
  8
0
100
AcDbVertex
100
AcDbPolygonMeshVertex
 10
0.81
 20
-8.88
 30
2.4
 70
    64
  0
VERTEX
  5
8A360
100
AcDbEntity
  8
0
100
AcDbVertex
100
AcDbPolygonMeshVertex
 10
0.81
 20
-8.88
 30
2.06
 70
    64
  0
VERTEX
  5
8A361
100
AcDbEntity
  8
0
100
AcDbVertex
100
AcDbPolygonMeshVertex
 10
0.81
 20
-7.94
 30
2.06
 70
    64
  0
VERTEX
  5
8A362
100
AcDbEntity
  8
0
100
AcDbVertex
100
AcDbPolygonMeshVertex
 10
0.81
 20
-8.88
 30
2.4
 70
    64
  0
VERTEX
  5
8A363
100
AcDbEntity
  8
0
100
AcDbVertex
100
AcDbPolygonMeshVertex
 10
0.81
 20
-8.88
 30
2.4
 70
    64
  0
VERTEX
  5
8A364
100
AcDbEntity
  8
0
100
AcDbVertex
100
AcDbPolygonMeshVertex
 10
0.81
 20
-7.94
 30
2.4
 70
    64
  0
VERTEX
  5
8A365
100
AcDbEntity
  8
0
100
AcDbVertex
100
AcDbPolygonMeshVertex
 10
1.31
 20
-8.88
 30
2.4
 70
    64
  0
VERTEX
  5
8A366
100
AcDbEntity
  8
0
100
AcDbVertex
100
AcDbPolygonMeshVertex
 10
1.31
 20
-8.88
 30
2.4
 70
    64
  0
VERTEX
  5
8A367
100
AcDbEntity
  8
0
100
AcDbVertex
100
AcDbPolygonMeshVertex
 10
1.31
 20
-7.94
 30
2.4
 70
    64
  0
SEQEND
  5
8A368
100
AcDbEntity
  8
0
  0
POLYLINE
  5
8A369
100
AcDbEntity
  8
0
100
AcDbPolygonMesh
 66
     1
 10
0.0
 20
0.0
 30
0.0
 70
    16
 71
     6
 72
     3
  0
VERTEX
  5
8A36A
100
AcDbEntity
  8
0
100
AcDbVertex
100
AcDbPolygonMeshVertex
 10
1.31
 20
-8.88
 30
2.53
 70
    64
  0
VERTEX
  5
8A36B
100
AcDbEntity
  8
0
100
AcDbVertex
100
AcDbPolygonMeshVertex
 10
1.31
 20
-8.88
 30
2.4
 70
    64
  0
VERTEX
  5
8A36C
100
AcDbEntity
  8
0
100
AcDbVertex
100
AcDbPolygonMeshVertex
 10
1.31
 20
-8.88
 30
2.4
 70
    64
  0
VERTEX
  5
8A36D
100
AcDbEntity
  8
0
100
AcDbVertex
100
AcDbPolygonMeshVertex
 10
0.81
 20
-8.88
 30
2.53
 70
    64
  0
VERTEX
  5
8A36E
100
AcDbEntity
  8
0
100
AcDbVertex
100
AcDbPolygonMeshVertex
 10
0.81
 20
-8.88
 30
2.4
 70
    64
  0
VERTEX
  5
8A36F
100
AcDbEntity
  8
0
100
AcDbVertex
100
AcDbPolygonMeshVertex
 10
0.81
 20
-8.88
 30
2.4
 70
    64
  0
VERTEX
  5
8A370
100
AcDbEntity
  8
0
100
AcDbVertex
100
AcDbPolygonMeshVertex
 10
0.81
 20
-8.38
 30
2.53
 70
    64
  0
VERTEX
  5
8A371
100
AcDbEntity
  8
0
100
AcDbVertex
100
AcDbPolygonMeshVertex
 10
0.81
 20
-8.38
 30
2.4
 70
    64
  0
VERTEX
  5
8A372
100
AcDbEntity
  8
0
100
AcDbVertex
100
AcDbPolygonMeshVertex
 10
0.81
 20
-8.88
 30
2.4
 70
    64
  0
VERTEX
  5
8A373
100
AcDbEntity
  8
0
100
AcDbVertex
100
AcDbPolygonMeshVertex
 10
1.31
 20
-8.38
 30
2.53
 70
    64
  0
VERTEX
  5
8A374
100
AcDbEntity
  8
0
100
AcDbVertex
100
AcDbPolygonMeshVertex
 10
1.31
 20
-8.38
 30
2.4
 70
    64
  0
VERTEX
  5
8A375
100
AcDbEntity
  8
0
100
AcDbVertex
100
AcDbPolygonMeshVertex
 10
1.31
 20
-8.88
 30
2.4
 70
    64
  0
VERTEX
  5
8A376
100
AcDbEntity
  8
0
100
AcDbVertex
100
AcDbPolygonMeshVertex
 10
1.31
 20
-8.38
 30
2.53
 70
    64
  0
VERTEX
  5
8A377
100
AcDbEntity
  8
0
100
AcDbVertex
100
AcDbPolygonMeshVertex
 10
1.31
 20
-8.38
 30
2.53
 70
    64
  0
VERTEX
  5
8A378
100
AcDbEntity
  8
0
100
AcDbVertex
100
AcDbPolygonMeshVertex
 10
1.31
 20
-8.88
 30
2.53
 70
    64
  0
VERTEX
  5
8A379
100
AcDbEntity
  8
0
100
AcDbVertex
100
AcDbPolygonMeshVertex
 10
0.81
 20
-8.38
 30
2.53
 70
    64
  0
VERTEX
  5
8A37A
100
AcDbEntity
  8
0
100
AcDbVertex
100
AcDbPolygonMeshVertex
 10
0.81
 20
-8.38
 30
2.53
 70
    64
  0
VERTEX
  5
8A37B
100
AcDbEntity
  8
0
100
AcDbVertex
100
AcDbPolygonMeshVertex
 10
0.81
 20
-8.88
 30
2.53
 70
    64
  0
SEQEND
  5
8A37C
100
AcDbEntity
  8
0
  0
CIRCLE
  5
8A37D
100
AcDbEntity
  8
0
100
AcDbCircle
 10
1.06
 20
-8.63
 30
2.53
 40
0.155
  0
CIRCLE
  5
8A37E
100
AcDbEntity
  8
0
100
AcDbCircle
 10
1.06
 20
-8.63
 30
2.53
 40
0.125
  0
POLYLINE
  5
8A37F
100
AcDbEntity
  8
0
100
AcDbPolygonMesh
 66
     1
 10
0.0
 20
0.0
 30
0.0
 70
    16
 71
     6
 72
     3
  0
VERTEX
  5
8A380
100
AcDbEntity
  8
0
100
AcDbVertex
100
AcDbPolygonMeshVertex
 10
0.69
 20
-8.4
 30
2.65
 70
    64
  0
VERTEX
  5
8A381
100
AcDbEntity
  8
0
100
AcDbVertex
100
AcDbPolygonMeshVertex
 10
0.69
 20
-8.4
 30
2.06
 70
    64
  0
VERTEX
  5
8A382
100
AcDbEntity
  8
0
100
AcDbVertex
100
AcDbPolygonMeshVertex
 10
0.69
 20
-8.4
 30
2.06
 70
    64
  0
VERTEX
  5
8A383
100
AcDbEntity
  8
0
100
AcDbVertex
100
AcDbPolygonMeshVertex
 10
0.38
 20
-8.4
 30
2.65
 70
    64
  0
VERTEX
  5
8A384
100
AcDbEntity
  8
0
100
AcDbVertex
100
AcDbPolygonMeshVertex
 10
0.38
 20
-8.4
 30
2.06
 70
    64
  0
VERTEX
  5
8A385
100
AcDbEntity
  8
0
100
AcDbVertex
100
AcDbPolygonMeshVertex
 10
0.38
 20
-8.4
 30
2.06
 70
    64
  0
VERTEX
  5
8A386
100
AcDbEntity
  8
0
100
AcDbVertex
100
AcDbPolygonMeshVertex
 10
0.38
 20
-7.94
 30
2.65
 70
    64
  0
VERTEX
  5
8A387
100
AcDbEntity
  8
0
100
AcDbVertex
100
AcDbPolygonMeshVertex
 10
0.38
 20
-7.94
 30
2.06
 70
    64
  0
VERTEX
  5
8A388
100
AcDbEntity
  8
0
100
AcDbVertex
100
AcDbPolygonMeshVertex
 10
0.38
 20
-8.4
 30
2.06
 70
    64
  0
VERTEX
  5
8A389
100
AcDbEntity
  8
0
100
AcDbVertex
100
AcDbPolygonMeshVertex
 10
0.69
 20
-7.94
 30
2.65
 70
    64
  0
VERTEX
  5
8A38A
100
AcDbEntity
  8
0
100
AcDbVertex
100
AcDbPolygonMeshVertex
 10
0.69
 20
-7.94
 30
2.06
 70
    64
  0
VERTEX
  5
8A38B
100
AcDbEntity
  8
0
100
AcDbVertex
100
AcDbPolygonMeshVertex
 10
0.69
 20
-8.4
 30
2.06
 70
    64
  0
VERTEX
  5
8A38C
100
AcDbEntity
  8
0
100
AcDbVertex
100
AcDbPolygonMeshVertex
 10
0.69
 20
-7.94
 30
2.65
 70
    64
  0
VERTEX
  5
8A38D
100
AcDbEntity
  8
0
100
AcDbVertex
100
AcDbPolygonMeshVertex
 10
0.69
 20
-7.94
 30
2.65
 70
    64
  0
VERTEX
  5
8A38E
100
AcDbEntity
  8
0
100
AcDbVertex
100
AcDbPolygonMeshVertex
 10
0.69
 20
-8.4
 30
2.65
 70
    64
  0
VERTEX
  5
8A38F
100
AcDbEntity
  8
0
100
AcDbVertex
100
AcDbPolygonMeshVertex
 10
0.38
 20
-7.94
 30
2.65
 70
    64
  0
VERTEX
  5
8A390
100
AcDbEntity
  8
0
100
AcDbVertex
100
AcDbPolygonMeshVertex
 10
0.38
 20
-7.94
 30
2.65
 70
    64
  0
VERTEX
  5
8A391
100
AcDbEntity
  8
0
100
AcDbVertex
100
AcDbPolygonMeshVertex
 10
0.38
 20
-8.4
 30
2.65
 70
    64
  0
SEQEND
  5
8A392
100
AcDbEntity
  8
0
  0
POLYLINE
  5
8A393
100
AcDbEntity
  8
0
100
AcDbPolygonMesh
 66
     1
 10
0.0
 20
0.0
 30
0.0
 70
    16
 71
     6
 72
     3
  0
VERTEX
  5
8A394
100
AcDbEntity
  8
0
100
AcDbVertex
100
AcDbPolygonMeshVertex
 10
1.97
 20
-8.87
 30
0.19
 70
    64
  0
VERTEX
  5
8A395
100
AcDbEntity
  8
0
100
AcDbVertex
100
AcDbPolygonMeshVertex
 10
1.97
 20
-8.87
 30
0.0
 70
    64
  0
VERTEX
  5
8A396
100
AcDbEntity
  8
0
100
AcDbVertex
100
AcDbPolygonMeshVertex
 10
1.97
 20
-8.87
 30
0.0
 70
    64
  0
VERTEX
  5
8A397
100
AcDbEntity
  8
0
100
AcDbVertex
100
AcDbPolygonMeshVertex
 10
-1.97
 20
-8.87
 30
0.19
 70
    64
  0
VERTEX
  5
8A398
100
AcDbEntity
  8
0
100
AcDbVertex
100
AcDbPolygonMeshVertex
 10
-1.97
 20
-8.87
 30
0.0
 70
    64
  0
VERTEX
  5
8A399
100
AcDbEntity
  8
0
100
AcDbVertex
100
AcDbPolygonMeshVertex
 10
-1.97
 20
-8.87
 30
0.0
 70
    64
  0
VERTEX
  5
8A39A
100
AcDbEntity
  8
0
100
AcDbVertex
100
AcDbPolygonMeshVertex
 10
-1.97
 20
-0.34
 30
0.19
 70
    64
  0
VERTEX
  5
8A39B
100
AcDbEntity
  8
0
100
AcDbVertex
100
AcDbPolygonMeshVertex
 10
-1.97
 20
-0.34
 30
0.0
 70
    64
  0
VERTEX
  5
8A39C
100
AcDbEntity
  8
0
100
AcDbVertex
100
AcDbPolygonMeshVertex
 10
-1.97
 20
-8.87
 30
0.0
 70
    64
  0
VERTEX
  5
8A39D
100
AcDbEntity
  8
0
100
AcDbVertex
100
AcDbPolygonMeshVertex
 10
1.97
 20
-0.34
 30
0.19
 70
    64
  0
VERTEX
  5
8A39E
100
AcDbEntity
  8
0
100
AcDbVertex
100
AcDbPolygonMeshVertex
 10
1.97
 20
-0.34
 30
0.0
 70
    64
  0
VERTEX
  5
8A39F
100
AcDbEntity
  8
0
100
AcDbVertex
100
AcDbPolygonMeshVertex
 10
1.97
 20
-8.87
 30
0.0
 70
    64
  0
VERTEX
  5
8A3A0
100
AcDbEntity
  8
0
100
AcDbVertex
100
AcDbPolygonMeshVertex
 10
1.97
 20
-0.34
 30
0.19
 70
    64
  0
VERTEX
  5
8A3A1
100
AcDbEntity
  8
0
100
AcDbVertex
100
AcDbPolygonMeshVertex
 10
1.97
 20
-0.34
 30
0.19
 70
    64
  0
VERTEX
  5
8A3A2
100
AcDbEntity
  8
0
100
AcDbVertex
100
AcDbPolygonMeshVertex
 10
1.97
 20
-8.87
 30
0.19
 70
    64
  0
VERTEX
  5
8A3A3
100
AcDbEntity
  8
0
100
AcDbVertex
100
AcDbPolygonMeshVertex
 10
-1.97
 20
-0.34
 30
0.19
 70
    64
  0
VERTEX
  5
8A3A4
100
AcDbEntity
  8
0
100
AcDbVertex
100
AcDbPolygonMeshVertex
 10
-1.97
 20
-0.34
 30
0.19
 70
    64
  0
VERTEX
  5
8A3A5
100
AcDbEntity
  8
0
100
AcDbVertex
100
AcDbPolygonMeshVertex
 10
-1.97
 20
-8.87
 30
0.19
 70
    64
  0
SEQEND
  5
8A3A6
100
AcDbEntity
  8
0
  0
3DFACE
  5
8A3A7
100
AcDbEntity
  8
0
100
AcDbFace
 10
-1.97
 20
-0.34
 30
0.19
 11
-1.35
 21
0.28
 31
0.19
 12
1.35
 22
0.28
 32
0.19
 13
1.97
 23
-0.34
 33
0.19
  0
3DFACE
  5
8A3A8
100
AcDbEntity
  8
0
100
AcDbFace
 10
-1.97
 20
-0.34
 30
0.0
 11
-1.35
 21
0.28
 31
0.0
 12
1.35
 22
0.28
 32
0.0
 13
1.97
 23
-0.34
 33
0.0
  0
3DFACE
  5
8A3A9
100
AcDbEntity
  8
0
100
AcDbFace
 10
1.35
 20
0.28
 30
0.19
 11
1.35
 21
0.28
 31
0.0
 12
1.97
 22
-0.34
 32
0.0
 13
1.97
 23
-0.34
 33
0.19
  0
3DFACE
  5
8A3AA
100
AcDbEntity
  8
0
100
AcDbFace
 10
-1.35
 20
0.28
 30
0.19
 11
-1.35
 21
0.28
 31
0.0
 12
1.35
 22
0.28
 32
0.0
 13
1.35
 23
0.28
 33
0.19
  0
3DFACE
  5
8A3AB
100
AcDbEntity
  8
0
100
AcDbFace
 10
-1.35
 20
0.28
 30
0.0
 11
-1.35
 21
0.28
 31
0.19
 12
-1.97
 22
-0.34
 32
0.19
 13
-1.97
 23
-0.34
 33
0.0
  0
TEXT
  5
8A3AC
100
AcDbEntity
  8
0
100
AcDbText
 10
-1.126292
 20
-0.598335
 30
4.47
 40
0.12
  1
L1
100
AcDbText
  0
TEXT
  5
8A3AD
100
AcDbEntity
  8
0
100
AcDbText
 10
-0.077399
 20
-0.601761
 30
4.47
 40
0.12
  1
L2
100
AcDbText
  0
TEXT
  5
8A3AE
100
AcDbEntity
  8
0
100
AcDbText
 10
0.978395
 20
-0.605188
 30
4.47
 40
0.12
  1
L3
100
AcDbText
  0
TEXT
  5
8A3AF
100
AcDbEntity
  8
0
100
AcDbText
 10
-1.135457
 20
-8.694387
 30
2.53
 40
0.12
  1
T1
100
AcDbText
  0
TEXT
  5
8A3B0
100
AcDbEntity
  8
0
100
AcDbText
 10
-0.096143
 20
-8.690175
 30
2.53
 40
0.12
  1
T2
100
AcDbText
  0
TEXT
  5
8A3B1
100
AcDbEntity
  8
0
100
AcDbText
 10
0.965379
 20
-8.690402
 30
2.53
 40
0.12
  1
T3
100
AcDbText
  0
ATTDEF
  5
8A3B2
100
AcDbEntity
  8
ATTRIBUTES
100
AcDbText
 10
-1.801457
 20
-6.026721
 30
0.0
 40
0.12
  1
ALLEN-BRADLEY
100
AcDbAttributeDefinition
  3
MANUFACTURER NAME?
  2
AC_VND_LABEL
 70
     1
  0
ATTDEF
  5
8A3B3
100
AcDbEntity
  8
ATTRIBUTES
100
AcDbText
 10
-1.801457
 20
-6.276721
 30
0.0
 40
0.12
  1
509-C
100
AcDbAttributeDefinition
  3
CATALOG NUMBER?
  2
AC_PART_NO
 70
     1
  0
ATTDEF
  5
8A3B4
100
AcDbEntity
  8
ATTRIBUTES
100
AcDbText
 10
-1.801457
 20
-6.526721
 30
0.0
 40
0.12
  1
NON-REVERSING STARTER w/ EUTECTIC ALLOY OLR; SIZE 2; 3P
100
AcDbAttributeDefinition
  3
PART DESCRIPTION?
  2
AC_DESCRIPTION
 70
     1
  0
ATTDEF
  5
8A3B5
100
AcDbEntity
  8
ATTRIBUTES
100
AcDbText
 10
-1.801457
 20
-6.776721
 30
0.0
 40
0.12
  1

100
AcDbAttributeDefinition
  3
DEVICE ID?
  2
DEVICE_ID
 70
     1
  0
ATTDEF
  5
8A3B6
100
AcDbEntity
  8
ATTRIBUTES
100
AcDbText
 10
-1.801457
 20
-7.026721
 30
0.0
 40
0.12
  1

100
AcDbAttributeDefinition
  3
CUSTOMER PART NUMBER?
  2
AC_CPART_NO
 70
     1
  0
ATTDEF
  5
8A3B7
100
AcDbEntity
  8
ATTRIBUTES
100
AcDbText
 10
-1.801457
 20
-7.276721
 30
0.0
 40
0.12
  1

100
AcDbAttributeDefinition
  3
CUSTOMER NOTE?
  2
AC_NOTE
 70
     1
  0
ATTDEF
  5
8A3B8
100
AcDbEntity
  8
ATTRIBUTES
100
AcDbText
 10
-1.801457
 20
-7.526721
 30
0.0
 40
0.12
  1

100
AcDbAttributeDefinition
  3
FASTENER DATA?
  2
FASTENER
 70
     1
  0
ATTDEF
  5
8A3B9
100
AcDbEntity
  8
ATTRIBUTES
100
AcDbText
 10
-1.801457
 20
-7.776721
 30
0.0
 40
0.12
  1
INCH
100
AcDbAttributeDefinition
  3
UNIT OF SCALE?
  2
AC_SCALE_UNIT
 70
     1
  0
ATTDEF
  5
8A3BA
100
AcDbEntity
  8
ATTRIBUTES
100
AcDbText
 10
-1.801457
 20
-8.026721
 30
0.0
 40
0.12
  1
0
100
AcDbAttributeDefinition
  3
VIEW CODE?
  2
AC_VIEW_CODE
 70
     1
  0
POINT
  5
8A3BB
100
AcDbEntity
  8
DIMS-MTG-HOLES
100
AcDbPoint
 10
-1.58
 20
-8.66
 30
0.0
  0
POINT
  5
8A3BC
100
AcDbEntity
  8
DIMS-MTG-HOLES
100
AcDbPoint
 10
1.58
 20
-8.66
 30
0.0
  0
POINT
  5
8A3BD
100
AcDbEntity
  8
DIMS-MTG-HOLES
100
AcDbPoint
 10
0.0
 20
0.0
 30
0.0
  0
POINT
  5
8A3BE
100
AcDbEntity
  8
DIMS-MTG-HOLES
100
AcDbPoint
 10
0.38
 20
0.0
 30
0.0
  0
DIMENSION
  5
8A3BF
100
AcDbEntity
  8
AREA1
100
AcDbDimension
  2
*D0
 10
-3.308267
 20
-8.88
 30
0.0
 11
-3.308267
 21
-4.433403
 31
0.0
 70
   160
  3
ABECAD_3D
100
AcDbAlignedDimension
 13
-1.35
 23
0.28
 33
0.0
 14
-1.31
 24
-8.88
 34
2.06
 50
90.0
100
AcDbRotatedDimension
  0
DIMENSION
  5
8A3CD
100
AcDbEntity
  8
AREA1
100
AcDbDimension
  2
*D1
 10
1.97
 20
1.199149
 30
0.0
 11
-0.044506
 21
1.199149
 31
0.0
 70
   160
  3
ABECAD_3D
100
AcDbAlignedDimension
 13
-1.97
 23
-0.34
 33
0.0
 14
1.97
 24
-0.34
 34
0.0
100
AcDbRotatedDimension
  0
LWPOLYLINE
  5
8A3EA
100
AcDbEntity
  8
SCALE
100
AcDbPolyline
 90
        4
 70
     1
 43
0.0
 10
-0.577233
 20
-9.063331
 10
0.558395
 20
-9.063331
 10
0.558395
 20
-9.90494
 10
-0.577233
 20
-9.90494
  0
LINE
  5
8A3EB
100
AcDbEntity
  8
SCALE
100
AcDbLine
 10
-0.519235
 20
-9.443409
 30
0.0
 11
0.480765
 21
-9.443409
 31
0.0
  0
LINE
  5
8A3EC
100
AcDbEntity
  8
SCALE
100
AcDbLine
 10
-0.519235
 20
-9.743409
 30
0.0
 11
-0.125535
 21
-9.743409
 31
0.0
  0
LINE
  5
8A3ED
100
AcDbEntity
  8
SCALE
100
AcDbLine
 10
-0.519235
 20
-9.543409
 30
0.0
 11
-0.519235
 21
-9.343409
 31
0.0
  0
TEXT
  5
8A3EE
100
AcDbEntity
  8
SCALE
100
AcDbText
 10
-0.463259
 20
-9.695724
 30
0.0
 40
0.0625
  1
[10mm]
100
AcDbText
  0
LINE
  5
8A3EF
100
AcDbEntity
  8
SCALE
100
AcDbLine
 10
-0.519235
 20
-9.843409
 30
0.0
 11
-0.519235
 21
-9.643409
 31
0.0
  0
TEXT
  5
8A3F0
100
AcDbEntity
  8
SCALE
100
AcDbText
 10
-0.517704
 20
-9.168532
 30
0.0
 40
0.0625
  1
SCALE:
100
AcDbText
  0
LINE
  5
8A3F1
100
AcDbEntity
  8
SCALE
100
AcDbLine
 10
-0.125535
 20
-9.843409
 30
0.0
 11
-0.125535
 21
-9.643409
 31
0.0
  0
TEXT
  5
8A3F2
100
AcDbEntity
  8
SCALE
100
AcDbText
 10
-0.155952
 20
-9.37436
 30
0.0
 40
0.0625
  1
1 Inch
100
AcDbText
  0
LINE
  5
8A3F3
100
AcDbEntity
  8
SCALE
100
AcDbLine
 10
0.480765
 20
-9.443409
 30
0.0
 11
0.480765
 21
-9.543409
 31
0.0
  0
LINE
  5
8A3F4
100
AcDbEntity
  8
SCALE
100
AcDbLine
 10
0.480765
 20
-9.543409
 30
0.0
 11
0.480765
 21
-9.343409
 31
0.0
  0
VIEWPORT
  5
5677D
102
{ACAD_XDICTIONARY
360
8A458
102
}
100
AcDbEntity
 67
     1
  8
0
100
AcDbViewport
 10
5.25
 20
4.0
 30
0.0
 40
16.386862
 41
8.993
 68
    -1
 69
     1
1001
ACAD
1000
MVIEW
1002
{
1070
    16
1010
0.0
1020
0.0
1030
0.0
1010
0.0
1020
0.0
1030
1.0
1040
0.0
1040
8.993
1040
5.25
1040
4.0
1040
50.0
1040
0.0
1040
0.0
1070
     0
1070
 20000
1070
     1
1070
     1
1070
     0
1070
     0
1070
     0
1070
     0
1040
0.0
1040
0.0
1040
0.0
1040
0.5
1040
0.5
1040
0.5
1040
0.5
1070
     0
1002
{
1002
}
1002
}
  0
VIEWPORT
  5
5677F
102
{ACAD_XDICTIONARY
360
8A45A
102
}
100
AcDbEntity
 67
     1
  8
AREA1
100
AcDbViewport
 10
5.25
 20
4.0
 30
0.0
 40
8.4
 41
6.4
 68
     1
 69
     2
1001
ACAD
1000
MVIEW
1002
{
1070
    16
1010
0.563444
1020
-0.880137
1030
1.686493
1010
0.0
1020
0.0
1030
1.0
1040
0.0
1040
4.582914
1040
-1.017175
1040
0.747813
1040
50.0
1040
0.0
1040
0.0
1070
     0
1070
 20000
1070
     1
1070
     1
1070
     0
1070
     0
1070
     0
1070
     0
1040
0.0
1040
0.0
1040
0.0
1040
0.25
1040
0.25
1040
0.25
1040
0.25
1070
     0
1002
{
1002
}
1002
}
  0
ENDSEC
  0
SECTION
  2
OBJECTS
  0
DICTIONARY
  5
458CB
100
AcDbDictionary
  3
ACAD_GROUP
350
458CC
  3
ACAD_LAYOUT
350
458FB
  3
ACAD_MLINESTYLE
350
458D9
  3
ACAD_PLOTSETTINGS
350
458FC
  3
ACAD_PLOTSTYLENAME
350
458F9
  3
ACDBHEADERROUNDTRIPXREC
350
8A42F
  3
ACDBVARIABLEDICTIONARY
350
458E1
  3
DWGPROPS
350
45901
  0
DICTIONARY
  5
8A42D
100
AcDbDictionary
280
     1
  3
ACAD_XREC_ROUNDTRIP
360
8A42E
  0
DICTIONARY
  5
8A456
100
AcDbDictionary
280
     1
  3
ACAD_XREC_ROUNDTRIP
360
8A457
  0
DICTIONARY
  5
8A42B
100
AcDbDictionary
280
     1
  3
ACAD_XREC_ROUNDTRIP
360
8A42C
  0
DICTIONARY
  5
8A452
100
AcDbDictionary
280
     1
  3
ACAD_XREC_ROUNDTRIP
360
8A453
  0
DICTIONARY
  5
4592C
100
AcDbDictionary
280
     1
  3
ACAD_LAYOUTSELFREF
360
8A451
  0
DICTIONARY
  5
4592A
100
AcDbDictionary
280
     1
  3
ACAD_LAYOUTSELFREF
360
8A450
  0
DICTIONARY
  5
8A458
100
AcDbDictionary
280
     1
  3
ACAD_XREC_ROUNDTRIP
360
8A459
  0
DICTIONARY
  5
8A45A
100
AcDbDictionary
280
     1
  3
ACAD_XREC_ROUNDTRIP
360
8A45B
  0
DICTIONARY
  5
458CC
102
{ACAD_REACTORS
330
458CB
102
}
100
AcDbDictionary
  0
DICTIONARY
  5
458FB
102
{ACAD_XDICTIONARY
360
8A454
102
}
102
{ACAD_REACTORS
330
458CB
102
}
100
AcDbDictionary
  3
LAYOUT1
350
458FE
  3
MODEL
350
458FD
  0
DICTIONARY
  5
458D9
102
{ACAD_REACTORS
330
458CB
102
}
100
AcDbDictionary
  3
STANDARD
350
458DA
  0
DICTIONARY
  5
458FC
102
{ACAD_REACTORS
330
458CB
102
}
100
AcDbDictionary
  0
ACAD_PROXY_OBJECT
  5
458F9
102
{ACAD_REACTORS
330
458CB
102
}
100
AcDbProxyObject
 90
      499
 91
      501
 93
       86
310
405010041939BDC9B585B0
350
458FA
340
458FA
 94
        0
  0
DICTIONARY
  5
8A42F
102
{ACAD_REACTORS
330
458CB
102
}
100
AcDbDictionary
  3
CEPSNTYPE
350
8A439
  3
DIMSTYLEDATA
350
8A43D
  3
FINGERPRINTGUID
350
8A43A
  3
HYPERLINKBASE
350
8A432
  3
INSUNITS
350
8A438
  3
LAYOUTDICT
350
8A434
  3
LWETCUNION
350
8A437
  3
PLOTSETDICT
350
8A435
  3
PLOTSTYLNAMDICT
350
8A436
  3
PSVPSCALE
350
8A43C
  3
PUCSBASE
350
8A440
  3
PUCSORGBACK
350
8A446
  3
PUCSORGBOTTOM
350
8A442
  3
PUCSORGFRONT
350
8A445
  3
PUCSORGLEFT
350
8A443
  3
PUCSORGRIGHT
350
8A444
  3
PUCSORGTOP
350
8A441
  3
PUCSORTHOREF
350
8A43E
  3
PUCSORTHOVIEW
350
8A43F
  3
STYLESHEET
350
8A433
  3
TSTACKALIGN
350
8A430
  3
TSTACKSIZE
350
8A431
  3
UCSBASE
350
8A449
  3
UCSORGBACK
350
8A44F
  3
UCSORGBOTTOM
350
8A44B
  3
UCSORGFRONT
350
8A44E
  3
UCSORGLEFT
350
8A44C
  3
UCSORGRIGHT
350
8A44D
  3
UCSORGTOP
350
8A44A
  3
UCSORTHOREF
350
8A447
  3
UCSORTHOVIEW
350
8A448
  3
VERSIONGUID
350
8A43B
  0
DICTIONARY
  5
458E1
102
{ACAD_REACTORS
330
458CB
102
}
100
AcDbDictionary
  3
DIMADEC
350
458E2
  0
XRECORD
  5
45901
102
{ACAD_REACTORS
330
458CB
102
}
100
AcDbXrecord
  1
DWGPROPS COOKIE
  2

  3

  4

  6

  7

  8
colin
  9

300
=
301
=
302
=
303
=
304
=
305
=
306
=
307
=
308
=
309
=
 40
0.000599
 41
2451670.444777
 42
2451670.445376
  1

 90
        0
  0
XRECORD
  5
8A42E
102
{ACAD_REACTORS
330
8A42D
102
}
100
AcDbXrecord
102
EXTNAMES
  1
*ACTIVE
  2
*Active
102
UCS
 74
     0
 71
     1
 10
0.0
 20
0.0
 30
0.0
 10
1.0
 20
0.0
 30
0.0
 10
0.0
 20
1.0
 30
0.0
146
0.0
 79
     1
102
VIEW
281
     1
  0
XRECORD
  5
8A457
102
{ACAD_REACTORS
330
8A456
102
}
100
AcDbXrecord
102
PLOTBIT
280
     0
  0
XRECORD
  5
8A42C
102
{ACAD_REACTORS
330
8A42B
102
}
100
AcDbXrecord
102
EXTNAMES
  1
DEFPOINTS
  2
Defpoints
102
PLOTBIT
280
     0
  0
XRECORD
  5
8A453
102
{ACAD_REACTORS
330
8A452
102
}
100
AcDbXrecord
102
ACADR14ROUNDTRIP
1000
DSTYLE
1002
{
1070
   276
 70
     2
1070
   277
 70
     5
1070
   279
 70
     2
1070
   289
 70
     2
1002
}
  0
XRECORD
  5
8A451
102
{ACAD_REACTORS
330
4592C
102
}
100
AcDbXrecord
340
458D6
  0
XRECORD
  5
8A450
102
{ACAD_REACTORS
330
4592A
102
}
100
AcDbXrecord
340
458D3
  0
XRECORD
  5
8A459
102
{ACAD_REACTORS
330
8A458
102
}
100
AcDbXrecord
102
UCS
 74
     0
 71
     1
 10
0.0
 20
0.0
 30
0.0
 10
1.0
 20
0.0
 30
0.0
 10
0.0
 20
1.0
 30
0.0
146
0.0
 79
     0
102
VIEW
281
     0
102
NEWVIEWCONTROL
280
     4
  0
XRECORD
  5
8A45B
102
{ACAD_REACTORS
330
8A45A
102
}
100
AcDbXrecord
102
UCS
 74
     0
 71
     1
 10
0.0
 20
0.0
 30
0.0
 10
1.0
 20
0.0
 30
0.0
 10
0.0
 20
1.0
 30
0.0
146
0.0
 79
     1
102
VIEW
281
     1
102
NEWVIEWCONTROL
280
     4
  0
DICTIONARY
  5
8A454
100
AcDbDictionary
280
     1
  3
ACAD_XREC_ROUNDTRIP
360
8A455
  0
ACAD_PROXY_OBJECT
  5
458FE
102
{ACAD_REACTORS
330
458FB
102
}
100
AcDbProxyObject
 90
      499
 91
      503
 93
     1700
310
90B6E6F6E655F6465766963652C0080000006066661940000000181999865000000000068661940000000001A1986500000000C0CCFC6A4000000018199D9C5011C4C65747465725F28382E35305F785F31312E30305F496E6368657329A901416AA547D11959985D5B1D08148C4D081C195B88185CDCDA59DB9B595B9D1CC
310
B98DD1891069074C61796F75743140501A840201008040342FEFF7FBFDFFFFF3EFDFAFF7FBFFDFC9501008043E3FDFC8102A6A6A0000003033333C0FC000000809999E93F8FFFFFF5766E622403FFFFFEBF333071020
330
458D3
330
5677D
340
0
340
0
 94
        0
  0
ACAD_PROXY_OBJECT
  5
458FD
102
{ACAD_REACTORS
330
458FB
102
}
100
AcDbProxyObject
 90
      499
 91
      503
 93
      924
310
91D4850204C617365724A65742035303030205365726965732050434C20362C01AAAAAAAAA547D11959985D5B1D08148C4D081C195B88185CDCDA59DB9B595B9D1CCB98DD18A69054D6F64656C901A800000000000000000000000000000000000000000000A1000000000000008902A6A6AAAA0
330
458D6
330
0
340
0
340
0
 94
        0
  0
MLINESTYLE
  5
458DA
102
{ACAD_REACTORS
330
458D9
102
}
100
AcDbMlineStyle
  2
STANDARD
 70
     0
  3

 62
   256
 51
90.0
 52
90.0
 71
     2
 49
0.5
 62
   256
  6
BYLAYER
 49
-0.5
 62
   256
  6
BYLAYER
  0
ACAD_PROXY_OBJECT
  5
458FA
102
{ACAD_REACTORS
330
458F9
102
}
100
AcDbProxyObject
 90
      499
 91
      502
 93
        0
 94
        0
  0
XRECORD
  5
8A439
102
{ACAD_REACTORS
330
8A42F
102
}
100
AcDbXrecord
 90
        0
  0
XRECORD
  5
8A43D
102
{ACAD_REACTORS
330
8A42F
102
}
100
AcDbXrecord
1000
DSTYLE
1002
{
1070
   276
 70
     2
1070
   277
 70
     5
1070
   279
 70
     2
1070
   289
 70
     2
1002
}
  0
XRECORD
  5
8A43A
102
{ACAD_REACTORS
330
8A42F
102
}
100
AcDbXrecord
  1
{6E0CF4B8-225E-11D4-A150-00A0CC3303EC}
  0
XRECORD
  5
8A432
102
{ACAD_REACTORS
330
8A42F
102
}
100
AcDbXrecord
  1

  0
XRECORD
  5
8A438
102
{ACAD_REACTORS
330
8A42F
102
}
100
AcDbXrecord
 90
        0
  0
XRECORD
  5
8A434
102
{ACAD_REACTORS
330
8A42F
102
}
100
AcDbXrecord
340
458FB
  0
XRECORD
  5
8A437
102
{ACAD_REACTORS
330
8A42F
102
}
100
AcDbXrecord
 90
    14877
  0
XRECORD
  5
8A435
102
{ACAD_REACTORS
330
8A42F
102
}
100
AcDbXrecord
340
458FC
  0
XRECORD
  5
8A436
102
{ACAD_REACTORS
330
8A42F
102
}
100
AcDbXrecord
340
458F9
  0
XRECORD
  5
8A43C
102
{ACAD_REACTORS
330
8A42F
102
}
100
AcDbXrecord
 40
0.0
  0
XRECORD
  5
8A440
102
{ACAD_REACTORS
330
8A42F
102
}
100
AcDbXrecord
340
0
  0
XRECORD
  5
8A446
102
{ACAD_REACTORS
330
8A42F
102
}
100
AcDbXrecord
 10
0.0
 20
0.0
 30
0.0
  0
XRECORD
  5
8A442
102
{ACAD_REACTORS
330
8A42F
102
}
100
AcDbXrecord
 10
0.0
 20
0.0
 30
0.0
  0
XRECORD
  5
8A445
102
{ACAD_REACTORS
330
8A42F
102
}
100
AcDbXrecord
 10
0.0
 20
0.0
 30
0.0
  0
XRECORD
  5
8A443
102
{ACAD_REACTORS
330
8A42F
102
}
100
AcDbXrecord
 10
0.0
 20
0.0
 30
0.0
  0
XRECORD
  5
8A444
102
{ACAD_REACTORS
330
8A42F
102
}
100
AcDbXrecord
 10
0.0
 20
0.0
 30
0.0
  0
XRECORD
  5
8A441
102
{ACAD_REACTORS
330
8A42F
102
}
100
AcDbXrecord
 10
0.0
 20
0.0
 30
0.0
  0
XRECORD
  5
8A43E
102
{ACAD_REACTORS
330
8A42F
102
}
100
AcDbXrecord
340
0
  0
XRECORD
  5
8A43F
102
{ACAD_REACTORS
330
8A42F
102
}
100
AcDbXrecord
 70
     0
  0
XRECORD
  5
8A433
102
{ACAD_REACTORS
330
8A42F
102
}
100
AcDbXrecord
  1

  0
XRECORD
  5
8A430
102
{ACAD_REACTORS
330
8A42F
102
}
100
AcDbXrecord
 90
        1
  0
XRECORD
  5
8A431
102
{ACAD_REACTORS
330
8A42F
102
}
100
AcDbXrecord
 90
       70
  0
XRECORD
  5
8A449
102
{ACAD_REACTORS
330
8A42F
102
}
100
AcDbXrecord
340
0
  0
XRECORD
  5
8A44F
102
{ACAD_REACTORS
330
8A42F
102
}
100
AcDbXrecord
 10
0.0
 20
0.0
 30
0.0
  0
XRECORD
  5
8A44B
102
{ACAD_REACTORS
330
8A42F
102
}
100
AcDbXrecord
 10
0.0
 20
0.0
 30
0.0
  0
XRECORD
  5
8A44E
102
{ACAD_REACTORS
330
8A42F
102
}
100
AcDbXrecord
 10
0.0
 20
0.0
 30
0.0
  0
XRECORD
  5
8A44C
102
{ACAD_REACTORS
330
8A42F
102
}
100
AcDbXrecord
 10
0.0
 20
0.0
 30
0.0
  0
XRECORD
  5
8A44D
102
{ACAD_REACTORS
330
8A42F
102
}
100
AcDbXrecord
 10
0.0
 20
0.0
 30
0.0
  0
XRECORD
  5
8A44A
102
{ACAD_REACTORS
330
8A42F
102
}
100
AcDbXrecord
 10
0.0
 20
0.0
 30
0.0
  0
XRECORD
  5
8A447
102
{ACAD_REACTORS
330
8A42F
102
}
100
AcDbXrecord
340
0
  0
XRECORD
  5
8A448
102
{ACAD_REACTORS
330
8A42F
102
}
100
AcDbXrecord
 70
     1
  0
XRECORD
  5
8A43B
102
{ACAD_REACTORS
330
8A42F
102
}
100
AcDbXrecord
  1
{1B2BC767-E063-4895-87F0-228418823AB3}
  0
DICTIONARYVAR
  5
458E2
102
{ACAD_REACTORS
330
458E1
102
}
100
DictionaryVariables
280
     0
  1
0
  0
XRECORD
  5
8A455
102
{ACAD_REACTORS
330
8A454
102
}
100
AcDbXrecord
102
EXTNAMES
  1
LAYOUT1
  2
Layout1
  1
MODEL
  2
Model
  0
ENDSEC
  0
EOF
