  0
SECTION
  2
HEADER
  9
$ACADVER
  1
AC1014
  9
$ACADMAINTVER
 70
     8
  9
$DWGCODEPAGE
  3
ANSI_1252
  9
$INSBASE
 10
0.0
 20
0.0
 30
0.0
  9
$EXTMIN
 10
-5.353583
 20
-9.908906
 30
0.0
  9
$EXTMAX
 10
16.728544
 20
1.409948
 30
4.937
  9
$LIMMIN
 10
0.0
 20
0.0
  9
$LIMMAX
 10
12.0
 20
9.0
  9
$ORTHOMODE
 70
     0
  9
$REGENMODE
 70
     1
  9
$FILLMODE
 70
     1
  9
$QTEXTMODE
 70
     0
  9
$MIRRTEXT
 70
     1
  9
$DRAGMODE
 70
     2
  9
$LTSCALE
 40
1.0
  9
$OSMODE
 70
    37
  9
$ATTMODE
 70
     1
  9
$TEXTSIZE
 40
0.12
  9
$TRACEWID
 40
0.05
  9
$TEXTSTYLE
  7
STANDARD
  9
$CLAYER
  8
0
  9
$CELTYPE
  6
BYLAYER
  9
$CECOLOR
 62
   256
  9
$CELTSCALE
 40
1.0
  9
$DELOBJ
 70
     1
  9
$DISPSILH
 70
     0
  9
$DIMSCALE
 40
1.0
  9
$DIMASZ
 40
0.3
  9
$DIMEXO
 40
0.1
  9
$DIMDLI
 40
0.375
  9
$DIMRND
 40
0.0
  9
$DIMDLE
 40
0.0
  9
$DIMEXE
 40
0.1
  9
$DIMTP
 40
0.0
  9
$DIMTM
 40
0.0
  9
$DIMTXT
 40
0.3
  9
$DIMCEN
 40
0.09
  9
$DIMTSZ
 40
0.0
  9
$DIMTOL
 70
     0
  9
$DIMLIM
 70
     0
  9
$DIMTIH
 70
     0
  9
$DIMTOH
 70
     1
  9
$DIMSE1
 70
     0
  9
$DIMSE2
 70
     0
  9
$DIMTAD
 70
     0
  9
$DIMZIN
 70
     4
  9
$DIMBLK
  1

  9
$DIMASO
 70
     1
  9
$DIMSHO
 70
     1
  9
$DIMPOST
  1

  9
$DIMAPOST
  1

  9
$DIMALT
 70
     1
  9
$DIMALTD
 70
     2
  9
$DIMALTF
 40
25.4
  9
$DIMLFAC
 40
1.0
  9
$DIMTOFL
 70
     0
  9
$DIMTVP
 40
0.0
  9
$DIMTIX
 70
     0
  9
$DIMSOXD
 70
     0
  9
$DIMSAH
 70
     0
  9
$DIMBLK1
  1

  9
$DIMBLK2
  1

  9
$DIMSTYLE
  2
ABECAD_3D
  9
$DIMCLRD
 70
     0
  9
$DIMCLRE
 70
     0
  9
$DIMCLRT
 70
     0
  9
$DIMTFAC
 40
1.5
  9
$DIMGAP
 40
0.09
  9
$DIMJUST
 70
     0
  9
$DIMSD1
 70
     0
  9
$DIMSD2
 70
     0
  9
$DIMTOLJ
 70
     1
  9
$DIMTZIN
 70
     4
  9
$DIMALTZ
 70
     4
  9
$DIMALTTZ
 70
     4
  9
$DIMFIT
 70
     5
  9
$DIMUPT
 70
     1
  9
$DIMUNIT
 70
     7
  9
$DIMDEC
 70
     6
  9
$DIMTDEC
 70
     6
  9
$DIMALTU
 70
     2
  9
$DIMALTTD
 70
     2
  9
$DIMTXSTY
  7
STANDARD
  9
$DIMAUNIT
 70
     0
  9
$LUNITS
 70
     2
  9
$LUPREC
 70
     4
  9
$SKETCHINC
 40
0.1
  9
$FILLETRAD
 40
0.0
  9
$AUNITS
 70
     0
  9
$AUPREC
 70
     0
  9
$MENU
  1
ACAD
  9
$ELEVATION
 40
0.0
  9
$PELEVATION
 40
0.0
  9
$THICKNESS
 40
0.0
  9
$LIMCHECK
 70
     0
  9
$BLIPMODE
 70
     0
  9
$CHAMFERA
 40
0.0
  9
$CHAMFERB
 40
0.0
  9
$CHAMFERC
 40
0.0
  9
$CHAMFERD
 40
0.0
  9
$SKPOLY
 70
     0
  9
$TDCREATE
 40
2451726.438389120
  9
$TDUPDATE
 40
2452010.491113310
  9
$TDINDWG
 40
1.1953269676
  9
$TDUSRTIMER
 40
1.1953269676
  9
$USRTIMER
 70
     1
  9
$ANGBASE
 50
0.0
  9
$ANGDIR
 70
     0
  9
$PDMODE
 70
     3
  9
$PDSIZE
 40
0.09
  9
$PLINEWID
 40
0.0
  9
$COORDS
 70
     1
  9
$SPLFRAME
 70
     1
  9
$SPLINETYPE
 70
     6
  9
$SPLINESEGS
 70
     8
  9
$ATTDIA
 70
     0
  9
$ATTREQ
 70
     1
  9
$HANDLING
 70
     1
  9
$HANDSEED
  5
987A7
  9
$SURFTAB1
 70
     6
  9
$SURFTAB2
 70
     6
  9
$SURFTYPE
 70
     6
  9
$SURFU
 70
     6
  9
$SURFV
 70
     6
  9
$UCSNAME
  2

  9
$UCSORG
 10
0.0
 20
0.0
 30
0.0
  9
$UCSXDIR
 10
1.0
 20
0.0
 30
0.0
  9
$UCSYDIR
 10
0.0
 20
1.0
 30
0.0
  9
$PUCSNAME
  2

  9
$PUCSORG
 10
0.0
 20
0.0
 30
0.0
  9
$PUCSXDIR
 10
1.0
 20
0.0
 30
0.0
  9
$PUCSYDIR
 10
0.0
 20
1.0
 30
0.0
  9
$USERI1
 70
     0
  9
$USERI2
 70
     0
  9
$USERI3
 70
     0
  9
$USERI4
 70
     0
  9
$USERI5
 70
     0
  9
$USERR1
 40
0.0
  9
$USERR2
 40
0.0
  9
$USERR3
 40
0.0
  9
$USERR4
 40
0.0
  9
$USERR5
 40
0.0
  9
$WORLDVIEW
 70
     1
  9
$SHADEDGE
 70
     3
  9
$SHADEDIF
 70
    70
  9
$TILEMODE
 70
     1
  9
$MAXACTVP
 70
    16
  9
$PINSBASE
 10
0.0
 20
0.0
 30
0.0
  9
$PLIMCHECK
 70
     0
  9
$PEXTMIN
 10
1.05
 20
0.8
 30
0.0
  9
$PEXTMAX
 10
9.45
 20
7.2
 30
0.0
  9
$PLIMMIN
 10
-0.25
 20
-0.25
  9
$PLIMMAX
 10
10.75
 20
8.25
  9
$UNITMODE
 70
     0
  9
$VISRETAIN
 70
     0
  9
$PLINEGEN
 70
     0
  9
$PSLTSCALE
 70
     1
  9
$TREEDEPTH
 70
  3020
  9
$PICKSTYLE
 70
     1
  9
$CMLSTYLE
  2
STANDARD
  9
$CMLJUST
 70
     0
  9
$CMLSCALE
 40
1.0
  9
$PROXYGRAPHICS
 70
     1
  9
$MEASUREMENT
 70
     0
  0
ENDSEC
  0
SECTION
  2
CLASSES
  0
CLASS
  1
DICTIONARYVAR
  2
AcDbDictionaryVar
  3
"AutoCAD"
 90
        0
280
     0
281
     0
  0
CLASS
  1
ACDBDICTIONARYWDFLT
  2
AcDbDictionaryWithDefault
  3
AutoCAD 2000
 90
        0
280
     0
281
     0
  0
CLASS
  1
ACDBPLACEHOLDER
  2
AcDbPlaceHolder
  3
AutoCAD 2000
 90
        0
280
     0
281
     0
  0
CLASS
  1
LAYOUT
  2
AcDbLayout
  3
AutoCAD 2000
 90
        0
280
     0
281
     0
  0
CLASS
  1
LONG_TRANSACTION
  2
AcDbLongTransaction
  3
AutoCAD 2000
 90
        0
280
     0
281
     0
  0
CLASS
  1
LWPOLYLINE
  2
AcDbPolyline
  3
"AutoCAD"
 90
        0
280
     0
281
     1
  0
CLASS
  1
HATCH
  2
AcDbHatch
  3
"ACAD_SEDONA"
 90
        0
280
     0
281
     1
  0
CLASS
  1
XRECORD
  2
AcDbXrecord
  3
"<Built In>"
 90
        0
280
     0
281
     0
  0
CLASS
  1
LONG_TRANSACTION
  2
AcDbLongTransaction
  3
AutoCAD 2000
 90
        0
280
     0
281
     0
  0
CLASS
  1
LWPOLYLINE
  2
AcDbPolyline
  3
"AutoCAD"
 90
        0
280
     0
281
     1
  0
CLASS
  1
HATCH
  2
AcDbHatch
  3
"ACAD_SEDONA"
 90
        0
280
     0
281
     1
  0
CLASS
  1
XRECORD
  2
AcDbXrecord
  3
"<Built In>"
 90
        0
280
     0
281
     0
  0
CLASS
  1
LONG_TRANSACTION
  2
AcDbLongTransaction
  3
AutoCAD 2000
 90
        0
280
     0
281
     0
  0
CLASS
  1
LWPOLYLINE
  2
AcDbPolyline
  3
"AutoCAD"
 90
        0
280
     0
281
     1
  0
CLASS
  1
HATCH
  2
AcDbHatch
  3
"ACAD_SEDONA"
 90
        0
280
     0
281
     1
  0
CLASS
  1
XRECORD
  2
AcDbXrecord
  3
"<Built In>"
 90
        0
280
     0
281
     0
  0
CLASS
  1
LONG_TRANSACTION
  2
AcDbLongTransaction
  3
AutoCAD 2000
 90
        0
280
     0
281
     0
  0
CLASS
  1
LWPOLYLINE
  2
AcDbPolyline
  3
"AutoCAD"
 90
        0
280
     0
281
     1
  0
CLASS
  1
HATCH
  2
AcDbHatch
  3
"ACAD_SEDONA"
 90
        0
280
     0
281
     1
  0
CLASS
  1
XRECORD
  2
AcDbXrecord
  3
"<Built In>"
 90
        0
280
     0
281
     0
  0
CLASS
  1
LONG_TRANSACTION
  2
AcDbLongTransaction
  3
AutoCAD 2000
 90
        0
280
     0
281
     0
  0
CLASS
  1
LWPOLYLINE
  2
AcDbPolyline
  3
"AutoCAD"
 90
        0
280
     0
281
     1
  0
CLASS
  1
HATCH
  2
AcDbHatch
  3
"ACAD_SEDONA"
 90
        0
280
     0
281
     1
  0
CLASS
  1
XRECORD
  2
AcDbXrecord
  3
"<Built In>"
 90
        0
280
     0
281
     0
  0
CLASS
  1
LONG_TRANSACTION
  2
AcDbLongTransaction
  3
AutoCAD 2000
 90
        0
280
     0
281
     0
  0
CLASS
  1
LWPOLYLINE
  2
AcDbPolyline
  3
"AutoCAD"
 90
        0
280
     0
281
     1
  0
CLASS
  1
HATCH
  2
AcDbHatch
  3
"ACAD_SEDONA"
 90
        0
280
     0
281
     1
  0
CLASS
  1
XRECORD
  2
AcDbXrecord
  3
"<Built In>"
 90
        0
280
     0
281
     0
  0
CLASS
  1
LONG_TRANSACTION
  2
AcDbLongTransaction
  3
AutoCAD 2000
 90
        0
280
     0
281
     0
  0
CLASS
  1
LWPOLYLINE
  2
AcDbPolyline
  3
"AutoCAD"
 90
        0
280
     0
281
     1
  0
CLASS
  1
HATCH
  2
AcDbHatch
  3
"ACAD_SEDONA"
 90
        0
280
     0
281
     1
  0
CLASS
  1
XRECORD
  2
AcDbXrecord
  3
"<Built In>"
 90
        0
280
     0
281
     0
  0
CLASS
  1
LONG_TRANSACTION
  2
AcDbLongTransaction
  3
AutoCAD 2000
 90
        0
280
     0
281
     0
  0
CLASS
  1
LWPOLYLINE
  2
AcDbPolyline
  3
"AutoCAD"
 90
        0
280
     0
281
     1
  0
CLASS
  1
HATCH
  2
AcDbHatch
  3
"ACAD_SEDONA"
 90
        0
280
     0
281
     1
  0
CLASS
  1
XRECORD
  2
AcDbXrecord
  3
"<Built In>"
 90
        0
280
     0
281
     0
  0
CLASS
  1
LONG_TRANSACTION
  2
AcDbLongTransaction
  3
AutoCAD 2000
 90
        0
280
     0
281
     0
  0
CLASS
  1
LWPOLYLINE
  2
AcDbPolyline
  3
"AutoCAD"
 90
        0
280
     0
281
     1
  0
CLASS
  1
HATCH
  2
AcDbHatch
  3
"ACAD_SEDONA"
 90
        0
280
     0
281
     1
  0
CLASS
  1
XRECORD
  2
AcDbXrecord
  3
"<Built In>"
 90
        0
280
     0
281
     0
  0
CLASS
  1
LONG_TRANSACTION
  2
AcDbLongTransaction
  3
AutoCAD 2000
 90
        0
280
     0
281
     0
  0
CLASS
  1
LWPOLYLINE
  2
AcDbPolyline
  3
"AutoCAD"
 90
        0
280
     0
281
     1
  0
CLASS
  1
HATCH
  2
AcDbHatch
  3
"ACAD_SEDONA"
 90
        0
280
     0
281
     1
  0
CLASS
  1
XRECORD
  2
AcDbXrecord
  3
"<Built In>"
 90
        0
280
     0
281
     0
  0
CLASS
  1
LONG_TRANSACTION
  2
AcDbLongTransaction
  3
AutoCAD 2000
 90
        0
280
     0
281
     0
  0
CLASS
  1
LWPOLYLINE
  2
AcDbPolyline
  3
"AutoCAD"
 90
        0
280
     0
281
     1
  0
CLASS
  1
HATCH
  2
AcDbHatch
  3
"ACAD_SEDONA"
 90
        0
280
     0
281
     1
  0
CLASS
  1
XRECORD
  2
AcDbXrecord
  3
"<Built In>"
 90
        0
280
     0
281
     0
  0
CLASS
  1
LONG_TRANSACTION
  2
AcDbLongTransaction
  3
AutoCAD 2000
 90
        0
280
     0
281
     0
  0
CLASS
  1
LWPOLYLINE
  2
AcDbPolyline
  3
"AutoCAD"
 90
        0
280
     0
281
     1
  0
CLASS
  1
HATCH
  2
AcDbHatch
  3
"ACAD_SEDONA"
 90
        0
280
     0
281
     1
  0
CLASS
  1
XRECORD
  2
AcDbXrecord
  3
"<Built In>"
 90
        0
280
     0
281
     0
  0
CLASS
  1
LONG_TRANSACTION
  2
AcDbLongTransaction
  3
AutoCAD 2000
 90
        0
280
     0
281
     0
  0
CLASS
  1
LWPOLYLINE
  2
AcDbPolyline
  3
"AutoCAD"
 90
        0
280
     0
281
     1
  0
CLASS
  1
HATCH
  2
AcDbHatch
  3
"ACAD_SEDONA"
 90
        0
280
     0
281
     1
  0
CLASS
  1
XRECORD
  2
AcDbXrecord
  3
"<Built In>"
 90
        0
280
     0
281
     0
  0
CLASS
  1
LONG_TRANSACTION
  2
AcDbLongTransaction
  3
AutoCAD 2000
 90
        0
280
     0
281
     0
  0
CLASS
  1
LWPOLYLINE
  2
AcDbPolyline
  3
"AutoCAD"
 90
        0
280
     0
281
     1
  0
CLASS
  1
HATCH
  2
AcDbHatch
  3
"ACAD_SEDONA"
 90
        0
280
     0
281
     1
  0
CLASS
  1
XRECORD
  2
AcDbXrecord
  3
"<Built In>"
 90
        0
280
     0
281
     0
  0
CLASS
  1
LONG_TRANSACTION
  2
AcDbLongTransaction
  3
AutoCAD 2000
 90
        0
280
     0
281
     0
  0
CLASS
  1
LWPOLYLINE
  2
AcDbPolyline
  3
"AutoCAD"
 90
        0
280
     0
281
     1
  0
CLASS
  1
HATCH
  2
AcDbHatch
  3
"ACAD_SEDONA"
 90
        0
280
     0
281
     1
  0
CLASS
  1
XRECORD
  2
AcDbXrecord
  3
"<Built In>"
 90
        0
280
     0
281
     0
  0
CLASS
  1
LONG_TRANSACTION
  2
AcDbLongTransaction
  3
AutoCAD 2000
 90
        0
280
     0
281
     0
  0
CLASS
  1
LWPOLYLINE
  2
AcDbPolyline
  3
"AutoCAD"
 90
        0
280
     0
281
     1
  0
CLASS
  1
HATCH
  2
AcDbHatch
  3
"ACAD_SEDONA"
 90
        0
280
     0
281
     1
  0
CLASS
  1
XRECORD
  2
AcDbXrecord
  3
"<Built In>"
 90
        0
280
     0
281
     0
  0
CLASS
  1
LONG_TRANSACTION
  2
AcDbLongTransaction
  3
AutoCAD 2000
 90
        0
280
     0
281
     0
  0
CLASS
  1
LWPOLYLINE
  2
AcDbPolyline
  3
"AutoCAD"
 90
        0
280
     0
281
     1
  0
CLASS
  1
HATCH
  2
AcDbHatch
  3
"ACAD_SEDONA"
 90
        0
280
     0
281
     1
  0
CLASS
  1
XRECORD
  2
AcDbXrecord
  3
"<Built In>"
 90
        0
280
     0
281
     0
  0
CLASS
  1
LONG_TRANSACTION
  2
AcDbLongTransaction
  3
AutoCAD 2000
 90
        0
280
     0
281
     0
  0
CLASS
  1
LWPOLYLINE
  2
AcDbPolyline
  3
"AutoCAD"
 90
        0
280
     0
281
     1
  0
CLASS
  1
HATCH
  2
AcDbHatch
  3
"ACAD_SEDONA"
 90
        0
280
     0
281
     1
  0
CLASS
  1
XRECORD
  2
AcDbXrecord
  3
"<Built In>"
 90
        0
280
     0
281
     0
  0
CLASS
  1
LONG_TRANSACTION
  2
AcDbLongTransaction
  3
AutoCAD 2000
 90
        0
280
     0
281
     0
  0
CLASS
  1
LWPOLYLINE
  2
AcDbPolyline
  3
"AutoCAD"
 90
        0
280
     0
281
     1
  0
CLASS
  1
HATCH
  2
AcDbHatch
  3
"ACAD_SEDONA"
 90
        0
280
     0
281
     1
  0
CLASS
  1
XRECORD
  2
AcDbXrecord
  3
"<Built In>"
 90
        0
280
     0
281
     0
  0
CLASS
  1
LONG_TRANSACTION
  2
AcDbLongTransaction
  3
AutoCAD 2000
 90
        0
280
     0
281
     0
  0
CLASS
  1
LWPOLYLINE
  2
AcDbPolyline
  3
"AutoCAD"
 90
        0
280
     0
281
     1
  0
CLASS
  1
HATCH
  2
AcDbHatch
  3
"ACAD_SEDONA"
 90
        0
280
     0
281
     1
  0
CLASS
  1
XRECORD
  2
AcDbXrecord
  3
"<Built In>"
 90
        0
280
     0
281
     0
  0
CLASS
  1
LONG_TRANSACTION
  2
AcDbLongTransaction
  3
AutoCAD 2000
 90
        0
280
     0
281
     0
  0
CLASS
  1
LWPOLYLINE
  2
AcDbPolyline
  3
"AutoCAD"
 90
        0
280
     0
281
     1
  0
CLASS
  1
HATCH
  2
AcDbHatch
  3
"ACAD_SEDONA"
 90
        0
280
     0
281
     1
  0
CLASS
  1
XRECORD
  2
AcDbXrecord
  3
"<Built In>"
 90
        0
280
     0
281
     0
  0
CLASS
  1
LONG_TRANSACTION
  2
AcDbLongTransaction
  3
AutoCAD 2000
 90
        0
280
     0
281
     0
  0
CLASS
  1
LWPOLYLINE
  2
AcDbPolyline
  3
"AutoCAD"
 90
        0
280
     0
281
     1
  0
CLASS
  1
HATCH
  2
AcDbHatch
  3
"ACAD_SEDONA"
 90
        0
280
     0
281
     1
  0
CLASS
  1
XRECORD
  2
AcDbXrecord
  3
"<Built In>"
 90
        0
280
     0
281
     0
  0
CLASS
  1
LONG_TRANSACTION
  2
AcDbLongTransaction
  3
AutoCAD 2000
 90
        0
280
     0
281
     0
  0
CLASS
  1
LWPOLYLINE
  2
AcDbPolyline
  3
"AutoCAD"
 90
        0
280
     0
281
     1
  0
CLASS
  1
HATCH
  2
AcDbHatch
  3
"ACAD_SEDONA"
 90
        0
280
     0
281
     1
  0
CLASS
  1
XRECORD
  2
AcDbXrecord
  3
"<Built In>"
 90
        0
280
     0
281
     0
  0
CLASS
  1
LONG_TRANSACTION
  2
AcDbLongTransaction
  3
AutoCAD 2000
 90
        0
280
     0
281
     0
  0
CLASS
  1
LWPOLYLINE
  2
AcDbPolyline
  3
"AutoCAD"
 90
        0
280
     0
281
     1
  0
CLASS
  1
HATCH
  2
AcDbHatch
  3
"ACAD_SEDONA"
 90
        0
280
     0
281
     1
  0
CLASS
  1
XRECORD
  2
AcDbXrecord
  3
"<Built In>"
 90
        0
280
     0
281
     0
  0
CLASS
  1
LONG_TRANSACTION
  2
AcDbLongTransaction
  3
AutoCAD 2000
 90
        0
280
     0
281
     0
  0
CLASS
  1
LWPOLYLINE
  2
AcDbPolyline
  3
"AutoCAD"
 90
        0
280
     0
281
     1
  0
CLASS
  1
HATCH
  2
AcDbHatch
  3
"ACAD_SEDONA"
 90
        0
280
     0
281
     1
  0
CLASS
  1
XRECORD
  2
AcDbXrecord
  3
"<Built In>"
 90
        0
280
     0
281
     0
  0
CLASS
  1
LONG_TRANSACTION
  2
AcDbLongTransaction
  3
AutoCAD 2000
 90
        0
280
     0
281
     0
  0
CLASS
  1
LWPOLYLINE
  2
AcDbPolyline
  3
"AutoCAD"
 90
        0
280
     0
281
     1
  0
CLASS
  1
HATCH
  2
AcDbHatch
  3
"ACAD_SEDONA"
 90
        0
280
     0
281
     1
  0
CLASS
  1
XRECORD
  2
AcDbXrecord
  3
"<Built In>"
 90
        0
280
     0
281
     0
  0
CLASS
  1
LONG_TRANSACTION
  2
AcDbLongTransaction
  3
AutoCAD 2000
 90
        0
280
     0
281
     0
  0
CLASS
  1
LWPOLYLINE
  2
AcDbPolyline
  3
"AutoCAD"
 90
        0
280
     0
281
     1
  0
CLASS
  1
HATCH
  2
AcDbHatch
  3
"ACAD_SEDONA"
 90
        0
280
     0
281
     1
  0
CLASS
  1
XRECORD
  2
AcDbXrecord
  3
"<Built In>"
 90
        0
280
     0
281
     0
  0
CLASS
  1
LONG_TRANSACTION
  2
AcDbLongTransaction
  3
AutoCAD 2000
 90
        0
280
     0
281
     0
  0
CLASS
  1
LWPOLYLINE
  2
AcDbPolyline
  3
"AutoCAD"
 90
        0
280
     0
281
     1
  0
CLASS
  1
HATCH
  2
AcDbHatch
  3
"ACAD_SEDONA"
 90
        0
280
     0
281
     1
  0
CLASS
  1
XRECORD
  2
AcDbXrecord
  3
"<Built In>"
 90
        0
280
     0
281
     0
  0
CLASS
  1
LONG_TRANSACTION
  2
AcDbLongTransaction
  3
AutoCAD 2000
 90
        0
280
     0
281
     0
  0
CLASS
  1
LWPOLYLINE
  2
AcDbPolyline
  3
"AutoCAD"
 90
        0
280
     0
281
     1
  0
CLASS
  1
HATCH
  2
AcDbHatch
  3
"ACAD_SEDONA"
 90
        0
280
     0
281
     1
  0
CLASS
  1
XRECORD
  2
AcDbXrecord
  3
"<Built In>"
 90
        0
280
     0
281
     0
  0
CLASS
  1
LONG_TRANSACTION
  2
AcDbLongTransaction
  3
AutoCAD 2000
 90
        0
280
     0
281
     0
  0
CLASS
  1
LWPOLYLINE
  2
AcDbPolyline
  3
"AutoCAD"
 90
        0
280
     0
281
     1
  0
CLASS
  1
HATCH
  2
AcDbHatch
  3
"ACAD_SEDONA"
 90
        0
280
     0
281
     1
  0
CLASS
  1
XRECORD
  2
AcDbXrecord
  3
"<Built In>"
 90
        0
280
     0
281
     0
  0
CLASS
  1
LONG_TRANSACTION
  2
AcDbLongTransaction
  3
AutoCAD 2000
 90
        0
280
     0
281
     0
  0
CLASS
  1
LWPOLYLINE
  2
AcDbPolyline
  3
"AutoCAD"
 90
        0
280
     0
281
     1
  0
CLASS
  1
HATCH
  2
AcDbHatch
  3
"ACAD_SEDONA"
 90
        0
280
     0
281
     1
  0
CLASS
  1
XRECORD
  2
AcDbXrecord
  3
"<Built In>"
 90
        0
280
     0
281
     0
  0
CLASS
  1
LONG_TRANSACTION
  2
AcDbLongTransaction
  3
AutoCAD 2000
 90
        0
280
     0
281
     0
  0
CLASS
  1
LWPOLYLINE
  2
AcDbPolyline
  3
"AutoCAD"
 90
        0
280
     0
281
     1
  0
CLASS
  1
HATCH
  2
AcDbHatch
  3
"ACAD_SEDONA"
 90
        0
280
     0
281
     1
  0
CLASS
  1
XRECORD
  2
AcDbXrecord
  3
"<Built In>"
 90
        0
280
     0
281
     0
  0
CLASS
  1
LONG_TRANSACTION
  2
AcDbLongTransaction
  3
AutoCAD 2000
 90
        0
280
     0
281
     0
  0
CLASS
  1
LWPOLYLINE
  2
AcDbPolyline
  3
"AutoCAD"
 90
        0
280
     0
281
     1
  0
CLASS
  1
HATCH
  2
AcDbHatch
  3
"ACAD_SEDONA"
 90
        0
280
     0
281
     1
  0
CLASS
  1
XRECORD
  2
AcDbXrecord
  3
"<Built In>"
 90
        0
280
     0
281
     0
  0
ENDSEC
  0
SECTION
  2
TABLES
  0
TABLE
  2
VPORT
  5
458C7
100
AcDbSymbolTable
 70
     1
  0
VPORT
  5
98772
102
{ACAD_XDICTIONARY
360
98775
102
}
100
AcDbSymbolTableRecord
100
AcDbViewportTableRecord
  2
*ACTIVE
 70
     0
 10
0.0
 20
0.0
 11
1.0
 21
1.0
 12
4.925653
 22
-2.326117
 13
0.0
 23
0.0
 14
0.25
 24
0.25
 15
0.25
 25
0.25
 16
0.0
 26
0.0
 36
1.0
 17
0.761827
 27
-1.923188
 37
4.043999
 40
11.510616
 41
1.960674
 42
50.0
 43
0.0
 44
0.0
 50
0.0
 51
0.0
 71
     0
 72
 20000
 73
     1
 74
     1
 75
     0
 76
     0
 77
     0
 78
     0
  0
ENDTAB
  0
TABLE
  2
LTYPE
  5
458C4
100
AcDbSymbolTable
 70
     1
  0
LTYPE
  5
458D0
100
AcDbSymbolTableRecord
100
AcDbLinetypeTableRecord
  2
BYBLOCK
 70
     0
  3

 72
    65
 73
     0
 40
0.0
  0
LTYPE
  5
458D1
100
AcDbSymbolTableRecord
100
AcDbLinetypeTableRecord
  2
BYLAYER
 70
     0
  3

 72
    65
 73
     0
 40
0.0
  0
LTYPE
  5
458D2
100
AcDbSymbolTableRecord
100
AcDbLinetypeTableRecord
  2
CONTINUOUS
 70
     0
  3
Solid line
 72
    65
 73
     0
 40
0.0
  0
ENDTAB
  0
TABLE
  2
LAYER
  5
458C1
100
AcDbSymbolTable
 70
     7
  0
LAYER
  5
458CD
100
AcDbSymbolTableRecord
100
AcDbLayerTableRecord
  2
0
 70
     0
 62
     7
  6
CONTINUOUS
  0
LAYER
  5
458EA
100
AcDbSymbolTableRecord
100
AcDbLayerTableRecord
  2
DIMS-MTG-HOLES
 70
     0
 62
     1
  6
CONTINUOUS
  0
LAYER
  5
458EB
100
AcDbSymbolTableRecord
100
AcDbLayerTableRecord
  2
ATTRIBUTES
 70
     0
 62
     7
  6
CONTINUOUS
  0
LAYER
  5
4593B
102
{ACAD_XDICTIONARY
360
9879E
102
}
100
AcDbSymbolTableRecord
100
AcDbLayerTableRecord
  2
AREA1
 70
     0
 62
    -7
  6
CONTINUOUS
  0
LAYER
  5
45940
102
{ACAD_XDICTIONARY
360
98773
102
}
100
AcDbSymbolTableRecord
100
AcDbLayerTableRecord
  2
DEFPOINTS
 70
     0
 62
    -7
  6
CONTINUOUS
  0
LAYER
  5
45954
100
AcDbSymbolTableRecord
100
AcDbLayerTableRecord
  2
SCALE
 70
     0
 62
    -7
  6
CONTINUOUS
  0
LAYER
  5
4D59A
100
AcDbSymbolTableRecord
100
AcDbLayerTableRecord
  2
SNAP_POINTS
 70
     0
 62
    -1
  6
CONTINUOUS
  0
ENDTAB
  0
TABLE
  2
STYLE
  5
458C2
100
AcDbSymbolTable
 70
     1
  0
STYLE
  5
458CE
100
AcDbSymbolTableRecord
100
AcDbTextStyleTableRecord
  2
STANDARD
 70
     0
 40
0.0
 41
1.0
 50
0.0
 71
     0
 42
0.12
  3
txt
  4

  0
ENDTAB
  0
TABLE
  2
VIEW
  5
458C5
100
AcDbSymbolTable
 70
     0
  0
ENDTAB
  0
TABLE
  2
UCS
  5
458C6
100
AcDbSymbolTable
 70
     0
  0
ENDTAB
  0
TABLE
  2
APPID
  5
458C8
100
AcDbSymbolTable
 70
     2
  0
APPID
  5
458CF
100
AcDbSymbolTableRecord
100
AcDbRegAppTableRecord
  2
ACAD
 70
     0
  0
APPID
  5
5FD5B
100
AcDbSymbolTableRecord
100
AcDbRegAppTableRecord
  2
AVE_RENDER
 70
     0
  0
ENDTAB
  0
TABLE
  2
DIMSTYLE
  5
458C9
100
AcDbSymbolTable
 70
     1
  0
DIMSTYLE
105
458F6
102
{ACAD_XDICTIONARY
360
9879A
102
}
102
{ACAD_REACTORS
330
98704
330
98712
102
}
100
AcDbSymbolTableRecord
100
AcDbDimStyleTableRecord
  2
ABECAD_3D
 70
     0
  3

  4

  5

  6

  7

 40
1.0
 41
0.3
 42
0.1
 43
0.375
 44
0.1
 45
0.0
 46
0.0
 47
0.0
 48
0.0
140
0.3
141
0.09
142
0.0
143
25.4
144
1.0
145
0.0
146
1.5
147
0.09
 71
     0
 72
     0
 73
     0
 74
     1
 75
     0
 76
     0
 77
     0
 78
     4
170
     1
171
     2
172
     0
173
     0
174
     0
175
     0
176
     0
177
     0
178
     0
270
     7
271
     6
272
     6
273
     2
274
     2
340
458CE
275
     0
280
     0
281
     0
282
     0
283
     1
284
     4
285
     4
286
     4
287
     5
288
     1
  0
ENDTAB
  0
TABLE
  2
BLOCK_RECORD
  5
458C0
100
AcDbSymbolTable
 70
     2
  0
BLOCK_RECORD
  5
458D6
102
{ACAD_XDICTIONARY
360
4592C
102
}
100
AcDbSymbolTableRecord
100
AcDbBlockTableRecord
  2
*MODEL_SPACE
  0
BLOCK_RECORD
  5
458D3
102
{ACAD_XDICTIONARY
360
4592A
102
}
100
AcDbSymbolTableRecord
100
AcDbBlockTableRecord
  2
*PAPER_SPACE
  0
BLOCK_RECORD
  5
98705
100
AcDbSymbolTableRecord
100
AcDbBlockTableRecord
  2
*D0
  0
BLOCK_RECORD
  5
98713
100
AcDbSymbolTableRecord
100
AcDbBlockTableRecord
  2
*D1
  0
ENDTAB
  0
ENDSEC
  0
SECTION
  2
BLOCKS
  0
BLOCK
  5
458DF
100
AcDbEntity
  8
0
100
AcDbBlockBegin
  2
*MODEL_SPACE
 70
     0
 10
0.0
 20
0.0
 30
0.0
  3
*MODEL_SPACE
  1

  0
ENDBLK
  5
458E0
100
AcDbEntity
  8
0
100
AcDbBlockEnd
  0
BLOCK
  5
458DD
100
AcDbEntity
 67
     1
  8
0
100
AcDbBlockBegin
  2
*PAPER_SPACE
 70
     0
 10
0.0
 20
0.0
 30
0.0
  3
*PAPER_SPACE
  1

  0
ENDBLK
  5
458DE
100
AcDbEntity
 67
     1
  8
0
100
AcDbBlockEnd
  0
BLOCK
  5
98710
100
AcDbEntity
  8
0
100
AcDbBlockBegin
  2
*D0
 70
     1
 10
0.0
 20
0.0
 30
0.0
  3
*D0
  1

  0
LINE
  5
98706
100
AcDbEntity
  8
AREA1
 62
     0
100
AcDbLine
 10
-1.1
 20
0.281
 30
0.0
 11
-5.303583
 21
0.281
 31
0.0
1001
ACAD
1000
RTLwPs
1070
   158
  0
LINE
  5
98707
100
AcDbEntity
  8
AREA1
 62
     0
100
AcDbLine
 10
-3.653
 20
-8.879
 30
0.0
 11
-5.303583
 21
-8.879
 31
0.0
1001
ACAD
1000
RTLwPs
1070
   158
  0
LINE
  5
98708
100
AcDbEntity
  8
AREA1
 62
     0
100
AcDbLine
 10
-5.203583
 20
-0.019
 30
0.0
 11
-5.203583
 21
-2.358731
 31
0.0
1001
ACAD
1000
RTLwPs
1070
   158
  0
LINE
  5
98709
100
AcDbEntity
  8
AREA1
 62
     0
100
AcDbLine
 10
-5.203583
 20
-8.579
 30
0.0
 11
-5.203583
 21
-6.538731
 31
0.0
1001
ACAD
1000
RTLwPs
1070
   158
  0
MTEXT
  5
9870A
100
AcDbEntity
  8
AREA1
 62
     0
100
AcDbMText
 10
-5.203583
 20
-4.448731
 30
0.0
 40
0.3
 41
0.0
 71
     5
 72
     1
  1
\A1;9 5/32 [232.66]
 11
0.0
 21
1.0
 31
0.0
1001
ACAD
1000
MTEXTBEGIN
1070
    73
1070
     1
1070
    44
1040
1.0
1070
    74
1070
     0
1000
MTEXTEND
1000
MTEXTBEGIN
1070
    73
1070
     1
1070
    44
1040
1.0
1070
    74
1070
     0
1000
MTEXTEND
  0
SOLID
  5
9870B
100
AcDbEntity
  8
AREA1
 62
     0
100
AcDbTrace
 10
-5.253583
 20
-0.019
 30
0.0
 11
-5.153583
 21
-0.019
 31
0.0
 12
-5.203583
 22
0.281
 32
0.0
 13
-5.203583
 23
0.281
 33
0.0
  0
SOLID
  5
9870C
100
AcDbEntity
  8
AREA1
 62
     0
100
AcDbTrace
 10
-5.253583
 20
-8.579
 30
0.0
 11
-5.153583
 21
-8.579
 31
0.0
 12
-5.203583
 22
-8.879
 32
0.0
 13
-5.203583
 23
-8.879
 33
0.0
  0
POINT
  5
9870D
100
AcDbEntity
  8
DEFPOINTS
 62
     0
100
AcDbPoint
 10
-1.0
 20
0.281
 30
0.0
  0
POINT
  5
9870E
100
AcDbEntity
  8
DEFPOINTS
 62
     0
100
AcDbPoint
 10
-3.553
 20
-8.879
 30
0.0
  0
POINT
  5
9870F
100
AcDbEntity
  8
DEFPOINTS
 62
     0
100
AcDbPoint
 10
-5.203583
 20
-8.879
 30
0.0
  0
ENDBLK
  5
98711
100
AcDbEntity
  8
0
100
AcDbBlockEnd
  0
BLOCK
  5
9871E
100
AcDbEntity
  8
0
100
AcDbBlockBegin
  2
*D1
 70
     1
 10
0.0
 20
0.0
 30
0.0
  3
*D1
  1

  0
LINE
  5
98714
100
AcDbEntity
  8
AREA1
 62
     0
100
AcDbLine
 10
-4.168
 20
-1.37
 30
0.0
 11
-4.168
 21
1.359948
 31
0.0
1001
ACAD
1000
RTLwPs
1070
   158
  0
LINE
  5
98715
100
AcDbEntity
  8
AREA1
 62
     0
100
AcDbLine
 10
5.107
 20
-0.529
 30
0.0
 11
5.107
 21
1.359948
 31
0.0
1001
ACAD
1000
RTLwPs
1070
   158
  0
LINE
  5
98716
100
AcDbEntity
  8
AREA1
 62
     0
100
AcDbLine
 10
-3.868
 20
1.259948
 30
0.0
 11
-1.551559
 21
1.259948
 31
0.0
1001
ACAD
1000
RTLwPs
1070
   158
  0
LINE
  5
98717
100
AcDbEntity
  8
AREA1
 62
     0
100
AcDbLine
 10
4.807
 20
1.259948
 30
0.0
 11
2.628441
 21
1.259948
 31
0.0
1001
ACAD
1000
RTLwPs
1070
   158
  0
MTEXT
  5
98718
100
AcDbEntity
  8
AREA1
 62
     0
100
AcDbMText
 10
0.538441
 20
1.259948
 30
0.0
 40
0.3
 41
0.0
 71
     5
 72
     1
  1
\A1;9 9/32 [235.59]
1001
ACAD
1000
MTEXTBEGIN
1070
    73
1070
     1
1070
    44
1040
1.0
1070
    74
1070
     0
1000
MTEXTEND
1000
MTEXTBEGIN
1070
    73
1070
     1
1070
    44
1040
1.0
1070
    74
1070
     0
1000
MTEXTEND
  0
SOLID
  5
98719
100
AcDbEntity
  8
AREA1
 62
     0
100
AcDbTrace
 10
-3.868
 20
1.309948
 30
0.0
 11
-3.868
 21
1.209948
 31
0.0
 12
-4.168
 22
1.259948
 32
0.0
 13
-4.168
 23
1.259948
 33
0.0
  0
SOLID
  5
9871A
100
AcDbEntity
  8
AREA1
 62
     0
100
AcDbTrace
 10
4.807
 20
1.309948
 30
0.0
 11
4.807
 21
1.209948
 31
0.0
 12
5.107
 22
1.259948
 32
0.0
 13
5.107
 23
1.259948
 33
0.0
  0
POINT
  5
9871B
100
AcDbEntity
  8
DEFPOINTS
 62
     0
100
AcDbPoint
 10
-4.168
 20
-1.47
 30
0.387
  0
POINT
  5
9871C
100
AcDbEntity
  8
DEFPOINTS
 62
     0
100
AcDbPoint
 10
5.107
 20
-0.629
 30
0.0
  0
POINT
  5
9871D
100
AcDbEntity
  8
DEFPOINTS
 62
     0
100
AcDbPoint
 10
5.107
 20
1.259948
 30
0.0
  0
ENDBLK
  5
9871F
100
AcDbEntity
  8
0
100
AcDbBlockEnd
  0
ENDSEC
  0
SECTION
  2
ENTITIES
  0
POLYLINE
  5
98197
100
AcDbEntity
  8
0
100
AcDbPolygonMesh
 66
     1
 10
0.0
 20
0.0
 30
0.0
 70
    16
 71
     6
 72
     3
  0
VERTEX
  5
98198
100
AcDbEntity
  8
0
100
AcDbVertex
100
AcDbPolygonMeshVertex
 10
-0.018
 20
-2.84
 30
4.287
 70
    64
  0
VERTEX
  5
98199
100
AcDbEntity
  8
0
100
AcDbVertex
100
AcDbPolygonMeshVertex
 10
-0.018
 20
-2.84
 30
0.387
 70
    64
  0
VERTEX
  5
9819A
100
AcDbEntity
  8
0
100
AcDbVertex
100
AcDbPolygonMeshVertex
 10
-0.018
 20
-2.84
 30
0.387
 70
    64
  0
VERTEX
  5
9819B
100
AcDbEntity
  8
0
100
AcDbVertex
100
AcDbPolygonMeshVertex
 10
0.772
 20
-2.84
 30
4.287
 70
    64
  0
VERTEX
  5
9819C
100
AcDbEntity
  8
0
100
AcDbVertex
100
AcDbPolygonMeshVertex
 10
0.772
 20
-2.84
 30
0.387
 70
    64
  0
VERTEX
  5
9819D
100
AcDbEntity
  8
0
100
AcDbVertex
100
AcDbPolygonMeshVertex
 10
0.772
 20
-2.84
 30
0.387
 70
    64
  0
VERTEX
  5
9819E
100
AcDbEntity
  8
0
100
AcDbVertex
100
AcDbPolygonMeshVertex
 10
0.772
 20
-1.47
 30
4.287
 70
    64
  0
VERTEX
  5
9819F
100
AcDbEntity
  8
0
100
AcDbVertex
100
AcDbPolygonMeshVertex
 10
0.772
 20
-1.47
 30
0.387
 70
    64
  0
VERTEX
  5
981A0
100
AcDbEntity
  8
0
100
AcDbVertex
100
AcDbPolygonMeshVertex
 10
0.772
 20
-2.84
 30
0.387
 70
    64
  0
VERTEX
  5
981A1
100
AcDbEntity
  8
0
100
AcDbVertex
100
AcDbPolygonMeshVertex
 10
-0.018
 20
-1.47
 30
4.287
 70
    64
  0
VERTEX
  5
981A2
100
AcDbEntity
  8
0
100
AcDbVertex
100
AcDbPolygonMeshVertex
 10
-0.018
 20
-1.47
 30
0.387
 70
    64
  0
VERTEX
  5
981A3
100
AcDbEntity
  8
0
100
AcDbVertex
100
AcDbPolygonMeshVertex
 10
-0.018
 20
-2.84
 30
0.387
 70
    64
  0
VERTEX
  5
981A4
100
AcDbEntity
  8
0
100
AcDbVertex
100
AcDbPolygonMeshVertex
 10
-0.018
 20
-1.47
 30
4.287
 70
    64
  0
VERTEX
  5
981A5
100
AcDbEntity
  8
0
100
AcDbVertex
100
AcDbPolygonMeshVertex
 10
-0.018
 20
-1.47
 30
4.287
 70
    64
  0
VERTEX
  5
981A6
100
AcDbEntity
  8
0
100
AcDbVertex
100
AcDbPolygonMeshVertex
 10
-0.018
 20
-2.84
 30
4.287
 70
    64
  0
VERTEX
  5
981A7
100
AcDbEntity
  8
0
100
AcDbVertex
100
AcDbPolygonMeshVertex
 10
0.772
 20
-1.47
 30
4.287
 70
    64
  0
VERTEX
  5
981A8
100
AcDbEntity
  8
0
100
AcDbVertex
100
AcDbPolygonMeshVertex
 10
0.772
 20
-1.47
 30
4.287
 70
    64
  0
VERTEX
  5
981A9
100
AcDbEntity
  8
0
100
AcDbVertex
100
AcDbPolygonMeshVertex
 10
0.772
 20
-2.84
 30
4.287
 70
    64
  0
SEQEND
  5
981AA
100
AcDbEntity
  8
0
  0
POLYLINE
  5
981AB
100
AcDbEntity
  8
0
100
AcDbPolygonMesh
 66
     1
 10
0.0
 20
0.0
 30
0.0
 70
    16
 71
     6
 72
     3
  0
VERTEX
  5
981AC
100
AcDbEntity
  8
0
100
AcDbVertex
100
AcDbPolygonMeshVertex
 10
0.022
 20
-1.97
 30
4.477
 70
    64
  0
VERTEX
  5
981AD
100
AcDbEntity
  8
0
100
AcDbVertex
100
AcDbPolygonMeshVertex
 10
0.022
 20
-1.97
 30
4.287
 70
    64
  0
VERTEX
  5
981AE
100
AcDbEntity
  8
0
100
AcDbVertex
100
AcDbPolygonMeshVertex
 10
0.022
 20
-1.97
 30
4.287
 70
    64
  0
VERTEX
  5
981AF
100
AcDbEntity
  8
0
100
AcDbVertex
100
AcDbPolygonMeshVertex
 10
0.522
 20
-1.97
 30
4.477
 70
    64
  0
VERTEX
  5
981B0
100
AcDbEntity
  8
0
100
AcDbVertex
100
AcDbPolygonMeshVertex
 10
0.522
 20
-1.97
 30
4.287
 70
    64
  0
VERTEX
  5
981B1
100
AcDbEntity
  8
0
100
AcDbVertex
100
AcDbPolygonMeshVertex
 10
0.522
 20
-1.97
 30
4.287
 70
    64
  0
VERTEX
  5
981B2
100
AcDbEntity
  8
0
100
AcDbVertex
100
AcDbPolygonMeshVertex
 10
0.522
 20
-1.56
 30
4.477
 70
    64
  0
VERTEX
  5
981B3
100
AcDbEntity
  8
0
100
AcDbVertex
100
AcDbPolygonMeshVertex
 10
0.522
 20
-1.56
 30
4.287
 70
    64
  0
VERTEX
  5
981B4
100
AcDbEntity
  8
0
100
AcDbVertex
100
AcDbPolygonMeshVertex
 10
0.522
 20
-1.97
 30
4.287
 70
    64
  0
VERTEX
  5
981B5
100
AcDbEntity
  8
0
100
AcDbVertex
100
AcDbPolygonMeshVertex
 10
0.022
 20
-1.56
 30
4.477
 70
    64
  0
VERTEX
  5
981B6
100
AcDbEntity
  8
0
100
AcDbVertex
100
AcDbPolygonMeshVertex
 10
0.022
 20
-1.56
 30
4.287
 70
    64
  0
VERTEX
  5
981B7
100
AcDbEntity
  8
0
100
AcDbVertex
100
AcDbPolygonMeshVertex
 10
0.022
 20
-1.97
 30
4.287
 70
    64
  0
VERTEX
  5
981B8
100
AcDbEntity
  8
0
100
AcDbVertex
100
AcDbPolygonMeshVertex
 10
0.022
 20
-1.56
 30
4.477
 70
    64
  0
VERTEX
  5
981B9
100
AcDbEntity
  8
0
100
AcDbVertex
100
AcDbPolygonMeshVertex
 10
0.022
 20
-1.56
 30
4.477
 70
    64
  0
VERTEX
  5
981BA
100
AcDbEntity
  8
0
100
AcDbVertex
100
AcDbPolygonMeshVertex
 10
0.022
 20
-1.97
 30
4.477
 70
    64
  0
VERTEX
  5
981BB
100
AcDbEntity
  8
0
100
AcDbVertex
100
AcDbPolygonMeshVertex
 10
0.522
 20
-1.56
 30
4.477
 70
    64
  0
VERTEX
  5
981BC
100
AcDbEntity
  8
0
100
AcDbVertex
100
AcDbPolygonMeshVertex
 10
0.522
 20
-1.56
 30
4.477
 70
    64
  0
VERTEX
  5
981BD
100
AcDbEntity
  8
0
100
AcDbVertex
100
AcDbPolygonMeshVertex
 10
0.522
 20
-1.97
 30
4.477
 70
    64
  0
SEQEND
  5
981BE
100
AcDbEntity
  8
0
  0
CIRCLE
  5
981BF
100
AcDbEntity
  8
0
100
AcDbCircle
 10
0.272
 20
-1.765
 30
4.477
 40
0.19
  0
POLYLINE
  5
981C0
100
AcDbEntity
  8
0
100
AcDbPolygonMesh
 66
     1
 10
0.0
 20
0.0
 30
0.0
 70
    16
 71
     6
 72
     3
  0
VERTEX
  5
981C1
100
AcDbEntity
  8
0
100
AcDbVertex
100
AcDbPolygonMeshVertex
 10
-3.378
 20
-2.84
 30
4.287
 70
    64
  0
VERTEX
  5
981C2
100
AcDbEntity
  8
0
100
AcDbVertex
100
AcDbPolygonMeshVertex
 10
-3.378
 20
-2.84
 30
0.387
 70
    64
  0
VERTEX
  5
981C3
100
AcDbEntity
  8
0
100
AcDbVertex
100
AcDbPolygonMeshVertex
 10
-3.378
 20
-2.84
 30
0.387
 70
    64
  0
VERTEX
  5
981C4
100
AcDbEntity
  8
0
100
AcDbVertex
100
AcDbPolygonMeshVertex
 10
-4.168
 20
-2.84
 30
4.287
 70
    64
  0
VERTEX
  5
981C5
100
AcDbEntity
  8
0
100
AcDbVertex
100
AcDbPolygonMeshVertex
 10
-4.168
 20
-2.84
 30
0.387
 70
    64
  0
VERTEX
  5
981C6
100
AcDbEntity
  8
0
100
AcDbVertex
100
AcDbPolygonMeshVertex
 10
-4.168
 20
-2.84
 30
0.387
 70
    64
  0
VERTEX
  5
981C7
100
AcDbEntity
  8
0
100
AcDbVertex
100
AcDbPolygonMeshVertex
 10
-4.168
 20
-1.47
 30
4.287
 70
    64
  0
VERTEX
  5
981C8
100
AcDbEntity
  8
0
100
AcDbVertex
100
AcDbPolygonMeshVertex
 10
-4.168
 20
-1.47
 30
0.387
 70
    64
  0
VERTEX
  5
981C9
100
AcDbEntity
  8
0
100
AcDbVertex
100
AcDbPolygonMeshVertex
 10
-4.168
 20
-2.84
 30
0.387
 70
    64
  0
VERTEX
  5
981CA
100
AcDbEntity
  8
0
100
AcDbVertex
100
AcDbPolygonMeshVertex
 10
-3.378
 20
-1.47
 30
4.287
 70
    64
  0
VERTEX
  5
981CB
100
AcDbEntity
  8
0
100
AcDbVertex
100
AcDbPolygonMeshVertex
 10
-3.378
 20
-1.47
 30
0.387
 70
    64
  0
VERTEX
  5
981CC
100
AcDbEntity
  8
0
100
AcDbVertex
100
AcDbPolygonMeshVertex
 10
-3.378
 20
-2.84
 30
0.387
 70
    64
  0
VERTEX
  5
981CD
100
AcDbEntity
  8
0
100
AcDbVertex
100
AcDbPolygonMeshVertex
 10
-3.378
 20
-1.47
 30
4.287
 70
    64
  0
VERTEX
  5
981CE
100
AcDbEntity
  8
0
100
AcDbVertex
100
AcDbPolygonMeshVertex
 10
-3.378
 20
-1.47
 30
4.287
 70
    64
  0
VERTEX
  5
981CF
100
AcDbEntity
  8
0
100
AcDbVertex
100
AcDbPolygonMeshVertex
 10
-3.378
 20
-2.84
 30
4.287
 70
    64
  0
VERTEX
  5
981D0
100
AcDbEntity
  8
0
100
AcDbVertex
100
AcDbPolygonMeshVertex
 10
-4.168
 20
-1.47
 30
4.287
 70
    64
  0
VERTEX
  5
981D1
100
AcDbEntity
  8
0
100
AcDbVertex
100
AcDbPolygonMeshVertex
 10
-4.168
 20
-1.47
 30
4.287
 70
    64
  0
VERTEX
  5
981D2
100
AcDbEntity
  8
0
100
AcDbVertex
100
AcDbPolygonMeshVertex
 10
-4.168
 20
-2.84
 30
4.287
 70
    64
  0
SEQEND
  5
981D3
100
AcDbEntity
  8
0
  0
POLYLINE
  5
981D4
100
AcDbEntity
  8
0
100
AcDbPolygonMesh
 66
     1
 10
0.0
 20
0.0
 30
0.0
 70
    16
 71
     6
 72
     3
  0
VERTEX
  5
981D5
100
AcDbEntity
  8
0
100
AcDbVertex
100
AcDbPolygonMeshVertex
 10
-3.418
 20
-1.97
 30
4.477
 70
    64
  0
VERTEX
  5
981D6
100
AcDbEntity
  8
0
100
AcDbVertex
100
AcDbPolygonMeshVertex
 10
-3.418
 20
-1.97
 30
4.287
 70
    64
  0
VERTEX
  5
981D7
100
AcDbEntity
  8
0
100
AcDbVertex
100
AcDbPolygonMeshVertex
 10
-3.418
 20
-1.97
 30
4.287
 70
    64
  0
VERTEX
  5
981D8
100
AcDbEntity
  8
0
100
AcDbVertex
100
AcDbPolygonMeshVertex
 10
-3.918
 20
-1.97
 30
4.477
 70
    64
  0
VERTEX
  5
981D9
100
AcDbEntity
  8
0
100
AcDbVertex
100
AcDbPolygonMeshVertex
 10
-3.918
 20
-1.97
 30
4.287
 70
    64
  0
VERTEX
  5
981DA
100
AcDbEntity
  8
0
100
AcDbVertex
100
AcDbPolygonMeshVertex
 10
-3.918
 20
-1.97
 30
4.287
 70
    64
  0
VERTEX
  5
981DB
100
AcDbEntity
  8
0
100
AcDbVertex
100
AcDbPolygonMeshVertex
 10
-3.918
 20
-1.56
 30
4.477
 70
    64
  0
VERTEX
  5
981DC
100
AcDbEntity
  8
0
100
AcDbVertex
100
AcDbPolygonMeshVertex
 10
-3.918
 20
-1.56
 30
4.287
 70
    64
  0
VERTEX
  5
981DD
100
AcDbEntity
  8
0
100
AcDbVertex
100
AcDbPolygonMeshVertex
 10
-3.918
 20
-1.97
 30
4.287
 70
    64
  0
VERTEX
  5
981DE
100
AcDbEntity
  8
0
100
AcDbVertex
100
AcDbPolygonMeshVertex
 10
-3.418
 20
-1.56
 30
4.477
 70
    64
  0
VERTEX
  5
981DF
100
AcDbEntity
  8
0
100
AcDbVertex
100
AcDbPolygonMeshVertex
 10
-3.418
 20
-1.56
 30
4.287
 70
    64
  0
VERTEX
  5
981E0
100
AcDbEntity
  8
0
100
AcDbVertex
100
AcDbPolygonMeshVertex
 10
-3.418
 20
-1.97
 30
4.287
 70
    64
  0
VERTEX
  5
981E1
100
AcDbEntity
  8
0
100
AcDbVertex
100
AcDbPolygonMeshVertex
 10
-3.418
 20
-1.56
 30
4.477
 70
    64
  0
VERTEX
  5
981E2
100
AcDbEntity
  8
0
100
AcDbVertex
100
AcDbPolygonMeshVertex
 10
-3.418
 20
-1.56
 30
4.477
 70
    64
  0
VERTEX
  5
981E3
100
AcDbEntity
  8
0
100
AcDbVertex
100
AcDbPolygonMeshVertex
 10
-3.418
 20
-1.97
 30
4.477
 70
    64
  0
VERTEX
  5
981E4
100
AcDbEntity
  8
0
100
AcDbVertex
100
AcDbPolygonMeshVertex
 10
-3.918
 20
-1.56
 30
4.477
 70
    64
  0
VERTEX
  5
981E5
100
AcDbEntity
  8
0
100
AcDbVertex
100
AcDbPolygonMeshVertex
 10
-3.918
 20
-1.56
 30
4.477
 70
    64
  0
VERTEX
  5
981E6
100
AcDbEntity
  8
0
100
AcDbVertex
100
AcDbPolygonMeshVertex
 10
-3.918
 20
-1.97
 30
4.477
 70
    64
  0
SEQEND
  5
981E7
100
AcDbEntity
  8
0
  0
CIRCLE
  5
981E8
100
AcDbEntity
  8
0
100
AcDbCircle
 10
-3.668
 20
-1.765
 30
4.477
 40
0.19
  0
LINE
  5
981E9
100
AcDbEntity
  8
0
100
AcDbLine
 10
-3.572965
 20
-1.928318
 30
4.477
 11
-3.804216
 21
-1.631115
 31
4.477
  0
LINE
  5
981EA
100
AcDbEntity
  8
0
100
AcDbLine
 10
-3.532278
 20
-1.897964
 30
4.477
 11
-3.763529
 21
-1.600762
 31
4.477
  0
LINE
  5
981EB
100
AcDbEntity
  8
0
100
AcDbLine
 10
0.407722
 20
-1.897964
 30
4.477
 11
0.176471
 21
-1.600762
 31
4.477
  0
LINE
  5
981EC
100
AcDbEntity
  8
0
100
AcDbLine
 10
0.367035
 20
-1.928318
 30
4.477
 11
0.135784
 21
-1.631115
 31
4.477
  0
ARC
  5
981ED
100
AcDbEntity
  8
0
100
AcDbCircle
 10
-2.753
 20
-8.658
 30
0.197
 40
0.1
100
AcDbArc
 50
0.0
 51
179.999985
  0
ARC
  5
981EE
100
AcDbEntity
  8
0
100
AcDbCircle
 10
-2.753
 20
-8.658
 30
0.0
 40
0.1
100
AcDbArc
 50
0.0
 51
179.999985
  0
LINE
  5
981EF
100
AcDbEntity
  8
DIMS-MTG-HOLES
100
AcDbLine
 10
-2.753
 20
-8.748
 30
0.0
 11
-2.753
 21
-8.568
 31
0.0
  0
LINE
  5
981F0
100
AcDbEntity
  8
0
100
AcDbLine
 10
-2.853
 20
-8.879
 30
0.0
 11
-2.853
 21
-8.879
 31
0.197
  0
LINE
  5
981F1
100
AcDbEntity
  8
0
100
AcDbLine
 10
-2.853
 20
-8.658
 30
0.0
 11
-2.853
 21
-8.658
 31
0.197
  0
LINE
  5
981F2
100
AcDbEntity
  8
0
100
AcDbLine
 10
-2.653
 20
-8.879
 30
0.0
 11
-2.653
 21
-8.879
 31
0.197
  0
LINE
  5
981F3
100
AcDbEntity
  8
0
100
AcDbLine
 10
-2.653
 20
-8.658
 30
0.0
 11
-2.653
 21
-8.658
 31
0.197
  0
LINE
  5
981F4
100
AcDbEntity
  8
DIMS-MTG-HOLES
100
AcDbLine
 10
-2.843
 20
-8.658
 30
0.0
 11
-2.663
 21
-8.658
 31
0.0
  0
LINE
  5
981F5
100
AcDbEntity
  8
0
100
AcDbLine
 10
-2.853
 20
-8.658
 30
0.0
 11
-2.853
 21
-8.879
 31
0.0
  0
LINE
  5
981F6
100
AcDbEntity
  8
0
100
AcDbLine
 10
-2.653
 20
-8.879
 30
0.0
 11
-2.653
 21
-8.658
 31
0.0
  0
LINE
  5
981F7
100
AcDbEntity
  8
0
100
AcDbLine
 10
-2.853
 20
-8.658
 30
0.197
 11
-2.853
 21
-8.879
 31
0.197
  0
LINE
  5
981F8
100
AcDbEntity
  8
0
100
AcDbLine
 10
-2.653
 20
-8.879
 30
0.197
 11
-2.653
 21
-8.658
 31
0.197
  0
LINE
  5
981F9
100
AcDbEntity
  8
0
100
AcDbLine
 10
0.1
 20
0.0
 30
0.197
 11
0.1
 21
-0.131891
 31
0.197
  0
LINE
  5
981FA
100
AcDbEntity
  8
0
100
AcDbLine
 10
-0.1
 20
0.0
 30
0.197
 11
-0.1
 21
-0.131891
 31
0.197
  0
LINE
  5
981FB
100
AcDbEntity
  8
0
100
AcDbLine
 10
0.1
 20
0.0
 30
0.0
 11
0.1
 21
-0.131891
 31
0.0
  0
LINE
  5
981FC
100
AcDbEntity
  8
0
100
AcDbLine
 10
-0.1
 20
0.0
 30
0.0
 11
-0.1
 21
-0.131891
 31
0.0
  0
LINE
  5
981FD
100
AcDbEntity
  8
DIMS-MTG-HOLES
100
AcDbLine
 10
0.0
 20
-0.09
 30
0.0
 11
0.0
 21
0.09
 31
0.0
  0
ARC
  5
981FE
100
AcDbEntity
  8
0
100
AcDbCircle
 10
0.0
 20
-0.344
 30
0.0
 40
0.2345
100
AcDbArc
 50
115.241821
 51
64.758209
  0
ARC
  5
981FF
100
AcDbEntity
  8
0
100
AcDbCircle
 10
0.0
 20
-0.344
 30
0.197
 40
0.2345
100
AcDbArc
 50
115.241821
 51
64.758209
  0
LINE
  5
98200
100
AcDbEntity
  8
0
100
AcDbLine
 10
-0.1
 20
-0.131891
 30
0.0
 11
-0.1
 21
-0.131891
 31
0.197
  0
LINE
  5
98201
100
AcDbEntity
  8
0
100
AcDbLine
 10
0.1
 20
-0.131891
 30
0.0
 11
0.1
 21
-0.131891
 31
0.197
  0
LINE
  5
98202
100
AcDbEntity
  8
0
100
AcDbLine
 10
-0.1
 20
0.0
 30
0.0
 11
-0.1
 21
0.0
 31
0.197
  0
LINE
  5
98203
100
AcDbEntity
  8
0
100
AcDbLine
 10
0.1
 20
0.0
 30
0.0
 11
0.1
 21
0.0
 31
0.197
  0
LINE
  5
98204
100
AcDbEntity
  8
DIMS-MTG-HOLES
100
AcDbLine
 10
-0.09
 20
0.0
 30
0.0
 11
0.09
 21
0.0
 31
0.0
  0
ARC
  5
98205
100
AcDbEntity
  8
0
100
AcDbCircle
 10
0.0
 20
0.0
 30
0.0
 40
0.1
100
AcDbArc
 50
0.0
 51
179.999985
  0
ARC
  5
98206
100
AcDbEntity
  8
0
100
AcDbCircle
 10
0.0
 20
0.0
 30
0.0
 40
0.1
100
AcDbArc
 50
0.0
 51
179.999985
  0
ARC
  5
98207
100
AcDbEntity
  8
0
100
AcDbCircle
 10
0.0
 20
0.0
 30
0.197
 40
0.1
100
AcDbArc
 50
0.0
 51
179.999985
  0
ARC
  5
98208
100
AcDbEntity
  8
0
100
AcDbCircle
 10
0.0
 20
0.0
 30
0.197
 40
0.1
100
AcDbArc
 50
0.0
 51
179.999985
  0
ARC
  5
98209
100
AcDbEntity
  8
0
100
AcDbCircle
 10
4.337
 20
-8.658
 30
0.197
 40
0.1
100
AcDbArc
 50
0.0
 51
179.999985
  0
ARC
  5
9820A
100
AcDbEntity
  8
0
100
AcDbCircle
 10
4.337
 20
-8.658
 30
0.0
 40
0.1
100
AcDbArc
 50
0.0
 51
179.999985
  0
LINE
  5
9820B
100
AcDbEntity
  8
DIMS-MTG-HOLES
100
AcDbLine
 10
4.337
 20
-8.748
 30
0.0
 11
4.337
 21
-8.568
 31
0.0
  0
LINE
  5
9820C
100
AcDbEntity
  8
0
100
AcDbLine
 10
4.237
 20
-8.879
 30
0.0
 11
4.237
 21
-8.879
 31
0.197
  0
LINE
  5
9820D
100
AcDbEntity
  8
0
100
AcDbLine
 10
4.237
 20
-8.658
 30
0.0
 11
4.237
 21
-8.658
 31
0.197
  0
LINE
  5
9820E
100
AcDbEntity
  8
0
100
AcDbLine
 10
4.437
 20
-8.879
 30
0.0
 11
4.437
 21
-8.879
 31
0.197
  0
LINE
  5
9820F
100
AcDbEntity
  8
0
100
AcDbLine
 10
4.437
 20
-8.658
 30
0.0
 11
4.437
 21
-8.658
 31
0.197
  0
LINE
  5
98210
100
AcDbEntity
  8
0
100
AcDbLine
 39
0.197
 10
4.237
 20
-8.879
 30
0.0
 11
4.237
 21
-8.658
 31
0.0
  0
LINE
  5
98211
100
AcDbEntity
  8
0
100
AcDbLine
 39
0.197
 10
4.437
 20
-8.658
 30
0.0
 11
4.437
 21
-8.879
 31
0.0
  0
LINE
  5
98212
100
AcDbEntity
  8
DIMS-MTG-HOLES
100
AcDbLine
 10
4.247
 20
-8.658
 30
0.0
 11
4.427
 21
-8.658
 31
0.0
  0
LINE
  5
98213
100
AcDbEntity
  8
0
100
AcDbLine
 10
4.237
 20
-8.879
 30
0.197
 11
4.237
 21
-8.658
 31
0.197
  0
LINE
  5
98214
100
AcDbEntity
  8
0
100
AcDbLine
 10
4.437
 20
-8.879
 30
0.197
 11
4.437
 21
-8.658
 31
0.197
  0
POLYLINE
  5
98215
100
AcDbEntity
  8
0
100
AcDbPolygonMesh
 66
     1
 10
0.0
 20
0.0
 30
0.0
 70
    16
 71
     6
 72
     3
  0
VERTEX
  5
98216
100
AcDbEntity
  8
0
100
AcDbVertex
100
AcDbPolygonMeshVertex
 10
5.107
 20
-8.879
 30
0.197
 70
    64
  0
VERTEX
  5
98217
100
AcDbEntity
  8
0
100
AcDbVertex
100
AcDbPolygonMeshVertex
 10
5.107
 20
-8.879
 30
0.0
 70
    64
  0
VERTEX
  5
98218
100
AcDbEntity
  8
0
100
AcDbVertex
100
AcDbPolygonMeshVertex
 10
5.107
 20
-8.879
 30
0.0
 70
    64
  0
VERTEX
  5
98219
100
AcDbEntity
  8
0
100
AcDbVertex
100
AcDbPolygonMeshVertex
 10
-3.553
 20
-8.879
 30
0.197
 70
    64
  0
VERTEX
  5
9821A
100
AcDbEntity
  8
0
100
AcDbVertex
100
AcDbPolygonMeshVertex
 10
-3.553
 20
-8.879
 30
0.0
 70
    64
  0
VERTEX
  5
9821B
100
AcDbEntity
  8
0
100
AcDbVertex
100
AcDbPolygonMeshVertex
 10
-3.553
 20
-8.879
 30
0.0
 70
    64
  0
VERTEX
  5
9821C
100
AcDbEntity
  8
0
100
AcDbVertex
100
AcDbPolygonMeshVertex
 10
-3.553
 20
-0.629
 30
0.197
 70
    64
  0
VERTEX
  5
9821D
100
AcDbEntity
  8
0
100
AcDbVertex
100
AcDbPolygonMeshVertex
 10
-3.553
 20
-0.629
 30
0.0
 70
    64
  0
VERTEX
  5
9821E
100
AcDbEntity
  8
0
100
AcDbVertex
100
AcDbPolygonMeshVertex
 10
-3.553
 20
-8.879
 30
0.0
 70
    64
  0
VERTEX
  5
9821F
100
AcDbEntity
  8
0
100
AcDbVertex
100
AcDbPolygonMeshVertex
 10
5.107
 20
-0.629
 30
0.197
 70
    64
  0
VERTEX
  5
98220
100
AcDbEntity
  8
0
100
AcDbVertex
100
AcDbPolygonMeshVertex
 10
5.107
 20
-0.629
 30
0.0
 70
    64
  0
VERTEX
  5
98221
100
AcDbEntity
  8
0
100
AcDbVertex
100
AcDbPolygonMeshVertex
 10
5.107
 20
-8.879
 30
0.0
 70
    64
  0
VERTEX
  5
98222
100
AcDbEntity
  8
0
100
AcDbVertex
100
AcDbPolygonMeshVertex
 10
5.107
 20
-0.629
 30
0.197
 70
    64
  0
VERTEX
  5
98223
100
AcDbEntity
  8
0
100
AcDbVertex
100
AcDbPolygonMeshVertex
 10
5.107
 20
-0.629
 30
0.197
 70
    64
  0
VERTEX
  5
98224
100
AcDbEntity
  8
0
100
AcDbVertex
100
AcDbPolygonMeshVertex
 10
5.107
 20
-8.879
 30
0.197
 70
    64
  0
VERTEX
  5
98225
100
AcDbEntity
  8
0
100
AcDbVertex
100
AcDbPolygonMeshVertex
 10
-3.553
 20
-0.629
 30
0.197
 70
    64
  0
VERTEX
  5
98226
100
AcDbEntity
  8
0
100
AcDbVertex
100
AcDbPolygonMeshVertex
 10
-3.553
 20
-0.629
 30
0.197
 70
    64
  0
VERTEX
  5
98227
100
AcDbEntity
  8
0
100
AcDbVertex
100
AcDbPolygonMeshVertex
 10
-3.553
 20
-8.879
 30
0.197
 70
    64
  0
SEQEND
  5
98228
100
AcDbEntity
  8
0
  0
3DFACE
  5
98229
100
AcDbEntity
  8
0
100
AcDbFace
 10
1.91
 20
-0.629
 30
0.197
 11
1.0
 21
0.281
 31
0.197
 12
-1.0
 22
0.281
 32
0.197
 13
-1.91
 23
-0.629
 33
0.197
  0
3DFACE
  5
9822A
100
AcDbEntity
  8
0
100
AcDbFace
 10
1.91
 20
-0.629
 30
0.0
 11
1.0
 21
0.281
 31
0.0
 12
-1.0
 22
0.281
 32
0.0
 13
-1.91
 23
-0.629
 33
0.0
  0
3DFACE
  5
9822B
100
AcDbEntity
  8
0
100
AcDbFace
 10
1.0
 20
0.281
 30
0.197
 11
1.0
 21
0.281
 31
0.0
 12
1.91
 22
-0.629
 32
0.0
 13
1.91
 23
-0.629
 33
0.197
  0
3DFACE
  5
9822C
100
AcDbEntity
  8
0
100
AcDbFace
 10
-1.0
 20
0.281
 30
0.197
 11
-1.0
 21
0.281
 31
0.0
 12
1.0
 22
0.281
 32
0.0
 13
1.0
 23
0.281
 33
0.197
  0
3DFACE
  5
9822D
100
AcDbEntity
  8
0
100
AcDbFace
 10
-1.0
 20
0.281
 30
0.197
 11
-1.0
 21
0.281
 31
0.0
 12
-1.91
 22
-0.629
 32
0.0
 13
-1.91
 23
-0.629
 33
0.197
  0
POLYLINE
  5
9822E
100
AcDbEntity
  8
0
100
AcDb3dPolyline
 66
     1
 10
0.0
 20
0.0
 30
0.0
 70
     8
  0
VERTEX
  5
9822F
100
AcDbEntity
  8
0
100
AcDbVertex
100
AcDb3dPolylineVertex
 10
16.728544
 20
-6.234828
 30
0.0
 70
    32
  0
VERTEX
  5
9876D
100
AcDbEntity
  8
0
100
AcDbVertex
100
AcDb3dPolylineVertex
 10
16.728544
 20
-6.234828
 30
0.0
 70
    32
  0
SEQEND
  5
98230
100
AcDbEntity
  8
0
  0
LINE
  5
98231
100
AcDbEntity
  8
0
100
AcDbLine
 10
1.622
 20
-5.79
 30
2.007
 11
1.622
 21
-5.79
 31
3.237
  0
LINE
  5
98232
100
AcDbEntity
  8
0
100
AcDbLine
 10
2.022
 20
-8.31
 30
0.387
 11
2.022
 21
-8.06
 31
0.387
  0
LINE
  5
98233
100
AcDbEntity
  8
0
100
AcDbLine
 10
2.022
 20
-8.31
 30
0.577
 11
2.022
 21
-8.06
 31
0.577
  0
LINE
  5
98234
100
AcDbEntity
  8
0
100
AcDbLine
 10
1.822
 20
-8.06
 30
0.387
 11
1.822
 21
-8.31
 31
0.387
  0
LINE
  5
98235
100
AcDbEntity
  8
0
100
AcDbLine
 10
1.822
 20
-8.06
 30
0.577
 11
1.822
 21
-8.31
 31
0.577
  0
LINE
  5
98236
100
AcDbEntity
  8
0
100
AcDbLine
 10
1.822
 20
-8.31
 30
0.387
 11
1.822
 21
-8.31
 31
0.577
  0
LINE
  5
98237
100
AcDbEntity
  8
0
100
AcDbLine
 10
2.022
 20
-8.06
 30
0.387
 11
2.022
 21
-8.06
 31
0.577
  0
LINE
  5
98238
100
AcDbEntity
  8
0
100
AcDbLine
 10
1.822
 20
-8.06
 30
0.387
 11
1.822
 21
-8.06
 31
0.577
  0
ARC
  5
98239
100
AcDbEntity
  8
0
100
AcDbCircle
 10
1.922
 20
-8.06
 30
0.387
 40
0.1
100
AcDbArc
 50
0.0
 51
179.999985
  0
ARC
  5
9823A
100
AcDbEntity
  8
0
100
AcDbCircle
 10
1.922
 20
-8.06
 30
0.577
 40
0.1
100
AcDbArc
 50
0.0
 51
179.999985
  0
3DFACE
  5
9823B
100
AcDbEntity
  8
0
100
AcDbFace
 10
4.772
 20
-8.06
 30
0.577
 11
4.772
 21
-8.06
 31
0.387
 12
4.772
 22
-8.31
 32
0.387
 13
4.772
 23
-8.31
 33
0.577
 70
    14
  0
LINE
  5
9823C
100
AcDbEntity
  8
0
100
AcDbLine
 10
4.572
 20
-8.06
 30
0.387
 11
4.572
 21
-8.31
 31
0.387
  0
LINE
  5
9823D
100
AcDbEntity
  8
0
100
AcDbLine
 10
4.772
 20
-8.31
 30
0.387
 11
4.772
 21
-8.06
 31
0.387
  0
LINE
  5
9823E
100
AcDbEntity
  8
0
100
AcDbLine
 10
4.572
 20
-8.06
 30
0.577
 11
4.572
 21
-8.31
 31
0.577
  0
LINE
  5
9823F
100
AcDbEntity
  8
0
100
AcDbLine
 10
4.772
 20
-8.31
 30
0.577
 11
4.772
 21
-8.06
 31
0.577
  0
LINE
  5
98240
100
AcDbEntity
  8
0
100
AcDbLine
 10
4.572
 20
-8.31
 30
0.387
 11
4.572
 21
-8.31
 31
0.577
  0
LINE
  5
98241
100
AcDbEntity
  8
0
100
AcDbLine
 10
4.772
 20
-8.31
 30
0.387
 11
4.772
 21
-8.31
 31
0.577
  0
LINE
  5
98242
100
AcDbEntity
  8
0
100
AcDbLine
 10
4.572
 20
-8.06
 30
0.387
 11
4.572
 21
-8.06
 31
0.577
  0
LINE
  5
98243
100
AcDbEntity
  8
0
100
AcDbLine
 10
4.772
 20
-8.06
 30
0.387
 11
4.772
 21
-8.06
 31
0.577
  0
ARC
  5
98244
100
AcDbEntity
  8
0
100
AcDbCircle
 10
4.672
 20
-8.06
 30
0.387
 40
0.1
100
AcDbArc
 50
0.0
 51
179.999985
  0
ARC
  5
98245
100
AcDbEntity
  8
0
100
AcDbCircle
 10
4.672
 20
-8.06
 30
0.577
 40
0.1
100
AcDbArc
 50
0.0
 51
179.999985
  0
CIRCLE
  5
98246
100
AcDbEntity
  8
0
100
AcDbCircle
 10
2.172
 20
-6.06811
 30
5.358772
 40
0.155
210
0.0
220
-0.3163624652213708
230
0.9486383876899864
  0
LINE
  5
98247
100
AcDbEntity
  8
0
100
AcDbLine
 10
2.151925
 20
-7.597557
 30
3.115192
 11
2.172414
 21
-7.304718
 31
3.212851
210
0.0
220
-0.3163624652213708
230
0.9486383876899864
  0
LINE
  5
98248
100
AcDbEntity
  8
0
100
AcDbLine
 10
2.171042
 20
-7.598819
 30
3.114771
 11
2.191531
 21
-7.30598
 31
3.21243
210
0.0
220
-0.3163624652213708
230
0.9486383876899864
  0
CIRCLE
  5
98249
100
AcDbEntity
  8
0
100
AcDbCircle
 10
3.232
 20
-6.06811
 30
5.358772
 40
0.155
210
0.0
220
-0.3163624652213708
230
0.9486383876899864
  0
LINE
  5
9824A
100
AcDbEntity
  8
0
100
AcDbLine
 10
3.231042
 20
-7.598819
 30
3.114771
 11
3.251531
 21
-7.30598
 31
3.21243
210
0.0
220
-0.3163624652213708
230
0.9486383876899864
  0
LINE
  5
9824B
100
AcDbEntity
  8
0
100
AcDbLine
 10
3.211925
 20
-7.597557
 30
3.115192
 11
3.232414
 21
-7.304718
 31
3.212851
210
0.0
220
-0.3163624652213708
230
0.9486383876899864
  0
LINE
  5
9824C
100
AcDbEntity
  8
0
100
AcDbLine
 10
2.579
 20
-6.29
 30
4.347
 11
2.579
 21
-6.29
 31
4.027
  0
LINE
  5
9824D
100
AcDbEntity
  8
0
100
AcDbLine
 10
2.829
 20
-6.29
 30
4.347
 11
2.829
 21
-6.29
 31
4.027
  0
LINE
  5
9824E
100
AcDbEntity
  8
0
100
AcDbLine
 10
2.829
 20
-6.04
 30
4.347
 11
2.829
 21
-6.04
 31
4.027
  0
LINE
  5
9824F
100
AcDbEntity
  8
0
100
AcDbLine
 10
2.579
 20
-6.04
 30
4.347
 11
2.579
 21
-6.04
 31
4.027
  0
LINE
  5
98250
100
AcDbEntity
  8
0
100
AcDbLine
 10
2.829
 20
-6.04
 30
4.347
 11
2.829
 21
-6.04
 31
4.027
  0
3DFACE
  5
98251
100
AcDbEntity
  8
0
100
AcDbFace
 10
2.829
 20
-6.29
 30
4.347
 11
2.829
 21
-6.29
 31
4.027
 12
2.829
 22
-6.04
 32
4.027
 13
2.829
 23
-6.04
 33
4.347
 70
    14
  0
3DFACE
  5
98252
100
AcDbEntity
  8
0
100
AcDbFace
 10
2.829
 20
-6.04
 30
4.027
 11
2.829
 21
-6.04
 31
4.347
 12
2.829
 22
-6.29
 32
4.347
 13
2.829
 23
-6.29
 33
4.027
 70
     3
  0
3DFACE
  5
98253
100
AcDbEntity
  8
0
100
AcDbFace
 10
2.829
 20
-6.29
 30
4.347
 11
2.829
 21
-6.29
 31
4.027
 12
2.829
 22
-6.04
 32
4.027
 13
2.829
 23
-6.04
 33
4.027
 70
    14
  0
3DFACE
  5
98254
100
AcDbEntity
  8
0
100
AcDbFace
 10
2.829
 20
-6.04
 30
4.027
 11
2.579
 21
-6.04
 31
4.027
 12
2.579
 22
-6.04
 32
4.347
 13
2.829
 23
-6.04
 33
4.347
 70
    14
  0
3DFACE
  5
98255
100
AcDbEntity
  8
0
100
AcDbFace
 10
2.579
 20
-6.04
 30
4.347
 11
2.579
 21
-6.29
 31
4.347
 12
2.579
 22
-6.29
 32
4.027
 13
2.579
 23
-6.04
 33
4.027
 70
    14
  0
3DFACE
  5
98256
100
AcDbEntity
  8
0
100
AcDbFace
 10
2.579
 20
-6.29
 30
4.347
 11
2.579
 21
-6.29
 31
4.027
 12
2.829
 22
-6.29
 32
4.027
 13
2.829
 23
-6.29
 33
4.347
 70
    14
  0
LINE
  5
98257
100
AcDbEntity
  8
0
100
AcDbLine
 10
2.829
 20
-6.29
 30
4.027
 11
2.579
 21
-6.29
 31
4.027
  0
LINE
  5
98258
100
AcDbEntity
  8
0
100
AcDbLine
 10
2.579
 20
-6.04
 30
4.027
 11
2.829
 21
-6.04
 31
4.027
  0
LINE
  5
98259
100
AcDbEntity
  8
0
100
AcDbLine
 10
2.579
 20
-6.29
 30
4.027
 11
2.579
 21
-6.04
 31
4.027
  0
LINE
  5
9825A
100
AcDbEntity
  8
0
100
AcDbLine
 10
2.829
 20
-6.04
 30
4.027
 11
2.829
 21
-6.29
 31
4.027
  0
3DFACE
  5
9825B
100
AcDbEntity
  8
0
100
AcDbFace
 10
2.394
 20
-5.79
 30
4.937
 11
3.014
 21
-5.79
 31
4.937
 12
3.014
 22
-5.79
 32
4.812
 13
2.394
 23
-5.79
 33
4.812
 70
    14
  0
LINE
  5
9825C
100
AcDbEntity
  8
0
100
AcDbLine
 10
2.394
 20
-5.79
 30
4.937
 11
3.014
 21
-5.79
 31
4.937
  0
LINE
  5
9825D
100
AcDbEntity
  8
0
100
AcDbLine
 10
2.394
 20
-5.79
 30
4.812
 11
3.014
 21
-5.79
 31
4.812
  0
LINE
  5
9825E
100
AcDbEntity
  8
0
100
AcDbLine
 10
2.454
 20
-5.915
 30
4.347
 11
2.954
 21
-5.915
 31
4.347
  0
3DFACE
  5
9825F
100
AcDbEntity
  8
0
100
AcDbFace
 10
3.014
 20
-5.79
 30
4.812
 11
2.394
 21
-5.79
 31
4.812
 12
2.454
 22
-5.915
 32
4.347
 13
2.954
 23
-5.915
 33
4.347
 70
    14
  0
LINE
  5
98260
100
AcDbEntity
  8
0
100
AcDbLine
 10
3.014
 20
-6.54
 30
4.812
 11
2.394
 21
-6.54
 31
4.812
  0
3DFACE
  5
98261
100
AcDbEntity
  8
0
100
AcDbFace
 10
2.394
 20
-6.54
 30
4.937
 11
3.014
 21
-6.54
 31
4.937
 12
3.014
 22
-6.54
 32
4.812
 13
2.394
 23
-6.54
 33
4.812
 70
    14
  0
LINE
  5
98262
100
AcDbEntity
  8
0
100
AcDbLine
 10
3.014
 20
-6.54
 30
4.937
 11
2.394
 21
-6.54
 31
4.937
  0
LINE
  5
98263
100
AcDbEntity
  8
0
100
AcDbLine
 10
2.954
 20
-6.415
 30
4.347
 11
2.454
 21
-6.415
 31
4.347
  0
3DFACE
  5
98264
100
AcDbEntity
  8
0
100
AcDbFace
 10
2.394
 20
-6.54
 30
4.812
 11
3.014
 21
-6.54
 31
4.812
 12
2.954
 22
-6.415
 32
4.347
 13
2.454
 23
-6.415
 33
4.347
 70
    14
  0
3DFACE
  5
98265
100
AcDbEntity
  8
0
100
AcDbFace
 10
2.394
 20
-5.79
 30
4.937
 11
3.014
 21
-5.79
 31
4.937
 12
3.014
 22
-6.54
 32
4.937
 13
2.394
 23
-6.54
 33
4.937
 70
    14
  0
LINE
  5
98266
100
AcDbEntity
  8
0
100
AcDbLine
 10
2.579
 20
-6.29
 30
4.347
 11
2.829
 21
-6.29
 31
4.347
  0
LINE
  5
98267
100
AcDbEntity
  8
0
100
AcDbLine
 10
2.579
 20
-6.04
 30
4.347
 11
2.829
 21
-6.04
 31
4.347
  0
LINE
  5
98268
100
AcDbEntity
  8
0
100
AcDbLine
 10
2.394
 20
-6.54
 30
4.812
 11
2.394
 21
-5.79
 31
4.812
  0
3DFACE
  5
98269
100
AcDbEntity
  8
0
100
AcDbFace
 10
2.394
 20
-5.79
 30
4.937
 11
2.394
 21
-5.79
 31
4.812
 12
2.394
 22
-6.54
 32
4.812
 13
2.394
 23
-6.54
 33
4.937
 70
    14
  0
LINE
  5
9826A
100
AcDbEntity
  8
0
100
AcDbLine
 10
2.394
 20
-6.54
 30
4.937
 11
2.394
 21
-5.79
 31
4.937
  0
LINE
  5
9826B
100
AcDbEntity
  8
0
100
AcDbLine
 10
2.454
 20
-5.915
 30
4.347
 11
2.454
 21
-6.415
 31
4.347
  0
LINE
  5
9826C
100
AcDbEntity
  8
0
100
AcDbLine
 10
2.579
 20
-6.29
 30
4.347
 11
2.579
 21
-6.04
 31
4.347
  0
3DFACE
  5
9826D
100
AcDbEntity
  8
0
100
AcDbFace
 10
2.394
 20
-5.79
 30
4.812
 11
2.454
 21
-5.915
 31
4.347
 12
2.454
 22
-6.415
 32
4.347
 13
2.394
 23
-6.54
 33
4.812
 70
    14
  0
LINE
  5
9826E
100
AcDbEntity
  8
0
100
AcDbLine
 10
2.454
 20
-6.415
 30
4.347
 11
2.394
 21
-6.54
 31
4.812
  0
LINE
  5
9826F
100
AcDbEntity
  8
0
100
AcDbLine
 10
2.394
 20
-6.54
 30
4.812
 11
2.394
 21
-6.54
 31
4.937
  0
LINE
  5
98270
100
AcDbEntity
  8
0
100
AcDbLine
 10
2.394
 20
-5.79
 30
4.812
 11
2.454
 21
-5.915
 31
4.347
  0
LINE
  5
98271
100
AcDbEntity
  8
0
100
AcDbLine
 10
2.394
 20
-5.79
 30
4.937
 11
2.394
 21
-5.79
 31
4.812
  0
3DFACE
  5
98272
100
AcDbEntity
  8
0
100
AcDbFace
 10
3.014
 20
-5.79
 30
4.937
 11
3.014
 21
-6.54
 31
4.937
 12
3.014
 22
-6.54
 32
4.812
 13
3.014
 23
-5.79
 33
4.812
 70
    14
  0
LINE
  5
98273
100
AcDbEntity
  8
0
100
AcDbLine
 10
3.014
 20
-5.79
 30
4.937
 11
3.014
 21
-6.54
 31
4.937
  0
LINE
  5
98274
100
AcDbEntity
  8
0
100
AcDbLine
 10
3.014
 20
-5.79
 30
4.812
 11
3.014
 21
-6.54
 31
4.812
  0
LINE
  5
98275
100
AcDbEntity
  8
0
100
AcDbLine
 10
2.829
 20
-6.04
 30
4.347
 11
2.829
 21
-6.29
 31
4.347
  0
LINE
  5
98276
100
AcDbEntity
  8
0
100
AcDbLine
 10
2.954
 20
-5.915
 30
4.347
 11
2.954
 21
-6.415
 31
4.347
  0
3DFACE
  5
98277
100
AcDbEntity
  8
0
100
AcDbFace
 10
3.014
 20
-6.54
 30
4.812
 11
2.954
 21
-6.415
 31
4.347
 12
2.954
 22
-5.915
 32
4.347
 13
3.014
 23
-5.79
 33
4.812
 70
    14
  0
LINE
  5
98278
100
AcDbEntity
  8
0
100
AcDbLine
 10
3.014
 20
-6.54
 30
4.812
 11
2.954
 21
-6.415
 31
4.347
  0
LINE
  5
98279
100
AcDbEntity
  8
0
100
AcDbLine
 10
3.014
 20
-6.54
 30
4.937
 11
3.014
 21
-6.54
 31
4.812
  0
LINE
  5
9827A
100
AcDbEntity
  8
0
100
AcDbLine
 10
3.014
 20
-5.79
 30
4.812
 11
2.954
 21
-5.915
 31
4.347
  0
LINE
  5
9827B
100
AcDbEntity
  8
0
100
AcDbLine
 10
3.014
 20
-5.79
 30
4.937
 11
3.014
 21
-5.79
 31
4.812
  0
CIRCLE
  5
9827C
100
AcDbEntity
  8
0
100
AcDbCircle
 10
4.292
 20
-6.06811
 30
5.358772
 40
0.155
210
0.0
220
-0.3163624652213708
230
0.9486383876899864
  0
LINE
  5
9827D
100
AcDbEntity
  8
0
100
AcDbLine
 10
4.291042
 20
-7.598819
 30
3.114771
 11
4.311531
 21
-7.30598
 31
3.21243
210
0.0
220
-0.3163624652213708
230
0.9486383876899864
  0
LINE
  5
9827E
100
AcDbEntity
  8
0
100
AcDbLine
 10
4.271925
 20
-7.597557
 30
3.115192
 11
4.292414
 21
-7.304718
 31
3.212851
210
0.0
220
-0.3163624652213708
230
0.9486383876899864
  0
CIRCLE
  5
9827F
100
AcDbEntity
  8
0
100
AcDbCircle
 10
3.682
 20
-0.97
 30
0.577
 40
0.1
  0
CIRCLE
  5
98280
100
AcDbEntity
  8
0
100
AcDbCircle
 10
3.682
 20
-0.97
 30
0.577
 40
0.1
  0
LINE
  5
98281
100
AcDbEntity
  8
0
100
AcDbLine
 10
3.017
 20
-0.69
 30
0.387
 11
4.457
 21
-0.69
 31
0.387
  0
LINE
  5
98282
100
AcDbEntity
  8
0
100
AcDbLine
 10
3.017
 20
-0.69
 30
0.577
 11
4.457
 21
-0.69
 31
0.577
  0
3DFACE
  5
98283
100
AcDbEntity
  8
0
100
AcDbFace
 10
2.327
 20
-0.69
 30
0.577
 11
2.137
 21
-0.69
 31
0.577
 12
2.137
 22
-0.69
 32
0.387
 13
2.327
 23
-0.69
 33
0.387
 70
    14
  0
LINE
  5
98284
100
AcDbEntity
  8
0
100
AcDbLine
 10
2.137
 20
-0.69
 30
0.387
 11
2.327
 21
-0.69
 31
0.387
  0
LINE
  5
98285
100
AcDbEntity
  8
0
100
AcDbLine
 10
2.137
 20
-0.69
 30
0.577
 11
2.327
 21
-0.69
 31
0.577
  0
ARC
  5
98286
100
AcDbEntity
  8
0
100
AcDbCircle
 10
3.302
 20
-0.97
 30
0.577
 40
0.1015
100
AcDbArc
 50
0.0
 51
179.999985
  0
ARC
  5
98287
100
AcDbEntity
  8
0
100
AcDbCircle
 10
3.302
 20
-0.97
 30
0.577
 40
0.1015
100
AcDbArc
 50
0.0
 51
179.999985
  0
LINE
  5
98288
100
AcDbEntity
  8
0
100
AcDbLine
 10
3.4035
 20
-1.102159
 30
0.387
 11
3.4035
 21
-1.102159
 31
0.577
  0
LINE
  5
98289
100
AcDbEntity
  8
0
100
AcDbLine
 10
3.4035
 20
-0.97
 30
0.387
 11
3.4035
 21
-0.97
 31
0.577
  0
LINE
  5
9828A
100
AcDbEntity
  8
0
100
AcDbLine
 10
3.2005
 20
-0.97
 30
0.387
 11
3.2005
 21
-0.97
 31
0.577
  0
ARC
  5
9828B
100
AcDbEntity
  8
0
100
AcDbCircle
 10
3.302
 20
-1.313
 30
0.577
 40
0.234
100
AcDbArc
 50
115.70649
 51
64.293579
  0
ARC
  5
9828C
100
AcDbEntity
  8
0
100
AcDbCircle
 10
3.302
 20
-1.313
 30
0.577
 40
0.234
100
AcDbArc
 50
115.70649
 51
64.293579
  0
LINE
  5
9828D
100
AcDbEntity
  8
0
100
AcDbLine
 10
3.2005
 20
-0.97
 30
0.577
 11
3.2005
 21
-1.102159
 31
0.577
  0
LINE
  5
9828E
100
AcDbEntity
  8
0
100
AcDbLine
 10
3.2005
 20
-0.97
 30
0.577
 11
3.2005
 21
-1.102159
 31
0.577
  0
LINE
  5
9828F
100
AcDbEntity
  8
0
100
AcDbLine
 10
3.4035
 20
-0.97
 30
0.577
 11
3.4035
 21
-1.102159
 31
0.577
  0
LINE
  5
98290
100
AcDbEntity
  8
0
100
AcDbLine
 10
3.4035
 20
-0.97
 30
0.577
 11
3.4035
 21
-1.102159
 31
0.577
  0
LINE
  5
98291
100
AcDbEntity
  8
0
100
AcDbLine
 10
4.457
 20
-0.69
 30
0.387
 11
5.077
 21
-1.31
 31
0.387
  0
LINE
  5
98292
100
AcDbEntity
  8
0
100
AcDbLine
 10
4.457
 20
-0.69
 30
0.577
 11
5.077
 21
-1.31
 31
0.577
  0
LINE
  5
98293
100
AcDbEntity
  8
0
100
AcDbLine
 10
3.782
 20
-0.97
 30
0.387
 11
3.782
 21
-0.97
 31
0.577
  0
CIRCLE
  5
98294
100
AcDbEntity
  8
0
100
AcDbCircle
 10
3.682
 20
-0.97
 30
0.387
 40
0.1
  0
ARC
  5
98295
100
AcDbEntity
  8
0
100
AcDbCircle
 10
3.302
 20
-1.313
 30
0.387
 40
0.234
100
AcDbArc
 50
115.70649
 51
64.293579
  0
LINE
  5
98296
100
AcDbEntity
  8
0
100
AcDbLine
 10
3.4035
 20
-0.97
 30
0.387
 11
3.4035
 21
-1.102159
 31
0.387
  0
ARC
  5
98297
100
AcDbEntity
  8
0
100
AcDbCircle
 10
3.302
 20
-0.97
 30
0.387
 40
0.1015
100
AcDbArc
 50
0.0
 51
179.999985
  0
LINE
  5
98298
100
AcDbEntity
  8
0
100
AcDbLine
 10
3.2005
 20
-0.97
 30
0.387
 11
3.2005
 21
-1.102159
 31
0.387
  0
LINE
  5
98299
100
AcDbEntity
  8
0
100
AcDbLine
 10
3.2005
 20
-1.102159
 30
0.387
 11
3.2005
 21
-1.102159
 31
0.577
  0
POLYLINE
  5
9829A
100
AcDbEntity
  8
0
100
AcDb3dPolyline
 66
     1
 10
0.0
 20
0.0
 30
0.0
 70
     8
  0
VERTEX
  5
9829B
100
AcDbEntity
  8
0
100
AcDbVertex
100
AcDb3dPolylineVertex
 10
7.532983
 20
-2.835438
 30
0.577
 70
    32
  0
VERTEX
  5
9876E
100
AcDbEntity
  8
0
100
AcDbVertex
100
AcDb3dPolylineVertex
 10
7.532983
 20
-2.835438
 30
0.577
 70
    32
  0
SEQEND
  5
9829C
100
AcDbEntity
  8
0
  0
LINE
  5
9829D
100
AcDbEntity
  8
0
100
AcDbLine
 10
1.622
 20
-7.2
 30
3.237
 11
1.622
 21
-7.2
 31
0.577
  0
LINE
  5
9829E
100
AcDbEntity
  8
0
100
AcDbLine
 10
4.982
 20
-5.79
 30
2.007
 11
4.982
 21
-7.592911
 31
2.007
  0
LINE
  5
9829F
100
AcDbEntity
  8
0
100
AcDbLine
 10
1.622
 20
-7.61
 30
2.157
 11
1.622
 21
-7.61
 31
2.007
  0
LINE
  5
982A0
100
AcDbEntity
  8
0
100
AcDbLine
 10
1.622
 20
-7.61
 30
2.007
 11
1.622
 21
-7.61
 31
0.577
  0
POLYLINE
  5
982A1
100
AcDbEntity
  8
0
100
AcDbPolygonMesh
 66
     1
 10
0.0
 20
0.0
 30
0.0
 70
    16
 71
     6
 72
     3
  0
VERTEX
  5
982A2
100
AcDbEntity
  8
0
100
AcDbVertex
100
AcDbPolygonMeshVertex
 10
4.982
 20
-7.61
 30
3.087
 70
    64
  0
VERTEX
  5
982A3
100
AcDbEntity
  8
0
100
AcDbVertex
100
AcDbPolygonMeshVertex
 10
4.982
 20
-7.61
 30
0.577
 70
    64
  0
VERTEX
  5
982A4
100
AcDbEntity
  8
0
100
AcDbVertex
100
AcDbPolygonMeshVertex
 10
4.982
 20
-7.61
 30
0.577
 70
    64
  0
VERTEX
  5
982A5
100
AcDbEntity
  8
0
100
AcDbVertex
100
AcDbPolygonMeshVertex
 10
1.622
 20
-7.61
 30
3.087
 70
    64
  0
VERTEX
  5
982A6
100
AcDbEntity
  8
0
100
AcDbVertex
100
AcDbPolygonMeshVertex
 10
1.622
 20
-7.61
 30
0.577
 70
    64
  0
VERTEX
  5
982A7
100
AcDbEntity
  8
0
100
AcDbVertex
100
AcDbPolygonMeshVertex
 10
1.622
 20
-7.61
 30
0.577
 70
    64
  0
VERTEX
  5
982A8
100
AcDbEntity
  8
0
100
AcDbVertex
100
AcDbPolygonMeshVertex
 10
1.622
 20
-7.2
 30
3.087
 70
    64
  0
VERTEX
  5
982A9
100
AcDbEntity
  8
0
100
AcDbVertex
100
AcDbPolygonMeshVertex
 10
1.622
 20
-7.2
 30
0.577
 70
    64
  0
VERTEX
  5
982AA
100
AcDbEntity
  8
0
100
AcDbVertex
100
AcDbPolygonMeshVertex
 10
1.622
 20
-7.61
 30
0.577
 70
    64
  0
VERTEX
  5
982AB
100
AcDbEntity
  8
0
100
AcDbVertex
100
AcDbPolygonMeshVertex
 10
4.982
 20
-7.2
 30
3.087
 70
    64
  0
VERTEX
  5
982AC
100
AcDbEntity
  8
0
100
AcDbVertex
100
AcDbPolygonMeshVertex
 10
4.982
 20
-7.2
 30
0.577
 70
    64
  0
VERTEX
  5
982AD
100
AcDbEntity
  8
0
100
AcDbVertex
100
AcDbPolygonMeshVertex
 10
4.982
 20
-7.61
 30
0.577
 70
    64
  0
VERTEX
  5
982AE
100
AcDbEntity
  8
0
100
AcDbVertex
100
AcDbPolygonMeshVertex
 10
4.982
 20
-7.2
 30
3.087
 70
    64
  0
VERTEX
  5
982AF
100
AcDbEntity
  8
0
100
AcDbVertex
100
AcDbPolygonMeshVertex
 10
4.982
 20
-7.2
 30
3.087
 70
    64
  0
VERTEX
  5
982B0
100
AcDbEntity
  8
0
100
AcDbVertex
100
AcDbPolygonMeshVertex
 10
4.982
 20
-7.61
 30
3.087
 70
    64
  0
VERTEX
  5
982B1
100
AcDbEntity
  8
0
100
AcDbVertex
100
AcDbPolygonMeshVertex
 10
1.622
 20
-7.2
 30
3.087
 70
    64
  0
VERTEX
  5
982B2
100
AcDbEntity
  8
0
100
AcDbVertex
100
AcDbPolygonMeshVertex
 10
1.622
 20
-7.2
 30
3.087
 70
    64
  0
VERTEX
  5
982B3
100
AcDbEntity
  8
0
100
AcDbVertex
100
AcDbPolygonMeshVertex
 10
1.622
 20
-7.61
 30
3.087
 70
    64
  0
SEQEND
  5
982B4
100
AcDbEntity
  8
0
  0
POLYLINE
  5
982B5
100
AcDbEntity
  8
0
100
AcDbPolygonMesh
 66
     1
 10
0.0
 20
0.0
 30
0.0
 70
    16
 71
     6
 72
     3
  0
VERTEX
  5
982B6
100
AcDbEntity
  8
0
100
AcDbVertex
100
AcDbPolygonMeshVertex
 10
2.792
 20
-8.04
 30
0.887
 70
    64
  0
VERTEX
  5
982B7
100
AcDbEntity
  8
0
100
AcDbVertex
100
AcDbPolygonMeshVertex
 10
2.792
 20
-8.04
 30
0.577
 70
    64
  0
VERTEX
  5
982B8
100
AcDbEntity
  8
0
100
AcDbVertex
100
AcDbPolygonMeshVertex
 10
2.792
 20
-8.04
 30
0.577
 70
    64
  0
VERTEX
  5
982B9
100
AcDbEntity
  8
0
100
AcDbVertex
100
AcDbPolygonMeshVertex
 10
2.292
 20
-8.04
 30
0.887
 70
    64
  0
VERTEX
  5
982BA
100
AcDbEntity
  8
0
100
AcDbVertex
100
AcDbPolygonMeshVertex
 10
2.292
 20
-8.04
 30
0.577
 70
    64
  0
VERTEX
  5
982BB
100
AcDbEntity
  8
0
100
AcDbVertex
100
AcDbPolygonMeshVertex
 10
2.292
 20
-8.04
 30
0.577
 70
    64
  0
VERTEX
  5
982BC
100
AcDbEntity
  8
0
100
AcDbVertex
100
AcDbPolygonMeshVertex
 10
2.292
 20
-7.61
 30
0.887
 70
    64
  0
VERTEX
  5
982BD
100
AcDbEntity
  8
0
100
AcDbVertex
100
AcDbPolygonMeshVertex
 10
2.292
 20
-7.61
 30
0.577
 70
    64
  0
VERTEX
  5
982BE
100
AcDbEntity
  8
0
100
AcDbVertex
100
AcDbPolygonMeshVertex
 10
2.292
 20
-8.04
 30
0.577
 70
    64
  0
VERTEX
  5
982BF
100
AcDbEntity
  8
0
100
AcDbVertex
100
AcDbPolygonMeshVertex
 10
2.792
 20
-7.61
 30
0.887
 70
    64
  0
VERTEX
  5
982C0
100
AcDbEntity
  8
0
100
AcDbVertex
100
AcDbPolygonMeshVertex
 10
2.792
 20
-7.61
 30
0.577
 70
    64
  0
VERTEX
  5
982C1
100
AcDbEntity
  8
0
100
AcDbVertex
100
AcDbPolygonMeshVertex
 10
2.792
 20
-8.04
 30
0.577
 70
    64
  0
VERTEX
  5
982C2
100
AcDbEntity
  8
0
100
AcDbVertex
100
AcDbPolygonMeshVertex
 10
2.792
 20
-7.61
 30
0.887
 70
    64
  0
VERTEX
  5
982C3
100
AcDbEntity
  8
0
100
AcDbVertex
100
AcDbPolygonMeshVertex
 10
2.792
 20
-7.61
 30
0.887
 70
    64
  0
VERTEX
  5
982C4
100
AcDbEntity
  8
0
100
AcDbVertex
100
AcDbPolygonMeshVertex
 10
2.792
 20
-8.04
 30
0.887
 70
    64
  0
VERTEX
  5
982C5
100
AcDbEntity
  8
0
100
AcDbVertex
100
AcDbPolygonMeshVertex
 10
2.292
 20
-7.61
 30
0.887
 70
    64
  0
VERTEX
  5
982C6
100
AcDbEntity
  8
0
100
AcDbVertex
100
AcDbPolygonMeshVertex
 10
2.292
 20
-7.61
 30
0.887
 70
    64
  0
VERTEX
  5
982C7
100
AcDbEntity
  8
0
100
AcDbVertex
100
AcDbPolygonMeshVertex
 10
2.292
 20
-8.04
 30
0.887
 70
    64
  0
SEQEND
  5
982C8
100
AcDbEntity
  8
0
  0
POLYLINE
  5
982C9
100
AcDbEntity
  8
0
100
AcDbPolygonMesh
 66
     1
 10
0.0
 20
0.0
 30
0.0
 70
    16
 71
     6
 72
     3
  0
VERTEX
  5
982CA
100
AcDbEntity
  8
0
100
AcDbVertex
100
AcDbPolygonMeshVertex
 10
4.169
 20
-8.04
 30
0.887
 70
    64
  0
VERTEX
  5
982CB
100
AcDbEntity
  8
0
100
AcDbVertex
100
AcDbPolygonMeshVertex
 10
4.169
 20
-8.04
 30
0.577
 70
    64
  0
VERTEX
  5
982CC
100
AcDbEntity
  8
0
100
AcDbVertex
100
AcDbPolygonMeshVertex
 10
4.169
 20
-8.04
 30
0.577
 70
    64
  0
VERTEX
  5
982CD
100
AcDbEntity
  8
0
100
AcDbVertex
100
AcDbPolygonMeshVertex
 10
3.669
 20
-8.04
 30
0.887
 70
    64
  0
VERTEX
  5
982CE
100
AcDbEntity
  8
0
100
AcDbVertex
100
AcDbPolygonMeshVertex
 10
3.669
 20
-8.04
 30
0.577
 70
    64
  0
VERTEX
  5
982CF
100
AcDbEntity
  8
0
100
AcDbVertex
100
AcDbPolygonMeshVertex
 10
3.669
 20
-8.04
 30
0.577
 70
    64
  0
VERTEX
  5
982D0
100
AcDbEntity
  8
0
100
AcDbVertex
100
AcDbPolygonMeshVertex
 10
3.669
 20
-7.61
 30
0.887
 70
    64
  0
VERTEX
  5
982D1
100
AcDbEntity
  8
0
100
AcDbVertex
100
AcDbPolygonMeshVertex
 10
3.669
 20
-7.61
 30
0.577
 70
    64
  0
VERTEX
  5
982D2
100
AcDbEntity
  8
0
100
AcDbVertex
100
AcDbPolygonMeshVertex
 10
3.669
 20
-8.04
 30
0.577
 70
    64
  0
VERTEX
  5
982D3
100
AcDbEntity
  8
0
100
AcDbVertex
100
AcDbPolygonMeshVertex
 10
4.169
 20
-7.61
 30
0.887
 70
    64
  0
VERTEX
  5
982D4
100
AcDbEntity
  8
0
100
AcDbVertex
100
AcDbPolygonMeshVertex
 10
4.169
 20
-7.61
 30
0.577
 70
    64
  0
VERTEX
  5
982D5
100
AcDbEntity
  8
0
100
AcDbVertex
100
AcDbPolygonMeshVertex
 10
4.169
 20
-8.04
 30
0.577
 70
    64
  0
VERTEX
  5
982D6
100
AcDbEntity
  8
0
100
AcDbVertex
100
AcDbPolygonMeshVertex
 10
4.169
 20
-7.61
 30
0.887
 70
    64
  0
VERTEX
  5
982D7
100
AcDbEntity
  8
0
100
AcDbVertex
100
AcDbPolygonMeshVertex
 10
4.169
 20
-7.61
 30
0.887
 70
    64
  0
VERTEX
  5
982D8
100
AcDbEntity
  8
0
100
AcDbVertex
100
AcDbPolygonMeshVertex
 10
4.169
 20
-8.04
 30
0.887
 70
    64
  0
VERTEX
  5
982D9
100
AcDbEntity
  8
0
100
AcDbVertex
100
AcDbPolygonMeshVertex
 10
3.669
 20
-7.61
 30
0.887
 70
    64
  0
VERTEX
  5
982DA
100
AcDbEntity
  8
0
100
AcDbVertex
100
AcDbPolygonMeshVertex
 10
3.669
 20
-7.61
 30
0.887
 70
    64
  0
VERTEX
  5
982DB
100
AcDbEntity
  8
0
100
AcDbVertex
100
AcDbPolygonMeshVertex
 10
3.669
 20
-8.04
 30
0.887
 70
    64
  0
SEQEND
  5
982DC
100
AcDbEntity
  8
0
  0
POLYLINE
  5
982DD
100
AcDbEntity
  8
0
100
AcDbPolygonMesh
 66
     1
 10
0.0
 20
0.0
 30
0.0
 70
    16
 71
     6
 72
     3
  0
VERTEX
  5
982DE
100
AcDbEntity
  8
0
100
AcDbVertex
100
AcDbPolygonMeshVertex
 10
1.622
 20
-7.61
 30
3.087
 70
    64
  0
VERTEX
  5
982DF
100
AcDbEntity
  8
0
100
AcDbVertex
100
AcDbPolygonMeshVertex
 10
1.622
 20
-7.61
 30
3.087
 70
    64
  0
VERTEX
  5
982E0
100
AcDbEntity
  8
0
100
AcDbVertex
100
AcDbPolygonMeshVertex
 10
1.622
 20
-7.61
 30
3.087
 70
    64
  0
VERTEX
  5
982E1
100
AcDbEntity
  8
0
100
AcDbVertex
100
AcDbPolygonMeshVertex
 10
1.622
 20
-7.2
 30
3.237
 70
    64
  0
VERTEX
  5
982E2
100
AcDbEntity
  8
0
100
AcDbVertex
100
AcDbPolygonMeshVertex
 10
1.622
 20
-7.2
 30
3.087
 70
    64
  0
VERTEX
  5
982E3
100
AcDbEntity
  8
0
100
AcDbVertex
100
AcDbPolygonMeshVertex
 10
1.622
 20
-7.2
 30
3.087
 70
    64
  0
VERTEX
  5
982E4
100
AcDbEntity
  8
0
100
AcDbVertex
100
AcDbPolygonMeshVertex
 10
4.982
 20
-7.2
 30
3.237
 70
    64
  0
VERTEX
  5
982E5
100
AcDbEntity
  8
0
100
AcDbVertex
100
AcDbPolygonMeshVertex
 10
4.982
 20
-7.2
 30
3.087
 70
    64
  0
VERTEX
  5
982E6
100
AcDbEntity
  8
0
100
AcDbVertex
100
AcDbPolygonMeshVertex
 10
1.622
 20
-7.2
 30
3.087
 70
    64
  0
VERTEX
  5
982E7
100
AcDbEntity
  8
0
100
AcDbVertex
100
AcDbPolygonMeshVertex
 10
4.982
 20
-7.61
 30
3.087
 70
    64
  0
VERTEX
  5
982E8
100
AcDbEntity
  8
0
100
AcDbVertex
100
AcDbPolygonMeshVertex
 10
4.982
 20
-7.61
 30
3.087
 70
    64
  0
VERTEX
  5
982E9
100
AcDbEntity
  8
0
100
AcDbVertex
100
AcDbPolygonMeshVertex
 10
1.622
 20
-7.61
 30
3.087
 70
    64
  0
VERTEX
  5
982EA
100
AcDbEntity
  8
0
100
AcDbVertex
100
AcDbPolygonMeshVertex
 10
4.982
 20
-7.61
 30
3.087
 70
    64
  0
VERTEX
  5
982EB
100
AcDbEntity
  8
0
100
AcDbVertex
100
AcDbPolygonMeshVertex
 10
4.982
 20
-7.61
 30
3.087
 70
    64
  0
VERTEX
  5
982EC
100
AcDbEntity
  8
0
100
AcDbVertex
100
AcDbPolygonMeshVertex
 10
1.622
 20
-7.61
 30
3.087
 70
    64
  0
VERTEX
  5
982ED
100
AcDbEntity
  8
0
100
AcDbVertex
100
AcDbPolygonMeshVertex
 10
4.982
 20
-7.2
 30
3.237
 70
    64
  0
VERTEX
  5
982EE
100
AcDbEntity
  8
0
100
AcDbVertex
100
AcDbPolygonMeshVertex
 10
4.982
 20
-7.2
 30
3.237
 70
    64
  0
VERTEX
  5
982EF
100
AcDbEntity
  8
0
100
AcDbVertex
100
AcDbPolygonMeshVertex
 10
1.622
 20
-7.2
 30
3.237
 70
    64
  0
SEQEND
  5
982F0
100
AcDbEntity
  8
0
  0
POLYLINE
  5
982F1
100
AcDbEntity
  8
0
100
AcDbPolygonMesh
 66
     1
 10
0.0
 20
0.0
 30
0.0
 70
    16
 71
     6
 72
     3
  0
VERTEX
  5
982F2
100
AcDbEntity
  8
0
100
AcDbVertex
100
AcDbPolygonMeshVertex
 10
4.982
 20
-7.2
 30
4.027
 70
    64
  0
VERTEX
  5
982F3
100
AcDbEntity
  8
0
100
AcDbVertex
100
AcDbPolygonMeshVertex
 10
4.982
 20
-7.2
 30
0.577
 70
    64
  0
VERTEX
  5
982F4
100
AcDbEntity
  8
0
100
AcDbVertex
100
AcDbPolygonMeshVertex
 10
4.982
 20
-7.2
 30
0.577
 70
    64
  0
VERTEX
  5
982F5
100
AcDbEntity
  8
0
100
AcDbVertex
100
AcDbPolygonMeshVertex
 10
1.622
 20
-7.2
 30
4.027
 70
    64
  0
VERTEX
  5
982F6
100
AcDbEntity
  8
0
100
AcDbVertex
100
AcDbPolygonMeshVertex
 10
1.622
 20
-7.2
 30
0.577
 70
    64
  0
VERTEX
  5
982F7
100
AcDbEntity
  8
0
100
AcDbVertex
100
AcDbPolygonMeshVertex
 10
1.622
 20
-7.2
 30
0.577
 70
    64
  0
VERTEX
  5
982F8
100
AcDbEntity
  8
0
100
AcDbVertex
100
AcDbPolygonMeshVertex
 10
1.622
 20
-5.79
 30
4.027
 70
    64
  0
VERTEX
  5
982F9
100
AcDbEntity
  8
0
100
AcDbVertex
100
AcDbPolygonMeshVertex
 10
1.622
 20
-5.79
 30
0.577
 70
    64
  0
VERTEX
  5
982FA
100
AcDbEntity
  8
0
100
AcDbVertex
100
AcDbPolygonMeshVertex
 10
1.622
 20
-7.2
 30
0.577
 70
    64
  0
VERTEX
  5
982FB
100
AcDbEntity
  8
0
100
AcDbVertex
100
AcDbPolygonMeshVertex
 10
4.982
 20
-5.79
 30
4.027
 70
    64
  0
VERTEX
  5
982FC
100
AcDbEntity
  8
0
100
AcDbVertex
100
AcDbPolygonMeshVertex
 10
4.982
 20
-5.79
 30
0.577
 70
    64
  0
VERTEX
  5
982FD
100
AcDbEntity
  8
0
100
AcDbVertex
100
AcDbPolygonMeshVertex
 10
4.982
 20
-7.2
 30
0.577
 70
    64
  0
VERTEX
  5
982FE
100
AcDbEntity
  8
0
100
AcDbVertex
100
AcDbPolygonMeshVertex
 10
4.982
 20
-5.79
 30
4.027
 70
    64
  0
VERTEX
  5
982FF
100
AcDbEntity
  8
0
100
AcDbVertex
100
AcDbPolygonMeshVertex
 10
4.982
 20
-5.79
 30
4.027
 70
    64
  0
VERTEX
  5
98300
100
AcDbEntity
  8
0
100
AcDbVertex
100
AcDbPolygonMeshVertex
 10
4.982
 20
-7.2
 30
4.027
 70
    64
  0
VERTEX
  5
98301
100
AcDbEntity
  8
0
100
AcDbVertex
100
AcDbPolygonMeshVertex
 10
1.622
 20
-5.79
 30
4.027
 70
    64
  0
VERTEX
  5
98302
100
AcDbEntity
  8
0
100
AcDbVertex
100
AcDbPolygonMeshVertex
 10
1.622
 20
-5.79
 30
4.027
 70
    64
  0
VERTEX
  5
98303
100
AcDbEntity
  8
0
100
AcDbVertex
100
AcDbPolygonMeshVertex
 10
1.622
 20
-7.2
 30
4.027
 70
    64
  0
SEQEND
  5
98304
100
AcDbEntity
  8
0
  0
LINE
  5
98305
100
AcDbEntity
  8
0
100
AcDbLine
 10
2.722674
 20
-3.825015
 30
4.857
 11
2.83729
 21
-3.975138
 31
4.857
  0
LINE
  5
98306
100
AcDbEntity
  8
0
100
AcDbLine
 10
2.706485
 20
-3.841205
 30
4.857
 11
2.821101
 21
-3.991327
 31
4.857
  0
CIRCLE
  5
98307
100
AcDbEntity
  8
0
100
AcDbCircle
 10
2.772
 20
-3.91
 30
4.857
 40
0.095
  0
LINE
  5
98308
100
AcDbEntity
  8
0
100
AcDbLine
 10
2.146965
 20
-1.398318
 30
1.867
 11
2.378216
 21
-1.101115
 31
1.867
  0
LINE
  5
98309
100
AcDbEntity
  8
0
100
AcDbLine
 10
2.106278
 20
-1.367964
 30
1.867
 11
2.337529
 21
-1.070762
 31
1.867
  0
CIRCLE
  5
9830A
100
AcDbEntity
  8
0
100
AcDbCircle
 10
2.242
 20
-1.235
 30
1.867
 40
0.19
  0
LINE
  5
9830B
100
AcDbEntity
  8
0
100
AcDbLine
 10
3.782674
 20
-3.825015
 30
4.857
 11
3.89729
 21
-3.975138
 31
4.857
  0
LINE
  5
9830C
100
AcDbEntity
  8
0
100
AcDbLine
 10
3.766485
 20
-3.841205
 30
4.857
 11
3.8811
 21
-3.991327
 31
4.857
  0
CIRCLE
  5
9830D
100
AcDbEntity
  8
0
100
AcDbCircle
 10
3.832
 20
-3.91
 30
4.857
 40
0.095
  0
CIRCLE
  5
9830E
100
AcDbEntity
  8
0
100
AcDbCircle
 10
4.362
 20
-1.765
 30
4.667
 40
0.19
  0
POLYLINE
  5
9830F
100
AcDbEntity
  8
0
100
AcDbPolygonMesh
 66
     1
 10
0.0
 20
0.0
 30
0.0
 70
    16
 71
     6
 72
     3
  0
VERTEX
  5
98310
100
AcDbEntity
  8
0
100
AcDbVertex
100
AcDbPolygonMeshVertex
 10
4.242
 20
-4.44
 30
4.387
 70
    64
  0
VERTEX
  5
98311
100
AcDbEntity
  8
0
100
AcDbVertex
100
AcDbPolygonMeshVertex
 10
4.242
 20
-4.44
 30
4.017
 70
    64
  0
VERTEX
  5
98312
100
AcDbEntity
  8
0
100
AcDbVertex
100
AcDbPolygonMeshVertex
 10
4.242
 20
-4.44
 30
4.017
 70
    64
  0
VERTEX
  5
98313
100
AcDbEntity
  8
0
100
AcDbVertex
100
AcDbPolygonMeshVertex
 10
2.362
 20
-4.44
 30
4.387
 70
    64
  0
VERTEX
  5
98314
100
AcDbEntity
  8
0
100
AcDbVertex
100
AcDbPolygonMeshVertex
 10
2.362
 20
-4.44
 30
4.017
 70
    64
  0
VERTEX
  5
98315
100
AcDbEntity
  8
0
100
AcDbVertex
100
AcDbPolygonMeshVertex
 10
2.362
 20
-4.44
 30
4.017
 70
    64
  0
VERTEX
  5
98316
100
AcDbEntity
  8
0
100
AcDbVertex
100
AcDbPolygonMeshVertex
 10
2.362
 20
-3.6
 30
4.387
 70
    64
  0
VERTEX
  5
98317
100
AcDbEntity
  8
0
100
AcDbVertex
100
AcDbPolygonMeshVertex
 10
2.362
 20
-3.6
 30
4.017
 70
    64
  0
VERTEX
  5
98318
100
AcDbEntity
  8
0
100
AcDbVertex
100
AcDbPolygonMeshVertex
 10
2.362
 20
-4.44
 30
4.017
 70
    64
  0
VERTEX
  5
98319
100
AcDbEntity
  8
0
100
AcDbVertex
100
AcDbPolygonMeshVertex
 10
4.242
 20
-3.6
 30
4.387
 70
    64
  0
VERTEX
  5
9831A
100
AcDbEntity
  8
0
100
AcDbVertex
100
AcDbPolygonMeshVertex
 10
4.242
 20
-3.6
 30
4.017
 70
    64
  0
VERTEX
  5
9831B
100
AcDbEntity
  8
0
100
AcDbVertex
100
AcDbPolygonMeshVertex
 10
4.242
 20
-4.44
 30
4.017
 70
    64
  0
VERTEX
  5
9831C
100
AcDbEntity
  8
0
100
AcDbVertex
100
AcDbPolygonMeshVertex
 10
4.242
 20
-3.6
 30
4.387
 70
    64
  0
VERTEX
  5
9831D
100
AcDbEntity
  8
0
100
AcDbVertex
100
AcDbPolygonMeshVertex
 10
4.242
 20
-3.6
 30
4.387
 70
    64
  0
VERTEX
  5
9831E
100
AcDbEntity
  8
0
100
AcDbVertex
100
AcDbPolygonMeshVertex
 10
4.242
 20
-4.44
 30
4.387
 70
    64
  0
VERTEX
  5
9831F
100
AcDbEntity
  8
0
100
AcDbVertex
100
AcDbPolygonMeshVertex
 10
2.362
 20
-3.6
 30
4.387
 70
    64
  0
VERTEX
  5
98320
100
AcDbEntity
  8
0
100
AcDbVertex
100
AcDbPolygonMeshVertex
 10
2.362
 20
-3.6
 30
4.387
 70
    64
  0
VERTEX
  5
98321
100
AcDbEntity
  8
0
100
AcDbVertex
100
AcDbPolygonMeshVertex
 10
2.362
 20
-4.44
 30
4.387
 70
    64
  0
SEQEND
  5
98322
100
AcDbEntity
  8
0
  0
POLYLINE
  5
98323
100
AcDbEntity
  8
0
100
AcDbPolygonMesh
 66
     1
 10
0.0
 20
0.0
 30
0.0
 70
    16
 71
     6
 72
     3
  0
VERTEX
  5
98324
100
AcDbEntity
  8
0
100
AcDbVertex
100
AcDbPolygonMeshVertex
 10
4.052
 20
-4.04
 30
4.857
 70
    64
  0
VERTEX
  5
98325
100
AcDbEntity
  8
0
100
AcDbVertex
100
AcDbPolygonMeshVertex
 10
4.052
 20
-4.04
 30
4.387
 70
    64
  0
VERTEX
  5
98326
100
AcDbEntity
  8
0
100
AcDbVertex
100
AcDbPolygonMeshVertex
 10
4.052
 20
-4.04
 30
4.387
 70
    64
  0
VERTEX
  5
98327
100
AcDbEntity
  8
0
100
AcDbVertex
100
AcDbPolygonMeshVertex
 10
3.612
 20
-4.04
 30
4.857
 70
    64
  0
VERTEX
  5
98328
100
AcDbEntity
  8
0
100
AcDbVertex
100
AcDbPolygonMeshVertex
 10
3.612
 20
-4.04
 30
4.387
 70
    64
  0
VERTEX
  5
98329
100
AcDbEntity
  8
0
100
AcDbVertex
100
AcDbPolygonMeshVertex
 10
3.612
 20
-4.04
 30
4.387
 70
    64
  0
VERTEX
  5
9832A
100
AcDbEntity
  8
0
100
AcDbVertex
100
AcDbPolygonMeshVertex
 10
3.612
 20
-3.66
 30
4.857
 70
    64
  0
VERTEX
  5
9832B
100
AcDbEntity
  8
0
100
AcDbVertex
100
AcDbPolygonMeshVertex
 10
3.612
 20
-3.66
 30
4.387
 70
    64
  0
VERTEX
  5
9832C
100
AcDbEntity
  8
0
100
AcDbVertex
100
AcDbPolygonMeshVertex
 10
3.612
 20
-4.04
 30
4.387
 70
    64
  0
VERTEX
  5
9832D
100
AcDbEntity
  8
0
100
AcDbVertex
100
AcDbPolygonMeshVertex
 10
4.052
 20
-3.66
 30
4.857
 70
    64
  0
VERTEX
  5
9832E
100
AcDbEntity
  8
0
100
AcDbVertex
100
AcDbPolygonMeshVertex
 10
4.052
 20
-3.66
 30
4.387
 70
    64
  0
VERTEX
  5
9832F
100
AcDbEntity
  8
0
100
AcDbVertex
100
AcDbPolygonMeshVertex
 10
4.052
 20
-4.04
 30
4.387
 70
    64
  0
VERTEX
  5
98330
100
AcDbEntity
  8
0
100
AcDbVertex
100
AcDbPolygonMeshVertex
 10
4.052
 20
-3.66
 30
4.857
 70
    64
  0
VERTEX
  5
98331
100
AcDbEntity
  8
0
100
AcDbVertex
100
AcDbPolygonMeshVertex
 10
4.052
 20
-3.66
 30
4.857
 70
    64
  0
VERTEX
  5
98332
100
AcDbEntity
  8
0
100
AcDbVertex
100
AcDbPolygonMeshVertex
 10
4.052
 20
-4.04
 30
4.857
 70
    64
  0
VERTEX
  5
98333
100
AcDbEntity
  8
0
100
AcDbVertex
100
AcDbPolygonMeshVertex
 10
3.612
 20
-3.66
 30
4.857
 70
    64
  0
VERTEX
  5
98334
100
AcDbEntity
  8
0
100
AcDbVertex
100
AcDbPolygonMeshVertex
 10
3.612
 20
-3.66
 30
4.857
 70
    64
  0
VERTEX
  5
98335
100
AcDbEntity
  8
0
100
AcDbVertex
100
AcDbPolygonMeshVertex
 10
3.612
 20
-4.04
 30
4.857
 70
    64
  0
SEQEND
  5
98336
100
AcDbEntity
  8
0
  0
POLYLINE
  5
98337
100
AcDbEntity
  8
0
100
AcDbPolygonMesh
 66
     1
 10
0.0
 20
0.0
 30
0.0
 70
    16
 71
     6
 72
     3
  0
VERTEX
  5
98338
100
AcDbEntity
  8
0
100
AcDbVertex
100
AcDbPolygonMeshVertex
 10
2.992
 20
-4.04
 30
4.857
 70
    64
  0
VERTEX
  5
98339
100
AcDbEntity
  8
0
100
AcDbVertex
100
AcDbPolygonMeshVertex
 10
2.992
 20
-4.04
 30
4.387
 70
    64
  0
VERTEX
  5
9833A
100
AcDbEntity
  8
0
100
AcDbVertex
100
AcDbPolygonMeshVertex
 10
2.992
 20
-4.04
 30
4.387
 70
    64
  0
VERTEX
  5
9833B
100
AcDbEntity
  8
0
100
AcDbVertex
100
AcDbPolygonMeshVertex
 10
2.552
 20
-4.04
 30
4.857
 70
    64
  0
VERTEX
  5
9833C
100
AcDbEntity
  8
0
100
AcDbVertex
100
AcDbPolygonMeshVertex
 10
2.552
 20
-4.04
 30
4.387
 70
    64
  0
VERTEX
  5
9833D
100
AcDbEntity
  8
0
100
AcDbVertex
100
AcDbPolygonMeshVertex
 10
2.552
 20
-4.04
 30
4.387
 70
    64
  0
VERTEX
  5
9833E
100
AcDbEntity
  8
0
100
AcDbVertex
100
AcDbPolygonMeshVertex
 10
2.552
 20
-3.66
 30
4.857
 70
    64
  0
VERTEX
  5
9833F
100
AcDbEntity
  8
0
100
AcDbVertex
100
AcDbPolygonMeshVertex
 10
2.552
 20
-3.66
 30
4.387
 70
    64
  0
VERTEX
  5
98340
100
AcDbEntity
  8
0
100
AcDbVertex
100
AcDbPolygonMeshVertex
 10
2.552
 20
-4.04
 30
4.387
 70
    64
  0
VERTEX
  5
98341
100
AcDbEntity
  8
0
100
AcDbVertex
100
AcDbPolygonMeshVertex
 10
2.992
 20
-3.66
 30
4.857
 70
    64
  0
VERTEX
  5
98342
100
AcDbEntity
  8
0
100
AcDbVertex
100
AcDbPolygonMeshVertex
 10
2.992
 20
-3.66
 30
4.387
 70
    64
  0
VERTEX
  5
98343
100
AcDbEntity
  8
0
100
AcDbVertex
100
AcDbPolygonMeshVertex
 10
2.992
 20
-4.04
 30
4.387
 70
    64
  0
VERTEX
  5
98344
100
AcDbEntity
  8
0
100
AcDbVertex
100
AcDbPolygonMeshVertex
 10
2.992
 20
-3.66
 30
4.857
 70
    64
  0
VERTEX
  5
98345
100
AcDbEntity
  8
0
100
AcDbVertex
100
AcDbPolygonMeshVertex
 10
2.992
 20
-3.66
 30
4.857
 70
    64
  0
VERTEX
  5
98346
100
AcDbEntity
  8
0
100
AcDbVertex
100
AcDbPolygonMeshVertex
 10
2.992
 20
-4.04
 30
4.857
 70
    64
  0
VERTEX
  5
98347
100
AcDbEntity
  8
0
100
AcDbVertex
100
AcDbPolygonMeshVertex
 10
2.552
 20
-3.66
 30
4.857
 70
    64
  0
VERTEX
  5
98348
100
AcDbEntity
  8
0
100
AcDbVertex
100
AcDbPolygonMeshVertex
 10
2.552
 20
-3.66
 30
4.857
 70
    64
  0
VERTEX
  5
98349
100
AcDbEntity
  8
0
100
AcDbVertex
100
AcDbPolygonMeshVertex
 10
2.552
 20
-4.04
 30
4.857
 70
    64
  0
SEQEND
  5
9834A
100
AcDbEntity
  8
0
  0
LINE
  5
9834B
100
AcDbEntity
  8
0
100
AcDbLine
 10
1.622
 20
-2.15
 30
4.017
 11
1.622
 21
-2.15
 31
0.577
  0
POLYLINE
  5
9834C
100
AcDbEntity
  8
0
100
AcDbPolygonMesh
 66
     1
 10
0.0
 20
0.0
 30
0.0
 70
    16
 71
     6
 72
     3
  0
VERTEX
  5
9834D
100
AcDbEntity
  8
0
100
AcDbVertex
100
AcDbPolygonMeshVertex
 10
4.982
 20
-5.54
 30
4.017
 70
    64
  0
VERTEX
  5
9834E
100
AcDbEntity
  8
0
100
AcDbVertex
100
AcDbPolygonMeshVertex
 10
4.982
 20
-5.54
 30
0.577
 70
    64
  0
VERTEX
  5
9834F
100
AcDbEntity
  8
0
100
AcDbVertex
100
AcDbPolygonMeshVertex
 10
4.982
 20
-5.54
 30
0.577
 70
    64
  0
VERTEX
  5
98350
100
AcDbEntity
  8
0
100
AcDbVertex
100
AcDbPolygonMeshVertex
 10
1.622
 20
-5.54
 30
4.017
 70
    64
  0
VERTEX
  5
98351
100
AcDbEntity
  8
0
100
AcDbVertex
100
AcDbPolygonMeshVertex
 10
1.622
 20
-5.54
 30
0.577
 70
    64
  0
VERTEX
  5
98352
100
AcDbEntity
  8
0
100
AcDbVertex
100
AcDbPolygonMeshVertex
 10
1.622
 20
-5.54
 30
0.577
 70
    64
  0
VERTEX
  5
98353
100
AcDbEntity
  8
0
100
AcDbVertex
100
AcDbPolygonMeshVertex
 10
1.622
 20
-2.15
 30
4.017
 70
    64
  0
VERTEX
  5
98354
100
AcDbEntity
  8
0
100
AcDbVertex
100
AcDbPolygonMeshVertex
 10
1.622
 20
-2.15
 30
0.577
 70
    64
  0
VERTEX
  5
98355
100
AcDbEntity
  8
0
100
AcDbVertex
100
AcDbPolygonMeshVertex
 10
1.622
 20
-5.54
 30
0.577
 70
    64
  0
VERTEX
  5
98356
100
AcDbEntity
  8
0
100
AcDbVertex
100
AcDbPolygonMeshVertex
 10
4.982
 20
-2.15
 30
4.017
 70
    64
  0
VERTEX
  5
98357
100
AcDbEntity
  8
0
100
AcDbVertex
100
AcDbPolygonMeshVertex
 10
4.982
 20
-2.15
 30
0.577
 70
    64
  0
VERTEX
  5
98358
100
AcDbEntity
  8
0
100
AcDbVertex
100
AcDbPolygonMeshVertex
 10
4.982
 20
-5.54
 30
0.577
 70
    64
  0
VERTEX
  5
98359
100
AcDbEntity
  8
0
100
AcDbVertex
100
AcDbPolygonMeshVertex
 10
4.982
 20
-2.15
 30
4.017
 70
    64
  0
VERTEX
  5
9835A
100
AcDbEntity
  8
0
100
AcDbVertex
100
AcDbPolygonMeshVertex
 10
4.982
 20
-2.15
 30
4.017
 70
    64
  0
VERTEX
  5
9835B
100
AcDbEntity
  8
0
100
AcDbVertex
100
AcDbPolygonMeshVertex
 10
4.982
 20
-5.54
 30
4.017
 70
    64
  0
VERTEX
  5
9835C
100
AcDbEntity
  8
0
100
AcDbVertex
100
AcDbPolygonMeshVertex
 10
1.622
 20
-2.15
 30
4.017
 70
    64
  0
VERTEX
  5
9835D
100
AcDbEntity
  8
0
100
AcDbVertex
100
AcDbPolygonMeshVertex
 10
1.622
 20
-2.15
 30
4.017
 70
    64
  0
VERTEX
  5
9835E
100
AcDbEntity
  8
0
100
AcDbVertex
100
AcDbPolygonMeshVertex
 10
1.622
 20
-5.54
 30
4.017
 70
    64
  0
SEQEND
  5
9835F
100
AcDbEntity
  8
0
  0
POLYLINE
  5
98360
100
AcDbEntity
  8
0
100
AcDbPolygonMesh
 66
     1
 10
0.0
 20
0.0
 30
0.0
 70
    16
 71
     6
 72
     3
  0
VERTEX
  5
98361
100
AcDbEntity
  8
0
100
AcDbVertex
100
AcDbPolygonMeshVertex
 10
4.982
 20
-5.79
 30
3.237
 70
    64
  0
VERTEX
  5
98362
100
AcDbEntity
  8
0
100
AcDbVertex
100
AcDbPolygonMeshVertex
 10
4.982
 20
-5.79
 30
2.007
 70
    64
  0
VERTEX
  5
98363
100
AcDbEntity
  8
0
100
AcDbVertex
100
AcDbPolygonMeshVertex
 10
4.982
 20
-5.79
 30
2.007
 70
    64
  0
VERTEX
  5
98364
100
AcDbEntity
  8
0
100
AcDbVertex
100
AcDbPolygonMeshVertex
 10
1.622
 20
-5.79
 30
3.237
 70
    64
  0
VERTEX
  5
98365
100
AcDbEntity
  8
0
100
AcDbVertex
100
AcDbPolygonMeshVertex
 10
1.622
 20
-5.79
 30
2.007
 70
    64
  0
VERTEX
  5
98366
100
AcDbEntity
  8
0
100
AcDbVertex
100
AcDbPolygonMeshVertex
 10
1.622
 20
-5.79
 30
2.007
 70
    64
  0
VERTEX
  5
98367
100
AcDbEntity
  8
0
100
AcDbVertex
100
AcDbPolygonMeshVertex
 10
1.622
 20
-5.54
 30
3.237
 70
    64
  0
VERTEX
  5
98368
100
AcDbEntity
  8
0
100
AcDbVertex
100
AcDbPolygonMeshVertex
 10
1.622
 20
-5.54
 30
2.007
 70
    64
  0
VERTEX
  5
98369
100
AcDbEntity
  8
0
100
AcDbVertex
100
AcDbPolygonMeshVertex
 10
1.622
 20
-5.79
 30
2.007
 70
    64
  0
VERTEX
  5
9836A
100
AcDbEntity
  8
0
100
AcDbVertex
100
AcDbPolygonMeshVertex
 10
4.982
 20
-5.54
 30
3.237
 70
    64
  0
VERTEX
  5
9836B
100
AcDbEntity
  8
0
100
AcDbVertex
100
AcDbPolygonMeshVertex
 10
4.982
 20
-5.54
 30
2.007
 70
    64
  0
VERTEX
  5
9836C
100
AcDbEntity
  8
0
100
AcDbVertex
100
AcDbPolygonMeshVertex
 10
4.982
 20
-5.79
 30
2.007
 70
    64
  0
VERTEX
  5
9836D
100
AcDbEntity
  8
0
100
AcDbVertex
100
AcDbPolygonMeshVertex
 10
4.982
 20
-5.54
 30
3.237
 70
    64
  0
VERTEX
  5
9836E
100
AcDbEntity
  8
0
100
AcDbVertex
100
AcDbPolygonMeshVertex
 10
4.982
 20
-5.54
 30
3.237
 70
    64
  0
VERTEX
  5
9836F
100
AcDbEntity
  8
0
100
AcDbVertex
100
AcDbPolygonMeshVertex
 10
4.982
 20
-5.79
 30
3.237
 70
    64
  0
VERTEX
  5
98370
100
AcDbEntity
  8
0
100
AcDbVertex
100
AcDbPolygonMeshVertex
 10
1.622
 20
-5.54
 30
3.237
 70
    64
  0
VERTEX
  5
98371
100
AcDbEntity
  8
0
100
AcDbVertex
100
AcDbPolygonMeshVertex
 10
1.622
 20
-5.54
 30
3.237
 70
    64
  0
VERTEX
  5
98372
100
AcDbEntity
  8
0
100
AcDbVertex
100
AcDbPolygonMeshVertex
 10
1.622
 20
-5.79
 30
3.237
 70
    64
  0
SEQEND
  5
98373
100
AcDbEntity
  8
0
  0
POLYLINE
  5
98374
100
AcDbEntity
  8
0
100
AcDbPolygonMesh
 66
     1
 10
0.0
 20
0.0
 30
0.0
 70
    16
 71
     6
 72
     3
  0
VERTEX
  5
98375
100
AcDbEntity
  8
0
100
AcDbVertex
100
AcDbPolygonMeshVertex
 10
1.622
 20
-5.54
 30
0.577
 70
    64
  0
VERTEX
  5
98376
100
AcDbEntity
  8
0
100
AcDbVertex
100
AcDbPolygonMeshVertex
 10
1.622
 20
-5.54
 30
0.577
 70
    64
  0
VERTEX
  5
98377
100
AcDbEntity
  8
0
100
AcDbVertex
100
AcDbPolygonMeshVertex
 10
1.622
 20
-5.54
 30
0.577
 70
    64
  0
VERTEX
  5
98378
100
AcDbEntity
  8
0
100
AcDbVertex
100
AcDbPolygonMeshVertex
 10
1.622
 20
-5.79
 30
2.007
 70
    64
  0
VERTEX
  5
98379
100
AcDbEntity
  8
0
100
AcDbVertex
100
AcDbPolygonMeshVertex
 10
1.622
 20
-5.54
 30
2.007
 70
    64
  0
VERTEX
  5
9837A
100
AcDbEntity
  8
0
100
AcDbVertex
100
AcDbPolygonMeshVertex
 10
1.622
 20
-5.54
 30
2.007
 70
    64
  0
VERTEX
  5
9837B
100
AcDbEntity
  8
0
100
AcDbVertex
100
AcDbPolygonMeshVertex
 10
4.982
 20
-5.79
 30
2.007
 70
    64
  0
VERTEX
  5
9837C
100
AcDbEntity
  8
0
100
AcDbVertex
100
AcDbPolygonMeshVertex
 10
4.982
 20
-5.54
 30
2.007
 70
    64
  0
VERTEX
  5
9837D
100
AcDbEntity
  8
0
100
AcDbVertex
100
AcDbPolygonMeshVertex
 10
1.622
 20
-5.54
 30
2.007
 70
    64
  0
VERTEX
  5
9837E
100
AcDbEntity
  8
0
100
AcDbVertex
100
AcDbPolygonMeshVertex
 10
4.982
 20
-5.54
 30
0.577
 70
    64
  0
VERTEX
  5
9837F
100
AcDbEntity
  8
0
100
AcDbVertex
100
AcDbPolygonMeshVertex
 10
4.982
 20
-5.54
 30
0.577
 70
    64
  0
VERTEX
  5
98380
100
AcDbEntity
  8
0
100
AcDbVertex
100
AcDbPolygonMeshVertex
 10
1.622
 20
-5.54
 30
0.577
 70
    64
  0
VERTEX
  5
98381
100
AcDbEntity
  8
0
100
AcDbVertex
100
AcDbPolygonMeshVertex
 10
4.982
 20
-5.54
 30
0.577
 70
    64
  0
VERTEX
  5
98382
100
AcDbEntity
  8
0
100
AcDbVertex
100
AcDbPolygonMeshVertex
 10
4.982
 20
-5.54
 30
0.577
 70
    64
  0
VERTEX
  5
98383
100
AcDbEntity
  8
0
100
AcDbVertex
100
AcDbPolygonMeshVertex
 10
1.622
 20
-5.54
 30
0.577
 70
    64
  0
VERTEX
  5
98384
100
AcDbEntity
  8
0
100
AcDbVertex
100
AcDbPolygonMeshVertex
 10
4.982
 20
-5.79
 30
2.007
 70
    64
  0
VERTEX
  5
98385
100
AcDbEntity
  8
0
100
AcDbVertex
100
AcDbPolygonMeshVertex
 10
4.982
 20
-5.79
 30
2.007
 70
    64
  0
VERTEX
  5
98386
100
AcDbEntity
  8
0
100
AcDbVertex
100
AcDbPolygonMeshVertex
 10
1.622
 20
-5.79
 30
2.007
 70
    64
  0
SEQEND
  5
98387
100
AcDbEntity
  8
0
  0
POLYLINE
  5
98388
100
AcDbEntity
  8
0
100
AcDbPolygonMesh
 66
     1
 10
0.0
 20
0.0
 30
0.0
 70
    16
 71
     6
 72
     3
  0
VERTEX
  5
98389
100
AcDbEntity
  8
0
100
AcDbVertex
100
AcDbPolygonMeshVertex
 10
4.982
 20
-2.15
 30
4.477
 70
    64
  0
VERTEX
  5
9838A
100
AcDbEntity
  8
0
100
AcDbVertex
100
AcDbPolygonMeshVertex
 10
4.982
 20
-2.15
 30
0.577
 70
    64
  0
VERTEX
  5
9838B
100
AcDbEntity
  8
0
100
AcDbVertex
100
AcDbPolygonMeshVertex
 10
4.982
 20
-2.15
 30
0.577
 70
    64
  0
VERTEX
  5
9838C
100
AcDbEntity
  8
0
100
AcDbVertex
100
AcDbPolygonMeshVertex
 10
1.622
 20
-2.15
 30
4.477
 70
    64
  0
VERTEX
  5
9838D
100
AcDbEntity
  8
0
100
AcDbVertex
100
AcDbPolygonMeshVertex
 10
1.622
 20
-2.15
 30
0.577
 70
    64
  0
VERTEX
  5
9838E
100
AcDbEntity
  8
0
100
AcDbVertex
100
AcDbPolygonMeshVertex
 10
1.622
 20
-2.15
 30
0.577
 70
    64
  0
VERTEX
  5
9838F
100
AcDbEntity
  8
0
100
AcDbVertex
100
AcDbPolygonMeshVertex
 10
1.622
 20
-1.47
 30
4.477
 70
    64
  0
VERTEX
  5
98390
100
AcDbEntity
  8
0
100
AcDbVertex
100
AcDbPolygonMeshVertex
 10
1.622
 20
-1.47
 30
0.577
 70
    64
  0
VERTEX
  5
98391
100
AcDbEntity
  8
0
100
AcDbVertex
100
AcDbPolygonMeshVertex
 10
1.622
 20
-2.15
 30
0.577
 70
    64
  0
VERTEX
  5
98392
100
AcDbEntity
  8
0
100
AcDbVertex
100
AcDbPolygonMeshVertex
 10
4.982
 20
-1.47
 30
4.477
 70
    64
  0
VERTEX
  5
98393
100
AcDbEntity
  8
0
100
AcDbVertex
100
AcDbPolygonMeshVertex
 10
4.982
 20
-1.47
 30
0.577
 70
    64
  0
VERTEX
  5
98394
100
AcDbEntity
  8
0
100
AcDbVertex
100
AcDbPolygonMeshVertex
 10
4.982
 20
-2.15
 30
0.577
 70
    64
  0
VERTEX
  5
98395
100
AcDbEntity
  8
0
100
AcDbVertex
100
AcDbPolygonMeshVertex
 10
4.982
 20
-1.47
 30
4.477
 70
    64
  0
VERTEX
  5
98396
100
AcDbEntity
  8
0
100
AcDbVertex
100
AcDbPolygonMeshVertex
 10
4.982
 20
-1.47
 30
4.477
 70
    64
  0
VERTEX
  5
98397
100
AcDbEntity
  8
0
100
AcDbVertex
100
AcDbPolygonMeshVertex
 10
4.982
 20
-2.15
 30
4.477
 70
    64
  0
VERTEX
  5
98398
100
AcDbEntity
  8
0
100
AcDbVertex
100
AcDbPolygonMeshVertex
 10
1.622
 20
-1.47
 30
4.477
 70
    64
  0
VERTEX
  5
98399
100
AcDbEntity
  8
0
100
AcDbVertex
100
AcDbPolygonMeshVertex
 10
1.622
 20
-1.47
 30
4.477
 70
    64
  0
VERTEX
  5
9839A
100
AcDbEntity
  8
0
100
AcDbVertex
100
AcDbPolygonMeshVertex
 10
1.622
 20
-2.15
 30
4.477
 70
    64
  0
SEQEND
  5
9839B
100
AcDbEntity
  8
0
  0
LINE
  5
9839C
100
AcDbEntity
  8
0
100
AcDbLine
 10
3.922
 20
-1.47
 30
4.477
 11
3.922
 21
-1.34
 31
4.477
  0
LINE
  5
9839D
100
AcDbEntity
  8
0
100
AcDbLine
 10
3.922
 20
-1.34
 30
4.477
 11
3.742
 21
-1.34
 31
4.477
  0
POLYLINE
  5
9839E
100
AcDbEntity
  8
0
100
AcDbPolygonMesh
 66
     1
 10
0.0
 20
0.0
 30
0.0
 70
    16
 71
     6
 72
     3
  0
VERTEX
  5
9839F
100
AcDbEntity
  8
0
100
AcDbVertex
100
AcDbPolygonMeshVertex
 10
3.742
 20
-1.34
 30
4.857
 70
    64
  0
VERTEX
  5
983A0
100
AcDbEntity
  8
0
100
AcDbVertex
100
AcDbPolygonMeshVertex
 10
3.742
 20
-1.34
 30
4.477
 70
    64
  0
VERTEX
  5
983A1
100
AcDbEntity
  8
0
100
AcDbVertex
100
AcDbPolygonMeshVertex
 10
3.742
 20
-1.34
 30
4.477
 70
    64
  0
VERTEX
  5
983A2
100
AcDbEntity
  8
0
100
AcDbVertex
100
AcDbPolygonMeshVertex
 10
3.922
 20
-1.34
 30
4.857
 70
    64
  0
VERTEX
  5
983A3
100
AcDbEntity
  8
0
100
AcDbVertex
100
AcDbPolygonMeshVertex
 10
3.922
 20
-1.34
 30
4.477
 70
    64
  0
VERTEX
  5
983A4
100
AcDbEntity
  8
0
100
AcDbVertex
100
AcDbPolygonMeshVertex
 10
3.922
 20
-1.34
 30
4.477
 70
    64
  0
VERTEX
  5
983A5
100
AcDbEntity
  8
0
100
AcDbVertex
100
AcDbPolygonMeshVertex
 10
3.922
 20
-2.15
 30
4.857
 70
    64
  0
VERTEX
  5
983A6
100
AcDbEntity
  8
0
100
AcDbVertex
100
AcDbPolygonMeshVertex
 10
3.922
 20
-2.15
 30
4.477
 70
    64
  0
VERTEX
  5
983A7
100
AcDbEntity
  8
0
100
AcDbVertex
100
AcDbPolygonMeshVertex
 10
3.922
 20
-1.34
 30
4.477
 70
    64
  0
VERTEX
  5
983A8
100
AcDbEntity
  8
0
100
AcDbVertex
100
AcDbPolygonMeshVertex
 10
3.742
 20
-2.15
 30
4.857
 70
    64
  0
VERTEX
  5
983A9
100
AcDbEntity
  8
0
100
AcDbVertex
100
AcDbPolygonMeshVertex
 10
3.742
 20
-2.15
 30
4.477
 70
    64
  0
VERTEX
  5
983AA
100
AcDbEntity
  8
0
100
AcDbVertex
100
AcDbPolygonMeshVertex
 10
3.742
 20
-1.34
 30
4.477
 70
    64
  0
VERTEX
  5
983AB
100
AcDbEntity
  8
0
100
AcDbVertex
100
AcDbPolygonMeshVertex
 10
3.742
 20
-2.15
 30
4.857
 70
    64
  0
VERTEX
  5
983AC
100
AcDbEntity
  8
0
100
AcDbVertex
100
AcDbPolygonMeshVertex
 10
3.742
 20
-2.15
 30
4.857
 70
    64
  0
VERTEX
  5
983AD
100
AcDbEntity
  8
0
100
AcDbVertex
100
AcDbPolygonMeshVertex
 10
3.742
 20
-1.34
 30
4.857
 70
    64
  0
VERTEX
  5
983AE
100
AcDbEntity
  8
0
100
AcDbVertex
100
AcDbPolygonMeshVertex
 10
3.922
 20
-2.15
 30
4.857
 70
    64
  0
VERTEX
  5
983AF
100
AcDbEntity
  8
0
100
AcDbVertex
100
AcDbPolygonMeshVertex
 10
3.922
 20
-2.15
 30
4.857
 70
    64
  0
VERTEX
  5
983B0
100
AcDbEntity
  8
0
100
AcDbVertex
100
AcDbPolygonMeshVertex
 10
3.922
 20
-1.34
 30
4.857
 70
    64
  0
SEQEND
  5
983B1
100
AcDbEntity
  8
0
  0
POLYLINE
  5
983B2
100
AcDbEntity
  8
0
100
AcDbPolygonMesh
 66
     1
 10
0.0
 20
0.0
 30
0.0
 70
    16
 71
     6
 72
     3
  0
VERTEX
  5
983B3
100
AcDbEntity
  8
0
100
AcDbVertex
100
AcDbPolygonMeshVertex
 10
3.742
 20
-1.34
 30
4.477
 70
    64
  0
VERTEX
  5
983B4
100
AcDbEntity
  8
0
100
AcDbVertex
100
AcDbPolygonMeshVertex
 10
3.742
 20
-1.34
 30
3.357
 70
    64
  0
VERTEX
  5
983B5
100
AcDbEntity
  8
0
100
AcDbVertex
100
AcDbPolygonMeshVertex
 10
3.742
 20
-1.34
 30
3.357
 70
    64
  0
VERTEX
  5
983B6
100
AcDbEntity
  8
0
100
AcDbVertex
100
AcDbPolygonMeshVertex
 10
3.922
 20
-1.34
 30
4.477
 70
    64
  0
VERTEX
  5
983B7
100
AcDbEntity
  8
0
100
AcDbVertex
100
AcDbPolygonMeshVertex
 10
3.922
 20
-1.34
 30
3.357
 70
    64
  0
VERTEX
  5
983B8
100
AcDbEntity
  8
0
100
AcDbVertex
100
AcDbPolygonMeshVertex
 10
3.922
 20
-1.34
 30
3.357
 70
    64
  0
VERTEX
  5
983B9
100
AcDbEntity
  8
0
100
AcDbVertex
100
AcDbPolygonMeshVertex
 10
3.922
 20
-1.47
 30
4.477
 70
    64
  0
VERTEX
  5
983BA
100
AcDbEntity
  8
0
100
AcDbVertex
100
AcDbPolygonMeshVertex
 10
3.922
 20
-1.47
 30
3.357
 70
    64
  0
VERTEX
  5
983BB
100
AcDbEntity
  8
0
100
AcDbVertex
100
AcDbPolygonMeshVertex
 10
3.922
 20
-1.34
 30
3.357
 70
    64
  0
VERTEX
  5
983BC
100
AcDbEntity
  8
0
100
AcDbVertex
100
AcDbPolygonMeshVertex
 10
3.742
 20
-1.47
 30
4.477
 70
    64
  0
VERTEX
  5
983BD
100
AcDbEntity
  8
0
100
AcDbVertex
100
AcDbPolygonMeshVertex
 10
3.742
 20
-1.47
 30
3.357
 70
    64
  0
VERTEX
  5
983BE
100
AcDbEntity
  8
0
100
AcDbVertex
100
AcDbPolygonMeshVertex
 10
3.742
 20
-1.34
 30
3.357
 70
    64
  0
VERTEX
  5
983BF
100
AcDbEntity
  8
0
100
AcDbVertex
100
AcDbPolygonMeshVertex
 10
3.742
 20
-1.47
 30
4.477
 70
    64
  0
VERTEX
  5
983C0
100
AcDbEntity
  8
0
100
AcDbVertex
100
AcDbPolygonMeshVertex
 10
3.742
 20
-1.47
 30
4.477
 70
    64
  0
VERTEX
  5
983C1
100
AcDbEntity
  8
0
100
AcDbVertex
100
AcDbPolygonMeshVertex
 10
3.742
 20
-1.34
 30
4.477
 70
    64
  0
VERTEX
  5
983C2
100
AcDbEntity
  8
0
100
AcDbVertex
100
AcDbPolygonMeshVertex
 10
3.922
 20
-1.47
 30
4.477
 70
    64
  0
VERTEX
  5
983C3
100
AcDbEntity
  8
0
100
AcDbVertex
100
AcDbPolygonMeshVertex
 10
3.922
 20
-1.47
 30
4.477
 70
    64
  0
VERTEX
  5
983C4
100
AcDbEntity
  8
0
100
AcDbVertex
100
AcDbPolygonMeshVertex
 10
3.922
 20
-1.34
 30
4.477
 70
    64
  0
SEQEND
  5
983C5
100
AcDbEntity
  8
0
  0
POLYLINE
  5
983C6
100
AcDbEntity
  8
0
100
AcDbPolygonMesh
 66
     1
 10
0.0
 20
0.0
 30
0.0
 70
    16
 71
     6
 72
     3
  0
VERTEX
  5
983C7
100
AcDbEntity
  8
0
100
AcDbVertex
100
AcDbPolygonMeshVertex
 10
2.682
 20
-1.34
 30
4.857
 70
    64
  0
VERTEX
  5
983C8
100
AcDbEntity
  8
0
100
AcDbVertex
100
AcDbPolygonMeshVertex
 10
2.682
 20
-1.34
 30
4.477
 70
    64
  0
VERTEX
  5
983C9
100
AcDbEntity
  8
0
100
AcDbVertex
100
AcDbPolygonMeshVertex
 10
2.682
 20
-1.34
 30
4.477
 70
    64
  0
VERTEX
  5
983CA
100
AcDbEntity
  8
0
100
AcDbVertex
100
AcDbPolygonMeshVertex
 10
2.862
 20
-1.34
 30
4.857
 70
    64
  0
VERTEX
  5
983CB
100
AcDbEntity
  8
0
100
AcDbVertex
100
AcDbPolygonMeshVertex
 10
2.862
 20
-1.34
 30
4.477
 70
    64
  0
VERTEX
  5
983CC
100
AcDbEntity
  8
0
100
AcDbVertex
100
AcDbPolygonMeshVertex
 10
2.862
 20
-1.34
 30
4.477
 70
    64
  0
VERTEX
  5
983CD
100
AcDbEntity
  8
0
100
AcDbVertex
100
AcDbPolygonMeshVertex
 10
2.862
 20
-2.15
 30
4.857
 70
    64
  0
VERTEX
  5
983CE
100
AcDbEntity
  8
0
100
AcDbVertex
100
AcDbPolygonMeshVertex
 10
2.862
 20
-2.15
 30
4.477
 70
    64
  0
VERTEX
  5
983CF
100
AcDbEntity
  8
0
100
AcDbVertex
100
AcDbPolygonMeshVertex
 10
2.862
 20
-1.34
 30
4.477
 70
    64
  0
VERTEX
  5
983D0
100
AcDbEntity
  8
0
100
AcDbVertex
100
AcDbPolygonMeshVertex
 10
2.682
 20
-2.15
 30
4.857
 70
    64
  0
VERTEX
  5
983D1
100
AcDbEntity
  8
0
100
AcDbVertex
100
AcDbPolygonMeshVertex
 10
2.682
 20
-2.15
 30
4.477
 70
    64
  0
VERTEX
  5
983D2
100
AcDbEntity
  8
0
100
AcDbVertex
100
AcDbPolygonMeshVertex
 10
2.682
 20
-1.34
 30
4.477
 70
    64
  0
VERTEX
  5
983D3
100
AcDbEntity
  8
0
100
AcDbVertex
100
AcDbPolygonMeshVertex
 10
2.682
 20
-2.15
 30
4.857
 70
    64
  0
VERTEX
  5
983D4
100
AcDbEntity
  8
0
100
AcDbVertex
100
AcDbPolygonMeshVertex
 10
2.682
 20
-2.15
 30
4.857
 70
    64
  0
VERTEX
  5
983D5
100
AcDbEntity
  8
0
100
AcDbVertex
100
AcDbPolygonMeshVertex
 10
2.682
 20
-1.34
 30
4.857
 70
    64
  0
VERTEX
  5
983D6
100
AcDbEntity
  8
0
100
AcDbVertex
100
AcDbPolygonMeshVertex
 10
2.862
 20
-2.15
 30
4.857
 70
    64
  0
VERTEX
  5
983D7
100
AcDbEntity
  8
0
100
AcDbVertex
100
AcDbPolygonMeshVertex
 10
2.862
 20
-2.15
 30
4.857
 70
    64
  0
VERTEX
  5
983D8
100
AcDbEntity
  8
0
100
AcDbVertex
100
AcDbPolygonMeshVertex
 10
2.862
 20
-1.34
 30
4.857
 70
    64
  0
SEQEND
  5
983D9
100
AcDbEntity
  8
0
  0
POLYLINE
  5
983DA
100
AcDbEntity
  8
0
100
AcDbPolygonMesh
 66
     1
 10
0.0
 20
0.0
 30
0.0
 70
    16
 71
     6
 72
     3
  0
VERTEX
  5
983DB
100
AcDbEntity
  8
0
100
AcDbVertex
100
AcDbPolygonMeshVertex
 10
2.682
 20
-1.34
 30
4.477
 70
    64
  0
VERTEX
  5
983DC
100
AcDbEntity
  8
0
100
AcDbVertex
100
AcDbPolygonMeshVertex
 10
2.682
 20
-1.34
 30
3.357
 70
    64
  0
VERTEX
  5
983DD
100
AcDbEntity
  8
0
100
AcDbVertex
100
AcDbPolygonMeshVertex
 10
2.682
 20
-1.34
 30
3.357
 70
    64
  0
VERTEX
  5
983DE
100
AcDbEntity
  8
0
100
AcDbVertex
100
AcDbPolygonMeshVertex
 10
2.862
 20
-1.34
 30
4.477
 70
    64
  0
VERTEX
  5
983DF
100
AcDbEntity
  8
0
100
AcDbVertex
100
AcDbPolygonMeshVertex
 10
2.862
 20
-1.34
 30
3.357
 70
    64
  0
VERTEX
  5
983E0
100
AcDbEntity
  8
0
100
AcDbVertex
100
AcDbPolygonMeshVertex
 10
2.862
 20
-1.34
 30
3.357
 70
    64
  0
VERTEX
  5
983E1
100
AcDbEntity
  8
0
100
AcDbVertex
100
AcDbPolygonMeshVertex
 10
2.862
 20
-1.47
 30
4.477
 70
    64
  0
VERTEX
  5
983E2
100
AcDbEntity
  8
0
100
AcDbVertex
100
AcDbPolygonMeshVertex
 10
2.862
 20
-1.47
 30
3.357
 70
    64
  0
VERTEX
  5
983E3
100
AcDbEntity
  8
0
100
AcDbVertex
100
AcDbPolygonMeshVertex
 10
2.862
 20
-1.34
 30
3.357
 70
    64
  0
VERTEX
  5
983E4
100
AcDbEntity
  8
0
100
AcDbVertex
100
AcDbPolygonMeshVertex
 10
2.682
 20
-1.47
 30
4.477
 70
    64
  0
VERTEX
  5
983E5
100
AcDbEntity
  8
0
100
AcDbVertex
100
AcDbPolygonMeshVertex
 10
2.682
 20
-1.47
 30
3.357
 70
    64
  0
VERTEX
  5
983E6
100
AcDbEntity
  8
0
100
AcDbVertex
100
AcDbPolygonMeshVertex
 10
2.682
 20
-1.34
 30
3.357
 70
    64
  0
VERTEX
  5
983E7
100
AcDbEntity
  8
0
100
AcDbVertex
100
AcDbPolygonMeshVertex
 10
2.682
 20
-1.47
 30
4.477
 70
    64
  0
VERTEX
  5
983E8
100
AcDbEntity
  8
0
100
AcDbVertex
100
AcDbPolygonMeshVertex
 10
2.682
 20
-1.47
 30
4.477
 70
    64
  0
VERTEX
  5
983E9
100
AcDbEntity
  8
0
100
AcDbVertex
100
AcDbPolygonMeshVertex
 10
2.682
 20
-1.34
 30
4.477
 70
    64
  0
VERTEX
  5
983EA
100
AcDbEntity
  8
0
100
AcDbVertex
100
AcDbPolygonMeshVertex
 10
2.862
 20
-1.47
 30
4.477
 70
    64
  0
VERTEX
  5
983EB
100
AcDbEntity
  8
0
100
AcDbVertex
100
AcDbPolygonMeshVertex
 10
2.862
 20
-1.47
 30
4.477
 70
    64
  0
VERTEX
  5
983EC
100
AcDbEntity
  8
0
100
AcDbVertex
100
AcDbPolygonMeshVertex
 10
2.862
 20
-1.34
 30
4.477
 70
    64
  0
SEQEND
  5
983ED
100
AcDbEntity
  8
0
  0
POLYLINE
  5
983EE
100
AcDbEntity
  8
0
100
AcDbPolygonMesh
 66
     1
 10
0.0
 20
0.0
 30
0.0
 70
    16
 71
     6
 72
     3
  0
VERTEX
  5
983EF
100
AcDbEntity
  8
0
100
AcDbVertex
100
AcDbPolygonMeshVertex
 10
4.112
 20
-1.56
 30
4.667
 70
    64
  0
VERTEX
  5
983F0
100
AcDbEntity
  8
0
100
AcDbVertex
100
AcDbPolygonMeshVertex
 10
4.112
 20
-1.56
 30
4.477
 70
    64
  0
VERTEX
  5
983F1
100
AcDbEntity
  8
0
100
AcDbVertex
100
AcDbPolygonMeshVertex
 10
4.112
 20
-1.56
 30
4.477
 70
    64
  0
VERTEX
  5
983F2
100
AcDbEntity
  8
0
100
AcDbVertex
100
AcDbPolygonMeshVertex
 10
4.612
 20
-1.56
 30
4.667
 70
    64
  0
VERTEX
  5
983F3
100
AcDbEntity
  8
0
100
AcDbVertex
100
AcDbPolygonMeshVertex
 10
4.612
 20
-1.56
 30
4.477
 70
    64
  0
VERTEX
  5
983F4
100
AcDbEntity
  8
0
100
AcDbVertex
100
AcDbPolygonMeshVertex
 10
4.612
 20
-1.56
 30
4.477
 70
    64
  0
VERTEX
  5
983F5
100
AcDbEntity
  8
0
100
AcDbVertex
100
AcDbPolygonMeshVertex
 10
4.612
 20
-1.97
 30
4.667
 70
    64
  0
VERTEX
  5
983F6
100
AcDbEntity
  8
0
100
AcDbVertex
100
AcDbPolygonMeshVertex
 10
4.612
 20
-1.97
 30
4.477
 70
    64
  0
VERTEX
  5
983F7
100
AcDbEntity
  8
0
100
AcDbVertex
100
AcDbPolygonMeshVertex
 10
4.612
 20
-1.56
 30
4.477
 70
    64
  0
VERTEX
  5
983F8
100
AcDbEntity
  8
0
100
AcDbVertex
100
AcDbPolygonMeshVertex
 10
4.112
 20
-1.97
 30
4.667
 70
    64
  0
VERTEX
  5
983F9
100
AcDbEntity
  8
0
100
AcDbVertex
100
AcDbPolygonMeshVertex
 10
4.112
 20
-1.97
 30
4.477
 70
    64
  0
VERTEX
  5
983FA
100
AcDbEntity
  8
0
100
AcDbVertex
100
AcDbPolygonMeshVertex
 10
4.112
 20
-1.56
 30
4.477
 70
    64
  0
VERTEX
  5
983FB
100
AcDbEntity
  8
0
100
AcDbVertex
100
AcDbPolygonMeshVertex
 10
4.112
 20
-1.97
 30
4.667
 70
    64
  0
VERTEX
  5
983FC
100
AcDbEntity
  8
0
100
AcDbVertex
100
AcDbPolygonMeshVertex
 10
4.112
 20
-1.97
 30
4.667
 70
    64
  0
VERTEX
  5
983FD
100
AcDbEntity
  8
0
100
AcDbVertex
100
AcDbPolygonMeshVertex
 10
4.112
 20
-1.56
 30
4.667
 70
    64
  0
VERTEX
  5
983FE
100
AcDbEntity
  8
0
100
AcDbVertex
100
AcDbPolygonMeshVertex
 10
4.612
 20
-1.97
 30
4.667
 70
    64
  0
VERTEX
  5
983FF
100
AcDbEntity
  8
0
100
AcDbVertex
100
AcDbPolygonMeshVertex
 10
4.612
 20
-1.97
 30
4.667
 70
    64
  0
VERTEX
  5
98400
100
AcDbEntity
  8
0
100
AcDbVertex
100
AcDbPolygonMeshVertex
 10
4.612
 20
-1.56
 30
4.667
 70
    64
  0
SEQEND
  5
98401
100
AcDbEntity
  8
0
  0
CIRCLE
  5
98402
100
AcDbEntity
  8
0
100
AcDbCircle
 10
3.302
 20
-1.765
 30
4.667
 40
0.19
  0
POLYLINE
  5
98403
100
AcDbEntity
  8
0
100
AcDbPolygonMesh
 66
     1
 10
0.0
 20
0.0
 30
0.0
 70
    16
 71
     6
 72
     3
  0
VERTEX
  5
98404
100
AcDbEntity
  8
0
100
AcDbVertex
100
AcDbPolygonMeshVertex
 10
3.052
 20
-1.56
 30
4.667
 70
    64
  0
VERTEX
  5
98405
100
AcDbEntity
  8
0
100
AcDbVertex
100
AcDbPolygonMeshVertex
 10
3.052
 20
-1.56
 30
4.477
 70
    64
  0
VERTEX
  5
98406
100
AcDbEntity
  8
0
100
AcDbVertex
100
AcDbPolygonMeshVertex
 10
3.052
 20
-1.56
 30
4.477
 70
    64
  0
VERTEX
  5
98407
100
AcDbEntity
  8
0
100
AcDbVertex
100
AcDbPolygonMeshVertex
 10
3.552
 20
-1.56
 30
4.667
 70
    64
  0
VERTEX
  5
98408
100
AcDbEntity
  8
0
100
AcDbVertex
100
AcDbPolygonMeshVertex
 10
3.552
 20
-1.56
 30
4.477
 70
    64
  0
VERTEX
  5
98409
100
AcDbEntity
  8
0
100
AcDbVertex
100
AcDbPolygonMeshVertex
 10
3.552
 20
-1.56
 30
4.477
 70
    64
  0
VERTEX
  5
9840A
100
AcDbEntity
  8
0
100
AcDbVertex
100
AcDbPolygonMeshVertex
 10
3.552
 20
-1.97
 30
4.667
 70
    64
  0
VERTEX
  5
9840B
100
AcDbEntity
  8
0
100
AcDbVertex
100
AcDbPolygonMeshVertex
 10
3.552
 20
-1.97
 30
4.477
 70
    64
  0
VERTEX
  5
9840C
100
AcDbEntity
  8
0
100
AcDbVertex
100
AcDbPolygonMeshVertex
 10
3.552
 20
-1.56
 30
4.477
 70
    64
  0
VERTEX
  5
9840D
100
AcDbEntity
  8
0
100
AcDbVertex
100
AcDbPolygonMeshVertex
 10
3.052
 20
-1.97
 30
4.667
 70
    64
  0
VERTEX
  5
9840E
100
AcDbEntity
  8
0
100
AcDbVertex
100
AcDbPolygonMeshVertex
 10
3.052
 20
-1.97
 30
4.477
 70
    64
  0
VERTEX
  5
9840F
100
AcDbEntity
  8
0
100
AcDbVertex
100
AcDbPolygonMeshVertex
 10
3.052
 20
-1.56
 30
4.477
 70
    64
  0
VERTEX
  5
98410
100
AcDbEntity
  8
0
100
AcDbVertex
100
AcDbPolygonMeshVertex
 10
3.052
 20
-1.97
 30
4.667
 70
    64
  0
VERTEX
  5
98411
100
AcDbEntity
  8
0
100
AcDbVertex
100
AcDbPolygonMeshVertex
 10
3.052
 20
-1.97
 30
4.667
 70
    64
  0
VERTEX
  5
98412
100
AcDbEntity
  8
0
100
AcDbVertex
100
AcDbPolygonMeshVertex
 10
3.052
 20
-1.56
 30
4.667
 70
    64
  0
VERTEX
  5
98413
100
AcDbEntity
  8
0
100
AcDbVertex
100
AcDbPolygonMeshVertex
 10
3.552
 20
-1.97
 30
4.667
 70
    64
  0
VERTEX
  5
98414
100
AcDbEntity
  8
0
100
AcDbVertex
100
AcDbPolygonMeshVertex
 10
3.552
 20
-1.97
 30
4.667
 70
    64
  0
VERTEX
  5
98415
100
AcDbEntity
  8
0
100
AcDbVertex
100
AcDbPolygonMeshVertex
 10
3.552
 20
-1.56
 30
4.667
 70
    64
  0
SEQEND
  5
98416
100
AcDbEntity
  8
0
  0
CIRCLE
  5
98417
100
AcDbEntity
  8
0
100
AcDbCircle
 10
2.242
 20
-1.765
 30
4.667
 40
0.19
  0
POLYLINE
  5
98418
100
AcDbEntity
  8
0
100
AcDbPolygonMesh
 66
     1
 10
0.0
 20
0.0
 30
0.0
 70
    16
 71
     6
 72
     3
  0
VERTEX
  5
98419
100
AcDbEntity
  8
0
100
AcDbVertex
100
AcDbPolygonMeshVertex
 10
1.992
 20
-1.56
 30
4.667
 70
    64
  0
VERTEX
  5
9841A
100
AcDbEntity
  8
0
100
AcDbVertex
100
AcDbPolygonMeshVertex
 10
1.992
 20
-1.56
 30
4.477
 70
    64
  0
VERTEX
  5
9841B
100
AcDbEntity
  8
0
100
AcDbVertex
100
AcDbPolygonMeshVertex
 10
1.992
 20
-1.56
 30
4.477
 70
    64
  0
VERTEX
  5
9841C
100
AcDbEntity
  8
0
100
AcDbVertex
100
AcDbPolygonMeshVertex
 10
2.492
 20
-1.56
 30
4.667
 70
    64
  0
VERTEX
  5
9841D
100
AcDbEntity
  8
0
100
AcDbVertex
100
AcDbPolygonMeshVertex
 10
2.492
 20
-1.56
 30
4.477
 70
    64
  0
VERTEX
  5
9841E
100
AcDbEntity
  8
0
100
AcDbVertex
100
AcDbPolygonMeshVertex
 10
2.492
 20
-1.56
 30
4.477
 70
    64
  0
VERTEX
  5
9841F
100
AcDbEntity
  8
0
100
AcDbVertex
100
AcDbPolygonMeshVertex
 10
2.492
 20
-1.97
 30
4.667
 70
    64
  0
VERTEX
  5
98420
100
AcDbEntity
  8
0
100
AcDbVertex
100
AcDbPolygonMeshVertex
 10
2.492
 20
-1.97
 30
4.477
 70
    64
  0
VERTEX
  5
98421
100
AcDbEntity
  8
0
100
AcDbVertex
100
AcDbPolygonMeshVertex
 10
2.492
 20
-1.56
 30
4.477
 70
    64
  0
VERTEX
  5
98422
100
AcDbEntity
  8
0
100
AcDbVertex
100
AcDbPolygonMeshVertex
 10
1.992
 20
-1.97
 30
4.667
 70
    64
  0
VERTEX
  5
98423
100
AcDbEntity
  8
0
100
AcDbVertex
100
AcDbPolygonMeshVertex
 10
1.992
 20
-1.97
 30
4.477
 70
    64
  0
VERTEX
  5
98424
100
AcDbEntity
  8
0
100
AcDbVertex
100
AcDbPolygonMeshVertex
 10
1.992
 20
-1.56
 30
4.477
 70
    64
  0
VERTEX
  5
98425
100
AcDbEntity
  8
0
100
AcDbVertex
100
AcDbPolygonMeshVertex
 10
1.992
 20
-1.97
 30
4.667
 70
    64
  0
VERTEX
  5
98426
100
AcDbEntity
  8
0
100
AcDbVertex
100
AcDbPolygonMeshVertex
 10
1.992
 20
-1.97
 30
4.667
 70
    64
  0
VERTEX
  5
98427
100
AcDbEntity
  8
0
100
AcDbVertex
100
AcDbPolygonMeshVertex
 10
1.992
 20
-1.56
 30
4.667
 70
    64
  0
VERTEX
  5
98428
100
AcDbEntity
  8
0
100
AcDbVertex
100
AcDbPolygonMeshVertex
 10
2.492
 20
-1.97
 30
4.667
 70
    64
  0
VERTEX
  5
98429
100
AcDbEntity
  8
0
100
AcDbVertex
100
AcDbPolygonMeshVertex
 10
2.492
 20
-1.97
 30
4.667
 70
    64
  0
VERTEX
  5
9842A
100
AcDbEntity
  8
0
100
AcDbVertex
100
AcDbPolygonMeshVertex
 10
2.492
 20
-1.56
 30
4.667
 70
    64
  0
SEQEND
  5
9842B
100
AcDbEntity
  8
0
  0
POLYLINE
  5
9842C
100
AcDbEntity
  8
0
100
AcDbPolygonMesh
 66
     1
 10
0.0
 20
0.0
 30
0.0
 70
    16
 71
     6
 72
     3
  0
VERTEX
  5
9842D
100
AcDbEntity
  8
0
100
AcDbVertex
100
AcDbPolygonMeshVertex
 10
1.992
 20
-1.0
 30
1.857
 70
    64
  0
VERTEX
  5
9842E
100
AcDbEntity
  8
0
100
AcDbVertex
100
AcDbPolygonMeshVertex
 10
1.992
 20
-1.0
 30
1.547
 70
    64
  0
VERTEX
  5
9842F
100
AcDbEntity
  8
0
100
AcDbVertex
100
AcDbPolygonMeshVertex
 10
1.992
 20
-1.0
 30
1.547
 70
    64
  0
VERTEX
  5
98430
100
AcDbEntity
  8
0
100
AcDbVertex
100
AcDbPolygonMeshVertex
 10
2.492
 20
-1.0
 30
1.857
 70
    64
  0
VERTEX
  5
98431
100
AcDbEntity
  8
0
100
AcDbVertex
100
AcDbPolygonMeshVertex
 10
2.492
 20
-1.0
 30
1.547
 70
    64
  0
VERTEX
  5
98432
100
AcDbEntity
  8
0
100
AcDbVertex
100
AcDbPolygonMeshVertex
 10
2.492
 20
-1.0
 30
1.547
 70
    64
  0
VERTEX
  5
98433
100
AcDbEntity
  8
0
100
AcDbVertex
100
AcDbPolygonMeshVertex
 10
2.492
 20
-1.47
 30
1.857
 70
    64
  0
VERTEX
  5
98434
100
AcDbEntity
  8
0
100
AcDbVertex
100
AcDbPolygonMeshVertex
 10
2.492
 20
-1.47
 30
1.547
 70
    64
  0
VERTEX
  5
98435
100
AcDbEntity
  8
0
100
AcDbVertex
100
AcDbPolygonMeshVertex
 10
2.492
 20
-1.0
 30
1.547
 70
    64
  0
VERTEX
  5
98436
100
AcDbEntity
  8
0
100
AcDbVertex
100
AcDbPolygonMeshVertex
 10
1.992
 20
-1.47
 30
1.857
 70
    64
  0
VERTEX
  5
98437
100
AcDbEntity
  8
0
100
AcDbVertex
100
AcDbPolygonMeshVertex
 10
1.992
 20
-1.47
 30
1.547
 70
    64
  0
VERTEX
  5
98438
100
AcDbEntity
  8
0
100
AcDbVertex
100
AcDbPolygonMeshVertex
 10
1.992
 20
-1.0
 30
1.547
 70
    64
  0
VERTEX
  5
98439
100
AcDbEntity
  8
0
100
AcDbVertex
100
AcDbPolygonMeshVertex
 10
1.992
 20
-1.47
 30
1.857
 70
    64
  0
VERTEX
  5
9843A
100
AcDbEntity
  8
0
100
AcDbVertex
100
AcDbPolygonMeshVertex
 10
1.992
 20
-1.47
 30
1.857
 70
    64
  0
VERTEX
  5
9843B
100
AcDbEntity
  8
0
100
AcDbVertex
100
AcDbPolygonMeshVertex
 10
1.992
 20
-1.0
 30
1.857
 70
    64
  0
VERTEX
  5
9843C
100
AcDbEntity
  8
0
100
AcDbVertex
100
AcDbPolygonMeshVertex
 10
2.492
 20
-1.47
 30
1.857
 70
    64
  0
VERTEX
  5
9843D
100
AcDbEntity
  8
0
100
AcDbVertex
100
AcDbPolygonMeshVertex
 10
2.492
 20
-1.47
 30
1.857
 70
    64
  0
VERTEX
  5
9843E
100
AcDbEntity
  8
0
100
AcDbVertex
100
AcDbPolygonMeshVertex
 10
2.492
 20
-1.0
 30
1.857
 70
    64
  0
SEQEND
  5
9843F
100
AcDbEntity
  8
0
  0
POLYLINE
  5
98440
100
AcDbEntity
  8
0
100
AcDbPolygonMesh
 66
     1
 10
0.0
 20
0.0
 30
0.0
 70
    16
 71
     6
 72
     3
  0
VERTEX
  5
98441
100
AcDbEntity
  8
0
100
AcDbVertex
100
AcDbPolygonMeshVertex
 10
3.052
 20
-1.0
 30
1.857
 70
    64
  0
VERTEX
  5
98442
100
AcDbEntity
  8
0
100
AcDbVertex
100
AcDbPolygonMeshVertex
 10
3.052
 20
-1.0
 30
1.547
 70
    64
  0
VERTEX
  5
98443
100
AcDbEntity
  8
0
100
AcDbVertex
100
AcDbPolygonMeshVertex
 10
3.052
 20
-1.0
 30
1.547
 70
    64
  0
VERTEX
  5
98444
100
AcDbEntity
  8
0
100
AcDbVertex
100
AcDbPolygonMeshVertex
 10
3.552
 20
-1.0
 30
1.857
 70
    64
  0
VERTEX
  5
98445
100
AcDbEntity
  8
0
100
AcDbVertex
100
AcDbPolygonMeshVertex
 10
3.552
 20
-1.0
 30
1.547
 70
    64
  0
VERTEX
  5
98446
100
AcDbEntity
  8
0
100
AcDbVertex
100
AcDbPolygonMeshVertex
 10
3.552
 20
-1.0
 30
1.547
 70
    64
  0
VERTEX
  5
98447
100
AcDbEntity
  8
0
100
AcDbVertex
100
AcDbPolygonMeshVertex
 10
3.552
 20
-1.47
 30
1.857
 70
    64
  0
VERTEX
  5
98448
100
AcDbEntity
  8
0
100
AcDbVertex
100
AcDbPolygonMeshVertex
 10
3.552
 20
-1.47
 30
1.547
 70
    64
  0
VERTEX
  5
98449
100
AcDbEntity
  8
0
100
AcDbVertex
100
AcDbPolygonMeshVertex
 10
3.552
 20
-1.0
 30
1.547
 70
    64
  0
VERTEX
  5
9844A
100
AcDbEntity
  8
0
100
AcDbVertex
100
AcDbPolygonMeshVertex
 10
3.052
 20
-1.47
 30
1.857
 70
    64
  0
VERTEX
  5
9844B
100
AcDbEntity
  8
0
100
AcDbVertex
100
AcDbPolygonMeshVertex
 10
3.052
 20
-1.47
 30
1.547
 70
    64
  0
VERTEX
  5
9844C
100
AcDbEntity
  8
0
100
AcDbVertex
100
AcDbPolygonMeshVertex
 10
3.052
 20
-1.0
 30
1.547
 70
    64
  0
VERTEX
  5
9844D
100
AcDbEntity
  8
0
100
AcDbVertex
100
AcDbPolygonMeshVertex
 10
3.052
 20
-1.47
 30
1.857
 70
    64
  0
VERTEX
  5
9844E
100
AcDbEntity
  8
0
100
AcDbVertex
100
AcDbPolygonMeshVertex
 10
3.052
 20
-1.47
 30
1.857
 70
    64
  0
VERTEX
  5
9844F
100
AcDbEntity
  8
0
100
AcDbVertex
100
AcDbPolygonMeshVertex
 10
3.052
 20
-1.0
 30
1.857
 70
    64
  0
VERTEX
  5
98450
100
AcDbEntity
  8
0
100
AcDbVertex
100
AcDbPolygonMeshVertex
 10
3.552
 20
-1.47
 30
1.857
 70
    64
  0
VERTEX
  5
98451
100
AcDbEntity
  8
0
100
AcDbVertex
100
AcDbPolygonMeshVertex
 10
3.552
 20
-1.47
 30
1.857
 70
    64
  0
VERTEX
  5
98452
100
AcDbEntity
  8
0
100
AcDbVertex
100
AcDbPolygonMeshVertex
 10
3.552
 20
-1.0
 30
1.857
 70
    64
  0
SEQEND
  5
98453
100
AcDbEntity
  8
0
  0
CIRCLE
  5
98454
100
AcDbEntity
  8
0
100
AcDbCircle
 10
3.302
 20
-1.235
 30
1.867
 40
0.19
  0
LINE
  5
98455
100
AcDbEntity
  8
0
100
AcDbLine
 10
3.166278
 20
-1.367964
 30
1.867
 11
3.397529
 21
-1.070762
 31
1.867
  0
LINE
  5
98456
100
AcDbEntity
  8
0
100
AcDbLine
 10
3.206965
 20
-1.398318
 30
1.867
 11
3.438216
 21
-1.101115
 31
1.867
  0
POLYLINE
  5
98457
100
AcDbEntity
  8
0
100
AcDbPolygonMesh
 66
     1
 10
0.0
 20
0.0
 30
0.0
 70
    16
 71
     6
 72
     3
  0
VERTEX
  5
98458
100
AcDbEntity
  8
0
100
AcDbVertex
100
AcDbPolygonMeshVertex
 10
4.112
 20
-1.0
 30
1.857
 70
    64
  0
VERTEX
  5
98459
100
AcDbEntity
  8
0
100
AcDbVertex
100
AcDbPolygonMeshVertex
 10
4.112
 20
-1.0
 30
1.547
 70
    64
  0
VERTEX
  5
9845A
100
AcDbEntity
  8
0
100
AcDbVertex
100
AcDbPolygonMeshVertex
 10
4.112
 20
-1.0
 30
1.547
 70
    64
  0
VERTEX
  5
9845B
100
AcDbEntity
  8
0
100
AcDbVertex
100
AcDbPolygonMeshVertex
 10
4.612
 20
-1.0
 30
1.857
 70
    64
  0
VERTEX
  5
9845C
100
AcDbEntity
  8
0
100
AcDbVertex
100
AcDbPolygonMeshVertex
 10
4.612
 20
-1.0
 30
1.547
 70
    64
  0
VERTEX
  5
9845D
100
AcDbEntity
  8
0
100
AcDbVertex
100
AcDbPolygonMeshVertex
 10
4.612
 20
-1.0
 30
1.547
 70
    64
  0
VERTEX
  5
9845E
100
AcDbEntity
  8
0
100
AcDbVertex
100
AcDbPolygonMeshVertex
 10
4.612
 20
-1.47
 30
1.857
 70
    64
  0
VERTEX
  5
9845F
100
AcDbEntity
  8
0
100
AcDbVertex
100
AcDbPolygonMeshVertex
 10
4.612
 20
-1.47
 30
1.547
 70
    64
  0
VERTEX
  5
98460
100
AcDbEntity
  8
0
100
AcDbVertex
100
AcDbPolygonMeshVertex
 10
4.612
 20
-1.0
 30
1.547
 70
    64
  0
VERTEX
  5
98461
100
AcDbEntity
  8
0
100
AcDbVertex
100
AcDbPolygonMeshVertex
 10
4.112
 20
-1.47
 30
1.857
 70
    64
  0
VERTEX
  5
98462
100
AcDbEntity
  8
0
100
AcDbVertex
100
AcDbPolygonMeshVertex
 10
4.112
 20
-1.47
 30
1.547
 70
    64
  0
VERTEX
  5
98463
100
AcDbEntity
  8
0
100
AcDbVertex
100
AcDbPolygonMeshVertex
 10
4.112
 20
-1.0
 30
1.547
 70
    64
  0
VERTEX
  5
98464
100
AcDbEntity
  8
0
100
AcDbVertex
100
AcDbPolygonMeshVertex
 10
4.112
 20
-1.47
 30
1.857
 70
    64
  0
VERTEX
  5
98465
100
AcDbEntity
  8
0
100
AcDbVertex
100
AcDbPolygonMeshVertex
 10
4.112
 20
-1.47
 30
1.857
 70
    64
  0
VERTEX
  5
98466
100
AcDbEntity
  8
0
100
AcDbVertex
100
AcDbPolygonMeshVertex
 10
4.112
 20
-1.0
 30
1.857
 70
    64
  0
VERTEX
  5
98467
100
AcDbEntity
  8
0
100
AcDbVertex
100
AcDbPolygonMeshVertex
 10
4.612
 20
-1.47
 30
1.857
 70
    64
  0
VERTEX
  5
98468
100
AcDbEntity
  8
0
100
AcDbVertex
100
AcDbPolygonMeshVertex
 10
4.612
 20
-1.47
 30
1.857
 70
    64
  0
VERTEX
  5
98469
100
AcDbEntity
  8
0
100
AcDbVertex
100
AcDbPolygonMeshVertex
 10
4.612
 20
-1.0
 30
1.857
 70
    64
  0
SEQEND
  5
9846A
100
AcDbEntity
  8
0
  0
CIRCLE
  5
9846B
100
AcDbEntity
  8
0
100
AcDbCircle
 10
4.362
 20
-1.235
 30
1.867
 40
0.19
  0
LINE
  5
9846C
100
AcDbEntity
  8
0
100
AcDbLine
 10
4.226278
 20
-1.367964
 30
1.867
 11
4.457529
 21
-1.070762
 31
1.867
  0
LINE
  5
9846D
100
AcDbEntity
  8
0
100
AcDbLine
 10
4.266965
 20
-1.398318
 30
1.867
 11
4.498216
 21
-1.101115
 31
1.867
  0
POLYLINE
  5
9846E
100
AcDbEntity
  8
0
100
AcDbPolygonMesh
 66
     1
 10
0.0
 20
0.0
 30
0.0
 70
    16
 71
     6
 72
     3
  0
VERTEX
  5
9846F
100
AcDbEntity
  8
0
100
AcDbVertex
100
AcDbPolygonMeshVertex
 10
5.077
 20
-8.31
 30
0.577
 70
    64
  0
VERTEX
  5
98470
100
AcDbEntity
  8
0
100
AcDbVertex
100
AcDbPolygonMeshVertex
 10
5.077
 20
-8.31
 30
0.387
 70
    64
  0
VERTEX
  5
98471
100
AcDbEntity
  8
0
100
AcDbVertex
100
AcDbPolygonMeshVertex
 10
5.077
 20
-8.31
 30
0.387
 70
    64
  0
VERTEX
  5
98472
100
AcDbEntity
  8
0
100
AcDbVertex
100
AcDbPolygonMeshVertex
 10
1.517
 20
-8.31
 30
0.577
 70
    64
  0
VERTEX
  5
98473
100
AcDbEntity
  8
0
100
AcDbVertex
100
AcDbPolygonMeshVertex
 10
1.517
 20
-8.31
 30
0.387
 70
    64
  0
VERTEX
  5
98474
100
AcDbEntity
  8
0
100
AcDbVertex
100
AcDbPolygonMeshVertex
 10
1.517
 20
-8.31
 30
0.387
 70
    64
  0
VERTEX
  5
98475
100
AcDbEntity
  8
0
100
AcDbVertex
100
AcDbPolygonMeshVertex
 10
1.517
 20
-1.31
 30
0.577
 70
    64
  0
VERTEX
  5
98476
100
AcDbEntity
  8
0
100
AcDbVertex
100
AcDbPolygonMeshVertex
 10
1.517
 20
-1.31
 30
0.387
 70
    64
  0
VERTEX
  5
98477
100
AcDbEntity
  8
0
100
AcDbVertex
100
AcDbPolygonMeshVertex
 10
1.517
 20
-8.31
 30
0.387
 70
    64
  0
VERTEX
  5
98478
100
AcDbEntity
  8
0
100
AcDbVertex
100
AcDbPolygonMeshVertex
 10
5.077
 20
-1.31
 30
0.577
 70
    64
  0
VERTEX
  5
98479
100
AcDbEntity
  8
0
100
AcDbVertex
100
AcDbPolygonMeshVertex
 10
5.077
 20
-1.31
 30
0.387
 70
    64
  0
VERTEX
  5
9847A
100
AcDbEntity
  8
0
100
AcDbVertex
100
AcDbPolygonMeshVertex
 10
5.077
 20
-8.31
 30
0.387
 70
    64
  0
VERTEX
  5
9847B
100
AcDbEntity
  8
0
100
AcDbVertex
100
AcDbPolygonMeshVertex
 10
5.077
 20
-1.31
 30
0.577
 70
    64
  0
VERTEX
  5
9847C
100
AcDbEntity
  8
0
100
AcDbVertex
100
AcDbPolygonMeshVertex
 10
5.077
 20
-1.31
 30
0.577
 70
    64
  0
VERTEX
  5
9847D
100
AcDbEntity
  8
0
100
AcDbVertex
100
AcDbPolygonMeshVertex
 10
5.077
 20
-8.31
 30
0.577
 70
    64
  0
VERTEX
  5
9847E
100
AcDbEntity
  8
0
100
AcDbVertex
100
AcDbPolygonMeshVertex
 10
1.517
 20
-1.31
 30
0.577
 70
    64
  0
VERTEX
  5
9847F
100
AcDbEntity
  8
0
100
AcDbVertex
100
AcDbPolygonMeshVertex
 10
1.517
 20
-1.31
 30
0.577
 70
    64
  0
VERTEX
  5
98480
100
AcDbEntity
  8
0
100
AcDbVertex
100
AcDbPolygonMeshVertex
 10
1.517
 20
-8.31
 30
0.577
 70
    64
  0
SEQEND
  5
98481
100
AcDbEntity
  8
0
  0
LINE
  5
98482
100
AcDbEntity
  8
0
100
AcDbLine
 10
2.022
 20
-8.31
 30
0.577
 11
2.022
 21
-8.31
 31
0.387
  0
3DFACE
  5
98483
100
AcDbEntity
  8
0
100
AcDbFace
 10
5.077
 20
-1.31
 30
0.577
 11
4.457
 21
-0.69
 31
0.577
 12
3.017
 22
-0.69
 32
0.577
 13
2.917
 23
-0.97
 33
0.577
 70
     8
  0
3DFACE
  5
98484
100
AcDbEntity
  8
0
100
AcDbFace
 10
2.427
 20
-0.97
 30
0.577
 11
2.327
 21
-0.69
 31
0.577
 12
2.137
 22
-0.69
 32
0.577
 13
1.517
 23
-1.31
 33
0.577
 70
     8
  0
3DFACE
  5
98485
100
AcDbEntity
  8
0
100
AcDbFace
 10
2.427
 20
-0.97
 30
0.577
 11
1.517
 21
-1.31
 31
0.577
 12
5.077
 22
-1.31
 32
0.577
 13
2.917
 23
-0.97
 33
0.577
 70
    15
  0
3DFACE
  5
98486
100
AcDbEntity
  8
0
100
AcDbFace
 10
2.427
 20
-0.97
 30
0.387
 11
1.517
 21
-1.31
 31
0.387
 12
5.077
 22
-1.31
 32
0.387
 13
2.917
 23
-0.97
 33
0.387
 70
    15
  0
3DFACE
  5
98487
100
AcDbEntity
  8
0
100
AcDbFace
 10
5.077
 20
-1.31
 30
0.387
 11
4.457
 21
-0.69
 31
0.387
 12
3.017
 22
-0.69
 32
0.387
 13
2.917
 23
-0.97
 33
0.387
 70
     8
  0
3DFACE
  5
98488
100
AcDbEntity
  8
0
100
AcDbFace
 10
2.427
 20
-0.97
 30
0.387
 11
2.327
 21
-0.69
 31
0.387
 12
2.137
 22
-0.69
 32
0.387
 13
1.517
 23
-1.31
 33
0.387
 70
     8
  0
3DFACE
  5
98489
100
AcDbEntity
  8
0
100
AcDbFace
 10
5.077
 20
-1.31
 30
0.387
 11
5.077
 21
-1.31
 31
0.577
 12
4.457
 22
-0.69
 32
0.577
 13
4.457
 23
-0.69
 33
0.387
  0
3DFACE
  5
9848A
100
AcDbEntity
  8
0
100
AcDbFace
 10
4.457
 20
-0.69
 30
0.577
 11
3.017
 21
-0.69
 31
0.577
 12
3.017
 22
-0.69
 32
0.387
 13
4.457
 23
-0.69
 33
0.387
  0
3DFACE
  5
9848B
100
AcDbEntity
  8
0
100
AcDbFace
 10
2.427
 20
-0.97
 30
0.577
 11
2.427
 21
-0.97
 31
0.387
 12
2.327
 22
-0.69
 32
0.387
 13
2.327
 23
-0.69
 33
0.577
  0
3DFACE
  5
9848C
100
AcDbEntity
  8
0
100
AcDbFace
 10
2.917
 20
-0.97
 30
0.577
 11
2.917
 21
-0.97
 31
0.387
 12
2.427
 22
-0.97
 32
0.387
 13
2.427
 23
-0.97
 33
0.577
  0
3DFACE
  5
9848D
100
AcDbEntity
  8
0
100
AcDbFace
 10
2.327
 20
-0.69
 30
0.577
 11
2.327
 21
-0.69
 31
0.387
 12
2.137
 22
-0.69
 32
0.387
 13
2.137
 23
-0.69
 33
0.577
  0
3DFACE
  5
9848E
100
AcDbEntity
  8
0
100
AcDbFace
 10
2.917
 20
-0.97
 30
0.577
 11
2.917
 21
-0.97
 31
0.387
 12
3.017
 22
-0.69
 32
0.387
 13
3.017
 23
-0.69
 33
0.577
  0
3DFACE
  5
9848F
100
AcDbEntity
  8
0
100
AcDbFace
 10
2.137
 20
-0.69
 30
0.387
 11
2.137
 21
-0.69
 31
0.577
 12
1.517
 22
-1.31
 32
0.577
 13
1.517
 23
-1.31
 33
0.387
  0
LINE
  5
98490
100
AcDbEntity
  8
0
100
AcDbLine
 10
-3.378
 20
-5.79
 30
2.007
 11
-3.378
 21
-5.79
 31
3.237
  0
LINE
  5
98491
100
AcDbEntity
  8
0
100
AcDbLine
 10
-2.978
 20
-8.31
 30
0.387
 11
-2.978
 21
-8.06
 31
0.387
  0
LINE
  5
98492
100
AcDbEntity
  8
0
100
AcDbLine
 10
-2.978
 20
-8.31
 30
0.577
 11
-2.978
 21
-8.06
 31
0.577
  0
LINE
  5
98493
100
AcDbEntity
  8
0
100
AcDbLine
 10
-3.178
 20
-8.06
 30
0.387
 11
-3.178
 21
-8.31
 31
0.387
  0
LINE
  5
98494
100
AcDbEntity
  8
0
100
AcDbLine
 10
-3.178
 20
-8.06
 30
0.577
 11
-3.178
 21
-8.31
 31
0.577
  0
LINE
  5
98495
100
AcDbEntity
  8
0
100
AcDbLine
 10
-3.178
 20
-8.31
 30
0.387
 11
-3.178
 21
-8.31
 31
0.577
  0
LINE
  5
98496
100
AcDbEntity
  8
0
100
AcDbLine
 10
-2.978
 20
-8.06
 30
0.387
 11
-2.978
 21
-8.06
 31
0.577
  0
LINE
  5
98497
100
AcDbEntity
  8
0
100
AcDbLine
 10
-3.178
 20
-8.06
 30
0.387
 11
-3.178
 21
-8.06
 31
0.577
  0
ARC
  5
98498
100
AcDbEntity
  8
0
100
AcDbCircle
 10
-3.078
 20
-8.06
 30
0.387
 40
0.1
100
AcDbArc
 50
0.0
 51
179.999985
  0
ARC
  5
98499
100
AcDbEntity
  8
0
100
AcDbCircle
 10
-3.078
 20
-8.06
 30
0.577
 40
0.1
100
AcDbArc
 50
0.0
 51
179.999985
  0
3DFACE
  5
9849A
100
AcDbEntity
  8
0
100
AcDbFace
 10
-0.228
 20
-8.06
 30
0.577
 11
-0.228
 21
-8.06
 31
0.387
 12
-0.228
 22
-8.31
 32
0.387
 13
-0.228
 23
-8.31
 33
0.577
 70
    14
  0
LINE
  5
9849B
100
AcDbEntity
  8
0
100
AcDbLine
 10
-0.428
 20
-8.06
 30
0.387
 11
-0.428
 21
-8.31
 31
0.387
  0
LINE
  5
9849C
100
AcDbEntity
  8
0
100
AcDbLine
 10
-0.228
 20
-8.31
 30
0.387
 11
-0.228
 21
-8.06
 31
0.387
  0
LINE
  5
9849D
100
AcDbEntity
  8
0
100
AcDbLine
 10
-0.428
 20
-8.06
 30
0.577
 11
-0.428
 21
-8.31
 31
0.577
  0
LINE
  5
9849E
100
AcDbEntity
  8
0
100
AcDbLine
 10
-0.228
 20
-8.31
 30
0.577
 11
-0.228
 21
-8.06
 31
0.577
  0
LINE
  5
9849F
100
AcDbEntity
  8
0
100
AcDbLine
 10
-0.428
 20
-8.31
 30
0.387
 11
-0.428
 21
-8.31
 31
0.577
  0
LINE
  5
984A0
100
AcDbEntity
  8
0
100
AcDbLine
 10
-0.228
 20
-8.31
 30
0.387
 11
-0.228
 21
-8.31
 31
0.577
  0
LINE
  5
984A1
100
AcDbEntity
  8
0
100
AcDbLine
 10
-0.428
 20
-8.06
 30
0.387
 11
-0.428
 21
-8.06
 31
0.577
  0
LINE
  5
984A2
100
AcDbEntity
  8
0
100
AcDbLine
 10
-0.228
 20
-8.06
 30
0.387
 11
-0.228
 21
-8.06
 31
0.577
  0
ARC
  5
984A3
100
AcDbEntity
  8
0
100
AcDbCircle
 10
-0.328
 20
-8.06
 30
0.387
 40
0.1
100
AcDbArc
 50
0.0
 51
179.999985
  0
ARC
  5
984A4
100
AcDbEntity
  8
0
100
AcDbCircle
 10
-0.328
 20
-8.06
 30
0.577
 40
0.1
100
AcDbArc
 50
0.0
 51
179.999985
  0
CIRCLE
  5
984A5
100
AcDbEntity
  8
0
100
AcDbCircle
 10
-2.828
 20
-6.06811
 30
5.358772
 40
0.155
210
0.0
220
-0.3163624652213708
230
0.9486383876899864
  0
LINE
  5
984A6
100
AcDbEntity
  8
0
100
AcDbLine
 10
-2.848075
 20
-7.597557
 30
3.115192
 11
-2.827586
 21
-7.304718
 31
3.212851
210
0.0
220
-0.3163624652213708
230
0.9486383876899864
  0
LINE
  5
984A7
100
AcDbEntity
  8
0
100
AcDbLine
 10
-2.828958
 20
-7.598819
 30
3.114771
 11
-2.808469
 21
-7.30598
 31
3.21243
210
0.0
220
-0.3163624652213708
230
0.9486383876899864
  0
CIRCLE
  5
984A8
100
AcDbEntity
  8
0
100
AcDbCircle
 10
-1.768
 20
-6.06811
 30
5.358772
 40
0.155
210
0.0
220
-0.3163624652213708
230
0.9486383876899864
  0
LINE
  5
984A9
100
AcDbEntity
  8
0
100
AcDbLine
 10
-1.768958
 20
-7.598819
 30
3.114771
 11
-1.748469
 21
-7.30598
 31
3.21243
210
0.0
220
-0.3163624652213708
230
0.9486383876899864
  0
LINE
  5
984AA
100
AcDbEntity
  8
0
100
AcDbLine
 10
-1.788075
 20
-7.597557
 30
3.115192
 11
-1.767586
 21
-7.304718
 31
3.212851
210
0.0
220
-0.3163624652213708
230
0.9486383876899864
  0
LINE
  5
984AB
100
AcDbEntity
  8
0
100
AcDbLine
 10
-2.421
 20
-6.29
 30
4.347
 11
-2.421
 21
-6.29
 31
4.027
  0
LINE
  5
984AC
100
AcDbEntity
  8
0
100
AcDbLine
 10
-2.171
 20
-6.29
 30
4.347
 11
-2.171
 21
-6.29
 31
4.027
  0
LINE
  5
984AD
100
AcDbEntity
  8
0
100
AcDbLine
 10
-2.171
 20
-6.04
 30
4.347
 11
-2.171
 21
-6.04
 31
4.027
  0
LINE
  5
984AE
100
AcDbEntity
  8
0
100
AcDbLine
 10
-2.421
 20
-6.04
 30
4.347
 11
-2.421
 21
-6.04
 31
4.027
  0
LINE
  5
984AF
100
AcDbEntity
  8
0
100
AcDbLine
 10
-2.171
 20
-6.04
 30
4.347
 11
-2.171
 21
-6.04
 31
4.027
  0
3DFACE
  5
984B0
100
AcDbEntity
  8
0
100
AcDbFace
 10
-2.171
 20
-6.29
 30
4.347
 11
-2.171
 21
-6.29
 31
4.027
 12
-2.171
 22
-6.04
 32
4.027
 13
-2.171
 23
-6.04
 33
4.347
 70
    14
  0
3DFACE
  5
984B1
100
AcDbEntity
  8
0
100
AcDbFace
 10
-2.171
 20
-6.04
 30
4.027
 11
-2.171
 21
-6.04
 31
4.347
 12
-2.171
 22
-6.29
 32
4.347
 13
-2.171
 23
-6.29
 33
4.027
 70
     3
  0
3DFACE
  5
984B2
100
AcDbEntity
  8
0
100
AcDbFace
 10
-2.171
 20
-6.29
 30
4.347
 11
-2.171
 21
-6.29
 31
4.027
 12
-2.171
 22
-6.04
 32
4.027
 13
-2.171
 23
-6.04
 33
4.027
 70
    14
  0
3DFACE
  5
984B3
100
AcDbEntity
  8
0
100
AcDbFace
 10
-2.171
 20
-6.04
 30
4.027
 11
-2.421
 21
-6.04
 31
4.027
 12
-2.421
 22
-6.04
 32
4.347
 13
-2.171
 23
-6.04
 33
4.347
 70
    14
  0
3DFACE
  5
984B4
100
AcDbEntity
  8
0
100
AcDbFace
 10
-2.421
 20
-6.04
 30
4.347
 11
-2.421
 21
-6.29
 31
4.347
 12
-2.421
 22
-6.29
 32
4.027
 13
-2.421
 23
-6.04
 33
4.027
 70
    14
  0
3DFACE
  5
984B5
100
AcDbEntity
  8
0
100
AcDbFace
 10
-2.421
 20
-6.29
 30
4.347
 11
-2.421
 21
-6.29
 31
4.027
 12
-2.171
 22
-6.29
 32
4.027
 13
-2.171
 23
-6.29
 33
4.347
 70
    14
  0
LINE
  5
984B6
100
AcDbEntity
  8
0
100
AcDbLine
 10
-2.171
 20
-6.29
 30
4.027
 11
-2.421
 21
-6.29
 31
4.027
  0
LINE
  5
984B7
100
AcDbEntity
  8
0
100
AcDbLine
 10
-2.421
 20
-6.04
 30
4.027
 11
-2.171
 21
-6.04
 31
4.027
  0
LINE
  5
984B8
100
AcDbEntity
  8
0
100
AcDbLine
 10
-2.421
 20
-6.29
 30
4.027
 11
-2.421
 21
-6.04
 31
4.027
  0
LINE
  5
984B9
100
AcDbEntity
  8
0
100
AcDbLine
 10
-2.171
 20
-6.04
 30
4.027
 11
-2.171
 21
-6.29
 31
4.027
  0
3DFACE
  5
984BA
100
AcDbEntity
  8
0
100
AcDbFace
 10
-2.606
 20
-5.79
 30
4.937
 11
-1.986
 21
-5.79
 31
4.937
 12
-1.986
 22
-5.79
 32
4.812
 13
-2.606
 23
-5.79
 33
4.812
 70
    14
  0
LINE
  5
984BB
100
AcDbEntity
  8
0
100
AcDbLine
 10
-2.606
 20
-5.79
 30
4.937
 11
-1.986
 21
-5.79
 31
4.937
  0
LINE
  5
984BC
100
AcDbEntity
  8
0
100
AcDbLine
 10
-2.606
 20
-5.79
 30
4.812
 11
-1.986
 21
-5.79
 31
4.812
  0
LINE
  5
984BD
100
AcDbEntity
  8
0
100
AcDbLine
 10
-2.546
 20
-5.915
 30
4.347
 11
-2.046
 21
-5.915
 31
4.347
  0
3DFACE
  5
984BE
100
AcDbEntity
  8
0
100
AcDbFace
 10
-1.986
 20
-5.79
 30
4.812
 11
-2.606
 21
-5.79
 31
4.812
 12
-2.546
 22
-5.915
 32
4.347
 13
-2.046
 23
-5.915
 33
4.347
 70
    14
  0
LINE
  5
984BF
100
AcDbEntity
  8
0
100
AcDbLine
 10
-1.986
 20
-6.54
 30
4.812
 11
-2.606
 21
-6.54
 31
4.812
  0
3DFACE
  5
984C0
100
AcDbEntity
  8
0
100
AcDbFace
 10
-2.606
 20
-6.54
 30
4.937
 11
-1.986
 21
-6.54
 31
4.937
 12
-1.986
 22
-6.54
 32
4.812
 13
-2.606
 23
-6.54
 33
4.812
 70
    14
  0
LINE
  5
984C1
100
AcDbEntity
  8
0
100
AcDbLine
 10
-1.986
 20
-6.54
 30
4.937
 11
-2.606
 21
-6.54
 31
4.937
  0
LINE
  5
984C2
100
AcDbEntity
  8
0
100
AcDbLine
 10
-2.046
 20
-6.415
 30
4.347
 11
-2.546
 21
-6.415
 31
4.347
  0
3DFACE
  5
984C3
100
AcDbEntity
  8
0
100
AcDbFace
 10
-2.606
 20
-6.54
 30
4.812
 11
-1.986
 21
-6.54
 31
4.812
 12
-2.046
 22
-6.415
 32
4.347
 13
-2.546
 23
-6.415
 33
4.347
 70
    14
  0
3DFACE
  5
984C4
100
AcDbEntity
  8
0
100
AcDbFace
 10
-2.606
 20
-5.79
 30
4.937
 11
-1.986
 21
-5.79
 31
4.937
 12
-1.986
 22
-6.54
 32
4.937
 13
-2.606
 23
-6.54
 33
4.937
 70
    14
  0
LINE
  5
984C5
100
AcDbEntity
  8
0
100
AcDbLine
 10
-2.421
 20
-6.29
 30
4.347
 11
-2.171
 21
-6.29
 31
4.347
  0
LINE
  5
984C6
100
AcDbEntity
  8
0
100
AcDbLine
 10
-2.421
 20
-6.04
 30
4.347
 11
-2.171
 21
-6.04
 31
4.347
  0
LINE
  5
984C7
100
AcDbEntity
  8
0
100
AcDbLine
 10
-2.606
 20
-6.54
 30
4.812
 11
-2.606
 21
-5.79
 31
4.812
  0
3DFACE
  5
984C8
100
AcDbEntity
  8
0
100
AcDbFace
 10
-2.606
 20
-5.79
 30
4.937
 11
-2.606
 21
-5.79
 31
4.812
 12
-2.606
 22
-6.54
 32
4.812
 13
-2.606
 23
-6.54
 33
4.937
 70
    14
  0
LINE
  5
984C9
100
AcDbEntity
  8
0
100
AcDbLine
 10
-2.606
 20
-6.54
 30
4.937
 11
-2.606
 21
-5.79
 31
4.937
  0
LINE
  5
984CA
100
AcDbEntity
  8
0
100
AcDbLine
 10
-2.546
 20
-5.915
 30
4.347
 11
-2.546
 21
-6.415
 31
4.347
  0
LINE
  5
984CB
100
AcDbEntity
  8
0
100
AcDbLine
 10
-2.421
 20
-6.29
 30
4.347
 11
-2.421
 21
-6.04
 31
4.347
  0
3DFACE
  5
984CC
100
AcDbEntity
  8
0
100
AcDbFace
 10
-2.606
 20
-5.79
 30
4.812
 11
-2.546
 21
-5.915
 31
4.347
 12
-2.546
 22
-6.415
 32
4.347
 13
-2.606
 23
-6.54
 33
4.812
 70
    14
  0
LINE
  5
984CD
100
AcDbEntity
  8
0
100
AcDbLine
 10
-2.546
 20
-6.415
 30
4.347
 11
-2.606
 21
-6.54
 31
4.812
  0
LINE
  5
984CE
100
AcDbEntity
  8
0
100
AcDbLine
 10
-2.606
 20
-6.54
 30
4.812
 11
-2.606
 21
-6.54
 31
4.937
  0
LINE
  5
984CF
100
AcDbEntity
  8
0
100
AcDbLine
 10
-2.606
 20
-5.79
 30
4.812
 11
-2.546
 21
-5.915
 31
4.347
  0
LINE
  5
984D0
100
AcDbEntity
  8
0
100
AcDbLine
 10
-2.606
 20
-5.79
 30
4.937
 11
-2.606
 21
-5.79
 31
4.812
  0
3DFACE
  5
984D1
100
AcDbEntity
  8
0
100
AcDbFace
 10
-1.986
 20
-5.79
 30
4.937
 11
-1.986
 21
-6.54
 31
4.937
 12
-1.986
 22
-6.54
 32
4.812
 13
-1.986
 23
-5.79
 33
4.812
 70
    14
  0
LINE
  5
984D2
100
AcDbEntity
  8
0
100
AcDbLine
 10
-1.986
 20
-5.79
 30
4.937
 11
-1.986
 21
-6.54
 31
4.937
  0
LINE
  5
984D3
100
AcDbEntity
  8
0
100
AcDbLine
 10
-1.986
 20
-5.79
 30
4.812
 11
-1.986
 21
-6.54
 31
4.812
  0
LINE
  5
984D4
100
AcDbEntity
  8
0
100
AcDbLine
 10
-2.171
 20
-6.04
 30
4.347
 11
-2.171
 21
-6.29
 31
4.347
  0
LINE
  5
984D5
100
AcDbEntity
  8
0
100
AcDbLine
 10
-2.046
 20
-5.915
 30
4.347
 11
-2.046
 21
-6.415
 31
4.347
  0
3DFACE
  5
984D6
100
AcDbEntity
  8
0
100
AcDbFace
 10
-1.986
 20
-6.54
 30
4.812
 11
-2.046
 21
-6.415
 31
4.347
 12
-2.046
 22
-5.915
 32
4.347
 13
-1.986
 23
-5.79
 33
4.812
 70
    14
  0
LINE
  5
984D7
100
AcDbEntity
  8
0
100
AcDbLine
 10
-1.986
 20
-6.54
 30
4.812
 11
-2.046
 21
-6.415
 31
4.347
  0
LINE
  5
984D8
100
AcDbEntity
  8
0
100
AcDbLine
 10
-1.986
 20
-6.54
 30
4.937
 11
-1.986
 21
-6.54
 31
4.812
  0
LINE
  5
984D9
100
AcDbEntity
  8
0
100
AcDbLine
 10
-1.986
 20
-5.79
 30
4.812
 11
-2.046
 21
-5.915
 31
4.347
  0
LINE
  5
984DA
100
AcDbEntity
  8
0
100
AcDbLine
 10
-1.986
 20
-5.79
 30
4.937
 11
-1.986
 21
-5.79
 31
4.812
  0
CIRCLE
  5
984DB
100
AcDbEntity
  8
0
100
AcDbCircle
 10
-0.708
 20
-6.06811
 30
5.358772
 40
0.155
210
0.0
220
-0.3163624652213708
230
0.9486383876899864
  0
LINE
  5
984DC
100
AcDbEntity
  8
0
100
AcDbLine
 10
-0.708958
 20
-7.598819
 30
3.114771
 11
-0.688469
 21
-7.30598
 31
3.21243
210
0.0
220
-0.3163624652213708
230
0.9486383876899864
  0
LINE
  5
984DD
100
AcDbEntity
  8
0
100
AcDbLine
 10
-0.728075
 20
-7.597557
 30
3.115192
 11
-0.707586
 21
-7.304718
 31
3.212851
210
0.0
220
-0.3163624652213708
230
0.9486383876899864
  0
CIRCLE
  5
984DE
100
AcDbEntity
  8
0
100
AcDbCircle
 10
-1.318
 20
-0.97
 30
0.577
 40
0.1
  0
CIRCLE
  5
984DF
100
AcDbEntity
  8
0
100
AcDbCircle
 10
-1.318
 20
-0.97
 30
0.577
 40
0.1
  0
LINE
  5
984E0
100
AcDbEntity
  8
0
100
AcDbLine
 10
-1.983
 20
-0.69
 30
0.387
 11
-0.543
 21
-0.69
 31
0.387
  0
LINE
  5
984E1
100
AcDbEntity
  8
0
100
AcDbLine
 10
-1.983
 20
-0.69
 30
0.577
 11
-0.543
 21
-0.69
 31
0.577
  0
3DFACE
  5
984E2
100
AcDbEntity
  8
0
100
AcDbFace
 10
-2.673
 20
-0.69
 30
0.577
 11
-2.863
 21
-0.69
 31
0.577
 12
-2.863
 22
-0.69
 32
0.387
 13
-2.673
 23
-0.69
 33
0.387
 70
    14
  0
LINE
  5
984E3
100
AcDbEntity
  8
0
100
AcDbLine
 10
-2.863
 20
-0.69
 30
0.387
 11
-2.673
 21
-0.69
 31
0.387
  0
LINE
  5
984E4
100
AcDbEntity
  8
0
100
AcDbLine
 10
-2.863
 20
-0.69
 30
0.577
 11
-2.673
 21
-0.69
 31
0.577
  0
ARC
  5
984E5
100
AcDbEntity
  8
0
100
AcDbCircle
 10
-1.698
 20
-0.97
 30
0.577
 40
0.1015
100
AcDbArc
 50
0.0
 51
179.999985
  0
ARC
  5
984E6
100
AcDbEntity
  8
0
100
AcDbCircle
 10
-1.698
 20
-0.97
 30
0.577
 40
0.1015
100
AcDbArc
 50
0.0
 51
179.999985
  0
LINE
  5
984E7
100
AcDbEntity
  8
0
100
AcDbLine
 10
-1.5965
 20
-1.102159
 30
0.387
 11
-1.5965
 21
-1.102159
 31
0.577
  0
LINE
  5
984E8
100
AcDbEntity
  8
0
100
AcDbLine
 10
-1.5965
 20
-0.97
 30
0.387
 11
-1.5965
 21
-0.97
 31
0.577
  0
LINE
  5
984E9
100
AcDbEntity
  8
0
100
AcDbLine
 10
-1.7995
 20
-0.97
 30
0.387
 11
-1.7995
 21
-0.97
 31
0.577
  0
ARC
  5
984EA
100
AcDbEntity
  8
0
100
AcDbCircle
 10
-1.698
 20
-1.313
 30
0.577
 40
0.234
100
AcDbArc
 50
115.70649
 51
64.293579
  0
ARC
  5
984EB
100
AcDbEntity
  8
0
100
AcDbCircle
 10
-1.698
 20
-1.313
 30
0.577
 40
0.234
100
AcDbArc
 50
115.70649
 51
64.293579
  0
LINE
  5
984EC
100
AcDbEntity
  8
0
100
AcDbLine
 10
-1.7995
 20
-0.97
 30
0.577
 11
-1.7995
 21
-1.102159
 31
0.577
  0
LINE
  5
984ED
100
AcDbEntity
  8
0
100
AcDbLine
 10
-1.7995
 20
-0.97
 30
0.577
 11
-1.7995
 21
-1.102159
 31
0.577
  0
LINE
  5
984EE
100
AcDbEntity
  8
0
100
AcDbLine
 10
-1.5965
 20
-0.97
 30
0.577
 11
-1.5965
 21
-1.102159
 31
0.577
  0
LINE
  5
984EF
100
AcDbEntity
  8
0
100
AcDbLine
 10
-1.5965
 20
-0.97
 30
0.577
 11
-1.5965
 21
-1.102159
 31
0.577
  0
LINE
  5
984F0
100
AcDbEntity
  8
0
100
AcDbLine
 10
-0.543
 20
-0.69
 30
0.387
 11
0.077
 21
-1.31
 31
0.387
  0
LINE
  5
984F1
100
AcDbEntity
  8
0
100
AcDbLine
 10
-0.543
 20
-0.69
 30
0.577
 11
0.077
 21
-1.31
 31
0.577
  0
LINE
  5
984F2
100
AcDbEntity
  8
0
100
AcDbLine
 10
-1.218
 20
-0.97
 30
0.387
 11
-1.218
 21
-0.97
 31
0.577
  0
CIRCLE
  5
984F3
100
AcDbEntity
  8
0
100
AcDbCircle
 10
-1.318
 20
-0.97
 30
0.387
 40
0.1
  0
ARC
  5
984F4
100
AcDbEntity
  8
0
100
AcDbCircle
 10
-1.698
 20
-1.313
 30
0.387
 40
0.234
100
AcDbArc
 50
115.70649
 51
64.293579
  0
LINE
  5
984F5
100
AcDbEntity
  8
0
100
AcDbLine
 10
-1.5965
 20
-0.97
 30
0.387
 11
-1.5965
 21
-1.102159
 31
0.387
  0
ARC
  5
984F6
100
AcDbEntity
  8
0
100
AcDbCircle
 10
-1.698
 20
-0.97
 30
0.387
 40
0.1015
100
AcDbArc
 50
0.0
 51
179.999985
  0
LINE
  5
984F7
100
AcDbEntity
  8
0
100
AcDbLine
 10
-1.7995
 20
-0.97
 30
0.387
 11
-1.7995
 21
-1.102159
 31
0.387
  0
LINE
  5
984F8
100
AcDbEntity
  8
0
100
AcDbLine
 10
-1.7995
 20
-1.102159
 30
0.387
 11
-1.7995
 21
-1.102159
 31
0.577
  0
POLYLINE
  5
984F9
100
AcDbEntity
  8
0
100
AcDb3dPolyline
 66
     1
 10
0.0
 20
0.0
 30
0.0
 70
     8
  0
VERTEX
  5
984FA
100
AcDbEntity
  8
0
100
AcDbVertex
100
AcDb3dPolylineVertex
 10
2.532983
 20
-2.835438
 30
0.577
 70
    32
  0
VERTEX
  5
9876F
100
AcDbEntity
  8
0
100
AcDbVertex
100
AcDb3dPolylineVertex
 10
2.532983
 20
-2.835438
 30
0.577
 70
    32
  0
SEQEND
  5
984FB
100
AcDbEntity
  8
0
  0
LINE
  5
984FC
100
AcDbEntity
  8
0
100
AcDbLine
 10
-3.378
 20
-7.2
 30
3.237
 11
-3.378
 21
-7.2
 31
0.577
  0
LINE
  5
984FD
100
AcDbEntity
  8
0
100
AcDbLine
 10
-0.018
 20
-5.79
 30
2.007
 11
-0.018
 21
-7.592911
 31
2.007
  0
LINE
  5
984FE
100
AcDbEntity
  8
0
100
AcDbLine
 10
-3.378
 20
-7.61
 30
2.157
 11
-3.378
 21
-7.61
 31
2.007
  0
LINE
  5
984FF
100
AcDbEntity
  8
0
100
AcDbLine
 10
-3.378
 20
-7.61
 30
2.007
 11
-3.378
 21
-7.61
 31
0.577
  0
POLYLINE
  5
98500
100
AcDbEntity
  8
0
100
AcDbPolygonMesh
 66
     1
 10
0.0
 20
0.0
 30
0.0
 70
    16
 71
     6
 72
     3
  0
VERTEX
  5
98501
100
AcDbEntity
  8
0
100
AcDbVertex
100
AcDbPolygonMeshVertex
 10
-0.018
 20
-7.61
 30
3.087
 70
    64
  0
VERTEX
  5
98502
100
AcDbEntity
  8
0
100
AcDbVertex
100
AcDbPolygonMeshVertex
 10
-0.018
 20
-7.61
 30
0.577
 70
    64
  0
VERTEX
  5
98503
100
AcDbEntity
  8
0
100
AcDbVertex
100
AcDbPolygonMeshVertex
 10
-0.018
 20
-7.61
 30
0.577
 70
    64
  0
VERTEX
  5
98504
100
AcDbEntity
  8
0
100
AcDbVertex
100
AcDbPolygonMeshVertex
 10
-3.378
 20
-7.61
 30
3.087
 70
    64
  0
VERTEX
  5
98505
100
AcDbEntity
  8
0
100
AcDbVertex
100
AcDbPolygonMeshVertex
 10
-3.378
 20
-7.61
 30
0.577
 70
    64
  0
VERTEX
  5
98506
100
AcDbEntity
  8
0
100
AcDbVertex
100
AcDbPolygonMeshVertex
 10
-3.378
 20
-7.61
 30
0.577
 70
    64
  0
VERTEX
  5
98507
100
AcDbEntity
  8
0
100
AcDbVertex
100
AcDbPolygonMeshVertex
 10
-3.378
 20
-7.2
 30
3.087
 70
    64
  0
VERTEX
  5
98508
100
AcDbEntity
  8
0
100
AcDbVertex
100
AcDbPolygonMeshVertex
 10
-3.378
 20
-7.2
 30
0.577
 70
    64
  0
VERTEX
  5
98509
100
AcDbEntity
  8
0
100
AcDbVertex
100
AcDbPolygonMeshVertex
 10
-3.378
 20
-7.61
 30
0.577
 70
    64
  0
VERTEX
  5
9850A
100
AcDbEntity
  8
0
100
AcDbVertex
100
AcDbPolygonMeshVertex
 10
-0.018
 20
-7.2
 30
3.087
 70
    64
  0
VERTEX
  5
9850B
100
AcDbEntity
  8
0
100
AcDbVertex
100
AcDbPolygonMeshVertex
 10
-0.018
 20
-7.2
 30
0.577
 70
    64
  0
VERTEX
  5
9850C
100
AcDbEntity
  8
0
100
AcDbVertex
100
AcDbPolygonMeshVertex
 10
-0.018
 20
-7.61
 30
0.577
 70
    64
  0
VERTEX
  5
9850D
100
AcDbEntity
  8
0
100
AcDbVertex
100
AcDbPolygonMeshVertex
 10
-0.018
 20
-7.2
 30
3.087
 70
    64
  0
VERTEX
  5
9850E
100
AcDbEntity
  8
0
100
AcDbVertex
100
AcDbPolygonMeshVertex
 10
-0.018
 20
-7.2
 30
3.087
 70
    64
  0
VERTEX
  5
9850F
100
AcDbEntity
  8
0
100
AcDbVertex
100
AcDbPolygonMeshVertex
 10
-0.018
 20
-7.61
 30
3.087
 70
    64
  0
VERTEX
  5
98510
100
AcDbEntity
  8
0
100
AcDbVertex
100
AcDbPolygonMeshVertex
 10
-3.378
 20
-7.2
 30
3.087
 70
    64
  0
VERTEX
  5
98511
100
AcDbEntity
  8
0
100
AcDbVertex
100
AcDbPolygonMeshVertex
 10
-3.378
 20
-7.2
 30
3.087
 70
    64
  0
VERTEX
  5
98512
100
AcDbEntity
  8
0
100
AcDbVertex
100
AcDbPolygonMeshVertex
 10
-3.378
 20
-7.61
 30
3.087
 70
    64
  0
SEQEND
  5
98513
100
AcDbEntity
  8
0
  0
POLYLINE
  5
98514
100
AcDbEntity
  8
0
100
AcDbPolygonMesh
 66
     1
 10
0.0
 20
0.0
 30
0.0
 70
    16
 71
     6
 72
     3
  0
VERTEX
  5
98515
100
AcDbEntity
  8
0
100
AcDbVertex
100
AcDbPolygonMeshVertex
 10
-2.208
 20
-8.04
 30
0.887
 70
    64
  0
VERTEX
  5
98516
100
AcDbEntity
  8
0
100
AcDbVertex
100
AcDbPolygonMeshVertex
 10
-2.208
 20
-8.04
 30
0.577
 70
    64
  0
VERTEX
  5
98517
100
AcDbEntity
  8
0
100
AcDbVertex
100
AcDbPolygonMeshVertex
 10
-2.208
 20
-8.04
 30
0.577
 70
    64
  0
VERTEX
  5
98518
100
AcDbEntity
  8
0
100
AcDbVertex
100
AcDbPolygonMeshVertex
 10
-2.708
 20
-8.04
 30
0.887
 70
    64
  0
VERTEX
  5
98519
100
AcDbEntity
  8
0
100
AcDbVertex
100
AcDbPolygonMeshVertex
 10
-2.708
 20
-8.04
 30
0.577
 70
    64
  0
VERTEX
  5
9851A
100
AcDbEntity
  8
0
100
AcDbVertex
100
AcDbPolygonMeshVertex
 10
-2.708
 20
-8.04
 30
0.577
 70
    64
  0
VERTEX
  5
9851B
100
AcDbEntity
  8
0
100
AcDbVertex
100
AcDbPolygonMeshVertex
 10
-2.708
 20
-7.61
 30
0.887
 70
    64
  0
VERTEX
  5
9851C
100
AcDbEntity
  8
0
100
AcDbVertex
100
AcDbPolygonMeshVertex
 10
-2.708
 20
-7.61
 30
0.577
 70
    64
  0
VERTEX
  5
9851D
100
AcDbEntity
  8
0
100
AcDbVertex
100
AcDbPolygonMeshVertex
 10
-2.708
 20
-8.04
 30
0.577
 70
    64
  0
VERTEX
  5
9851E
100
AcDbEntity
  8
0
100
AcDbVertex
100
AcDbPolygonMeshVertex
 10
-2.208
 20
-7.61
 30
0.887
 70
    64
  0
VERTEX
  5
9851F
100
AcDbEntity
  8
0
100
AcDbVertex
100
AcDbPolygonMeshVertex
 10
-2.208
 20
-7.61
 30
0.577
 70
    64
  0
VERTEX
  5
98520
100
AcDbEntity
  8
0
100
AcDbVertex
100
AcDbPolygonMeshVertex
 10
-2.208
 20
-8.04
 30
0.577
 70
    64
  0
VERTEX
  5
98521
100
AcDbEntity
  8
0
100
AcDbVertex
100
AcDbPolygonMeshVertex
 10
-2.208
 20
-7.61
 30
0.887
 70
    64
  0
VERTEX
  5
98522
100
AcDbEntity
  8
0
100
AcDbVertex
100
AcDbPolygonMeshVertex
 10
-2.208
 20
-7.61
 30
0.887
 70
    64
  0
VERTEX
  5
98523
100
AcDbEntity
  8
0
100
AcDbVertex
100
AcDbPolygonMeshVertex
 10
-2.208
 20
-8.04
 30
0.887
 70
    64
  0
VERTEX
  5
98524
100
AcDbEntity
  8
0
100
AcDbVertex
100
AcDbPolygonMeshVertex
 10
-2.708
 20
-7.61
 30
0.887
 70
    64
  0
VERTEX
  5
98525
100
AcDbEntity
  8
0
100
AcDbVertex
100
AcDbPolygonMeshVertex
 10
-2.708
 20
-7.61
 30
0.887
 70
    64
  0
VERTEX
  5
98526
100
AcDbEntity
  8
0
100
AcDbVertex
100
AcDbPolygonMeshVertex
 10
-2.708
 20
-8.04
 30
0.887
 70
    64
  0
SEQEND
  5
98527
100
AcDbEntity
  8
0
  0
POLYLINE
  5
98528
100
AcDbEntity
  8
0
100
AcDbPolygonMesh
 66
     1
 10
0.0
 20
0.0
 30
0.0
 70
    16
 71
     6
 72
     3
  0
VERTEX
  5
98529
100
AcDbEntity
  8
0
100
AcDbVertex
100
AcDbPolygonMeshVertex
 10
-0.831
 20
-8.04
 30
0.887
 70
    64
  0
VERTEX
  5
9852A
100
AcDbEntity
  8
0
100
AcDbVertex
100
AcDbPolygonMeshVertex
 10
-0.831
 20
-8.04
 30
0.577
 70
    64
  0
VERTEX
  5
9852B
100
AcDbEntity
  8
0
100
AcDbVertex
100
AcDbPolygonMeshVertex
 10
-0.831
 20
-8.04
 30
0.577
 70
    64
  0
VERTEX
  5
9852C
100
AcDbEntity
  8
0
100
AcDbVertex
100
AcDbPolygonMeshVertex
 10
-1.331
 20
-8.04
 30
0.887
 70
    64
  0
VERTEX
  5
9852D
100
AcDbEntity
  8
0
100
AcDbVertex
100
AcDbPolygonMeshVertex
 10
-1.331
 20
-8.04
 30
0.577
 70
    64
  0
VERTEX
  5
9852E
100
AcDbEntity
  8
0
100
AcDbVertex
100
AcDbPolygonMeshVertex
 10
-1.331
 20
-8.04
 30
0.577
 70
    64
  0
VERTEX
  5
9852F
100
AcDbEntity
  8
0
100
AcDbVertex
100
AcDbPolygonMeshVertex
 10
-1.331
 20
-7.61
 30
0.887
 70
    64
  0
VERTEX
  5
98530
100
AcDbEntity
  8
0
100
AcDbVertex
100
AcDbPolygonMeshVertex
 10
-1.331
 20
-7.61
 30
0.577
 70
    64
  0
VERTEX
  5
98531
100
AcDbEntity
  8
0
100
AcDbVertex
100
AcDbPolygonMeshVertex
 10
-1.331
 20
-8.04
 30
0.577
 70
    64
  0
VERTEX
  5
98532
100
AcDbEntity
  8
0
100
AcDbVertex
100
AcDbPolygonMeshVertex
 10
-0.831
 20
-7.61
 30
0.887
 70
    64
  0
VERTEX
  5
98533
100
AcDbEntity
  8
0
100
AcDbVertex
100
AcDbPolygonMeshVertex
 10
-0.831
 20
-7.61
 30
0.577
 70
    64
  0
VERTEX
  5
98534
100
AcDbEntity
  8
0
100
AcDbVertex
100
AcDbPolygonMeshVertex
 10
-0.831
 20
-8.04
 30
0.577
 70
    64
  0
VERTEX
  5
98535
100
AcDbEntity
  8
0
100
AcDbVertex
100
AcDbPolygonMeshVertex
 10
-0.831
 20
-7.61
 30
0.887
 70
    64
  0
VERTEX
  5
98536
100
AcDbEntity
  8
0
100
AcDbVertex
100
AcDbPolygonMeshVertex
 10
-0.831
 20
-7.61
 30
0.887
 70
    64
  0
VERTEX
  5
98537
100
AcDbEntity
  8
0
100
AcDbVertex
100
AcDbPolygonMeshVertex
 10
-0.831
 20
-8.04
 30
0.887
 70
    64
  0
VERTEX
  5
98538
100
AcDbEntity
  8
0
100
AcDbVertex
100
AcDbPolygonMeshVertex
 10
-1.331
 20
-7.61
 30
0.887
 70
    64
  0
VERTEX
  5
98539
100
AcDbEntity
  8
0
100
AcDbVertex
100
AcDbPolygonMeshVertex
 10
-1.331
 20
-7.61
 30
0.887
 70
    64
  0
VERTEX
  5
9853A
100
AcDbEntity
  8
0
100
AcDbVertex
100
AcDbPolygonMeshVertex
 10
-1.331
 20
-8.04
 30
0.887
 70
    64
  0
SEQEND
  5
9853B
100
AcDbEntity
  8
0
  0
POLYLINE
  5
9853C
100
AcDbEntity
  8
0
100
AcDbPolygonMesh
 66
     1
 10
0.0
 20
0.0
 30
0.0
 70
    16
 71
     6
 72
     3
  0
VERTEX
  5
9853D
100
AcDbEntity
  8
0
100
AcDbVertex
100
AcDbPolygonMeshVertex
 10
-3.378
 20
-7.61
 30
3.087
 70
    64
  0
VERTEX
  5
9853E
100
AcDbEntity
  8
0
100
AcDbVertex
100
AcDbPolygonMeshVertex
 10
-3.378
 20
-7.61
 30
3.087
 70
    64
  0
VERTEX
  5
9853F
100
AcDbEntity
  8
0
100
AcDbVertex
100
AcDbPolygonMeshVertex
 10
-3.378
 20
-7.61
 30
3.087
 70
    64
  0
VERTEX
  5
98540
100
AcDbEntity
  8
0
100
AcDbVertex
100
AcDbPolygonMeshVertex
 10
-3.378
 20
-7.2
 30
3.237
 70
    64
  0
VERTEX
  5
98541
100
AcDbEntity
  8
0
100
AcDbVertex
100
AcDbPolygonMeshVertex
 10
-3.378
 20
-7.2
 30
3.087
 70
    64
  0
VERTEX
  5
98542
100
AcDbEntity
  8
0
100
AcDbVertex
100
AcDbPolygonMeshVertex
 10
-3.378
 20
-7.2
 30
3.087
 70
    64
  0
VERTEX
  5
98543
100
AcDbEntity
  8
0
100
AcDbVertex
100
AcDbPolygonMeshVertex
 10
-0.018
 20
-7.2
 30
3.237
 70
    64
  0
VERTEX
  5
98544
100
AcDbEntity
  8
0
100
AcDbVertex
100
AcDbPolygonMeshVertex
 10
-0.018
 20
-7.2
 30
3.087
 70
    64
  0
VERTEX
  5
98545
100
AcDbEntity
  8
0
100
AcDbVertex
100
AcDbPolygonMeshVertex
 10
-3.378
 20
-7.2
 30
3.087
 70
    64
  0
VERTEX
  5
98546
100
AcDbEntity
  8
0
100
AcDbVertex
100
AcDbPolygonMeshVertex
 10
-0.018
 20
-7.61
 30
3.087
 70
    64
  0
VERTEX
  5
98547
100
AcDbEntity
  8
0
100
AcDbVertex
100
AcDbPolygonMeshVertex
 10
-0.018
 20
-7.61
 30
3.087
 70
    64
  0
VERTEX
  5
98548
100
AcDbEntity
  8
0
100
AcDbVertex
100
AcDbPolygonMeshVertex
 10
-3.378
 20
-7.61
 30
3.087
 70
    64
  0
VERTEX
  5
98549
100
AcDbEntity
  8
0
100
AcDbVertex
100
AcDbPolygonMeshVertex
 10
-0.018
 20
-7.61
 30
3.087
 70
    64
  0
VERTEX
  5
9854A
100
AcDbEntity
  8
0
100
AcDbVertex
100
AcDbPolygonMeshVertex
 10
-0.018
 20
-7.61
 30
3.087
 70
    64
  0
VERTEX
  5
9854B
100
AcDbEntity
  8
0
100
AcDbVertex
100
AcDbPolygonMeshVertex
 10
-3.378
 20
-7.61
 30
3.087
 70
    64
  0
VERTEX
  5
9854C
100
AcDbEntity
  8
0
100
AcDbVertex
100
AcDbPolygonMeshVertex
 10
-0.018
 20
-7.2
 30
3.237
 70
    64
  0
VERTEX
  5
9854D
100
AcDbEntity
  8
0
100
AcDbVertex
100
AcDbPolygonMeshVertex
 10
-0.018
 20
-7.2
 30
3.237
 70
    64
  0
VERTEX
  5
9854E
100
AcDbEntity
  8
0
100
AcDbVertex
100
AcDbPolygonMeshVertex
 10
-3.378
 20
-7.2
 30
3.237
 70
    64
  0
SEQEND
  5
9854F
100
AcDbEntity
  8
0
  0
POLYLINE
  5
98550
100
AcDbEntity
  8
0
100
AcDbPolygonMesh
 66
     1
 10
0.0
 20
0.0
 30
0.0
 70
    16
 71
     6
 72
     3
  0
VERTEX
  5
98551
100
AcDbEntity
  8
0
100
AcDbVertex
100
AcDbPolygonMeshVertex
 10
-0.018
 20
-7.2
 30
4.027
 70
    64
  0
VERTEX
  5
98552
100
AcDbEntity
  8
0
100
AcDbVertex
100
AcDbPolygonMeshVertex
 10
-0.018
 20
-7.2
 30
0.577
 70
    64
  0
VERTEX
  5
98553
100
AcDbEntity
  8
0
100
AcDbVertex
100
AcDbPolygonMeshVertex
 10
-0.018
 20
-7.2
 30
0.577
 70
    64
  0
VERTEX
  5
98554
100
AcDbEntity
  8
0
100
AcDbVertex
100
AcDbPolygonMeshVertex
 10
-3.378
 20
-7.2
 30
4.027
 70
    64
  0
VERTEX
  5
98555
100
AcDbEntity
  8
0
100
AcDbVertex
100
AcDbPolygonMeshVertex
 10
-3.378
 20
-7.2
 30
0.577
 70
    64
  0
VERTEX
  5
98556
100
AcDbEntity
  8
0
100
AcDbVertex
100
AcDbPolygonMeshVertex
 10
-3.378
 20
-7.2
 30
0.577
 70
    64
  0
VERTEX
  5
98557
100
AcDbEntity
  8
0
100
AcDbVertex
100
AcDbPolygonMeshVertex
 10
-3.378
 20
-5.79
 30
4.027
 70
    64
  0
VERTEX
  5
98558
100
AcDbEntity
  8
0
100
AcDbVertex
100
AcDbPolygonMeshVertex
 10
-3.378
 20
-5.79
 30
0.577
 70
    64
  0
VERTEX
  5
98559
100
AcDbEntity
  8
0
100
AcDbVertex
100
AcDbPolygonMeshVertex
 10
-3.378
 20
-7.2
 30
0.577
 70
    64
  0
VERTEX
  5
9855A
100
AcDbEntity
  8
0
100
AcDbVertex
100
AcDbPolygonMeshVertex
 10
-0.018
 20
-5.79
 30
4.027
 70
    64
  0
VERTEX
  5
9855B
100
AcDbEntity
  8
0
100
AcDbVertex
100
AcDbPolygonMeshVertex
 10
-0.018
 20
-5.79
 30
0.577
 70
    64
  0
VERTEX
  5
9855C
100
AcDbEntity
  8
0
100
AcDbVertex
100
AcDbPolygonMeshVertex
 10
-0.018
 20
-7.2
 30
0.577
 70
    64
  0
VERTEX
  5
9855D
100
AcDbEntity
  8
0
100
AcDbVertex
100
AcDbPolygonMeshVertex
 10
-0.018
 20
-5.79
 30
4.027
 70
    64
  0
VERTEX
  5
9855E
100
AcDbEntity
  8
0
100
AcDbVertex
100
AcDbPolygonMeshVertex
 10
-0.018
 20
-5.79
 30
4.027
 70
    64
  0
VERTEX
  5
9855F
100
AcDbEntity
  8
0
100
AcDbVertex
100
AcDbPolygonMeshVertex
 10
-0.018
 20
-7.2
 30
4.027
 70
    64
  0
VERTEX
  5
98560
100
AcDbEntity
  8
0
100
AcDbVertex
100
AcDbPolygonMeshVertex
 10
-3.378
 20
-5.79
 30
4.027
 70
    64
  0
VERTEX
  5
98561
100
AcDbEntity
  8
0
100
AcDbVertex
100
AcDbPolygonMeshVertex
 10
-3.378
 20
-5.79
 30
4.027
 70
    64
  0
VERTEX
  5
98562
100
AcDbEntity
  8
0
100
AcDbVertex
100
AcDbPolygonMeshVertex
 10
-3.378
 20
-7.2
 30
4.027
 70
    64
  0
SEQEND
  5
98563
100
AcDbEntity
  8
0
  0
LINE
  5
98564
100
AcDbEntity
  8
0
100
AcDbLine
 10
-2.277326
 20
-3.825015
 30
4.857
 11
-2.16271
 21
-3.975138
 31
4.857
  0
LINE
  5
98565
100
AcDbEntity
  8
0
100
AcDbLine
 10
-2.293515
 20
-3.841205
 30
4.857
 11
-2.178899
 21
-3.991327
 31
4.857
  0
CIRCLE
  5
98566
100
AcDbEntity
  8
0
100
AcDbCircle
 10
-2.228
 20
-3.91
 30
4.857
 40
0.095
  0
LINE
  5
98567
100
AcDbEntity
  8
0
100
AcDbLine
 10
-2.853035
 20
-1.398318
 30
1.867
 11
-2.621784
 21
-1.101115
 31
1.867
  0
LINE
  5
98568
100
AcDbEntity
  8
0
100
AcDbLine
 10
-2.893722
 20
-1.367964
 30
1.867
 11
-2.662471
 21
-1.070762
 31
1.867
  0
CIRCLE
  5
98569
100
AcDbEntity
  8
0
100
AcDbCircle
 10
-2.758
 20
-1.235
 30
1.867
 40
0.19
  0
LINE
  5
9856A
100
AcDbEntity
  8
0
100
AcDbLine
 10
-1.217326
 20
-3.825015
 30
4.857
 11
-1.10271
 21
-3.975138
 31
4.857
  0
LINE
  5
9856B
100
AcDbEntity
  8
0
100
AcDbLine
 10
-1.233515
 20
-3.841205
 30
4.857
 11
-1.1189
 21
-3.991327
 31
4.857
  0
CIRCLE
  5
9856C
100
AcDbEntity
  8
0
100
AcDbCircle
 10
-1.168
 20
-3.91
 30
4.857
 40
0.095
  0
LINE
  5
9856D
100
AcDbEntity
  8
0
100
AcDbLine
 10
-0.733035
 20
-1.928318
 30
4.667
 11
-0.501784
 21
-1.631115
 31
4.667
  0
LINE
  5
9856E
100
AcDbEntity
  8
0
100
AcDbLine
 10
-0.773722
 20
-1.897964
 30
4.667
 11
-0.542471
 21
-1.600762
 31
4.667
  0
CIRCLE
  5
9856F
100
AcDbEntity
  8
0
100
AcDbCircle
 10
-0.638
 20
-1.765
 30
4.667
 40
0.19
  0
POLYLINE
  5
98570
100
AcDbEntity
  8
0
100
AcDbPolygonMesh
 66
     1
 10
0.0
 20
0.0
 30
0.0
 70
    16
 71
     6
 72
     3
  0
VERTEX
  5
98571
100
AcDbEntity
  8
0
100
AcDbVertex
100
AcDbPolygonMeshVertex
 10
-0.758
 20
-4.44
 30
4.387
 70
    64
  0
VERTEX
  5
98572
100
AcDbEntity
  8
0
100
AcDbVertex
100
AcDbPolygonMeshVertex
 10
-0.758
 20
-4.44
 30
4.017
 70
    64
  0
VERTEX
  5
98573
100
AcDbEntity
  8
0
100
AcDbVertex
100
AcDbPolygonMeshVertex
 10
-0.758
 20
-4.44
 30
4.017
 70
    64
  0
VERTEX
  5
98574
100
AcDbEntity
  8
0
100
AcDbVertex
100
AcDbPolygonMeshVertex
 10
-2.638
 20
-4.44
 30
4.387
 70
    64
  0
VERTEX
  5
98575
100
AcDbEntity
  8
0
100
AcDbVertex
100
AcDbPolygonMeshVertex
 10
-2.638
 20
-4.44
 30
4.017
 70
    64
  0
VERTEX
  5
98576
100
AcDbEntity
  8
0
100
AcDbVertex
100
AcDbPolygonMeshVertex
 10
-2.638
 20
-4.44
 30
4.017
 70
    64
  0
VERTEX
  5
98577
100
AcDbEntity
  8
0
100
AcDbVertex
100
AcDbPolygonMeshVertex
 10
-2.638
 20
-3.6
 30
4.387
 70
    64
  0
VERTEX
  5
98578
100
AcDbEntity
  8
0
100
AcDbVertex
100
AcDbPolygonMeshVertex
 10
-2.638
 20
-3.6
 30
4.017
 70
    64
  0
VERTEX
  5
98579
100
AcDbEntity
  8
0
100
AcDbVertex
100
AcDbPolygonMeshVertex
 10
-2.638
 20
-4.44
 30
4.017
 70
    64
  0
VERTEX
  5
9857A
100
AcDbEntity
  8
0
100
AcDbVertex
100
AcDbPolygonMeshVertex
 10
-0.758
 20
-3.6
 30
4.387
 70
    64
  0
VERTEX
  5
9857B
100
AcDbEntity
  8
0
100
AcDbVertex
100
AcDbPolygonMeshVertex
 10
-0.758
 20
-3.6
 30
4.017
 70
    64
  0
VERTEX
  5
9857C
100
AcDbEntity
  8
0
100
AcDbVertex
100
AcDbPolygonMeshVertex
 10
-0.758
 20
-4.44
 30
4.017
 70
    64
  0
VERTEX
  5
9857D
100
AcDbEntity
  8
0
100
AcDbVertex
100
AcDbPolygonMeshVertex
 10
-0.758
 20
-3.6
 30
4.387
 70
    64
  0
VERTEX
  5
9857E
100
AcDbEntity
  8
0
100
AcDbVertex
100
AcDbPolygonMeshVertex
 10
-0.758
 20
-3.6
 30
4.387
 70
    64
  0
VERTEX
  5
9857F
100
AcDbEntity
  8
0
100
AcDbVertex
100
AcDbPolygonMeshVertex
 10
-0.758
 20
-4.44
 30
4.387
 70
    64
  0
VERTEX
  5
98580
100
AcDbEntity
  8
0
100
AcDbVertex
100
AcDbPolygonMeshVertex
 10
-2.638
 20
-3.6
 30
4.387
 70
    64
  0
VERTEX
  5
98581
100
AcDbEntity
  8
0
100
AcDbVertex
100
AcDbPolygonMeshVertex
 10
-2.638
 20
-3.6
 30
4.387
 70
    64
  0
VERTEX
  5
98582
100
AcDbEntity
  8
0
100
AcDbVertex
100
AcDbPolygonMeshVertex
 10
-2.638
 20
-4.44
 30
4.387
 70
    64
  0
SEQEND
  5
98583
100
AcDbEntity
  8
0
  0
POLYLINE
  5
98584
100
AcDbEntity
  8
0
100
AcDbPolygonMesh
 66
     1
 10
0.0
 20
0.0
 30
0.0
 70
    16
 71
     6
 72
     3
  0
VERTEX
  5
98585
100
AcDbEntity
  8
0
100
AcDbVertex
100
AcDbPolygonMeshVertex
 10
-0.948
 20
-4.04
 30
4.857
 70
    64
  0
VERTEX
  5
98586
100
AcDbEntity
  8
0
100
AcDbVertex
100
AcDbPolygonMeshVertex
 10
-0.948
 20
-4.04
 30
4.387
 70
    64
  0
VERTEX
  5
98587
100
AcDbEntity
  8
0
100
AcDbVertex
100
AcDbPolygonMeshVertex
 10
-0.948
 20
-4.04
 30
4.387
 70
    64
  0
VERTEX
  5
98588
100
AcDbEntity
  8
0
100
AcDbVertex
100
AcDbPolygonMeshVertex
 10
-1.388
 20
-4.04
 30
4.857
 70
    64
  0
VERTEX
  5
98589
100
AcDbEntity
  8
0
100
AcDbVertex
100
AcDbPolygonMeshVertex
 10
-1.388
 20
-4.04
 30
4.387
 70
    64
  0
VERTEX
  5
9858A
100
AcDbEntity
  8
0
100
AcDbVertex
100
AcDbPolygonMeshVertex
 10
-1.388
 20
-4.04
 30
4.387
 70
    64
  0
VERTEX
  5
9858B
100
AcDbEntity
  8
0
100
AcDbVertex
100
AcDbPolygonMeshVertex
 10
-1.388
 20
-3.66
 30
4.857
 70
    64
  0
VERTEX
  5
9858C
100
AcDbEntity
  8
0
100
AcDbVertex
100
AcDbPolygonMeshVertex
 10
-1.388
 20
-3.66
 30
4.387
 70
    64
  0
VERTEX
  5
9858D
100
AcDbEntity
  8
0
100
AcDbVertex
100
AcDbPolygonMeshVertex
 10
-1.388
 20
-4.04
 30
4.387
 70
    64
  0
VERTEX
  5
9858E
100
AcDbEntity
  8
0
100
AcDbVertex
100
AcDbPolygonMeshVertex
 10
-0.948
 20
-3.66
 30
4.857
 70
    64
  0
VERTEX
  5
9858F
100
AcDbEntity
  8
0
100
AcDbVertex
100
AcDbPolygonMeshVertex
 10
-0.948
 20
-3.66
 30
4.387
 70
    64
  0
VERTEX
  5
98590
100
AcDbEntity
  8
0
100
AcDbVertex
100
AcDbPolygonMeshVertex
 10
-0.948
 20
-4.04
 30
4.387
 70
    64
  0
VERTEX
  5
98591
100
AcDbEntity
  8
0
100
AcDbVertex
100
AcDbPolygonMeshVertex
 10
-0.948
 20
-3.66
 30
4.857
 70
    64
  0
VERTEX
  5
98592
100
AcDbEntity
  8
0
100
AcDbVertex
100
AcDbPolygonMeshVertex
 10
-0.948
 20
-3.66
 30
4.857
 70
    64
  0
VERTEX
  5
98593
100
AcDbEntity
  8
0
100
AcDbVertex
100
AcDbPolygonMeshVertex
 10
-0.948
 20
-4.04
 30
4.857
 70
    64
  0
VERTEX
  5
98594
100
AcDbEntity
  8
0
100
AcDbVertex
100
AcDbPolygonMeshVertex
 10
-1.388
 20
-3.66
 30
4.857
 70
    64
  0
VERTEX
  5
98595
100
AcDbEntity
  8
0
100
AcDbVertex
100
AcDbPolygonMeshVertex
 10
-1.388
 20
-3.66
 30
4.857
 70
    64
  0
VERTEX
  5
98596
100
AcDbEntity
  8
0
100
AcDbVertex
100
AcDbPolygonMeshVertex
 10
-1.388
 20
-4.04
 30
4.857
 70
    64
  0
SEQEND
  5
98597
100
AcDbEntity
  8
0
  0
POLYLINE
  5
98598
100
AcDbEntity
  8
0
100
AcDbPolygonMesh
 66
     1
 10
0.0
 20
0.0
 30
0.0
 70
    16
 71
     6
 72
     3
  0
VERTEX
  5
98599
100
AcDbEntity
  8
0
100
AcDbVertex
100
AcDbPolygonMeshVertex
 10
-2.008
 20
-4.04
 30
4.857
 70
    64
  0
VERTEX
  5
9859A
100
AcDbEntity
  8
0
100
AcDbVertex
100
AcDbPolygonMeshVertex
 10
-2.008
 20
-4.04
 30
4.387
 70
    64
  0
VERTEX
  5
9859B
100
AcDbEntity
  8
0
100
AcDbVertex
100
AcDbPolygonMeshVertex
 10
-2.008
 20
-4.04
 30
4.387
 70
    64
  0
VERTEX
  5
9859C
100
AcDbEntity
  8
0
100
AcDbVertex
100
AcDbPolygonMeshVertex
 10
-2.448
 20
-4.04
 30
4.857
 70
    64
  0
VERTEX
  5
9859D
100
AcDbEntity
  8
0
100
AcDbVertex
100
AcDbPolygonMeshVertex
 10
-2.448
 20
-4.04
 30
4.387
 70
    64
  0
VERTEX
  5
9859E
100
AcDbEntity
  8
0
100
AcDbVertex
100
AcDbPolygonMeshVertex
 10
-2.448
 20
-4.04
 30
4.387
 70
    64
  0
VERTEX
  5
9859F
100
AcDbEntity
  8
0
100
AcDbVertex
100
AcDbPolygonMeshVertex
 10
-2.448
 20
-3.66
 30
4.857
 70
    64
  0
VERTEX
  5
985A0
100
AcDbEntity
  8
0
100
AcDbVertex
100
AcDbPolygonMeshVertex
 10
-2.448
 20
-3.66
 30
4.387
 70
    64
  0
VERTEX
  5
985A1
100
AcDbEntity
  8
0
100
AcDbVertex
100
AcDbPolygonMeshVertex
 10
-2.448
 20
-4.04
 30
4.387
 70
    64
  0
VERTEX
  5
985A2
100
AcDbEntity
  8
0
100
AcDbVertex
100
AcDbPolygonMeshVertex
 10
-2.008
 20
-3.66
 30
4.857
 70
    64
  0
VERTEX
  5
985A3
100
AcDbEntity
  8
0
100
AcDbVertex
100
AcDbPolygonMeshVertex
 10
-2.008
 20
-3.66
 30
4.387
 70
    64
  0
VERTEX
  5
985A4
100
AcDbEntity
  8
0
100
AcDbVertex
100
AcDbPolygonMeshVertex
 10
-2.008
 20
-4.04
 30
4.387
 70
    64
  0
VERTEX
  5
985A5
100
AcDbEntity
  8
0
100
AcDbVertex
100
AcDbPolygonMeshVertex
 10
-2.008
 20
-3.66
 30
4.857
 70
    64
  0
VERTEX
  5
985A6
100
AcDbEntity
  8
0
100
AcDbVertex
100
AcDbPolygonMeshVertex
 10
-2.008
 20
-3.66
 30
4.857
 70
    64
  0
VERTEX
  5
985A7
100
AcDbEntity
  8
0
100
AcDbVertex
100
AcDbPolygonMeshVertex
 10
-2.008
 20
-4.04
 30
4.857
 70
    64
  0
VERTEX
  5
985A8
100
AcDbEntity
  8
0
100
AcDbVertex
100
AcDbPolygonMeshVertex
 10
-2.448
 20
-3.66
 30
4.857
 70
    64
  0
VERTEX
  5
985A9
100
AcDbEntity
  8
0
100
AcDbVertex
100
AcDbPolygonMeshVertex
 10
-2.448
 20
-3.66
 30
4.857
 70
    64
  0
VERTEX
  5
985AA
100
AcDbEntity
  8
0
100
AcDbVertex
100
AcDbPolygonMeshVertex
 10
-2.448
 20
-4.04
 30
4.857
 70
    64
  0
SEQEND
  5
985AB
100
AcDbEntity
  8
0
  0
LINE
  5
985AC
100
AcDbEntity
  8
0
100
AcDbLine
 10
-3.378
 20
-2.15
 30
4.017
 11
-3.378
 21
-2.15
 31
0.577
  0
POLYLINE
  5
985AD
100
AcDbEntity
  8
0
100
AcDbPolygonMesh
 66
     1
 10
0.0
 20
0.0
 30
0.0
 70
    16
 71
     6
 72
     3
  0
VERTEX
  5
985AE
100
AcDbEntity
  8
0
100
AcDbVertex
100
AcDbPolygonMeshVertex
 10
-0.018
 20
-5.54
 30
4.017
 70
    64
  0
VERTEX
  5
985AF
100
AcDbEntity
  8
0
100
AcDbVertex
100
AcDbPolygonMeshVertex
 10
-0.018
 20
-5.54
 30
0.577
 70
    64
  0
VERTEX
  5
985B0
100
AcDbEntity
  8
0
100
AcDbVertex
100
AcDbPolygonMeshVertex
 10
-0.018
 20
-5.54
 30
0.577
 70
    64
  0
VERTEX
  5
985B1
100
AcDbEntity
  8
0
100
AcDbVertex
100
AcDbPolygonMeshVertex
 10
-3.378
 20
-5.54
 30
4.017
 70
    64
  0
VERTEX
  5
985B2
100
AcDbEntity
  8
0
100
AcDbVertex
100
AcDbPolygonMeshVertex
 10
-3.378
 20
-5.54
 30
0.577
 70
    64
  0
VERTEX
  5
985B3
100
AcDbEntity
  8
0
100
AcDbVertex
100
AcDbPolygonMeshVertex
 10
-3.378
 20
-5.54
 30
0.577
 70
    64
  0
VERTEX
  5
985B4
100
AcDbEntity
  8
0
100
AcDbVertex
100
AcDbPolygonMeshVertex
 10
-3.378
 20
-2.15
 30
4.017
 70
    64
  0
VERTEX
  5
985B5
100
AcDbEntity
  8
0
100
AcDbVertex
100
AcDbPolygonMeshVertex
 10
-3.378
 20
-2.15
 30
0.577
 70
    64
  0
VERTEX
  5
985B6
100
AcDbEntity
  8
0
100
AcDbVertex
100
AcDbPolygonMeshVertex
 10
-3.378
 20
-5.54
 30
0.577
 70
    64
  0
VERTEX
  5
985B7
100
AcDbEntity
  8
0
100
AcDbVertex
100
AcDbPolygonMeshVertex
 10
-0.018
 20
-2.15
 30
4.017
 70
    64
  0
VERTEX
  5
985B8
100
AcDbEntity
  8
0
100
AcDbVertex
100
AcDbPolygonMeshVertex
 10
-0.018
 20
-2.15
 30
0.577
 70
    64
  0
VERTEX
  5
985B9
100
AcDbEntity
  8
0
100
AcDbVertex
100
AcDbPolygonMeshVertex
 10
-0.018
 20
-5.54
 30
0.577
 70
    64
  0
VERTEX
  5
985BA
100
AcDbEntity
  8
0
100
AcDbVertex
100
AcDbPolygonMeshVertex
 10
-0.018
 20
-2.15
 30
4.017
 70
    64
  0
VERTEX
  5
985BB
100
AcDbEntity
  8
0
100
AcDbVertex
100
AcDbPolygonMeshVertex
 10
-0.018
 20
-2.15
 30
4.017
 70
    64
  0
VERTEX
  5
985BC
100
AcDbEntity
  8
0
100
AcDbVertex
100
AcDbPolygonMeshVertex
 10
-0.018
 20
-5.54
 30
4.017
 70
    64
  0
VERTEX
  5
985BD
100
AcDbEntity
  8
0
100
AcDbVertex
100
AcDbPolygonMeshVertex
 10
-3.378
 20
-2.15
 30
4.017
 70
    64
  0
VERTEX
  5
985BE
100
AcDbEntity
  8
0
100
AcDbVertex
100
AcDbPolygonMeshVertex
 10
-3.378
 20
-2.15
 30
4.017
 70
    64
  0
VERTEX
  5
985BF
100
AcDbEntity
  8
0
100
AcDbVertex
100
AcDbPolygonMeshVertex
 10
-3.378
 20
-5.54
 30
4.017
 70
    64
  0
SEQEND
  5
985C0
100
AcDbEntity
  8
0
  0
POLYLINE
  5
985C1
100
AcDbEntity
  8
0
100
AcDbPolygonMesh
 66
     1
 10
0.0
 20
0.0
 30
0.0
 70
    16
 71
     6
 72
     3
  0
VERTEX
  5
985C2
100
AcDbEntity
  8
0
100
AcDbVertex
100
AcDbPolygonMeshVertex
 10
-0.018
 20
-5.79
 30
3.237
 70
    64
  0
VERTEX
  5
985C3
100
AcDbEntity
  8
0
100
AcDbVertex
100
AcDbPolygonMeshVertex
 10
-0.018
 20
-5.79
 30
2.007
 70
    64
  0
VERTEX
  5
985C4
100
AcDbEntity
  8
0
100
AcDbVertex
100
AcDbPolygonMeshVertex
 10
-0.018
 20
-5.79
 30
2.007
 70
    64
  0
VERTEX
  5
985C5
100
AcDbEntity
  8
0
100
AcDbVertex
100
AcDbPolygonMeshVertex
 10
-3.378
 20
-5.79
 30
3.237
 70
    64
  0
VERTEX
  5
985C6
100
AcDbEntity
  8
0
100
AcDbVertex
100
AcDbPolygonMeshVertex
 10
-3.378
 20
-5.79
 30
2.007
 70
    64
  0
VERTEX
  5
985C7
100
AcDbEntity
  8
0
100
AcDbVertex
100
AcDbPolygonMeshVertex
 10
-3.378
 20
-5.79
 30
2.007
 70
    64
  0
VERTEX
  5
985C8
100
AcDbEntity
  8
0
100
AcDbVertex
100
AcDbPolygonMeshVertex
 10
-3.378
 20
-5.54
 30
3.237
 70
    64
  0
VERTEX
  5
985C9
100
AcDbEntity
  8
0
100
AcDbVertex
100
AcDbPolygonMeshVertex
 10
-3.378
 20
-5.54
 30
2.007
 70
    64
  0
VERTEX
  5
985CA
100
AcDbEntity
  8
0
100
AcDbVertex
100
AcDbPolygonMeshVertex
 10
-3.378
 20
-5.79
 30
2.007
 70
    64
  0
VERTEX
  5
985CB
100
AcDbEntity
  8
0
100
AcDbVertex
100
AcDbPolygonMeshVertex
 10
-0.018
 20
-5.54
 30
3.237
 70
    64
  0
VERTEX
  5
985CC
100
AcDbEntity
  8
0
100
AcDbVertex
100
AcDbPolygonMeshVertex
 10
-0.018
 20
-5.54
 30
2.007
 70
    64
  0
VERTEX
  5
985CD
100
AcDbEntity
  8
0
100
AcDbVertex
100
AcDbPolygonMeshVertex
 10
-0.018
 20
-5.79
 30
2.007
 70
    64
  0
VERTEX
  5
985CE
100
AcDbEntity
  8
0
100
AcDbVertex
100
AcDbPolygonMeshVertex
 10
-0.018
 20
-5.54
 30
3.237
 70
    64
  0
VERTEX
  5
985CF
100
AcDbEntity
  8
0
100
AcDbVertex
100
AcDbPolygonMeshVertex
 10
-0.018
 20
-5.54
 30
3.237
 70
    64
  0
VERTEX
  5
985D0
100
AcDbEntity
  8
0
100
AcDbVertex
100
AcDbPolygonMeshVertex
 10
-0.018
 20
-5.79
 30
3.237
 70
    64
  0
VERTEX
  5
985D1
100
AcDbEntity
  8
0
100
AcDbVertex
100
AcDbPolygonMeshVertex
 10
-3.378
 20
-5.54
 30
3.237
 70
    64
  0
VERTEX
  5
985D2
100
AcDbEntity
  8
0
100
AcDbVertex
100
AcDbPolygonMeshVertex
 10
-3.378
 20
-5.54
 30
3.237
 70
    64
  0
VERTEX
  5
985D3
100
AcDbEntity
  8
0
100
AcDbVertex
100
AcDbPolygonMeshVertex
 10
-3.378
 20
-5.79
 30
3.237
 70
    64
  0
SEQEND
  5
985D4
100
AcDbEntity
  8
0
  0
POLYLINE
  5
985D5
100
AcDbEntity
  8
0
100
AcDbPolygonMesh
 66
     1
 10
0.0
 20
0.0
 30
0.0
 70
    16
 71
     6
 72
     3
  0
VERTEX
  5
985D6
100
AcDbEntity
  8
0
100
AcDbVertex
100
AcDbPolygonMeshVertex
 10
-3.378
 20
-5.54
 30
0.577
 70
    64
  0
VERTEX
  5
985D7
100
AcDbEntity
  8
0
100
AcDbVertex
100
AcDbPolygonMeshVertex
 10
-3.378
 20
-5.54
 30
0.577
 70
    64
  0
VERTEX
  5
985D8
100
AcDbEntity
  8
0
100
AcDbVertex
100
AcDbPolygonMeshVertex
 10
-3.378
 20
-5.54
 30
0.577
 70
    64
  0
VERTEX
  5
985D9
100
AcDbEntity
  8
0
100
AcDbVertex
100
AcDbPolygonMeshVertex
 10
-3.378
 20
-5.79
 30
2.007
 70
    64
  0
VERTEX
  5
985DA
100
AcDbEntity
  8
0
100
AcDbVertex
100
AcDbPolygonMeshVertex
 10
-3.378
 20
-5.54
 30
2.007
 70
    64
  0
VERTEX
  5
985DB
100
AcDbEntity
  8
0
100
AcDbVertex
100
AcDbPolygonMeshVertex
 10
-3.378
 20
-5.54
 30
2.007
 70
    64
  0
VERTEX
  5
985DC
100
AcDbEntity
  8
0
100
AcDbVertex
100
AcDbPolygonMeshVertex
 10
-0.018
 20
-5.79
 30
2.007
 70
    64
  0
VERTEX
  5
985DD
100
AcDbEntity
  8
0
100
AcDbVertex
100
AcDbPolygonMeshVertex
 10
-0.018
 20
-5.54
 30
2.007
 70
    64
  0
VERTEX
  5
985DE
100
AcDbEntity
  8
0
100
AcDbVertex
100
AcDbPolygonMeshVertex
 10
-3.378
 20
-5.54
 30
2.007
 70
    64
  0
VERTEX
  5
985DF
100
AcDbEntity
  8
0
100
AcDbVertex
100
AcDbPolygonMeshVertex
 10
-0.018
 20
-5.54
 30
0.577
 70
    64
  0
VERTEX
  5
985E0
100
AcDbEntity
  8
0
100
AcDbVertex
100
AcDbPolygonMeshVertex
 10
-0.018
 20
-5.54
 30
0.577
 70
    64
  0
VERTEX
  5
985E1
100
AcDbEntity
  8
0
100
AcDbVertex
100
AcDbPolygonMeshVertex
 10
-3.378
 20
-5.54
 30
0.577
 70
    64
  0
VERTEX
  5
985E2
100
AcDbEntity
  8
0
100
AcDbVertex
100
AcDbPolygonMeshVertex
 10
-0.018
 20
-5.54
 30
0.577
 70
    64
  0
VERTEX
  5
985E3
100
AcDbEntity
  8
0
100
AcDbVertex
100
AcDbPolygonMeshVertex
 10
-0.018
 20
-5.54
 30
0.577
 70
    64
  0
VERTEX
  5
985E4
100
AcDbEntity
  8
0
100
AcDbVertex
100
AcDbPolygonMeshVertex
 10
-3.378
 20
-5.54
 30
0.577
 70
    64
  0
VERTEX
  5
985E5
100
AcDbEntity
  8
0
100
AcDbVertex
100
AcDbPolygonMeshVertex
 10
-0.018
 20
-5.79
 30
2.007
 70
    64
  0
VERTEX
  5
985E6
100
AcDbEntity
  8
0
100
AcDbVertex
100
AcDbPolygonMeshVertex
 10
-0.018
 20
-5.79
 30
2.007
 70
    64
  0
VERTEX
  5
985E7
100
AcDbEntity
  8
0
100
AcDbVertex
100
AcDbPolygonMeshVertex
 10
-3.378
 20
-5.79
 30
2.007
 70
    64
  0
SEQEND
  5
985E8
100
AcDbEntity
  8
0
  0
POLYLINE
  5
985E9
100
AcDbEntity
  8
0
100
AcDbPolygonMesh
 66
     1
 10
0.0
 20
0.0
 30
0.0
 70
    16
 71
     6
 72
     3
  0
VERTEX
  5
985EA
100
AcDbEntity
  8
0
100
AcDbVertex
100
AcDbPolygonMeshVertex
 10
-0.018
 20
-2.15
 30
4.477
 70
    64
  0
VERTEX
  5
985EB
100
AcDbEntity
  8
0
100
AcDbVertex
100
AcDbPolygonMeshVertex
 10
-0.018
 20
-2.15
 30
0.577
 70
    64
  0
VERTEX
  5
985EC
100
AcDbEntity
  8
0
100
AcDbVertex
100
AcDbPolygonMeshVertex
 10
-0.018
 20
-2.15
 30
0.577
 70
    64
  0
VERTEX
  5
985ED
100
AcDbEntity
  8
0
100
AcDbVertex
100
AcDbPolygonMeshVertex
 10
-3.378
 20
-2.15
 30
4.477
 70
    64
  0
VERTEX
  5
985EE
100
AcDbEntity
  8
0
100
AcDbVertex
100
AcDbPolygonMeshVertex
 10
-3.378
 20
-2.15
 30
0.577
 70
    64
  0
VERTEX
  5
985EF
100
AcDbEntity
  8
0
100
AcDbVertex
100
AcDbPolygonMeshVertex
 10
-3.378
 20
-2.15
 30
0.577
 70
    64
  0
VERTEX
  5
985F0
100
AcDbEntity
  8
0
100
AcDbVertex
100
AcDbPolygonMeshVertex
 10
-3.378
 20
-1.47
 30
4.477
 70
    64
  0
VERTEX
  5
985F1
100
AcDbEntity
  8
0
100
AcDbVertex
100
AcDbPolygonMeshVertex
 10
-3.378
 20
-1.47
 30
0.577
 70
    64
  0
VERTEX
  5
985F2
100
AcDbEntity
  8
0
100
AcDbVertex
100
AcDbPolygonMeshVertex
 10
-3.378
 20
-2.15
 30
0.577
 70
    64
  0
VERTEX
  5
985F3
100
AcDbEntity
  8
0
100
AcDbVertex
100
AcDbPolygonMeshVertex
 10
-0.018
 20
-1.47
 30
4.477
 70
    64
  0
VERTEX
  5
985F4
100
AcDbEntity
  8
0
100
AcDbVertex
100
AcDbPolygonMeshVertex
 10
-0.018
 20
-1.47
 30
0.577
 70
    64
  0
VERTEX
  5
985F5
100
AcDbEntity
  8
0
100
AcDbVertex
100
AcDbPolygonMeshVertex
 10
-0.018
 20
-2.15
 30
0.577
 70
    64
  0
VERTEX
  5
985F6
100
AcDbEntity
  8
0
100
AcDbVertex
100
AcDbPolygonMeshVertex
 10
-0.018
 20
-1.47
 30
4.477
 70
    64
  0
VERTEX
  5
985F7
100
AcDbEntity
  8
0
100
AcDbVertex
100
AcDbPolygonMeshVertex
 10
-0.018
 20
-1.47
 30
4.477
 70
    64
  0
VERTEX
  5
985F8
100
AcDbEntity
  8
0
100
AcDbVertex
100
AcDbPolygonMeshVertex
 10
-0.018
 20
-2.15
 30
4.477
 70
    64
  0
VERTEX
  5
985F9
100
AcDbEntity
  8
0
100
AcDbVertex
100
AcDbPolygonMeshVertex
 10
-3.378
 20
-1.47
 30
4.477
 70
    64
  0
VERTEX
  5
985FA
100
AcDbEntity
  8
0
100
AcDbVertex
100
AcDbPolygonMeshVertex
 10
-3.378
 20
-1.47
 30
4.477
 70
    64
  0
VERTEX
  5
985FB
100
AcDbEntity
  8
0
100
AcDbVertex
100
AcDbPolygonMeshVertex
 10
-3.378
 20
-2.15
 30
4.477
 70
    64
  0
SEQEND
  5
985FC
100
AcDbEntity
  8
0
  0
LINE
  5
985FD
100
AcDbEntity
  8
0
100
AcDbLine
 10
-1.078
 20
-1.47
 30
4.477
 11
-1.078
 21
-1.34
 31
4.477
  0
LINE
  5
985FE
100
AcDbEntity
  8
0
100
AcDbLine
 10
-1.078
 20
-1.34
 30
4.477
 11
-1.258
 21
-1.34
 31
4.477
  0
POLYLINE
  5
985FF
100
AcDbEntity
  8
0
100
AcDbPolygonMesh
 66
     1
 10
0.0
 20
0.0
 30
0.0
 70
    16
 71
     6
 72
     3
  0
VERTEX
  5
98600
100
AcDbEntity
  8
0
100
AcDbVertex
100
AcDbPolygonMeshVertex
 10
-1.258
 20
-1.34
 30
4.857
 70
    64
  0
VERTEX
  5
98601
100
AcDbEntity
  8
0
100
AcDbVertex
100
AcDbPolygonMeshVertex
 10
-1.258
 20
-1.34
 30
4.477
 70
    64
  0
VERTEX
  5
98602
100
AcDbEntity
  8
0
100
AcDbVertex
100
AcDbPolygonMeshVertex
 10
-1.258
 20
-1.34
 30
4.477
 70
    64
  0
VERTEX
  5
98603
100
AcDbEntity
  8
0
100
AcDbVertex
100
AcDbPolygonMeshVertex
 10
-1.078
 20
-1.34
 30
4.857
 70
    64
  0
VERTEX
  5
98604
100
AcDbEntity
  8
0
100
AcDbVertex
100
AcDbPolygonMeshVertex
 10
-1.078
 20
-1.34
 30
4.477
 70
    64
  0
VERTEX
  5
98605
100
AcDbEntity
  8
0
100
AcDbVertex
100
AcDbPolygonMeshVertex
 10
-1.078
 20
-1.34
 30
4.477
 70
    64
  0
VERTEX
  5
98606
100
AcDbEntity
  8
0
100
AcDbVertex
100
AcDbPolygonMeshVertex
 10
-1.078
 20
-2.15
 30
4.857
 70
    64
  0
VERTEX
  5
98607
100
AcDbEntity
  8
0
100
AcDbVertex
100
AcDbPolygonMeshVertex
 10
-1.078
 20
-2.15
 30
4.477
 70
    64
  0
VERTEX
  5
98608
100
AcDbEntity
  8
0
100
AcDbVertex
100
AcDbPolygonMeshVertex
 10
-1.078
 20
-1.34
 30
4.477
 70
    64
  0
VERTEX
  5
98609
100
AcDbEntity
  8
0
100
AcDbVertex
100
AcDbPolygonMeshVertex
 10
-1.258
 20
-2.15
 30
4.857
 70
    64
  0
VERTEX
  5
9860A
100
AcDbEntity
  8
0
100
AcDbVertex
100
AcDbPolygonMeshVertex
 10
-1.258
 20
-2.15
 30
4.477
 70
    64
  0
VERTEX
  5
9860B
100
AcDbEntity
  8
0
100
AcDbVertex
100
AcDbPolygonMeshVertex
 10
-1.258
 20
-1.34
 30
4.477
 70
    64
  0
VERTEX
  5
9860C
100
AcDbEntity
  8
0
100
AcDbVertex
100
AcDbPolygonMeshVertex
 10
-1.258
 20
-2.15
 30
4.857
 70
    64
  0
VERTEX
  5
9860D
100
AcDbEntity
  8
0
100
AcDbVertex
100
AcDbPolygonMeshVertex
 10
-1.258
 20
-2.15
 30
4.857
 70
    64
  0
VERTEX
  5
9860E
100
AcDbEntity
  8
0
100
AcDbVertex
100
AcDbPolygonMeshVertex
 10
-1.258
 20
-1.34
 30
4.857
 70
    64
  0
VERTEX
  5
9860F
100
AcDbEntity
  8
0
100
AcDbVertex
100
AcDbPolygonMeshVertex
 10
-1.078
 20
-2.15
 30
4.857
 70
    64
  0
VERTEX
  5
98610
100
AcDbEntity
  8
0
100
AcDbVertex
100
AcDbPolygonMeshVertex
 10
-1.078
 20
-2.15
 30
4.857
 70
    64
  0
VERTEX
  5
98611
100
AcDbEntity
  8
0
100
AcDbVertex
100
AcDbPolygonMeshVertex
 10
-1.078
 20
-1.34
 30
4.857
 70
    64
  0
SEQEND
  5
98612
100
AcDbEntity
  8
0
  0
POLYLINE
  5
98613
100
AcDbEntity
  8
0
100
AcDbPolygonMesh
 66
     1
 10
0.0
 20
0.0
 30
0.0
 70
    16
 71
     6
 72
     3
  0
VERTEX
  5
98614
100
AcDbEntity
  8
0
100
AcDbVertex
100
AcDbPolygonMeshVertex
 10
-1.258
 20
-1.34
 30
4.477
 70
    64
  0
VERTEX
  5
98615
100
AcDbEntity
  8
0
100
AcDbVertex
100
AcDbPolygonMeshVertex
 10
-1.258
 20
-1.34
 30
3.357
 70
    64
  0
VERTEX
  5
98616
100
AcDbEntity
  8
0
100
AcDbVertex
100
AcDbPolygonMeshVertex
 10
-1.258
 20
-1.34
 30
3.357
 70
    64
  0
VERTEX
  5
98617
100
AcDbEntity
  8
0
100
AcDbVertex
100
AcDbPolygonMeshVertex
 10
-1.078
 20
-1.34
 30
4.477
 70
    64
  0
VERTEX
  5
98618
100
AcDbEntity
  8
0
100
AcDbVertex
100
AcDbPolygonMeshVertex
 10
-1.078
 20
-1.34
 30
3.357
 70
    64
  0
VERTEX
  5
98619
100
AcDbEntity
  8
0
100
AcDbVertex
100
AcDbPolygonMeshVertex
 10
-1.078
 20
-1.34
 30
3.357
 70
    64
  0
VERTEX
  5
9861A
100
AcDbEntity
  8
0
100
AcDbVertex
100
AcDbPolygonMeshVertex
 10
-1.078
 20
-1.47
 30
4.477
 70
    64
  0
VERTEX
  5
9861B
100
AcDbEntity
  8
0
100
AcDbVertex
100
AcDbPolygonMeshVertex
 10
-1.078
 20
-1.47
 30
3.357
 70
    64
  0
VERTEX
  5
9861C
100
AcDbEntity
  8
0
100
AcDbVertex
100
AcDbPolygonMeshVertex
 10
-1.078
 20
-1.34
 30
3.357
 70
    64
  0
VERTEX
  5
9861D
100
AcDbEntity
  8
0
100
AcDbVertex
100
AcDbPolygonMeshVertex
 10
-1.258
 20
-1.47
 30
4.477
 70
    64
  0
VERTEX
  5
9861E
100
AcDbEntity
  8
0
100
AcDbVertex
100
AcDbPolygonMeshVertex
 10
-1.258
 20
-1.47
 30
3.357
 70
    64
  0
VERTEX
  5
9861F
100
AcDbEntity
  8
0
100
AcDbVertex
100
AcDbPolygonMeshVertex
 10
-1.258
 20
-1.34
 30
3.357
 70
    64
  0
VERTEX
  5
98620
100
AcDbEntity
  8
0
100
AcDbVertex
100
AcDbPolygonMeshVertex
 10
-1.258
 20
-1.47
 30
4.477
 70
    64
  0
VERTEX
  5
98621
100
AcDbEntity
  8
0
100
AcDbVertex
100
AcDbPolygonMeshVertex
 10
-1.258
 20
-1.47
 30
4.477
 70
    64
  0
VERTEX
  5
98622
100
AcDbEntity
  8
0
100
AcDbVertex
100
AcDbPolygonMeshVertex
 10
-1.258
 20
-1.34
 30
4.477
 70
    64
  0
VERTEX
  5
98623
100
AcDbEntity
  8
0
100
AcDbVertex
100
AcDbPolygonMeshVertex
 10
-1.078
 20
-1.47
 30
4.477
 70
    64
  0
VERTEX
  5
98624
100
AcDbEntity
  8
0
100
AcDbVertex
100
AcDbPolygonMeshVertex
 10
-1.078
 20
-1.47
 30
4.477
 70
    64
  0
VERTEX
  5
98625
100
AcDbEntity
  8
0
100
AcDbVertex
100
AcDbPolygonMeshVertex
 10
-1.078
 20
-1.34
 30
4.477
 70
    64
  0
SEQEND
  5
98626
100
AcDbEntity
  8
0
  0
POLYLINE
  5
98627
100
AcDbEntity
  8
0
100
AcDbPolygonMesh
 66
     1
 10
0.0
 20
0.0
 30
0.0
 70
    16
 71
     6
 72
     3
  0
VERTEX
  5
98628
100
AcDbEntity
  8
0
100
AcDbVertex
100
AcDbPolygonMeshVertex
 10
-2.318
 20
-1.34
 30
4.857
 70
    64
  0
VERTEX
  5
98629
100
AcDbEntity
  8
0
100
AcDbVertex
100
AcDbPolygonMeshVertex
 10
-2.318
 20
-1.34
 30
4.477
 70
    64
  0
VERTEX
  5
9862A
100
AcDbEntity
  8
0
100
AcDbVertex
100
AcDbPolygonMeshVertex
 10
-2.318
 20
-1.34
 30
4.477
 70
    64
  0
VERTEX
  5
9862B
100
AcDbEntity
  8
0
100
AcDbVertex
100
AcDbPolygonMeshVertex
 10
-2.138
 20
-1.34
 30
4.857
 70
    64
  0
VERTEX
  5
9862C
100
AcDbEntity
  8
0
100
AcDbVertex
100
AcDbPolygonMeshVertex
 10
-2.138
 20
-1.34
 30
4.477
 70
    64
  0
VERTEX
  5
9862D
100
AcDbEntity
  8
0
100
AcDbVertex
100
AcDbPolygonMeshVertex
 10
-2.138
 20
-1.34
 30
4.477
 70
    64
  0
VERTEX
  5
9862E
100
AcDbEntity
  8
0
100
AcDbVertex
100
AcDbPolygonMeshVertex
 10
-2.138
 20
-2.15
 30
4.857
 70
    64
  0
VERTEX
  5
9862F
100
AcDbEntity
  8
0
100
AcDbVertex
100
AcDbPolygonMeshVertex
 10
-2.138
 20
-2.15
 30
4.477
 70
    64
  0
VERTEX
  5
98630
100
AcDbEntity
  8
0
100
AcDbVertex
100
AcDbPolygonMeshVertex
 10
-2.138
 20
-1.34
 30
4.477
 70
    64
  0
VERTEX
  5
98631
100
AcDbEntity
  8
0
100
AcDbVertex
100
AcDbPolygonMeshVertex
 10
-2.318
 20
-2.15
 30
4.857
 70
    64
  0
VERTEX
  5
98632
100
AcDbEntity
  8
0
100
AcDbVertex
100
AcDbPolygonMeshVertex
 10
-2.318
 20
-2.15
 30
4.477
 70
    64
  0
VERTEX
  5
98633
100
AcDbEntity
  8
0
100
AcDbVertex
100
AcDbPolygonMeshVertex
 10
-2.318
 20
-1.34
 30
4.477
 70
    64
  0
VERTEX
  5
98634
100
AcDbEntity
  8
0
100
AcDbVertex
100
AcDbPolygonMeshVertex
 10
-2.318
 20
-2.15
 30
4.857
 70
    64
  0
VERTEX
  5
98635
100
AcDbEntity
  8
0
100
AcDbVertex
100
AcDbPolygonMeshVertex
 10
-2.318
 20
-2.15
 30
4.857
 70
    64
  0
VERTEX
  5
98636
100
AcDbEntity
  8
0
100
AcDbVertex
100
AcDbPolygonMeshVertex
 10
-2.318
 20
-1.34
 30
4.857
 70
    64
  0
VERTEX
  5
98637
100
AcDbEntity
  8
0
100
AcDbVertex
100
AcDbPolygonMeshVertex
 10
-2.138
 20
-2.15
 30
4.857
 70
    64
  0
VERTEX
  5
98638
100
AcDbEntity
  8
0
100
AcDbVertex
100
AcDbPolygonMeshVertex
 10
-2.138
 20
-2.15
 30
4.857
 70
    64
  0
VERTEX
  5
98639
100
AcDbEntity
  8
0
100
AcDbVertex
100
AcDbPolygonMeshVertex
 10
-2.138
 20
-1.34
 30
4.857
 70
    64
  0
SEQEND
  5
9863A
100
AcDbEntity
  8
0
  0
POLYLINE
  5
9863B
100
AcDbEntity
  8
0
100
AcDbPolygonMesh
 66
     1
 10
0.0
 20
0.0
 30
0.0
 70
    16
 71
     6
 72
     3
  0
VERTEX
  5
9863C
100
AcDbEntity
  8
0
100
AcDbVertex
100
AcDbPolygonMeshVertex
 10
-2.318
 20
-1.34
 30
4.477
 70
    64
  0
VERTEX
  5
9863D
100
AcDbEntity
  8
0
100
AcDbVertex
100
AcDbPolygonMeshVertex
 10
-2.318
 20
-1.34
 30
3.357
 70
    64
  0
VERTEX
  5
9863E
100
AcDbEntity
  8
0
100
AcDbVertex
100
AcDbPolygonMeshVertex
 10
-2.318
 20
-1.34
 30
3.357
 70
    64
  0
VERTEX
  5
9863F
100
AcDbEntity
  8
0
100
AcDbVertex
100
AcDbPolygonMeshVertex
 10
-2.138
 20
-1.34
 30
4.477
 70
    64
  0
VERTEX
  5
98640
100
AcDbEntity
  8
0
100
AcDbVertex
100
AcDbPolygonMeshVertex
 10
-2.138
 20
-1.34
 30
3.357
 70
    64
  0
VERTEX
  5
98641
100
AcDbEntity
  8
0
100
AcDbVertex
100
AcDbPolygonMeshVertex
 10
-2.138
 20
-1.34
 30
3.357
 70
    64
  0
VERTEX
  5
98642
100
AcDbEntity
  8
0
100
AcDbVertex
100
AcDbPolygonMeshVertex
 10
-2.138
 20
-1.47
 30
4.477
 70
    64
  0
VERTEX
  5
98643
100
AcDbEntity
  8
0
100
AcDbVertex
100
AcDbPolygonMeshVertex
 10
-2.138
 20
-1.47
 30
3.357
 70
    64
  0
VERTEX
  5
98644
100
AcDbEntity
  8
0
100
AcDbVertex
100
AcDbPolygonMeshVertex
 10
-2.138
 20
-1.34
 30
3.357
 70
    64
  0
VERTEX
  5
98645
100
AcDbEntity
  8
0
100
AcDbVertex
100
AcDbPolygonMeshVertex
 10
-2.318
 20
-1.47
 30
4.477
 70
    64
  0
VERTEX
  5
98646
100
AcDbEntity
  8
0
100
AcDbVertex
100
AcDbPolygonMeshVertex
 10
-2.318
 20
-1.47
 30
3.357
 70
    64
  0
VERTEX
  5
98647
100
AcDbEntity
  8
0
100
AcDbVertex
100
AcDbPolygonMeshVertex
 10
-2.318
 20
-1.34
 30
3.357
 70
    64
  0
VERTEX
  5
98648
100
AcDbEntity
  8
0
100
AcDbVertex
100
AcDbPolygonMeshVertex
 10
-2.318
 20
-1.47
 30
4.477
 70
    64
  0
VERTEX
  5
98649
100
AcDbEntity
  8
0
100
AcDbVertex
100
AcDbPolygonMeshVertex
 10
-2.318
 20
-1.47
 30
4.477
 70
    64
  0
VERTEX
  5
9864A
100
AcDbEntity
  8
0
100
AcDbVertex
100
AcDbPolygonMeshVertex
 10
-2.318
 20
-1.34
 30
4.477
 70
    64
  0
VERTEX
  5
9864B
100
AcDbEntity
  8
0
100
AcDbVertex
100
AcDbPolygonMeshVertex
 10
-2.138
 20
-1.47
 30
4.477
 70
    64
  0
VERTEX
  5
9864C
100
AcDbEntity
  8
0
100
AcDbVertex
100
AcDbPolygonMeshVertex
 10
-2.138
 20
-1.47
 30
4.477
 70
    64
  0
VERTEX
  5
9864D
100
AcDbEntity
  8
0
100
AcDbVertex
100
AcDbPolygonMeshVertex
 10
-2.138
 20
-1.34
 30
4.477
 70
    64
  0
SEQEND
  5
9864E
100
AcDbEntity
  8
0
  0
POLYLINE
  5
9864F
100
AcDbEntity
  8
0
100
AcDbPolygonMesh
 66
     1
 10
0.0
 20
0.0
 30
0.0
 70
    16
 71
     6
 72
     3
  0
VERTEX
  5
98650
100
AcDbEntity
  8
0
100
AcDbVertex
100
AcDbPolygonMeshVertex
 10
-0.888
 20
-1.56
 30
4.667
 70
    64
  0
VERTEX
  5
98651
100
AcDbEntity
  8
0
100
AcDbVertex
100
AcDbPolygonMeshVertex
 10
-0.888
 20
-1.56
 30
4.477
 70
    64
  0
VERTEX
  5
98652
100
AcDbEntity
  8
0
100
AcDbVertex
100
AcDbPolygonMeshVertex
 10
-0.888
 20
-1.56
 30
4.477
 70
    64
  0
VERTEX
  5
98653
100
AcDbEntity
  8
0
100
AcDbVertex
100
AcDbPolygonMeshVertex
 10
-0.388
 20
-1.56
 30
4.667
 70
    64
  0
VERTEX
  5
98654
100
AcDbEntity
  8
0
100
AcDbVertex
100
AcDbPolygonMeshVertex
 10
-0.388
 20
-1.56
 30
4.477
 70
    64
  0
VERTEX
  5
98655
100
AcDbEntity
  8
0
100
AcDbVertex
100
AcDbPolygonMeshVertex
 10
-0.388
 20
-1.56
 30
4.477
 70
    64
  0
VERTEX
  5
98656
100
AcDbEntity
  8
0
100
AcDbVertex
100
AcDbPolygonMeshVertex
 10
-0.388
 20
-1.97
 30
4.667
 70
    64
  0
VERTEX
  5
98657
100
AcDbEntity
  8
0
100
AcDbVertex
100
AcDbPolygonMeshVertex
 10
-0.388
 20
-1.97
 30
4.477
 70
    64
  0
VERTEX
  5
98658
100
AcDbEntity
  8
0
100
AcDbVertex
100
AcDbPolygonMeshVertex
 10
-0.388
 20
-1.56
 30
4.477
 70
    64
  0
VERTEX
  5
98659
100
AcDbEntity
  8
0
100
AcDbVertex
100
AcDbPolygonMeshVertex
 10
-0.888
 20
-1.97
 30
4.667
 70
    64
  0
VERTEX
  5
9865A
100
AcDbEntity
  8
0
100
AcDbVertex
100
AcDbPolygonMeshVertex
 10
-0.888
 20
-1.97
 30
4.477
 70
    64
  0
VERTEX
  5
9865B
100
AcDbEntity
  8
0
100
AcDbVertex
100
AcDbPolygonMeshVertex
 10
-0.888
 20
-1.56
 30
4.477
 70
    64
  0
VERTEX
  5
9865C
100
AcDbEntity
  8
0
100
AcDbVertex
100
AcDbPolygonMeshVertex
 10
-0.888
 20
-1.97
 30
4.667
 70
    64
  0
VERTEX
  5
9865D
100
AcDbEntity
  8
0
100
AcDbVertex
100
AcDbPolygonMeshVertex
 10
-0.888
 20
-1.97
 30
4.667
 70
    64
  0
VERTEX
  5
9865E
100
AcDbEntity
  8
0
100
AcDbVertex
100
AcDbPolygonMeshVertex
 10
-0.888
 20
-1.56
 30
4.667
 70
    64
  0
VERTEX
  5
9865F
100
AcDbEntity
  8
0
100
AcDbVertex
100
AcDbPolygonMeshVertex
 10
-0.388
 20
-1.97
 30
4.667
 70
    64
  0
VERTEX
  5
98660
100
AcDbEntity
  8
0
100
AcDbVertex
100
AcDbPolygonMeshVertex
 10
-0.388
 20
-1.97
 30
4.667
 70
    64
  0
VERTEX
  5
98661
100
AcDbEntity
  8
0
100
AcDbVertex
100
AcDbPolygonMeshVertex
 10
-0.388
 20
-1.56
 30
4.667
 70
    64
  0
SEQEND
  5
98662
100
AcDbEntity
  8
0
  0
LINE
  5
98663
100
AcDbEntity
  8
0
100
AcDbLine
 10
-1.833722
 20
-1.897964
 30
4.667
 11
-1.602471
 21
-1.600762
 31
4.667
  0
LINE
  5
98664
100
AcDbEntity
  8
0
100
AcDbLine
 10
-1.793035
 20
-1.928318
 30
4.667
 11
-1.561784
 21
-1.631115
 31
4.667
  0
CIRCLE
  5
98665
100
AcDbEntity
  8
0
100
AcDbCircle
 10
-1.698
 20
-1.765
 30
4.667
 40
0.19
  0
POLYLINE
  5
98666
100
AcDbEntity
  8
0
100
AcDbPolygonMesh
 66
     1
 10
0.0
 20
0.0
 30
0.0
 70
    16
 71
     6
 72
     3
  0
VERTEX
  5
98667
100
AcDbEntity
  8
0
100
AcDbVertex
100
AcDbPolygonMeshVertex
 10
-1.948
 20
-1.56
 30
4.667
 70
    64
  0
VERTEX
  5
98668
100
AcDbEntity
  8
0
100
AcDbVertex
100
AcDbPolygonMeshVertex
 10
-1.948
 20
-1.56
 30
4.477
 70
    64
  0
VERTEX
  5
98669
100
AcDbEntity
  8
0
100
AcDbVertex
100
AcDbPolygonMeshVertex
 10
-1.948
 20
-1.56
 30
4.477
 70
    64
  0
VERTEX
  5
9866A
100
AcDbEntity
  8
0
100
AcDbVertex
100
AcDbPolygonMeshVertex
 10
-1.448
 20
-1.56
 30
4.667
 70
    64
  0
VERTEX
  5
9866B
100
AcDbEntity
  8
0
100
AcDbVertex
100
AcDbPolygonMeshVertex
 10
-1.448
 20
-1.56
 30
4.477
 70
    64
  0
VERTEX
  5
9866C
100
AcDbEntity
  8
0
100
AcDbVertex
100
AcDbPolygonMeshVertex
 10
-1.448
 20
-1.56
 30
4.477
 70
    64
  0
VERTEX
  5
9866D
100
AcDbEntity
  8
0
100
AcDbVertex
100
AcDbPolygonMeshVertex
 10
-1.448
 20
-1.97
 30
4.667
 70
    64
  0
VERTEX
  5
9866E
100
AcDbEntity
  8
0
100
AcDbVertex
100
AcDbPolygonMeshVertex
 10
-1.448
 20
-1.97
 30
4.477
 70
    64
  0
VERTEX
  5
9866F
100
AcDbEntity
  8
0
100
AcDbVertex
100
AcDbPolygonMeshVertex
 10
-1.448
 20
-1.56
 30
4.477
 70
    64
  0
VERTEX
  5
98670
100
AcDbEntity
  8
0
100
AcDbVertex
100
AcDbPolygonMeshVertex
 10
-1.948
 20
-1.97
 30
4.667
 70
    64
  0
VERTEX
  5
98671
100
AcDbEntity
  8
0
100
AcDbVertex
100
AcDbPolygonMeshVertex
 10
-1.948
 20
-1.97
 30
4.477
 70
    64
  0
VERTEX
  5
98672
100
AcDbEntity
  8
0
100
AcDbVertex
100
AcDbPolygonMeshVertex
 10
-1.948
 20
-1.56
 30
4.477
 70
    64
  0
VERTEX
  5
98673
100
AcDbEntity
  8
0
100
AcDbVertex
100
AcDbPolygonMeshVertex
 10
-1.948
 20
-1.97
 30
4.667
 70
    64
  0
VERTEX
  5
98674
100
AcDbEntity
  8
0
100
AcDbVertex
100
AcDbPolygonMeshVertex
 10
-1.948
 20
-1.97
 30
4.667
 70
    64
  0
VERTEX
  5
98675
100
AcDbEntity
  8
0
100
AcDbVertex
100
AcDbPolygonMeshVertex
 10
-1.948
 20
-1.56
 30
4.667
 70
    64
  0
VERTEX
  5
98676
100
AcDbEntity
  8
0
100
AcDbVertex
100
AcDbPolygonMeshVertex
 10
-1.448
 20
-1.97
 30
4.667
 70
    64
  0
VERTEX
  5
98677
100
AcDbEntity
  8
0
100
AcDbVertex
100
AcDbPolygonMeshVertex
 10
-1.448
 20
-1.97
 30
4.667
 70
    64
  0
VERTEX
  5
98678
100
AcDbEntity
  8
0
100
AcDbVertex
100
AcDbPolygonMeshVertex
 10
-1.448
 20
-1.56
 30
4.667
 70
    64
  0
SEQEND
  5
98679
100
AcDbEntity
  8
0
  0
LINE
  5
9867A
100
AcDbEntity
  8
0
100
AcDbLine
 10
-2.893722
 20
-1.897964
 30
4.667
 11
-2.662471
 21
-1.600762
 31
4.667
  0
LINE
  5
9867B
100
AcDbEntity
  8
0
100
AcDbLine
 10
-2.853035
 20
-1.928318
 30
4.667
 11
-2.621784
 21
-1.631115
 31
4.667
  0
CIRCLE
  5
9867C
100
AcDbEntity
  8
0
100
AcDbCircle
 10
-2.758
 20
-1.765
 30
4.667
 40
0.19
  0
POLYLINE
  5
9867D
100
AcDbEntity
  8
0
100
AcDbPolygonMesh
 66
     1
 10
0.0
 20
0.0
 30
0.0
 70
    16
 71
     6
 72
     3
  0
VERTEX
  5
9867E
100
AcDbEntity
  8
0
100
AcDbVertex
100
AcDbPolygonMeshVertex
 10
-3.008
 20
-1.56
 30
4.667
 70
    64
  0
VERTEX
  5
9867F
100
AcDbEntity
  8
0
100
AcDbVertex
100
AcDbPolygonMeshVertex
 10
-3.008
 20
-1.56
 30
4.477
 70
    64
  0
VERTEX
  5
98680
100
AcDbEntity
  8
0
100
AcDbVertex
100
AcDbPolygonMeshVertex
 10
-3.008
 20
-1.56
 30
4.477
 70
    64
  0
VERTEX
  5
98681
100
AcDbEntity
  8
0
100
AcDbVertex
100
AcDbPolygonMeshVertex
 10
-2.508
 20
-1.56
 30
4.667
 70
    64
  0
VERTEX
  5
98682
100
AcDbEntity
  8
0
100
AcDbVertex
100
AcDbPolygonMeshVertex
 10
-2.508
 20
-1.56
 30
4.477
 70
    64
  0
VERTEX
  5
98683
100
AcDbEntity
  8
0
100
AcDbVertex
100
AcDbPolygonMeshVertex
 10
-2.508
 20
-1.56
 30
4.477
 70
    64
  0
VERTEX
  5
98684
100
AcDbEntity
  8
0
100
AcDbVertex
100
AcDbPolygonMeshVertex
 10
-2.508
 20
-1.97
 30
4.667
 70
    64
  0
VERTEX
  5
98685
100
AcDbEntity
  8
0
100
AcDbVertex
100
AcDbPolygonMeshVertex
 10
-2.508
 20
-1.97
 30
4.477
 70
    64
  0
VERTEX
  5
98686
100
AcDbEntity
  8
0
100
AcDbVertex
100
AcDbPolygonMeshVertex
 10
-2.508
 20
-1.56
 30
4.477
 70
    64
  0
VERTEX
  5
98687
100
AcDbEntity
  8
0
100
AcDbVertex
100
AcDbPolygonMeshVertex
 10
-3.008
 20
-1.97
 30
4.667
 70
    64
  0
VERTEX
  5
98688
100
AcDbEntity
  8
0
100
AcDbVertex
100
AcDbPolygonMeshVertex
 10
-3.008
 20
-1.97
 30
4.477
 70
    64
  0
VERTEX
  5
98689
100
AcDbEntity
  8
0
100
AcDbVertex
100
AcDbPolygonMeshVertex
 10
-3.008
 20
-1.56
 30
4.477
 70
    64
  0
VERTEX
  5
9868A
100
AcDbEntity
  8
0
100
AcDbVertex
100
AcDbPolygonMeshVertex
 10
-3.008
 20
-1.97
 30
4.667
 70
    64
  0
VERTEX
  5
9868B
100
AcDbEntity
  8
0
100
AcDbVertex
100
AcDbPolygonMeshVertex
 10
-3.008
 20
-1.97
 30
4.667
 70
    64
  0
VERTEX
  5
9868C
100
AcDbEntity
  8
0
100
AcDbVertex
100
AcDbPolygonMeshVertex
 10
-3.008
 20
-1.56
 30
4.667
 70
    64
  0
VERTEX
  5
9868D
100
AcDbEntity
  8
0
100
AcDbVertex
100
AcDbPolygonMeshVertex
 10
-2.508
 20
-1.97
 30
4.667
 70
    64
  0
VERTEX
  5
9868E
100
AcDbEntity
  8
0
100
AcDbVertex
100
AcDbPolygonMeshVertex
 10
-2.508
 20
-1.97
 30
4.667
 70
    64
  0
VERTEX
  5
9868F
100
AcDbEntity
  8
0
100
AcDbVertex
100
AcDbPolygonMeshVertex
 10
-2.508
 20
-1.56
 30
4.667
 70
    64
  0
SEQEND
  5
98690
100
AcDbEntity
  8
0
  0
POLYLINE
  5
98691
100
AcDbEntity
  8
0
100
AcDbPolygonMesh
 66
     1
 10
0.0
 20
0.0
 30
0.0
 70
    16
 71
     6
 72
     3
  0
VERTEX
  5
98692
100
AcDbEntity
  8
0
100
AcDbVertex
100
AcDbPolygonMeshVertex
 10
-3.008
 20
-1.0
 30
1.857
 70
    64
  0
VERTEX
  5
98693
100
AcDbEntity
  8
0
100
AcDbVertex
100
AcDbPolygonMeshVertex
 10
-3.008
 20
-1.0
 30
1.547
 70
    64
  0
VERTEX
  5
98694
100
AcDbEntity
  8
0
100
AcDbVertex
100
AcDbPolygonMeshVertex
 10
-3.008
 20
-1.0
 30
1.547
 70
    64
  0
VERTEX
  5
98695
100
AcDbEntity
  8
0
100
AcDbVertex
100
AcDbPolygonMeshVertex
 10
-2.508
 20
-1.0
 30
1.857
 70
    64
  0
VERTEX
  5
98696
100
AcDbEntity
  8
0
100
AcDbVertex
100
AcDbPolygonMeshVertex
 10
-2.508
 20
-1.0
 30
1.547
 70
    64
  0
VERTEX
  5
98697
100
AcDbEntity
  8
0
100
AcDbVertex
100
AcDbPolygonMeshVertex
 10
-2.508
 20
-1.0
 30
1.547
 70
    64
  0
VERTEX
  5
98698
100
AcDbEntity
  8
0
100
AcDbVertex
100
AcDbPolygonMeshVertex
 10
-2.508
 20
-1.47
 30
1.857
 70
    64
  0
VERTEX
  5
98699
100
AcDbEntity
  8
0
100
AcDbVertex
100
AcDbPolygonMeshVertex
 10
-2.508
 20
-1.47
 30
1.547
 70
    64
  0
VERTEX
  5
9869A
100
AcDbEntity
  8
0
100
AcDbVertex
100
AcDbPolygonMeshVertex
 10
-2.508
 20
-1.0
 30
1.547
 70
    64
  0
VERTEX
  5
9869B
100
AcDbEntity
  8
0
100
AcDbVertex
100
AcDbPolygonMeshVertex
 10
-3.008
 20
-1.47
 30
1.857
 70
    64
  0
VERTEX
  5
9869C
100
AcDbEntity
  8
0
100
AcDbVertex
100
AcDbPolygonMeshVertex
 10
-3.008
 20
-1.47
 30
1.547
 70
    64
  0
VERTEX
  5
9869D
100
AcDbEntity
  8
0
100
AcDbVertex
100
AcDbPolygonMeshVertex
 10
-3.008
 20
-1.0
 30
1.547
 70
    64
  0
VERTEX
  5
9869E
100
AcDbEntity
  8
0
100
AcDbVertex
100
AcDbPolygonMeshVertex
 10
-3.008
 20
-1.47
 30
1.857
 70
    64
  0
VERTEX
  5
9869F
100
AcDbEntity
  8
0
100
AcDbVertex
100
AcDbPolygonMeshVertex
 10
-3.008
 20
-1.47
 30
1.857
 70
    64
  0
VERTEX
  5
986A0
100
AcDbEntity
  8
0
100
AcDbVertex
100
AcDbPolygonMeshVertex
 10
-3.008
 20
-1.0
 30
1.857
 70
    64
  0
VERTEX
  5
986A1
100
AcDbEntity
  8
0
100
AcDbVertex
100
AcDbPolygonMeshVertex
 10
-2.508
 20
-1.47
 30
1.857
 70
    64
  0
VERTEX
  5
986A2
100
AcDbEntity
  8
0
100
AcDbVertex
100
AcDbPolygonMeshVertex
 10
-2.508
 20
-1.47
 30
1.857
 70
    64
  0
VERTEX
  5
986A3
100
AcDbEntity
  8
0
100
AcDbVertex
100
AcDbPolygonMeshVertex
 10
-2.508
 20
-1.0
 30
1.857
 70
    64
  0
SEQEND
  5
986A4
100
AcDbEntity
  8
0
  0
POLYLINE
  5
986A5
100
AcDbEntity
  8
0
100
AcDbPolygonMesh
 66
     1
 10
0.0
 20
0.0
 30
0.0
 70
    16
 71
     6
 72
     3
  0
VERTEX
  5
986A6
100
AcDbEntity
  8
0
100
AcDbVertex
100
AcDbPolygonMeshVertex
 10
-1.948
 20
-1.0
 30
1.857
 70
    64
  0
VERTEX
  5
986A7
100
AcDbEntity
  8
0
100
AcDbVertex
100
AcDbPolygonMeshVertex
 10
-1.948
 20
-1.0
 30
1.547
 70
    64
  0
VERTEX
  5
986A8
100
AcDbEntity
  8
0
100
AcDbVertex
100
AcDbPolygonMeshVertex
 10
-1.948
 20
-1.0
 30
1.547
 70
    64
  0
VERTEX
  5
986A9
100
AcDbEntity
  8
0
100
AcDbVertex
100
AcDbPolygonMeshVertex
 10
-1.448
 20
-1.0
 30
1.857
 70
    64
  0
VERTEX
  5
986AA
100
AcDbEntity
  8
0
100
AcDbVertex
100
AcDbPolygonMeshVertex
 10
-1.448
 20
-1.0
 30
1.547
 70
    64
  0
VERTEX
  5
986AB
100
AcDbEntity
  8
0
100
AcDbVertex
100
AcDbPolygonMeshVertex
 10
-1.448
 20
-1.0
 30
1.547
 70
    64
  0
VERTEX
  5
986AC
100
AcDbEntity
  8
0
100
AcDbVertex
100
AcDbPolygonMeshVertex
 10
-1.448
 20
-1.47
 30
1.857
 70
    64
  0
VERTEX
  5
986AD
100
AcDbEntity
  8
0
100
AcDbVertex
100
AcDbPolygonMeshVertex
 10
-1.448
 20
-1.47
 30
1.547
 70
    64
  0
VERTEX
  5
986AE
100
AcDbEntity
  8
0
100
AcDbVertex
100
AcDbPolygonMeshVertex
 10
-1.448
 20
-1.0
 30
1.547
 70
    64
  0
VERTEX
  5
986AF
100
AcDbEntity
  8
0
100
AcDbVertex
100
AcDbPolygonMeshVertex
 10
-1.948
 20
-1.47
 30
1.857
 70
    64
  0
VERTEX
  5
986B0
100
AcDbEntity
  8
0
100
AcDbVertex
100
AcDbPolygonMeshVertex
 10
-1.948
 20
-1.47
 30
1.547
 70
    64
  0
VERTEX
  5
986B1
100
AcDbEntity
  8
0
100
AcDbVertex
100
AcDbPolygonMeshVertex
 10
-1.948
 20
-1.0
 30
1.547
 70
    64
  0
VERTEX
  5
986B2
100
AcDbEntity
  8
0
100
AcDbVertex
100
AcDbPolygonMeshVertex
 10
-1.948
 20
-1.47
 30
1.857
 70
    64
  0
VERTEX
  5
986B3
100
AcDbEntity
  8
0
100
AcDbVertex
100
AcDbPolygonMeshVertex
 10
-1.948
 20
-1.47
 30
1.857
 70
    64
  0
VERTEX
  5
986B4
100
AcDbEntity
  8
0
100
AcDbVertex
100
AcDbPolygonMeshVertex
 10
-1.948
 20
-1.0
 30
1.857
 70
    64
  0
VERTEX
  5
986B5
100
AcDbEntity
  8
0
100
AcDbVertex
100
AcDbPolygonMeshVertex
 10
-1.448
 20
-1.47
 30
1.857
 70
    64
  0
VERTEX
  5
986B6
100
AcDbEntity
  8
0
100
AcDbVertex
100
AcDbPolygonMeshVertex
 10
-1.448
 20
-1.47
 30
1.857
 70
    64
  0
VERTEX
  5
986B7
100
AcDbEntity
  8
0
100
AcDbVertex
100
AcDbPolygonMeshVertex
 10
-1.448
 20
-1.0
 30
1.857
 70
    64
  0
SEQEND
  5
986B8
100
AcDbEntity
  8
0
  0
CIRCLE
  5
986B9
100
AcDbEntity
  8
0
100
AcDbCircle
 10
-1.698
 20
-1.235
 30
1.867
 40
0.19
  0
LINE
  5
986BA
100
AcDbEntity
  8
0
100
AcDbLine
 10
-1.833722
 20
-1.367964
 30
1.867
 11
-1.602471
 21
-1.070762
 31
1.867
  0
LINE
  5
986BB
100
AcDbEntity
  8
0
100
AcDbLine
 10
-1.793035
 20
-1.398318
 30
1.867
 11
-1.561784
 21
-1.101115
 31
1.867
  0
POLYLINE
  5
986BC
100
AcDbEntity
  8
0
100
AcDbPolygonMesh
 66
     1
 10
0.0
 20
0.0
 30
0.0
 70
    16
 71
     6
 72
     3
  0
VERTEX
  5
986BD
100
AcDbEntity
  8
0
100
AcDbVertex
100
AcDbPolygonMeshVertex
 10
-0.888
 20
-1.0
 30
1.857
 70
    64
  0
VERTEX
  5
986BE
100
AcDbEntity
  8
0
100
AcDbVertex
100
AcDbPolygonMeshVertex
 10
-0.888
 20
-1.0
 30
1.547
 70
    64
  0
VERTEX
  5
986BF
100
AcDbEntity
  8
0
100
AcDbVertex
100
AcDbPolygonMeshVertex
 10
-0.888
 20
-1.0
 30
1.547
 70
    64
  0
VERTEX
  5
986C0
100
AcDbEntity
  8
0
100
AcDbVertex
100
AcDbPolygonMeshVertex
 10
-0.388
 20
-1.0
 30
1.857
 70
    64
  0
VERTEX
  5
986C1
100
AcDbEntity
  8
0
100
AcDbVertex
100
AcDbPolygonMeshVertex
 10
-0.388
 20
-1.0
 30
1.547
 70
    64
  0
VERTEX
  5
986C2
100
AcDbEntity
  8
0
100
AcDbVertex
100
AcDbPolygonMeshVertex
 10
-0.388
 20
-1.0
 30
1.547
 70
    64
  0
VERTEX
  5
986C3
100
AcDbEntity
  8
0
100
AcDbVertex
100
AcDbPolygonMeshVertex
 10
-0.388
 20
-1.47
 30
1.857
 70
    64
  0
VERTEX
  5
986C4
100
AcDbEntity
  8
0
100
AcDbVertex
100
AcDbPolygonMeshVertex
 10
-0.388
 20
-1.47
 30
1.547
 70
    64
  0
VERTEX
  5
986C5
100
AcDbEntity
  8
0
100
AcDbVertex
100
AcDbPolygonMeshVertex
 10
-0.388
 20
-1.0
 30
1.547
 70
    64
  0
VERTEX
  5
986C6
100
AcDbEntity
  8
0
100
AcDbVertex
100
AcDbPolygonMeshVertex
 10
-0.888
 20
-1.47
 30
1.857
 70
    64
  0
VERTEX
  5
986C7
100
AcDbEntity
  8
0
100
AcDbVertex
100
AcDbPolygonMeshVertex
 10
-0.888
 20
-1.47
 30
1.547
 70
    64
  0
VERTEX
  5
986C8
100
AcDbEntity
  8
0
100
AcDbVertex
100
AcDbPolygonMeshVertex
 10
-0.888
 20
-1.0
 30
1.547
 70
    64
  0
VERTEX
  5
986C9
100
AcDbEntity
  8
0
100
AcDbVertex
100
AcDbPolygonMeshVertex
 10
-0.888
 20
-1.47
 30
1.857
 70
    64
  0
VERTEX
  5
986CA
100
AcDbEntity
  8
0
100
AcDbVertex
100
AcDbPolygonMeshVertex
 10
-0.888
 20
-1.47
 30
1.857
 70
    64
  0
VERTEX
  5
986CB
100
AcDbEntity
  8
0
100
AcDbVertex
100
AcDbPolygonMeshVertex
 10
-0.888
 20
-1.0
 30
1.857
 70
    64
  0
VERTEX
  5
986CC
100
AcDbEntity
  8
0
100
AcDbVertex
100
AcDbPolygonMeshVertex
 10
-0.388
 20
-1.47
 30
1.857
 70
    64
  0
VERTEX
  5
986CD
100
AcDbEntity
  8
0
100
AcDbVertex
100
AcDbPolygonMeshVertex
 10
-0.388
 20
-1.47
 30
1.857
 70
    64
  0
VERTEX
  5
986CE
100
AcDbEntity
  8
0
100
AcDbVertex
100
AcDbPolygonMeshVertex
 10
-0.388
 20
-1.0
 30
1.857
 70
    64
  0
SEQEND
  5
986CF
100
AcDbEntity
  8
0
  0
CIRCLE
  5
986D0
100
AcDbEntity
  8
0
100
AcDbCircle
 10
-0.638
 20
-1.235
 30
1.867
 40
0.19
  0
LINE
  5
986D1
100
AcDbEntity
  8
0
100
AcDbLine
 10
-0.773722
 20
-1.367964
 30
1.867
 11
-0.542471
 21
-1.070762
 31
1.867
  0
LINE
  5
986D2
100
AcDbEntity
  8
0
100
AcDbLine
 10
-0.733035
 20
-1.398318
 30
1.867
 11
-0.501784
 21
-1.101115
 31
1.867
  0
POLYLINE
  5
986D3
100
AcDbEntity
  8
0
100
AcDbPolygonMesh
 66
     1
 10
0.0
 20
0.0
 30
0.0
 70
    16
 71
     6
 72
     3
  0
VERTEX
  5
986D4
100
AcDbEntity
  8
0
100
AcDbVertex
100
AcDbPolygonMeshVertex
 10
0.077
 20
-8.31
 30
0.577
 70
    64
  0
VERTEX
  5
986D5
100
AcDbEntity
  8
0
100
AcDbVertex
100
AcDbPolygonMeshVertex
 10
0.077
 20
-8.31
 30
0.387
 70
    64
  0
VERTEX
  5
986D6
100
AcDbEntity
  8
0
100
AcDbVertex
100
AcDbPolygonMeshVertex
 10
0.077
 20
-8.31
 30
0.387
 70
    64
  0
VERTEX
  5
986D7
100
AcDbEntity
  8
0
100
AcDbVertex
100
AcDbPolygonMeshVertex
 10
-3.483
 20
-8.31
 30
0.577
 70
    64
  0
VERTEX
  5
986D8
100
AcDbEntity
  8
0
100
AcDbVertex
100
AcDbPolygonMeshVertex
 10
-3.483
 20
-8.31
 30
0.387
 70
    64
  0
VERTEX
  5
986D9
100
AcDbEntity
  8
0
100
AcDbVertex
100
AcDbPolygonMeshVertex
 10
-3.483
 20
-8.31
 30
0.387
 70
    64
  0
VERTEX
  5
986DA
100
AcDbEntity
  8
0
100
AcDbVertex
100
AcDbPolygonMeshVertex
 10
-3.483
 20
-1.31
 30
0.577
 70
    64
  0
VERTEX
  5
986DB
100
AcDbEntity
  8
0
100
AcDbVertex
100
AcDbPolygonMeshVertex
 10
-3.483
 20
-1.31
 30
0.387
 70
    64
  0
VERTEX
  5
986DC
100
AcDbEntity
  8
0
100
AcDbVertex
100
AcDbPolygonMeshVertex
 10
-3.483
 20
-8.31
 30
0.387
 70
    64
  0
VERTEX
  5
986DD
100
AcDbEntity
  8
0
100
AcDbVertex
100
AcDbPolygonMeshVertex
 10
0.077
 20
-1.31
 30
0.577
 70
    64
  0
VERTEX
  5
986DE
100
AcDbEntity
  8
0
100
AcDbVertex
100
AcDbPolygonMeshVertex
 10
0.077
 20
-1.31
 30
0.387
 70
    64
  0
VERTEX
  5
986DF
100
AcDbEntity
  8
0
100
AcDbVertex
100
AcDbPolygonMeshVertex
 10
0.077
 20
-8.31
 30
0.387
 70
    64
  0
VERTEX
  5
986E0
100
AcDbEntity
  8
0
100
AcDbVertex
100
AcDbPolygonMeshVertex
 10
0.077
 20
-1.31
 30
0.577
 70
    64
  0
VERTEX
  5
986E1
100
AcDbEntity
  8
0
100
AcDbVertex
100
AcDbPolygonMeshVertex
 10
0.077
 20
-1.31
 30
0.577
 70
    64
  0
VERTEX
  5
986E2
100
AcDbEntity
  8
0
100
AcDbVertex
100
AcDbPolygonMeshVertex
 10
0.077
 20
-8.31
 30
0.577
 70
    64
  0
VERTEX
  5
986E3
100
AcDbEntity
  8
0
100
AcDbVertex
100
AcDbPolygonMeshVertex
 10
-3.483
 20
-1.31
 30
0.577
 70
    64
  0
VERTEX
  5
986E4
100
AcDbEntity
  8
0
100
AcDbVertex
100
AcDbPolygonMeshVertex
 10
-3.483
 20
-1.31
 30
0.577
 70
    64
  0
VERTEX
  5
986E5
100
AcDbEntity
  8
0
100
AcDbVertex
100
AcDbPolygonMeshVertex
 10
-3.483
 20
-8.31
 30
0.577
 70
    64
  0
SEQEND
  5
986E6
100
AcDbEntity
  8
0
  0
LINE
  5
986E7
100
AcDbEntity
  8
0
100
AcDbLine
 10
-2.978
 20
-8.31
 30
0.577
 11
-2.978
 21
-8.31
 31
0.387
  0
3DFACE
  5
986E8
100
AcDbEntity
  8
0
100
AcDbFace
 10
0.077
 20
-1.31
 30
0.577
 11
-0.543
 21
-0.69
 31
0.577
 12
-1.983
 22
-0.69
 32
0.577
 13
-2.083
 23
-0.97
 33
0.577
 70
     8
  0
3DFACE
  5
986E9
100
AcDbEntity
  8
0
100
AcDbFace
 10
-2.573
 20
-0.97
 30
0.577
 11
-2.673
 21
-0.69
 31
0.577
 12
-2.863
 22
-0.69
 32
0.577
 13
-3.483
 23
-1.31
 33
0.577
 70
     8
  0
3DFACE
  5
986EA
100
AcDbEntity
  8
0
100
AcDbFace
 10
-2.573
 20
-0.97
 30
0.577
 11
-3.483
 21
-1.31
 31
0.577
 12
0.077
 22
-1.31
 32
0.577
 13
-2.083
 23
-0.97
 33
0.577
 70
    15
  0
3DFACE
  5
986EB
100
AcDbEntity
  8
0
100
AcDbFace
 10
-2.573
 20
-0.97
 30
0.387
 11
-3.483
 21
-1.31
 31
0.387
 12
0.077
 22
-1.31
 32
0.387
 13
-2.083
 23
-0.97
 33
0.387
 70
    15
  0
3DFACE
  5
986EC
100
AcDbEntity
  8
0
100
AcDbFace
 10
0.077
 20
-1.31
 30
0.387
 11
-0.543
 21
-0.69
 31
0.387
 12
-1.983
 22
-0.69
 32
0.387
 13
-2.083
 23
-0.97
 33
0.387
 70
     8
  0
3DFACE
  5
986ED
100
AcDbEntity
  8
0
100
AcDbFace
 10
-2.573
 20
-0.97
 30
0.387
 11
-2.673
 21
-0.69
 31
0.387
 12
-2.863
 22
-0.69
 32
0.387
 13
-3.483
 23
-1.31
 33
0.387
 70
     8
  0
3DFACE
  5
986EE
100
AcDbEntity
  8
0
100
AcDbFace
 10
0.077
 20
-1.31
 30
0.387
 11
0.077
 21
-1.31
 31
0.577
 12
-0.543
 22
-0.69
 32
0.577
 13
-0.543
 23
-0.69
 33
0.387
  0
3DFACE
  5
986EF
100
AcDbEntity
  8
0
100
AcDbFace
 10
-0.543
 20
-0.69
 30
0.577
 11
-1.983
 21
-0.69
 31
0.577
 12
-1.983
 22
-0.69
 32
0.387
 13
-0.543
 23
-0.69
 33
0.387
  0
3DFACE
  5
986F0
100
AcDbEntity
  8
0
100
AcDbFace
 10
-2.573
 20
-0.97
 30
0.577
 11
-2.573
 21
-0.97
 31
0.387
 12
-2.673
 22
-0.69
 32
0.387
 13
-2.673
 23
-0.69
 33
0.577
  0
3DFACE
  5
986F1
100
AcDbEntity
  8
0
100
AcDbFace
 10
-2.083
 20
-0.97
 30
0.577
 11
-2.083
 21
-0.97
 31
0.387
 12
-2.573
 22
-0.97
 32
0.387
 13
-2.573
 23
-0.97
 33
0.577
  0
3DFACE
  5
986F2
100
AcDbEntity
  8
0
100
AcDbFace
 10
-2.673
 20
-0.69
 30
0.577
 11
-2.673
 21
-0.69
 31
0.387
 12
-2.863
 22
-0.69
 32
0.387
 13
-2.863
 23
-0.69
 33
0.577
  0
3DFACE
  5
986F3
100
AcDbEntity
  8
0
100
AcDbFace
 10
-2.083
 20
-0.97
 30
0.577
 11
-2.083
 21
-0.97
 31
0.387
 12
-1.983
 22
-0.69
 32
0.387
 13
-1.983
 23
-0.69
 33
0.577
  0
3DFACE
  5
986F4
100
AcDbEntity
  8
0
100
AcDbFace
 10
-2.863
 20
-0.69
 30
0.387
 11
-2.863
 21
-0.69
 31
0.577
 12
-3.483
 22
-1.31
 32
0.577
 13
-3.483
 23
-1.31
 33
0.387
  0
TEXT
  5
986F5
100
AcDbEntity
  8
0
100
AcDbText
 10
2.151676
 20
-1.83504
 30
4.667
 40
0.157527
  1
L1
100
AcDbText
  0
TEXT
  5
986F6
100
AcDbEntity
  8
0
100
AcDbText
 10
3.179466
 20
-1.85503
 30
4.667
 40
0.157527
  1
L2
100
AcDbText
  0
TEXT
  5
986F7
100
AcDbEntity
  8
0
100
AcDbText
 10
4.25008
 20
-1.846485
 30
4.667
 40
0.157527
  1
L3
100
AcDbText
  0
TEXT
  5
986F8
100
AcDbEntity
  8
0
100
AcDbText
 10
2.065255
 20
-7.144528
 30
4.027
 40
0.157527
  1
T1
100
AcDbText
  0
TEXT
  5
986F9
100
AcDbEntity
  8
0
100
AcDbText
 10
3.093044
 20
-7.135983
 30
4.027
 40
0.157527
  1
T2
100
AcDbText
  0
TEXT
  5
986FA
100
AcDbEntity
  8
0
100
AcDbText
 10
4.149383
 20
-7.141706
 30
4.027
 40
0.157527
  1
T3
100
AcDbText
  0
ATTDEF
  5
986FB
100
AcDbEntity
  8
ATTRIBUTES
100
AcDbText
 10
-3.206196
 20
-5.957159
 30
0.0
 40
0.12
  1
ALLEN-BRADLEY
100
AcDbAttributeDefinition
  3
MANUFACTURER NAME?
  2
AC_VND_LABEL
 70
     0
  0
ATTDEF
  5
986FC
100
AcDbEntity
  8
ATTRIBUTES
100
AcDbText
 10
-3.206196
 20
-6.207159
 30
0.0
 40
0.12
  1
520F-A
100
AcDbAttributeDefinition
  3
CATALOG NUMBER?
  2
AC_PART_NO
 70
     0
  0
ATTDEF
  5
986FD
100
AcDbEntity
  8
ATTRIBUTES
100
AcDbText
 10
-3.206196
 20
-6.457159
 30
0.0
 40
0.12
  1
2 SPEED CONSTANT/VARIABLE TORQUE w/EUTECTIC ALLOY OLR, NEMA SIZE 0 & 1
100
AcDbAttributeDefinition
  3
PART DESCRIPTION?
  2
AC_DESCRIPTION
 70
     0
  0
ATTDEF
  5
986FE
100
AcDbEntity
  8
ATTRIBUTES
100
AcDbText
 10
-3.206196
 20
-6.707159
 30
0.0
 40
0.12
  1

100
AcDbAttributeDefinition
  3
DEVICE ID?
  2
DEVICE_ID
 70
     0
  0
ATTDEF
  5
986FF
100
AcDbEntity
  8
ATTRIBUTES
100
AcDbText
 10
-3.206196
 20
-6.957159
 30
0.0
 40
0.12
  1

100
AcDbAttributeDefinition
  3
CUSTOMER PART NUMBER?
  2
AC_CPART_NO
 70
     0
  0
ATTDEF
  5
98700
100
AcDbEntity
  8
ATTRIBUTES
100
AcDbText
 10
-3.206196
 20
-7.207159
 30
0.0
 40
0.12
  1

100
AcDbAttributeDefinition
  3
CUSTOMER NOTE?
  2
AC_NOTE
 70
     0
  0
ATTDEF
  5
98701
100
AcDbEntity
  8
ATTRIBUTES
100
AcDbText
 10
-3.206196
 20
-7.457159
 30
0.0
 40
0.12
  1

100
AcDbAttributeDefinition
  3
FASTENER DATA?
  2
FASTENER
 70
     0
  0
ATTDEF
  5
98702
100
AcDbEntity
  8
ATTRIBUTES
100
AcDbText
 10
-3.206196
 20
-7.707159
 30
0.0
 40
0.12
  1

100
AcDbAttributeDefinition
  3
UNIT OF SCALE?
  2
AC_SCALE_UNIT
 70
     0
  0
ATTDEF
  5
98703
100
AcDbEntity
  8
ATTRIBUTES
100
AcDbText
 10
-3.206196
 20
-7.957159
 30
0.0
 40
0.12
  1

100
AcDbAttributeDefinition
  3
VIEW CODE?
  2
AC_VIEW_CODE
 70
     0
  0
DIMENSION
  5
98704
100
AcDbEntity
  8
AREA1
100
AcDbDimension
  2
*D0
 10
-5.203583
 20
-8.879
 30
0.0
 11
-5.203583
 21
-4.448731
 31
0.0
 70
   160
  3
ABECAD_3D
100
AcDbAlignedDimension
 13
-1.0
 23
0.281
 33
0.0
 14
-3.553
 24
-8.879
 34
0.0
 50
90.0
100
AcDbRotatedDimension
  0
DIMENSION
  5
98712
100
AcDbEntity
  8
AREA1
100
AcDbDimension
  2
*D1
 10
5.107
 20
1.259948
 30
0.0
 11
0.538441
 21
1.259948
 31
0.0
 70
   160
  3
ABECAD_3D
100
AcDbAlignedDimension
 13
-4.168
 23
-1.47
 33
0.387
 14
5.107
 24
-0.629
 34
0.0
100
AcDbRotatedDimension
  0
LWPOLYLINE
  5
9872F
100
AcDbEntity
  8
SCALE
100
AcDbPolyline
 90
        4
 70
     1
 43
0.0
 10
-0.230204
 20
-9.067297
 10
0.905425
 20
-9.067297
 10
0.905425
 20
-9.908906
 10
-0.230204
 20
-9.908906
  0
LINE
  5
98730
100
AcDbEntity
  8
SCALE
100
AcDbLine
 10
-0.172205
 20
-9.447375
 30
0.0
 11
0.827795
 21
-9.447375
 31
0.0
  0
LINE
  5
98731
100
AcDbEntity
  8
SCALE
100
AcDbLine
 10
-0.172205
 20
-9.747375
 30
0.0
 11
0.221495
 21
-9.747375
 31
0.0
  0
LINE
  5
98732
100
AcDbEntity
  8
SCALE
100
AcDbLine
 10
-0.172205
 20
-9.547375
 30
0.0
 11
-0.172205
 21
-9.347375
 31
0.0
  0
TEXT
  5
98733
100
AcDbEntity
  8
SCALE
100
AcDbText
 10
-0.116229
 20
-9.69969
 30
0.0
 40
0.0625
  1
[10mm]
100
AcDbText
  0
LINE
  5
98734
100
AcDbEntity
  8
SCALE
100
AcDbLine
 10
-0.172205
 20
-9.847375
 30
0.0
 11
-0.172205
 21
-9.647375
 31
0.0
  0
TEXT
  5
98735
100
AcDbEntity
  8
SCALE
100
AcDbText
 10
-0.170675
 20
-9.172498
 30
0.0
 40
0.0625
  1
SCALE:
100
AcDbText
  0
LINE
  5
98736
100
AcDbEntity
  8
SCALE
100
AcDbLine
 10
0.221495
 20
-9.847375
 30
0.0
 11
0.221495
 21
-9.647375
 31
0.0
  0
TEXT
  5
98737
100
AcDbEntity
  8
SCALE
100
AcDbText
 10
0.191078
 20
-9.378327
 30
0.0
 40
0.0625
  1
1 Inch
100
AcDbText
  0
LINE
  5
98738
100
AcDbEntity
  8
SCALE
100
AcDbLine
 10
0.827795
 20
-9.447375
 30
0.0
 11
0.827795
 21
-9.547375
 31
0.0
  0
LINE
  5
98739
100
AcDbEntity
  8
SCALE
100
AcDbLine
 10
0.827795
 20
-9.547375
 30
0.0
 11
0.827795
 21
-9.347375
 31
0.0
  0
VIEWPORT
  5
5677D
102
{ACAD_XDICTIONARY
360
987A0
102
}
100
AcDbEntity
 67
     1
  8
0
100
AcDbViewport
 10
5.25
 20
4.0
 30
0.0
 40
16.386862
 41
8.993
 68
    -1
 69
     1
1001
ACAD
1000
MVIEW
1002
{
1070
    16
1010
0.0
1020
0.0
1030
0.0
1010
0.0
1020
0.0
1030
1.0
1040
0.0
1040
8.993
1040
5.25
1040
4.0
1040
50.0
1040
0.0
1040
0.0
1070
     0
1070
 20000
1070
     1
1070
     1
1070
     0
1070
     0
1070
     0
1070
     0
1040
0.0
1040
0.0
1040
0.0
1040
0.5
1040
0.5
1040
0.5
1040
0.5
1070
     0
1002
{
1002
}
1002
}
  0
VIEWPORT
  5
5677F
102
{ACAD_XDICTIONARY
360
987A2
102
}
100
AcDbEntity
 67
     1
  8
AREA1
100
AcDbViewport
 10
5.25
 20
4.0
 30
0.0
 40
8.4
 41
6.4
 68
     1
 69
     2
1001
ACAD
1000
MVIEW
1002
{
1070
    16
1010
0.563444
1020
-0.880137
1030
1.686493
1010
0.0
1020
0.0
1030
1.0
1040
0.0
1040
4.582914
1040
-1.017175
1040
0.747813
1040
50.0
1040
0.0
1040
0.0
1070
     0
1070
 20000
1070
     1
1070
     1
1070
     0
1070
     0
1070
     0
1070
     0
1040
0.0
1040
0.0
1040
0.0
1040
0.25
1040
0.25
1040
0.25
1040
0.25
1070
     0
1002
{
1002
}
1002
}
  0
ENDSEC
  0
SECTION
  2
OBJECTS
  0
DICTIONARY
  5
458CB
100
AcDbDictionary
  3
ACAD_GROUP
350
458CC
  3
ACAD_LAYOUT
350
458FB
  3
ACAD_MLINESTYLE
350
458D9
  3
ACAD_PLOTSETTINGS
350
458FC
  3
ACAD_PLOTSTYLENAME
350
458F9
  3
ACDBHEADERROUNDTRIPXREC
350
98777
  3
ACDBVARIABLEDICTIONARY
350
458E1
  3
DWGPROPS
350
45901
  0
DICTIONARY
  5
98775
100
AcDbDictionary
280
     1
  3
ACAD_XREC_ROUNDTRIP
360
98776
  0
DICTIONARY
  5
9879E
100
AcDbDictionary
280
     1
  3
ACAD_XREC_ROUNDTRIP
360
9879F
  0
DICTIONARY
  5
98773
100
AcDbDictionary
280
     1
  3
ACAD_XREC_ROUNDTRIP
360
98774
  0
DICTIONARY
  5
9879A
100
AcDbDictionary
280
     1
  3
ACAD_XREC_ROUNDTRIP
360
9879B
  0
DICTIONARY
  5
4592C
100
AcDbDictionary
280
     1
  3
ACAD_LAYOUTSELFREF
360
98799
  0
DICTIONARY
  5
4592A
100
AcDbDictionary
280
     1
  3
ACAD_LAYOUTSELFREF
360
98798
  0
DICTIONARY
  5
987A0
100
AcDbDictionary
280
     1
  3
ACAD_XREC_ROUNDTRIP
360
987A1
  0
DICTIONARY
  5
987A2
100
AcDbDictionary
280
     1
  3
ACAD_XREC_ROUNDTRIP
360
987A3
  0
DICTIONARY
  5
458CC
102
{ACAD_REACTORS
330
458CB
102
}
100
AcDbDictionary
  0
DICTIONARY
  5
458FB
102
{ACAD_XDICTIONARY
360
9879C
102
}
102
{ACAD_REACTORS
330
458CB
102
}
100
AcDbDictionary
  3
LAYOUT1
350
458FE
  3
MODEL
350
458FD
  0
DICTIONARY
  5
458D9
102
{ACAD_REACTORS
330
458CB
102
}
100
AcDbDictionary
  3
STANDARD
350
458DA
  0
DICTIONARY
  5
458FC
102
{ACAD_REACTORS
330
458CB
102
}
100
AcDbDictionary
  0
ACAD_PROXY_OBJECT
  5
458F9
102
{ACAD_REACTORS
330
458CB
102
}
100
AcDbProxyObject
 90
      499
 91
      501
 93
       86
310
405010041939BDC9B585B0
350
458FA
340
458FA
 94
        0
  0
DICTIONARY
  5
98777
102
{ACAD_REACTORS
330
458CB
102
}
100
AcDbDictionary
  3
CEPSNTYPE
350
98781
  3
DIMSTYLEDATA
350
98785
  3
FINGERPRINTGUID
350
98782
  3
HYPERLINKBASE
350
9877A
  3
INSUNITS
350
98780
  3
LAYOUTDICT
350
9877C
  3
LWETCUNION
350
9877F
  3
PLOTSETDICT
350
9877D
  3
PLOTSTYLNAMDICT
350
9877E
  3
PSVPSCALE
350
98784
  3
PUCSBASE
350
98788
  3
PUCSORGBACK
350
9878E
  3
PUCSORGBOTTOM
350
9878A
  3
PUCSORGFRONT
350
9878D
  3
PUCSORGLEFT
350
9878B
  3
PUCSORGRIGHT
350
9878C
  3
PUCSORGTOP
350
98789
  3
PUCSORTHOREF
350
98786
  3
PUCSORTHOVIEW
350
98787
  3
STYLESHEET
350
9877B
  3
TSTACKALIGN
350
98778
  3
TSTACKSIZE
350
98779
  3
UCSBASE
350
98791
  3
UCSORGBACK
350
98797
  3
UCSORGBOTTOM
350
98793
  3
UCSORGFRONT
350
98796
  3
UCSORGLEFT
350
98794
  3
UCSORGRIGHT
350
98795
  3
UCSORGTOP
350
98792
  3
UCSORTHOREF
350
9878F
  3
UCSORTHOVIEW
350
98790
  3
VERSIONGUID
350
98783
  0
DICTIONARY
  5
458E1
102
{ACAD_REACTORS
330
458CB
102
}
100
AcDbDictionary
  3
DIMADEC
350
458E2
  0
XRECORD
  5
45901
102
{ACAD_REACTORS
330
458CB
102
}
100
AcDbXrecord
  1
DWGPROPS COOKIE
  2

  3

  4

  6

  7

  8
colin
  9

300
=
301
=
302
=
303
=
304
=
305
=
306
=
307
=
308
=
309
=
 40
0.000599
 41
2451670.444777
 42
2451670.445376
  1

 90
        0
  0
XRECORD
  5
98776
102
{ACAD_REACTORS
330
98775
102
}
100
AcDbXrecord
102
EXTNAMES
  1
*ACTIVE
  2
*Active
102
UCS
 74
     0
 71
     1
 10
0.0
 20
0.0
 30
0.0
 10
1.0
 20
0.0
 30
0.0
 10
0.0
 20
1.0
 30
0.0
146
0.0
 79
     1
102
VIEW
281
     1
  0
XRECORD
  5
9879F
102
{ACAD_REACTORS
330
9879E
102
}
100
AcDbXrecord
102
PLOTBIT
280
     0
  0
XRECORD
  5
98774
102
{ACAD_REACTORS
330
98773
102
}
100
AcDbXrecord
102
EXTNAMES
  1
DEFPOINTS
  2
Defpoints
102
PLOTBIT
280
     0
  0
XRECORD
  5
9879B
102
{ACAD_REACTORS
330
9879A
102
}
100
AcDbXrecord
102
ACADR14ROUNDTRIP
1000
DSTYLE
1002
{
1070
   276
 70
     2
1070
   277
 70
     5
1070
   279
 70
     2
1070
   289
 70
     2
1002
}
  0
XRECORD
  5
98799
102
{ACAD_REACTORS
330
4592C
102
}
100
AcDbXrecord
340
458D6
  0
XRECORD
  5
98798
102
{ACAD_REACTORS
330
4592A
102
}
100
AcDbXrecord
340
458D3
  0
XRECORD
  5
987A1
102
{ACAD_REACTORS
330
987A0
102
}
100
AcDbXrecord
102
UCS
 74
     0
 71
     1
 10
0.0
 20
0.0
 30
0.0
 10
1.0
 20
0.0
 30
0.0
 10
0.0
 20
1.0
 30
0.0
146
0.0
 79
     0
102
VIEW
281
     0
102
NEWVIEWCONTROL
280
     4
  0
XRECORD
  5
987A3
102
{ACAD_REACTORS
330
987A2
102
}
100
AcDbXrecord
102
UCS
 74
     0
 71
     1
 10
0.0
 20
0.0
 30
0.0
 10
1.0
 20
0.0
 30
0.0
 10
0.0
 20
1.0
 30
0.0
146
0.0
 79
     1
102
VIEW
281
     1
102
NEWVIEWCONTROL
280
     4
  0
DICTIONARY
  5
9879C
100
AcDbDictionary
280
     1
  3
ACAD_XREC_ROUNDTRIP
360
9879D
  0
ACAD_PROXY_OBJECT
  5
458FE
102
{ACAD_REACTORS
330
458FB
102
}
100
AcDbProxyObject
 90
      499
 91
      503
 93
     1700
310
90B6E6F6E655F6465766963652C0080000006066661940000000181999865000000000068661940000000001A1986500000000C0CCFC6A4000000018199D9C5011C4C65747465725F28382E35305F785F31312E30305F496E6368657329A901416AA547D11959985D5B1D08148C4D081C195B88185CDCDA59DB9B595B9D1CC
310
B98DD1891069074C61796F75743140501A840201008040342FEFF7FBFDFFFFF3EFDFAFF7FBFFDFC9501008043E3FDFC8102A6A6A0000003033333C0FC000000809999E93F8FFFFFF5766E622403FFFFFEBF333071020
330
458D3
330
5677D
340
0
340
0
 94
        0
  0
ACAD_PROXY_OBJECT
  5
458FD
102
{ACAD_REACTORS
330
458FB
102
}
100
AcDbProxyObject
 90
      499
 91
      503
 93
      924
310
91D4850204C617365724A65742035303030205365726965732050434C20362C01AAAAAAAAA547D11959985D5B1D08148C4D081C195B88185CDCDA59DB9B595B9D1CCB98DD18A69054D6F64656C901A800000000000000000000000000000000000000000000A1000000000000008902A6A6AAAA0
330
458D6
330
0
340
0
340
0
 94
        0
  0
MLINESTYLE
  5
458DA
102
{ACAD_REACTORS
330
458D9
102
}
100
AcDbMlineStyle
  2
STANDARD
 70
     0
  3

 62
   256
 51
90.0
 52
90.0
 71
     2
 49
0.5
 62
   256
  6
BYLAYER
 49
-0.5
 62
   256
  6
BYLAYER
  0
ACAD_PROXY_OBJECT
  5
458FA
102
{ACAD_REACTORS
330
458F9
102
}
100
AcDbProxyObject
 90
      499
 91
      502
 93
        0
 94
        0
  0
XRECORD
  5
98781
102
{ACAD_REACTORS
330
98777
102
}
100
AcDbXrecord
 90
        0
  0
XRECORD
  5
98785
102
{ACAD_REACTORS
330
98777
102
}
100
AcDbXrecord
1000
DSTYLE
1002
{
1070
   276
 70
     2
1070
   277
 70
     5
1070
   279
 70
     2
1070
   289
 70
     2
1002
}
  0
XRECORD
  5
98782
102
{ACAD_REACTORS
330
98777
102
}
100
AcDbXrecord
  1
{6E0CF4B8-225E-11D4-A150-00A0CC3303EC}
  0
XRECORD
  5
9877A
102
{ACAD_REACTORS
330
98777
102
}
100
AcDbXrecord
  1

  0
XRECORD
  5
98780
102
{ACAD_REACTORS
330
98777
102
}
100
AcDbXrecord
 90
        0
  0
XRECORD
  5
9877C
102
{ACAD_REACTORS
330
98777
102
}
100
AcDbXrecord
340
458FB
  0
XRECORD
  5
9877F
102
{ACAD_REACTORS
330
98777
102
}
100
AcDbXrecord
 90
    14877
  0
XRECORD
  5
9877D
102
{ACAD_REACTORS
330
98777
102
}
100
AcDbXrecord
340
458FC
  0
XRECORD
  5
9877E
102
{ACAD_REACTORS
330
98777
102
}
100
AcDbXrecord
340
458F9
  0
XRECORD
  5
98784
102
{ACAD_REACTORS
330
98777
102
}
100
AcDbXrecord
 40
0.0
  0
XRECORD
  5
98788
102
{ACAD_REACTORS
330
98777
102
}
100
AcDbXrecord
340
0
  0
XRECORD
  5
9878E
102
{ACAD_REACTORS
330
98777
102
}
100
AcDbXrecord
 10
0.0
 20
0.0
 30
0.0
  0
XRECORD
  5
9878A
102
{ACAD_REACTORS
330
98777
102
}
100
AcDbXrecord
 10
0.0
 20
0.0
 30
0.0
  0
XRECORD
  5
9878D
102
{ACAD_REACTORS
330
98777
102
}
100
AcDbXrecord
 10
0.0
 20
0.0
 30
0.0
  0
XRECORD
  5
9878B
102
{ACAD_REACTORS
330
98777
102
}
100
AcDbXrecord
 10
0.0
 20
0.0
 30
0.0
  0
XRECORD
  5
9878C
102
{ACAD_REACTORS
330
98777
102
}
100
AcDbXrecord
 10
0.0
 20
0.0
 30
0.0
  0
XRECORD
  5
98789
102
{ACAD_REACTORS
330
98777
102
}
100
AcDbXrecord
 10
0.0
 20
0.0
 30
0.0
  0
XRECORD
  5
98786
102
{ACAD_REACTORS
330
98777
102
}
100
AcDbXrecord
340
0
  0
XRECORD
  5
98787
102
{ACAD_REACTORS
330
98777
102
}
100
AcDbXrecord
 70
     0
  0
XRECORD
  5
9877B
102
{ACAD_REACTORS
330
98777
102
}
100
AcDbXrecord
  1

  0
XRECORD
  5
98778
102
{ACAD_REACTORS
330
98777
102
}
100
AcDbXrecord
 90
        1
  0
XRECORD
  5
98779
102
{ACAD_REACTORS
330
98777
102
}
100
AcDbXrecord
 90
       70
  0
XRECORD
  5
98791
102
{ACAD_REACTORS
330
98777
102
}
100
AcDbXrecord
340
0
  0
XRECORD
  5
98797
102
{ACAD_REACTORS
330
98777
102
}
100
AcDbXrecord
 10
0.0
 20
0.0
 30
0.0
  0
XRECORD
  5
98793
102
{ACAD_REACTORS
330
98777
102
}
100
AcDbXrecord
 10
0.0
 20
0.0
 30
0.0
  0
XRECORD
  5
98796
102
{ACAD_REACTORS
330
98777
102
}
100
AcDbXrecord
 10
0.0
 20
0.0
 30
0.0
  0
XRECORD
  5
98794
102
{ACAD_REACTORS
330
98777
102
}
100
AcDbXrecord
 10
0.0
 20
0.0
 30
0.0
  0
XRECORD
  5
98795
102
{ACAD_REACTORS
330
98777
102
}
100
AcDbXrecord
 10
0.0
 20
0.0
 30
0.0
  0
XRECORD
  5
98792
102
{ACAD_REACTORS
330
98777
102
}
100
AcDbXrecord
 10
0.0
 20
0.0
 30
0.0
  0
XRECORD
  5
9878F
102
{ACAD_REACTORS
330
98777
102
}
100
AcDbXrecord
340
0
  0
XRECORD
  5
98790
102
{ACAD_REACTORS
330
98777
102
}
100
AcDbXrecord
 70
     1
  0
XRECORD
  5
98783
102
{ACAD_REACTORS
330
98777
102
}
100
AcDbXrecord
  1
{0A4FE5AE-08AA-479A-9568-3324B97C02A4}
  0
DICTIONARYVAR
  5
458E2
102
{ACAD_REACTORS
330
458E1
102
}
100
DictionaryVariables
280
     0
  1
0
  0
XRECORD
  5
9879D
102
{ACAD_REACTORS
330
9879C
102
}
100
AcDbXrecord
102
EXTNAMES
  1
LAYOUT1
  2
Layout1
  1
MODEL
  2
Model
  0
ENDSEC
  0
EOF
