  0
SECTION
  2
HEADER
  9
$ACADVER
  1
AC1014
  9
$ACADMAINTVER
 70
     8
  9
$DWGCODEPAGE
  3
ANSI_1252
  9
$INSBASE
 10
0.0
 20
0.0
 30
0.0
  9
$EXTMIN
 10
-5.757457
 20
-9.908906
 30
0.0
  9
$EXTMAX
 10
5.107
 20
1.434734
 30
4.937
  9
$LIMMIN
 10
0.0
 20
0.0
  9
$LIMMAX
 10
12.0
 20
9.0
  9
$ORTHOMODE
 70
     0
  9
$REGENMODE
 70
     1
  9
$FILLMODE
 70
     1
  9
$QTEXTMODE
 70
     0
  9
$MIRRTEXT
 70
     1
  9
$DRAGMODE
 70
     2
  9
$LTSCALE
 40
1.0
  9
$OSMODE
 70
    37
  9
$ATTMODE
 70
     0
  9
$TEXTSIZE
 40
0.2
  9
$TRACEWID
 40
0.05
  9
$TEXTSTYLE
  7
STANDARD
  9
$CLAYER
  8
0
  9
$CELTYPE
  6
BYLAYER
  9
$CECOLOR
 62
   256
  9
$CELTSCALE
 40
1.0
  9
$DELOBJ
 70
     1
  9
$DISPSILH
 70
     0
  9
$DIMSCALE
 40
0.0
  9
$DIMASZ
 40
0.125
  9
$DIMEXO
 40
0.0625
  9
$DIMDLI
 40
0.375
  9
$DIMRND
 40
0.0
  9
$DIMDLE
 40
0.0
  9
$DIMEXE
 40
0.0625
  9
$DIMTP
 40
0.0
  9
$DIMTM
 40
0.0
  9
$DIMTXT
 40
0.125
  9
$DIMCEN
 40
0.09
  9
$DIMTSZ
 40
0.0
  9
$DIMTOL
 70
     0
  9
$DIMLIM
 70
     0
  9
$DIMTIH
 70
     0
  9
$DIMTOH
 70
     1
  9
$DIMSE1
 70
     0
  9
$DIMSE2
 70
     0
  9
$DIMTAD
 70
     0
  9
$DIMZIN
 70
     4
  9
$DIMBLK
  1

  9
$DIMASO
 70
     1
  9
$DIMSHO
 70
     1
  9
$DIMPOST
  1

  9
$DIMAPOST
  1

  9
$DIMALT
 70
     1
  9
$DIMALTD
 70
     2
  9
$DIMALTF
 40
25.4
  9
$DIMLFAC
 40
1.0
  9
$DIMTOFL
 70
     0
  9
$DIMTVP
 40
0.0
  9
$DIMTIX
 70
     0
  9
$DIMSOXD
 70
     0
  9
$DIMSAH
 70
     0
  9
$DIMBLK1
  1

  9
$DIMBLK2
  1

  9
$DIMSTYLE
  2
ABECAD_3V
  9
$DIMCLRD
 70
     0
  9
$DIMCLRE
 70
     0
  9
$DIMCLRT
 70
     0
  9
$DIMTFAC
 40
1.5
  9
$DIMGAP
 40
0.09
  9
$DIMJUST
 70
     0
  9
$DIMSD1
 70
     0
  9
$DIMSD2
 70
     0
  9
$DIMTOLJ
 70
     1
  9
$DIMTZIN
 70
     4
  9
$DIMALTZ
 70
     4
  9
$DIMALTTZ
 70
     4
  9
$DIMFIT
 70
     5
  9
$DIMUPT
 70
     1
  9
$DIMUNIT
 70
     7
  9
$DIMDEC
 70
     6
  9
$DIMTDEC
 70
     6
  9
$DIMALTU
 70
     2
  9
$DIMALTTD
 70
     2
  9
$DIMTXSTY
  7
STANDARD
  9
$DIMAUNIT
 70
     0
  9
$LUNITS
 70
     2
  9
$LUPREC
 70
     6
  9
$SKETCHINC
 40
0.1
  9
$FILLETRAD
 40
0.0
  9
$AUNITS
 70
     0
  9
$AUPREC
 70
     0
  9
$MENU
  1
acad
  9
$ELEVATION
 40
0.0
  9
$PELEVATION
 40
0.0
  9
$THICKNESS
 40
0.0
  9
$LIMCHECK
 70
     0
  9
$BLIPMODE
 70
     0
  9
$CHAMFERA
 40
0.0
  9
$CHAMFERB
 40
0.0
  9
$CHAMFERC
 40
0.0
  9
$CHAMFERD
 40
0.0
  9
$SKPOLY
 70
     0
  9
$TDCREATE
 40
2451726.438362384
  9
$TDUPDATE
 40
2452010.724922338
  9
$TDINDWG
 40
1.2349714120
  9
$TDUSRTIMER
 40
1.2349714120
  9
$USRTIMER
 70
     1
  9
$ANGBASE
 50
0.0
  9
$ANGDIR
 70
     0
  9
$PDMODE
 70
     3
  9
$PDSIZE
 40
0.18
  9
$PLINEWID
 40
0.0
  9
$COORDS
 70
     1
  9
$SPLFRAME
 70
     0
  9
$SPLINETYPE
 70
     6
  9
$SPLINESEGS
 70
     8
  9
$ATTDIA
 70
     0
  9
$ATTREQ
 70
     1
  9
$HANDLING
 70
     1
  9
$HANDSEED
  5
5B590
  9
$SURFTAB1
 70
     6
  9
$SURFTAB2
 70
     6
  9
$SURFTYPE
 70
     6
  9
$SURFU
 70
     6
  9
$SURFV
 70
     6
  9
$UCSNAME
  2

  9
$UCSORG
 10
0.0
 20
0.0
 30
0.0
  9
$UCSXDIR
 10
1.0
 20
0.0
 30
0.0
  9
$UCSYDIR
 10
0.0
 20
0.0
 30
1.0
  9
$PUCSNAME
  2

  9
$PUCSORG
 10
0.0
 20
0.0
 30
0.0
  9
$PUCSXDIR
 10
1.0
 20
0.0
 30
0.0
  9
$PUCSYDIR
 10
0.0
 20
1.0
 30
0.0
  9
$USERI1
 70
     0
  9
$USERI2
 70
     0
  9
$USERI3
 70
     0
  9
$USERI4
 70
     0
  9
$USERI5
 70
     0
  9
$USERR1
 40
0.0
  9
$USERR2
 40
0.0
  9
$USERR3
 40
0.0
  9
$USERR4
 40
0.0
  9
$USERR5
 40
0.0
  9
$WORLDVIEW
 70
     1
  9
$SHADEDGE
 70
     3
  9
$SHADEDIF
 70
    70
  9
$TILEMODE
 70
     0
  9
$MAXACTVP
 70
    16
  9
$PINSBASE
 10
0.0
 20
0.0
 30
0.0
  9
$PLIMCHECK
 70
     0
  9
$PEXTMIN
 10
0.0
 20
0.0
 30
0.0
  9
$PEXTMAX
 10
10.0
 20
7.5
 30
0.0
  9
$PLIMMIN
 10
-0.187029
 20
-0.186938
  9
$PLIMMAX
 10
10.187518
 20
7.829757
  9
$UNITMODE
 70
     0
  9
$VISRETAIN
 70
     0
  9
$PLINEGEN
 70
     0
  9
$PSLTSCALE
 70
     1
  9
$TREEDEPTH
 70
  3020
  9
$PICKSTYLE
 70
     1
  9
$CMLSTYLE
  2
STANDARD
  9
$CMLJUST
 70
     0
  9
$CMLSCALE
 40
1.0
  9
$PROXYGRAPHICS
 70
     1
  9
$MEASUREMENT
 70
     0
  0
ENDSEC
  0
SECTION
  2
CLASSES
  0
CLASS
  1
DICTIONARYVAR
  2
AcDbDictionaryVar
  3
"AutoCAD"
 90
        0
280
     0
281
     0
  0
CLASS
  1
ACDBDICTIONARYWDFLT
  2
AcDbDictionaryWithDefault
  3
AutoCAD 2000
 90
        0
280
     0
281
     0
  0
CLASS
  1
ACDBPLACEHOLDER
  2
AcDbPlaceHolder
  3
AutoCAD 2000
 90
        0
280
     0
281
     0
  0
CLASS
  1
LAYOUT
  2
AcDbLayout
  3
AutoCAD 2000
 90
        0
280
     0
281
     0
  0
CLASS
  1
LONG_TRANSACTION
  2
AcDbLongTransaction
  3
AutoCAD 2000
 90
        0
280
     0
281
     0
  0
CLASS
  1
LWPOLYLINE
  2
AcDbPolyline
  3
"AutoCAD"
 90
        0
280
     0
281
     1
  0
CLASS
  1
HATCH
  2
AcDbHatch
  3
"ACAD_SEDONA"
 90
        0
280
     0
281
     1
  0
CLASS
  1
XRECORD
  2
AcDbXrecord
  3
"<Built In>"
 90
        0
280
     0
281
     0
  0
CLASS
  1
LONG_TRANSACTION
  2
AcDbLongTransaction
  3
AutoCAD 2000
 90
        0
280
     0
281
     0
  0
CLASS
  1
LWPOLYLINE
  2
AcDbPolyline
  3
"AutoCAD"
 90
        0
280
     0
281
     1
  0
CLASS
  1
HATCH
  2
AcDbHatch
  3
"ACAD_SEDONA"
 90
        0
280
     0
281
     1
  0
CLASS
  1
XRECORD
  2
AcDbXrecord
  3
"<Built In>"
 90
        0
280
     0
281
     0
  0
CLASS
  1
LONG_TRANSACTION
  2
AcDbLongTransaction
  3
AutoCAD 2000
 90
        0
280
     0
281
     0
  0
CLASS
  1
LWPOLYLINE
  2
AcDbPolyline
  3
"AutoCAD"
 90
        0
280
     0
281
     1
  0
CLASS
  1
HATCH
  2
AcDbHatch
  3
"ACAD_SEDONA"
 90
        0
280
     0
281
     1
  0
CLASS
  1
XRECORD
  2
AcDbXrecord
  3
"<Built In>"
 90
        0
280
     0
281
     0
  0
CLASS
  1
LONG_TRANSACTION
  2
AcDbLongTransaction
  3
AutoCAD 2000
 90
        0
280
     0
281
     0
  0
CLASS
  1
LWPOLYLINE
  2
AcDbPolyline
  3
"AutoCAD"
 90
        0
280
     0
281
     1
  0
CLASS
  1
HATCH
  2
AcDbHatch
  3
"ACAD_SEDONA"
 90
        0
280
     0
281
     1
  0
CLASS
  1
XRECORD
  2
AcDbXrecord
  3
"<Built In>"
 90
        0
280
     0
281
     0
  0
CLASS
  1
LONG_TRANSACTION
  2
AcDbLongTransaction
  3
AutoCAD 2000
 90
        0
280
     0
281
     0
  0
CLASS
  1
LWPOLYLINE
  2
AcDbPolyline
  3
"AutoCAD"
 90
        0
280
     0
281
     1
  0
CLASS
  1
HATCH
  2
AcDbHatch
  3
"ACAD_SEDONA"
 90
        0
280
     0
281
     1
  0
CLASS
  1
XRECORD
  2
AcDbXrecord
  3
"<Built In>"
 90
        0
280
     0
281
     0
  0
CLASS
  1
LONG_TRANSACTION
  2
AcDbLongTransaction
  3
AutoCAD 2000
 90
        0
280
     0
281
     0
  0
CLASS
  1
LWPOLYLINE
  2
AcDbPolyline
  3
"AutoCAD"
 90
        0
280
     0
281
     1
  0
CLASS
  1
HATCH
  2
AcDbHatch
  3
"ACAD_SEDONA"
 90
        0
280
     0
281
     1
  0
CLASS
  1
XRECORD
  2
AcDbXrecord
  3
"<Built In>"
 90
        0
280
     0
281
     0
  0
CLASS
  1
LONG_TRANSACTION
  2
AcDbLongTransaction
  3
AutoCAD 2000
 90
        0
280
     0
281
     0
  0
CLASS
  1
LWPOLYLINE
  2
AcDbPolyline
  3
"AutoCAD"
 90
        0
280
     0
281
     1
  0
CLASS
  1
HATCH
  2
AcDbHatch
  3
"ACAD_SEDONA"
 90
        0
280
     0
281
     1
  0
CLASS
  1
XRECORD
  2
AcDbXrecord
  3
"<Built In>"
 90
        0
280
     0
281
     0
  0
CLASS
  1
LONG_TRANSACTION
  2
AcDbLongTransaction
  3
AutoCAD 2000
 90
        0
280
     0
281
     0
  0
CLASS
  1
LWPOLYLINE
  2
AcDbPolyline
  3
"AutoCAD"
 90
        0
280
     0
281
     1
  0
CLASS
  1
HATCH
  2
AcDbHatch
  3
"ACAD_SEDONA"
 90
        0
280
     0
281
     1
  0
CLASS
  1
XRECORD
  2
AcDbXrecord
  3
"<Built In>"
 90
        0
280
     0
281
     0
  0
CLASS
  1
LONG_TRANSACTION
  2
AcDbLongTransaction
  3
AutoCAD 2000
 90
        0
280
     0
281
     0
  0
CLASS
  1
LWPOLYLINE
  2
AcDbPolyline
  3
"AutoCAD"
 90
        0
280
     0
281
     1
  0
CLASS
  1
HATCH
  2
AcDbHatch
  3
"ACAD_SEDONA"
 90
        0
280
     0
281
     1
  0
CLASS
  1
XRECORD
  2
AcDbXrecord
  3
"<Built In>"
 90
        0
280
     0
281
     0
  0
CLASS
  1
LONG_TRANSACTION
  2
AcDbLongTransaction
  3
AutoCAD 2000
 90
        0
280
     0
281
     0
  0
CLASS
  1
LWPOLYLINE
  2
AcDbPolyline
  3
"AutoCAD"
 90
        0
280
     0
281
     1
  0
CLASS
  1
HATCH
  2
AcDbHatch
  3
"ACAD_SEDONA"
 90
        0
280
     0
281
     1
  0
CLASS
  1
XRECORD
  2
AcDbXrecord
  3
"<Built In>"
 90
        0
280
     0
281
     0
  0
CLASS
  1
LONG_TRANSACTION
  2
AcDbLongTransaction
  3
AutoCAD 2000
 90
        0
280
     0
281
     0
  0
CLASS
  1
LWPOLYLINE
  2
AcDbPolyline
  3
"AutoCAD"
 90
        0
280
     0
281
     1
  0
CLASS
  1
HATCH
  2
AcDbHatch
  3
"ACAD_SEDONA"
 90
        0
280
     0
281
     1
  0
CLASS
  1
XRECORD
  2
AcDbXrecord
  3
"<Built In>"
 90
        0
280
     0
281
     0
  0
CLASS
  1
LONG_TRANSACTION
  2
AcDbLongTransaction
  3
AutoCAD 2000
 90
        0
280
     0
281
     0
  0
CLASS
  1
LWPOLYLINE
  2
AcDbPolyline
  3
"AutoCAD"
 90
        0
280
     0
281
     1
  0
CLASS
  1
HATCH
  2
AcDbHatch
  3
"ACAD_SEDONA"
 90
        0
280
     0
281
     1
  0
CLASS
  1
XRECORD
  2
AcDbXrecord
  3
"<Built In>"
 90
        0
280
     0
281
     0
  0
CLASS
  1
LONG_TRANSACTION
  2
AcDbLongTransaction
  3
AutoCAD 2000
 90
        0
280
     0
281
     0
  0
CLASS
  1
LWPOLYLINE
  2
AcDbPolyline
  3
"AutoCAD"
 90
        0
280
     0
281
     1
  0
CLASS
  1
HATCH
  2
AcDbHatch
  3
"ACAD_SEDONA"
 90
        0
280
     0
281
     1
  0
CLASS
  1
XRECORD
  2
AcDbXrecord
  3
"<Built In>"
 90
        0
280
     0
281
     0
  0
CLASS
  1
LONG_TRANSACTION
  2
AcDbLongTransaction
  3
AutoCAD 2000
 90
        0
280
     0
281
     0
  0
CLASS
  1
LWPOLYLINE
  2
AcDbPolyline
  3
"AutoCAD"
 90
        0
280
     0
281
     1
  0
CLASS
  1
HATCH
  2
AcDbHatch
  3
"ACAD_SEDONA"
 90
        0
280
     0
281
     1
  0
CLASS
  1
XRECORD
  2
AcDbXrecord
  3
"<Built In>"
 90
        0
280
     0
281
     0
  0
CLASS
  1
LONG_TRANSACTION
  2
AcDbLongTransaction
  3
AutoCAD 2000
 90
        0
280
     0
281
     0
  0
CLASS
  1
LWPOLYLINE
  2
AcDbPolyline
  3
"AutoCAD"
 90
        0
280
     0
281
     1
  0
CLASS
  1
HATCH
  2
AcDbHatch
  3
"ACAD_SEDONA"
 90
        0
280
     0
281
     1
  0
CLASS
  1
XRECORD
  2
AcDbXrecord
  3
"<Built In>"
 90
        0
280
     0
281
     0
  0
CLASS
  1
LONG_TRANSACTION
  2
AcDbLongTransaction
  3
AutoCAD 2000
 90
        0
280
     0
281
     0
  0
CLASS
  1
LWPOLYLINE
  2
AcDbPolyline
  3
"AutoCAD"
 90
        0
280
     0
281
     1
  0
CLASS
  1
HATCH
  2
AcDbHatch
  3
"ACAD_SEDONA"
 90
        0
280
     0
281
     1
  0
CLASS
  1
XRECORD
  2
AcDbXrecord
  3
"<Built In>"
 90
        0
280
     0
281
     0
  0
CLASS
  1
LONG_TRANSACTION
  2
AcDbLongTransaction
  3
AutoCAD 2000
 90
        0
280
     0
281
     0
  0
CLASS
  1
LWPOLYLINE
  2
AcDbPolyline
  3
"AutoCAD"
 90
        0
280
     0
281
     1
  0
CLASS
  1
HATCH
  2
AcDbHatch
  3
"ACAD_SEDONA"
 90
        0
280
     0
281
     1
  0
CLASS
  1
XRECORD
  2
AcDbXrecord
  3
"<Built In>"
 90
        0
280
     0
281
     0
  0
CLASS
  1
LONG_TRANSACTION
  2
AcDbLongTransaction
  3
AutoCAD 2000
 90
        0
280
     0
281
     0
  0
CLASS
  1
LWPOLYLINE
  2
AcDbPolyline
  3
"AutoCAD"
 90
        0
280
     0
281
     1
  0
CLASS
  1
HATCH
  2
AcDbHatch
  3
"ACAD_SEDONA"
 90
        0
280
     0
281
     1
  0
CLASS
  1
XRECORD
  2
AcDbXrecord
  3
"<Built In>"
 90
        0
280
     0
281
     0
  0
CLASS
  1
LONG_TRANSACTION
  2
AcDbLongTransaction
  3
AutoCAD 2000
 90
        0
280
     0
281
     0
  0
CLASS
  1
LWPOLYLINE
  2
AcDbPolyline
  3
"AutoCAD"
 90
        0
280
     0
281
     1
  0
CLASS
  1
HATCH
  2
AcDbHatch
  3
"ACAD_SEDONA"
 90
        0
280
     0
281
     1
  0
CLASS
  1
XRECORD
  2
AcDbXrecord
  3
"<Built In>"
 90
        0
280
     0
281
     0
  0
CLASS
  1
LONG_TRANSACTION
  2
AcDbLongTransaction
  3
AutoCAD 2000
 90
        0
280
     0
281
     0
  0
CLASS
  1
LWPOLYLINE
  2
AcDbPolyline
  3
"AutoCAD"
 90
        0
280
     0
281
     1
  0
CLASS
  1
HATCH
  2
AcDbHatch
  3
"ACAD_SEDONA"
 90
        0
280
     0
281
     1
  0
CLASS
  1
XRECORD
  2
AcDbXrecord
  3
"<Built In>"
 90
        0
280
     0
281
     0
  0
CLASS
  1
LONG_TRANSACTION
  2
AcDbLongTransaction
  3
AutoCAD 2000
 90
        0
280
     0
281
     0
  0
CLASS
  1
LWPOLYLINE
  2
AcDbPolyline
  3
"AutoCAD"
 90
        0
280
     0
281
     1
  0
CLASS
  1
HATCH
  2
AcDbHatch
  3
"ACAD_SEDONA"
 90
        0
280
     0
281
     1
  0
CLASS
  1
XRECORD
  2
AcDbXrecord
  3
"<Built In>"
 90
        0
280
     0
281
     0
  0
CLASS
  1
LONG_TRANSACTION
  2
AcDbLongTransaction
  3
AutoCAD 2000
 90
        0
280
     0
281
     0
  0
CLASS
  1
LWPOLYLINE
  2
AcDbPolyline
  3
"AutoCAD"
 90
        0
280
     0
281
     1
  0
CLASS
  1
HATCH
  2
AcDbHatch
  3
"ACAD_SEDONA"
 90
        0
280
     0
281
     1
  0
CLASS
  1
XRECORD
  2
AcDbXrecord
  3
"<Built In>"
 90
        0
280
     0
281
     0
  0
CLASS
  1
LONG_TRANSACTION
  2
AcDbLongTransaction
  3
AutoCAD 2000
 90
        0
280
     0
281
     0
  0
CLASS
  1
LWPOLYLINE
  2
AcDbPolyline
  3
"AutoCAD"
 90
        0
280
     0
281
     1
  0
CLASS
  1
HATCH
  2
AcDbHatch
  3
"ACAD_SEDONA"
 90
        0
280
     0
281
     1
  0
CLASS
  1
XRECORD
  2
AcDbXrecord
  3
"<Built In>"
 90
        0
280
     0
281
     0
  0
CLASS
  1
LONG_TRANSACTION
  2
AcDbLongTransaction
  3
AutoCAD 2000
 90
        0
280
     0
281
     0
  0
CLASS
  1
LWPOLYLINE
  2
AcDbPolyline
  3
"AutoCAD"
 90
        0
280
     0
281
     1
  0
CLASS
  1
HATCH
  2
AcDbHatch
  3
"ACAD_SEDONA"
 90
        0
280
     0
281
     1
  0
CLASS
  1
XRECORD
  2
AcDbXrecord
  3
"<Built In>"
 90
        0
280
     0
281
     0
  0
CLASS
  1
LONG_TRANSACTION
  2
AcDbLongTransaction
  3
AutoCAD 2000
 90
        0
280
     0
281
     0
  0
CLASS
  1
LWPOLYLINE
  2
AcDbPolyline
  3
"AutoCAD"
 90
        0
280
     0
281
     1
  0
CLASS
  1
HATCH
  2
AcDbHatch
  3
"ACAD_SEDONA"
 90
        0
280
     0
281
     1
  0
CLASS
  1
XRECORD
  2
AcDbXrecord
  3
"<Built In>"
 90
        0
280
     0
281
     0
  0
CLASS
  1
LONG_TRANSACTION
  2
AcDbLongTransaction
  3
AutoCAD 2000
 90
        0
280
     0
281
     0
  0
CLASS
  1
LWPOLYLINE
  2
AcDbPolyline
  3
"AutoCAD"
 90
        0
280
     0
281
     1
  0
CLASS
  1
HATCH
  2
AcDbHatch
  3
"ACAD_SEDONA"
 90
        0
280
     0
281
     1
  0
CLASS
  1
XRECORD
  2
AcDbXrecord
  3
"<Built In>"
 90
        0
280
     0
281
     0
  0
CLASS
  1
LONG_TRANSACTION
  2
AcDbLongTransaction
  3
AutoCAD 2000
 90
        0
280
     0
281
     0
  0
CLASS
  1
LWPOLYLINE
  2
AcDbPolyline
  3
"AutoCAD"
 90
        0
280
     0
281
     1
  0
CLASS
  1
HATCH
  2
AcDbHatch
  3
"ACAD_SEDONA"
 90
        0
280
     0
281
     1
  0
CLASS
  1
XRECORD
  2
AcDbXrecord
  3
"<Built In>"
 90
        0
280
     0
281
     0
  0
CLASS
  1
LONG_TRANSACTION
  2
AcDbLongTransaction
  3
AutoCAD 2000
 90
        0
280
     0
281
     0
  0
CLASS
  1
LWPOLYLINE
  2
AcDbPolyline
  3
"AutoCAD"
 90
        0
280
     0
281
     1
  0
CLASS
  1
HATCH
  2
AcDbHatch
  3
"ACAD_SEDONA"
 90
        0
280
     0
281
     1
  0
CLASS
  1
XRECORD
  2
AcDbXrecord
  3
"<Built In>"
 90
        0
280
     0
281
     0
  0
CLASS
  1
LONG_TRANSACTION
  2
AcDbLongTransaction
  3
AutoCAD 2000
 90
        0
280
     0
281
     0
  0
CLASS
  1
LWPOLYLINE
  2
AcDbPolyline
  3
"AutoCAD"
 90
        0
280
     0
281
     1
  0
CLASS
  1
HATCH
  2
AcDbHatch
  3
"ACAD_SEDONA"
 90
        0
280
     0
281
     1
  0
CLASS
  1
XRECORD
  2
AcDbXrecord
  3
"<Built In>"
 90
        0
280
     0
281
     0
  0
CLASS
  1
LONG_TRANSACTION
  2
AcDbLongTransaction
  3
AutoCAD 2000
 90
        0
280
     0
281
     0
  0
CLASS
  1
LWPOLYLINE
  2
AcDbPolyline
  3
"AutoCAD"
 90
        0
280
     0
281
     1
  0
CLASS
  1
HATCH
  2
AcDbHatch
  3
"ACAD_SEDONA"
 90
        0
280
     0
281
     1
  0
CLASS
  1
XRECORD
  2
AcDbXrecord
  3
"<Built In>"
 90
        0
280
     0
281
     0
  0
CLASS
  1
LONG_TRANSACTION
  2
AcDbLongTransaction
  3
AutoCAD 2000
 90
        0
280
     0
281
     0
  0
CLASS
  1
LWPOLYLINE
  2
AcDbPolyline
  3
"AutoCAD"
 90
        0
280
     0
281
     1
  0
CLASS
  1
HATCH
  2
AcDbHatch
  3
"ACAD_SEDONA"
 90
        0
280
     0
281
     1
  0
CLASS
  1
XRECORD
  2
AcDbXrecord
  3
"<Built In>"
 90
        0
280
     0
281
     0
  0
CLASS
  1
LONG_TRANSACTION
  2
AcDbLongTransaction
  3
AutoCAD 2000
 90
        0
280
     0
281
     0
  0
CLASS
  1
LWPOLYLINE
  2
AcDbPolyline
  3
"AutoCAD"
 90
        0
280
     0
281
     1
  0
CLASS
  1
HATCH
  2
AcDbHatch
  3
"ACAD_SEDONA"
 90
        0
280
     0
281
     1
  0
CLASS
  1
XRECORD
  2
AcDbXrecord
  3
"<Built In>"
 90
        0
280
     0
281
     0
  0
CLASS
  1
LONG_TRANSACTION
  2
AcDbLongTransaction
  3
AutoCAD 2000
 90
        0
280
     0
281
     0
  0
CLASS
  1
LWPOLYLINE
  2
AcDbPolyline
  3
"AutoCAD"
 90
        0
280
     0
281
     1
  0
CLASS
  1
HATCH
  2
AcDbHatch
  3
"ACAD_SEDONA"
 90
        0
280
     0
281
     1
  0
CLASS
  1
XRECORD
  2
AcDbXrecord
  3
"<Built In>"
 90
        0
280
     0
281
     0
  0
CLASS
  1
LONG_TRANSACTION
  2
AcDbLongTransaction
  3
AutoCAD 2000
 90
        0
280
     0
281
     0
  0
CLASS
  1
LWPOLYLINE
  2
AcDbPolyline
  3
"AutoCAD"
 90
        0
280
     0
281
     1
  0
CLASS
  1
HATCH
  2
AcDbHatch
  3
"ACAD_SEDONA"
 90
        0
280
     0
281
     1
  0
CLASS
  1
XRECORD
  2
AcDbXrecord
  3
"<Built In>"
 90
        0
280
     0
281
     0
  0
CLASS
  1
LONG_TRANSACTION
  2
AcDbLongTransaction
  3
AutoCAD 2000
 90
        0
280
     0
281
     0
  0
CLASS
  1
LWPOLYLINE
  2
AcDbPolyline
  3
"AutoCAD"
 90
        0
280
     0
281
     1
  0
CLASS
  1
HATCH
  2
AcDbHatch
  3
"ACAD_SEDONA"
 90
        0
280
     0
281
     1
  0
CLASS
  1
XRECORD
  2
AcDbXrecord
  3
"<Built In>"
 90
        0
280
     0
281
     0
  0
CLASS
  1
LONG_TRANSACTION
  2
AcDbLongTransaction
  3
AutoCAD 2000
 90
        0
280
     0
281
     0
  0
CLASS
  1
LWPOLYLINE
  2
AcDbPolyline
  3
"AutoCAD"
 90
        0
280
     0
281
     1
  0
CLASS
  1
HATCH
  2
AcDbHatch
  3
"ACAD_SEDONA"
 90
        0
280
     0
281
     1
  0
CLASS
  1
XRECORD
  2
AcDbXrecord
  3
"<Built In>"
 90
        0
280
     0
281
     0
  0
CLASS
  1
LONG_TRANSACTION
  2
AcDbLongTransaction
  3
AutoCAD 2000
 90
        0
280
     0
281
     0
  0
CLASS
  1
LWPOLYLINE
  2
AcDbPolyline
  3
"AutoCAD"
 90
        0
280
     0
281
     1
  0
CLASS
  1
HATCH
  2
AcDbHatch
  3
"ACAD_SEDONA"
 90
        0
280
     0
281
     1
  0
CLASS
  1
XRECORD
  2
AcDbXrecord
  3
"<Built In>"
 90
        0
280
     0
281
     0
  0
CLASS
  1
LONG_TRANSACTION
  2
AcDbLongTransaction
  3
AutoCAD 2000
 90
        0
280
     0
281
     0
  0
CLASS
  1
LWPOLYLINE
  2
AcDbPolyline
  3
"AutoCAD"
 90
        0
280
     0
281
     1
  0
CLASS
  1
HATCH
  2
AcDbHatch
  3
"ACAD_SEDONA"
 90
        0
280
     0
281
     1
  0
CLASS
  1
XRECORD
  2
AcDbXrecord
  3
"<Built In>"
 90
        0
280
     0
281
     0
  0
CLASS
  1
LONG_TRANSACTION
  2
AcDbLongTransaction
  3
AutoCAD 2000
 90
        0
280
     0
281
     0
  0
CLASS
  1
LWPOLYLINE
  2
AcDbPolyline
  3
"AutoCAD"
 90
        0
280
     0
281
     1
  0
CLASS
  1
HATCH
  2
AcDbHatch
  3
"ACAD_SEDONA"
 90
        0
280
     0
281
     1
  0
CLASS
  1
XRECORD
  2
AcDbXrecord
  3
"<Built In>"
 90
        0
280
     0
281
     0
  0
CLASS
  1
LONG_TRANSACTION
  2
AcDbLongTransaction
  3
AutoCAD 2000
 90
        0
280
     0
281
     0
  0
CLASS
  1
LWPOLYLINE
  2
AcDbPolyline
  3
"AutoCAD"
 90
        0
280
     0
281
     1
  0
CLASS
  1
HATCH
  2
AcDbHatch
  3
"ACAD_SEDONA"
 90
        0
280
     0
281
     1
  0
CLASS
  1
XRECORD
  2
AcDbXrecord
  3
"<Built In>"
 90
        0
280
     0
281
     0
  0
ENDSEC
  0
SECTION
  2
TABLES
  0
TABLE
  2
VPORT
  5
469
100
AcDbSymbolTable
 70
     1
  0
VPORT
  5
5B487
102
{ACAD_XDICTIONARY
360
5B558
102
}
100
AcDbSymbolTableRecord
100
AcDbViewportTableRecord
  2
*ACTIVE
 70
     0
 10
0.0
 20
0.0
 11
1.0
 21
1.0
 12
-0.787097
 22
1.897704
 13
0.0
 23
0.0
 14
1.0
 24
1.0
 15
0.0
 25
0.0
 16
0.0
 26
0.0
 36
1.0
 17
0.648805
 27
-6.132183
 37
2.586733
 40
11.478803
 41
1.82218
 42
50.0
 43
0.0
 44
0.0
 50
0.0
 51
0.0
 71
     0
 72
   100
 73
     1
 74
     1
 75
     0
 76
     0
 77
     0
 78
     0
  0
ENDTAB
  0
TABLE
  2
LTYPE
  5
466
100
AcDbSymbolTable
 70
     1
  0
LTYPE
  5
472
100
AcDbSymbolTableRecord
100
AcDbLinetypeTableRecord
  2
BYBLOCK
 70
     0
  3

 72
    65
 73
     0
 40
0.0
  0
LTYPE
  5
473
100
AcDbSymbolTableRecord
100
AcDbLinetypeTableRecord
  2
BYLAYER
 70
     0
  3

 72
    65
 73
     0
 40
0.0
  0
LTYPE
  5
474
100
AcDbSymbolTableRecord
100
AcDbLinetypeTableRecord
  2
CONTINUOUS
 70
     0
  3
Solid line
 72
    65
 73
     0
 40
0.0
  0
ENDTAB
  0
TABLE
  2
LAYER
  5
463
100
AcDbSymbolTable
 70
     8
  0
LAYER
  5
46F
100
AcDbSymbolTableRecord
100
AcDbLayerTableRecord
  2
0
 70
     0
 62
     7
  6
CONTINUOUS
  0
LAYER
  5
485
100
AcDbSymbolTableRecord
100
AcDbLayerTableRecord
  2
AREA1
 70
     0
 62
     7
  6
CONTINUOUS
  0
LAYER
  5
486
100
AcDbSymbolTableRecord
100
AcDbLayerTableRecord
  2
AREA2
 70
     0
 62
     7
  6
CONTINUOUS
  0
LAYER
  5
494
102
{ACAD_XDICTIONARY
360
5B585
102
}
100
AcDbSymbolTableRecord
100
AcDbLayerTableRecord
  2
DEFPOINTS
 70
     0
 62
    -7
  6
CONTINUOUS
  0
LAYER
  5
495
100
AcDbSymbolTableRecord
100
AcDbLayerTableRecord
  2
DIMS-MTG-HOLES
 70
     0
 62
    -1
  6
CONTINUOUS
  0
LAYER
  5
4E6
100
AcDbSymbolTableRecord
100
AcDbLayerTableRecord
  2
SCALE
 70
     0
 62
    -7
  6
CONTINUOUS
  0
LAYER
  5
4ED
100
AcDbSymbolTableRecord
100
AcDbLayerTableRecord
  2
SNAP_POINTS
 70
     0
 62
    -1
  6
CONTINUOUS
  0
LAYER
  5
4F1
100
AcDbSymbolTableRecord
100
AcDbLayerTableRecord
  2
ATTRIBUTES
 70
     0
 62
    -7
  6
CONTINUOUS
  0
ENDTAB
  0
TABLE
  2
STYLE
  5
464
100
AcDbSymbolTable
 70
     1
  0
STYLE
  5
470
100
AcDbSymbolTableRecord
100
AcDbTextStyleTableRecord
  2
STANDARD
 70
     0
 40
0.0
 41
1.0
 50
0.0
 71
     0
 42
0.2
  3
txt
  4

  0
ENDTAB
  0
TABLE
  2
VIEW
  5
467
100
AcDbSymbolTable
 70
     0
  0
ENDTAB
  0
TABLE
  2
UCS
  5
468
100
AcDbSymbolTable
 70
     0
  0
ENDTAB
  0
TABLE
  2
APPID
  5
46A
100
AcDbSymbolTable
 70
     2
  0
APPID
  5
471
100
AcDbSymbolTableRecord
100
AcDbRegAppTableRecord
  2
ACAD
 70
     0
  0
APPID
  5
47E
100
AcDbSymbolTableRecord
100
AcDbRegAppTableRecord
  2
AVE_RENDER
 70
     0
  0
ENDTAB
  0
TABLE
  2
DIMSTYLE
  5
46B
100
AcDbSymbolTable
 70
     2
  0
DIMSTYLE
105
49A
102
{ACAD_XDICTIONARY
360
5B587
102
}
102
{ACAD_REACTORS
330
5B479
330
5B43F
330
5B43E
102
}
100
AcDbSymbolTableRecord
100
AcDbDimStyleTableRecord
  2
ABECAD_3V
 70
     0
  3

  4

  5

  6

  7

 40
0.0
 41
0.125
 42
0.0625
 43
0.375
 44
0.0625
 45
0.0
 46
0.0
 47
0.0
 48
0.0
140
0.125
141
0.09
142
0.0
143
25.4
144
1.0
145
0.0
146
1.5
147
0.09
 71
     0
 72
     0
 73
     0
 74
     1
 75
     0
 76
     0
 77
     0
 78
     4
170
     1
171
     2
172
     0
173
     0
174
     0
175
     0
176
     0
177
     0
178
     0
270
     7
271
     6
272
     6
273
     2
274
     2
340
470
275
     0
280
     0
281
     0
282
     0
283
     1
284
     4
285
     4
286
     4
287
     5
288
     1
  0
DIMSTYLE
105
512
102
{ACAD_XDICTIONARY
360
5B58B
102
}
100
AcDbSymbolTableRecord
100
AcDbDimStyleTableRecord
  2
ABECAD_3D
 70
     0
  3

  4

  5

  6

  7

 40
1.0
 41
0.18
 42
0.0625
 43
0.375
 44
0.18
 45
0.0
 46
0.0
 47
0.0
 48
0.0
140
0.18
141
0.09
142
0.0
143
25.4
144
1.0
145
0.0
146
1.5
147
0.09
 71
     0
 72
     0
 73
     0
 74
     1
 75
     0
 76
     0
 77
     0
 78
     4
170
     1
171
     2
172
     0
173
     0
174
     0
175
     0
176
     0
177
     0
178
     0
270
     7
271
     6
272
     6
273
     2
274
     2
340
470
275
     0
280
     0
281
     0
282
     0
283
     1
284
     4
285
     4
286
     4
287
     5
288
     1
  0
ENDTAB
  0
TABLE
  2
BLOCK_RECORD
  5
462
100
AcDbSymbolTable
 70
     3
  0
BLOCK_RECORD
  5
478
102
{ACAD_XDICTIONARY
360
4D2
102
}
100
AcDbSymbolTableRecord
100
AcDbBlockTableRecord
  2
*MODEL_SPACE
  0
BLOCK_RECORD
  5
475
102
{ACAD_XDICTIONARY
360
4D0
102
}
100
AcDbSymbolTableRecord
100
AcDbBlockTableRecord
  2
*PAPER_SPACE
  0
BLOCK_RECORD
  5
5B44B
100
AcDbSymbolTableRecord
100
AcDbBlockTableRecord
  2
*D0
  0
BLOCK_RECORD
  5
5B458
100
AcDbSymbolTableRecord
100
AcDbBlockTableRecord
  2
*D1
  0
BLOCK_RECORD
  5
5B47A
100
AcDbSymbolTableRecord
100
AcDbBlockTableRecord
  2
*D2
  0
ENDTAB
  0
ENDSEC
  0
SECTION
  2
BLOCKS
  0
BLOCK
  5
48B
100
AcDbEntity
  8
0
100
AcDbBlockBegin
  2
*MODEL_SPACE
 70
     0
 10
0.0
 20
0.0
 30
0.0
  3
*MODEL_SPACE
  1

  0
ENDBLK
  5
48C
100
AcDbEntity
  8
0
100
AcDbBlockEnd
  0
BLOCK
  5
489
100
AcDbEntity
 67
     1
  8
0
100
AcDbBlockBegin
  2
*PAPER_SPACE
 70
     0
 10
0.0
 20
0.0
 30
0.0
  3
*PAPER_SPACE
  1

  0
ENDBLK
  5
48A
100
AcDbEntity
 67
     1
  8
0
100
AcDbBlockEnd
  0
BLOCK
  5
5B456
100
AcDbEntity
  8
0
100
AcDbBlockBegin
  2
*D0
 70
     1
 10
0.0
 20
0.0
 30
0.0
  3
*D0
  1

  0
LINE
  5
5B49D
100
AcDbEntity
  8
AREA1
 62
     0
100
AcDbLine
 10
-1.174787
 20
0.281
 30
0.0
 11
-5.37837
 21
0.281
 31
0.0
1001
ACAD
1000
RTLwPs
1070
   158
  0
LINE
  5
5B49E
100
AcDbEntity
  8
AREA1
 62
     0
100
AcDbLine
 10
-3.727787
 20
-8.879
 30
0.0
 11
-5.37837
 21
-8.879
 31
0.0
1001
ACAD
1000
RTLwPs
1070
   158
  0
LINE
  5
5B49F
100
AcDbEntity
  8
AREA1
 62
     0
100
AcDbLine
 10
-5.203583
 20
-0.068574
 30
0.0
 11
-5.203583
 21
-1.866547
 31
0.0
1001
ACAD
1000
RTLwPs
1070
   158
  0
LINE
  5
5B4A0
100
AcDbEntity
  8
AREA1
 62
     0
100
AcDbLine
 10
-5.203583
 20
-8.529426
 30
0.0
 11
-5.203583
 21
-7.030915
 31
0.0
1001
ACAD
1000
RTLwPs
1070
   158
  0
MTEXT
  5
5B4A1
100
AcDbEntity
  8
AREA1
 62
     0
100
AcDbMText
 10
-5.203583
 20
-4.448731
 30
0.0
 40
0.349574
 41
0.0
 71
     5
 72
     1
  1
\A1;9 5/32 [232.66]
 11
0.0
 21
1.0
 31
0.0
1001
ACAD
1000
MTEXTBEGIN
1070
    73
1070
     1
1070
    44
1040
1.0
1070
    74
1070
     0
1000
MTEXTEND
1000
MTEXTBEGIN
1070
    73
1070
     1
1070
    44
1040
1.0
1070
    74
1070
     0
1000
MTEXTEND
1000
MTEXTBEGIN
1070
    73
1070
     1
1070
    44
1040
1.0
1070
    74
1070
     0
1000
MTEXTEND
1000
MTEXTBEGIN
1070
    73
1070
     1
1070
    44
1040
1.0
1070
    74
1070
     0
1000
MTEXTEND
  0
SOLID
  5
5B4A2
100
AcDbEntity
  8
AREA1
 62
     0
100
AcDbTrace
 10
-5.261845
 20
-0.068574
 30
0.0
 11
-5.145321
 21
-0.068574
 31
0.0
 12
-5.203583
 22
0.281
 32
0.0
 13
-5.203583
 23
0.281
 33
0.0
  0
SOLID
  5
5B4A3
100
AcDbEntity
  8
AREA1
 62
     0
100
AcDbTrace
 10
-5.261845
 20
-8.529426
 30
0.0
 11
-5.145321
 21
-8.529426
 31
0.0
 12
-5.203583
 22
-8.879
 32
0.0
 13
-5.203583
 23
-8.879
 33
0.0
  0
POINT
  5
5B4A4
100
AcDbEntity
  8
DEFPOINTS
 62
     0
100
AcDbPoint
 10
-1.0
 20
0.281
 30
0.0
  0
POINT
  5
5B4A5
100
AcDbEntity
  8
DEFPOINTS
 62
     0
100
AcDbPoint
 10
-3.553
 20
-8.879
 30
0.0
  0
POINT
  5
5B4A6
100
AcDbEntity
  8
DEFPOINTS
 62
     0
100
AcDbPoint
 10
-5.203583
 20
-8.879
 30
0.0
  0
ENDBLK
  5
5B457
100
AcDbEntity
  8
0
100
AcDbBlockEnd
  0
BLOCK
  5
5B463
100
AcDbEntity
  8
0
100
AcDbBlockBegin
  2
*D1
 70
     1
 10
0.0
 20
0.0
 30
0.0
  3
*D1
  1

  0
LINE
  5
5B493
100
AcDbEntity
  8
AREA1
 62
     0
100
AcDbLine
 10
-4.168
 20
-1.295213
 30
0.0
 11
-4.168
 21
1.434734
 31
0.0
1001
ACAD
1000
RTLwPs
1070
   158
  0
LINE
  5
5B494
100
AcDbEntity
  8
AREA1
 62
     0
100
AcDbLine
 10
5.107
 20
-0.454213
 30
0.0
 11
5.107
 21
1.434734
 31
0.0
1001
ACAD
1000
RTLwPs
1070
   158
  0
LINE
  5
5B495
100
AcDbEntity
  8
AREA1
 62
     0
100
AcDbLine
 10
-3.818426
 20
1.259948
 30
0.0
 11
-2.043742
 21
1.259948
 31
0.0
1001
ACAD
1000
RTLwPs
1070
   158
  0
LINE
  5
5B496
100
AcDbEntity
  8
AREA1
 62
     0
100
AcDbLine
 10
4.757426
 20
1.259948
 30
0.0
 11
3.120625
 21
1.259948
 31
0.0
1001
ACAD
1000
RTLwPs
1070
   158
  0
MTEXT
  5
5B497
100
AcDbEntity
  8
AREA1
 62
     0
100
AcDbMText
 10
0.538441
 20
1.259948
 30
0.0
 40
0.349574
 41
0.0
 71
     5
 72
     1
  1
\A1;9 9/32 [235.59]
1001
ACAD
1000
MTEXTBEGIN
1070
    73
1070
     1
1070
    44
1040
1.0
1070
    74
1070
     0
1000
MTEXTEND
1000
MTEXTBEGIN
1070
    73
1070
     1
1070
    44
1040
1.0
1070
    74
1070
     0
1000
MTEXTEND
1000
MTEXTBEGIN
1070
    73
1070
     1
1070
    44
1040
1.0
1070
    74
1070
     0
1000
MTEXTEND
1000
MTEXTBEGIN
1070
    73
1070
     1
1070
    44
1040
1.0
1070
    74
1070
     0
1000
MTEXTEND
  0
SOLID
  5
5B498
100
AcDbEntity
  8
AREA1
 62
     0
100
AcDbTrace
 10
-3.818426
 20
1.31821
 30
0.0
 11
-3.818426
 21
1.201685
 31
0.0
 12
-4.168
 22
1.259948
 32
0.0
 13
-4.168
 23
1.259948
 33
0.0
  0
SOLID
  5
5B499
100
AcDbEntity
  8
AREA1
 62
     0
100
AcDbTrace
 10
4.757426
 20
1.31821
 30
0.0
 11
4.757426
 21
1.201685
 31
0.0
 12
5.107
 22
1.259948
 32
0.0
 13
5.107
 23
1.259948
 33
0.0
  0
POINT
  5
5B49A
100
AcDbEntity
  8
DEFPOINTS
 62
     0
100
AcDbPoint
 10
-4.168
 20
-1.47
 30
0.387
  0
POINT
  5
5B49B
100
AcDbEntity
  8
DEFPOINTS
 62
     0
100
AcDbPoint
 10
5.107
 20
-0.629
 30
0.0
  0
POINT
  5
5B49C
100
AcDbEntity
  8
DEFPOINTS
 62
     0
100
AcDbPoint
 10
5.107
 20
1.259948
 30
0.0
  0
ENDBLK
  5
5B464
100
AcDbEntity
  8
0
100
AcDbBlockEnd
  0
BLOCK
  5
5B485
100
AcDbEntity
  8
0
100
AcDbBlockBegin
  2
*D2
 70
     1
 10
0.0
 20
0.0
 30
0.0
  3
*D2
  1

  0
LINE
  5
5B4A7
100
AcDbEntity
  8
AREA2
 62
     0
100
AcDbLine
 10
-2.780787
 20
4.937
 30
0.0
 11
-5.231728
 21
4.937
 31
0.0
1001
ACAD
1000
RTLwPs
1070
   158
  0
LINE
  5
5B4A8
100
AcDbEntity
  8
AREA2
 62
     0
100
AcDbLine
 10
-3.727787
 20
0.0
 30
0.0
 11
-5.231728
 21
0.0
 31
0.0
1001
ACAD
1000
RTLwPs
1070
   158
  0
LINE
  5
5B4A9
100
AcDbEntity
  8
AREA2
 62
     0
100
AcDbLine
 10
-5.056941
 20
4.587426
 30
0.0
 11
-5.056941
 21
0.349574
 31
0.0
1001
ACAD
1000
RTLwPs
1070
   158
  0
MTEXT
  5
5B4AA
100
AcDbEntity
  8
AREA2
 62
     0
100
AcDbMText
 10
-5.58267
 20
2.319243
 30
0.0
 40
0.349574
 41
0.0
 71
     5
 72
     1
  1
\A1;4 15/16 [125.40]
 11
0.0
 21
1.0
 31
0.0
1001
ACAD
1000
MTEXTBEGIN
1070
    73
1070
     1
1070
    44
1040
1.0
1070
    74
1070
     0
1000
MTEXTEND
1000
MTEXTBEGIN
1070
    73
1070
     1
1070
    44
1040
1.0
1070
    74
1070
     0
1000
MTEXTEND
1000
MTEXTBEGIN
1070
    73
1070
     1
1070
    44
1040
1.0
1070
    74
1070
     0
1000
MTEXTEND
1000
MTEXTBEGIN
1070
    73
1070
     1
1070
    44
1040
1.0
1070
    74
1070
     0
1000
MTEXTEND
  0
SOLID
  5
5B4AB
100
AcDbEntity
  8
AREA2
 62
     0
100
AcDbTrace
 10
-5.115203
 20
4.587426
 30
0.0
 11
-4.998679
 21
4.587426
 31
0.0
 12
-5.056941
 22
4.937
 32
0.0
 13
-5.056941
 23
4.937
 33
0.0
  0
SOLID
  5
5B4AC
100
AcDbEntity
  8
AREA2
 62
     0
100
AcDbTrace
 10
-5.115203
 20
0.349574
 30
0.0
 11
-4.998679
 21
0.349574
 31
0.0
 12
-5.056941
 22
0.0
 32
0.0
 13
-5.056941
 23
0.0
 33
0.0
  0
POINT
  5
5B4AD
100
AcDbEntity
  8
DEFPOINTS
 62
     0
100
AcDbPoint
 10
-2.606
 20
4.937
 30
5.79
  0
POINT
  5
5B4AE
100
AcDbEntity
  8
DEFPOINTS
 62
     0
100
AcDbPoint
 10
-3.553
 20
0.0
 30
0.629
  0
POINT
  5
5B4AF
100
AcDbEntity
  8
DEFPOINTS
 62
     0
100
AcDbPoint
 10
-5.056941
 20
0.0
 30
0.0
  0
ENDBLK
  5
5B486
100
AcDbEntity
  8
0
100
AcDbBlockEnd
  0
ENDSEC
  0
SECTION
  2
ENTITIES
  0
POLYLINE
  5
5AECE
100
AcDbEntity
  8
0
100
AcDbPolygonMesh
 66
     1
 10
0.0
 20
0.0
 30
0.0
 70
    16
 71
     6
 72
     3
  0
VERTEX
  5
5AECF
100
AcDbEntity
  8
0
100
AcDbVertex
100
AcDbPolygonMeshVertex
 10
-0.018
 20
-2.84
 30
4.287
 70
    64
  0
VERTEX
  5
5AED0
100
AcDbEntity
  8
0
100
AcDbVertex
100
AcDbPolygonMeshVertex
 10
-0.018
 20
-2.84
 30
0.387
 70
    64
  0
VERTEX
  5
5AED1
100
AcDbEntity
  8
0
100
AcDbVertex
100
AcDbPolygonMeshVertex
 10
-0.018
 20
-2.84
 30
0.387
 70
    64
  0
VERTEX
  5
5AED2
100
AcDbEntity
  8
0
100
AcDbVertex
100
AcDbPolygonMeshVertex
 10
0.772
 20
-2.84
 30
4.287
 70
    64
  0
VERTEX
  5
5AED3
100
AcDbEntity
  8
0
100
AcDbVertex
100
AcDbPolygonMeshVertex
 10
0.772
 20
-2.84
 30
0.387
 70
    64
  0
VERTEX
  5
5AED4
100
AcDbEntity
  8
0
100
AcDbVertex
100
AcDbPolygonMeshVertex
 10
0.772
 20
-2.84
 30
0.387
 70
    64
  0
VERTEX
  5
5AED5
100
AcDbEntity
  8
0
100
AcDbVertex
100
AcDbPolygonMeshVertex
 10
0.772
 20
-1.47
 30
4.287
 70
    64
  0
VERTEX
  5
5AED6
100
AcDbEntity
  8
0
100
AcDbVertex
100
AcDbPolygonMeshVertex
 10
0.772
 20
-1.47
 30
0.387
 70
    64
  0
VERTEX
  5
5AED7
100
AcDbEntity
  8
0
100
AcDbVertex
100
AcDbPolygonMeshVertex
 10
0.772
 20
-2.84
 30
0.387
 70
    64
  0
VERTEX
  5
5AED8
100
AcDbEntity
  8
0
100
AcDbVertex
100
AcDbPolygonMeshVertex
 10
-0.018
 20
-1.47
 30
4.287
 70
    64
  0
VERTEX
  5
5AED9
100
AcDbEntity
  8
0
100
AcDbVertex
100
AcDbPolygonMeshVertex
 10
-0.018
 20
-1.47
 30
0.387
 70
    64
  0
VERTEX
  5
5AEDA
100
AcDbEntity
  8
0
100
AcDbVertex
100
AcDbPolygonMeshVertex
 10
-0.018
 20
-2.84
 30
0.387
 70
    64
  0
VERTEX
  5
5AEDB
100
AcDbEntity
  8
0
100
AcDbVertex
100
AcDbPolygonMeshVertex
 10
-0.018
 20
-1.47
 30
4.287
 70
    64
  0
VERTEX
  5
5AEDC
100
AcDbEntity
  8
0
100
AcDbVertex
100
AcDbPolygonMeshVertex
 10
-0.018
 20
-1.47
 30
4.287
 70
    64
  0
VERTEX
  5
5AEDD
100
AcDbEntity
  8
0
100
AcDbVertex
100
AcDbPolygonMeshVertex
 10
-0.018
 20
-2.84
 30
4.287
 70
    64
  0
VERTEX
  5
5AEDE
100
AcDbEntity
  8
0
100
AcDbVertex
100
AcDbPolygonMeshVertex
 10
0.772
 20
-1.47
 30
4.287
 70
    64
  0
VERTEX
  5
5AEDF
100
AcDbEntity
  8
0
100
AcDbVertex
100
AcDbPolygonMeshVertex
 10
0.772
 20
-1.47
 30
4.287
 70
    64
  0
VERTEX
  5
5AEE0
100
AcDbEntity
  8
0
100
AcDbVertex
100
AcDbPolygonMeshVertex
 10
0.772
 20
-2.84
 30
4.287
 70
    64
  0
SEQEND
  5
5AEE1
100
AcDbEntity
  8
0
  0
POLYLINE
  5
5AEE2
100
AcDbEntity
  8
0
100
AcDbPolygonMesh
 66
     1
 10
0.0
 20
0.0
 30
0.0
 70
    16
 71
     6
 72
     3
  0
VERTEX
  5
5AEE3
100
AcDbEntity
  8
0
100
AcDbVertex
100
AcDbPolygonMeshVertex
 10
0.022
 20
-1.97
 30
4.477
 70
    64
  0
VERTEX
  5
5AEE4
100
AcDbEntity
  8
0
100
AcDbVertex
100
AcDbPolygonMeshVertex
 10
0.022
 20
-1.97
 30
4.287
 70
    64
  0
VERTEX
  5
5AEE5
100
AcDbEntity
  8
0
100
AcDbVertex
100
AcDbPolygonMeshVertex
 10
0.022
 20
-1.97
 30
4.287
 70
    64
  0
VERTEX
  5
5AEE6
100
AcDbEntity
  8
0
100
AcDbVertex
100
AcDbPolygonMeshVertex
 10
0.522
 20
-1.97
 30
4.477
 70
    64
  0
VERTEX
  5
5AEE7
100
AcDbEntity
  8
0
100
AcDbVertex
100
AcDbPolygonMeshVertex
 10
0.522
 20
-1.97
 30
4.287
 70
    64
  0
VERTEX
  5
5AEE8
100
AcDbEntity
  8
0
100
AcDbVertex
100
AcDbPolygonMeshVertex
 10
0.522
 20
-1.97
 30
4.287
 70
    64
  0
VERTEX
  5
5AEE9
100
AcDbEntity
  8
0
100
AcDbVertex
100
AcDbPolygonMeshVertex
 10
0.522
 20
-1.56
 30
4.477
 70
    64
  0
VERTEX
  5
5AEEA
100
AcDbEntity
  8
0
100
AcDbVertex
100
AcDbPolygonMeshVertex
 10
0.522
 20
-1.56
 30
4.287
 70
    64
  0
VERTEX
  5
5AEEB
100
AcDbEntity
  8
0
100
AcDbVertex
100
AcDbPolygonMeshVertex
 10
0.522
 20
-1.97
 30
4.287
 70
    64
  0
VERTEX
  5
5AEEC
100
AcDbEntity
  8
0
100
AcDbVertex
100
AcDbPolygonMeshVertex
 10
0.022
 20
-1.56
 30
4.477
 70
    64
  0
VERTEX
  5
5AEED
100
AcDbEntity
  8
0
100
AcDbVertex
100
AcDbPolygonMeshVertex
 10
0.022
 20
-1.56
 30
4.287
 70
    64
  0
VERTEX
  5
5AEEE
100
AcDbEntity
  8
0
100
AcDbVertex
100
AcDbPolygonMeshVertex
 10
0.022
 20
-1.97
 30
4.287
 70
    64
  0
VERTEX
  5
5AEEF
100
AcDbEntity
  8
0
100
AcDbVertex
100
AcDbPolygonMeshVertex
 10
0.022
 20
-1.56
 30
4.477
 70
    64
  0
VERTEX
  5
5AEF0
100
AcDbEntity
  8
0
100
AcDbVertex
100
AcDbPolygonMeshVertex
 10
0.022
 20
-1.56
 30
4.477
 70
    64
  0
VERTEX
  5
5AEF1
100
AcDbEntity
  8
0
100
AcDbVertex
100
AcDbPolygonMeshVertex
 10
0.022
 20
-1.97
 30
4.477
 70
    64
  0
VERTEX
  5
5AEF2
100
AcDbEntity
  8
0
100
AcDbVertex
100
AcDbPolygonMeshVertex
 10
0.522
 20
-1.56
 30
4.477
 70
    64
  0
VERTEX
  5
5AEF3
100
AcDbEntity
  8
0
100
AcDbVertex
100
AcDbPolygonMeshVertex
 10
0.522
 20
-1.56
 30
4.477
 70
    64
  0
VERTEX
  5
5AEF4
100
AcDbEntity
  8
0
100
AcDbVertex
100
AcDbPolygonMeshVertex
 10
0.522
 20
-1.97
 30
4.477
 70
    64
  0
SEQEND
  5
5AEF5
100
AcDbEntity
  8
0
  0
CIRCLE
  5
5AEF6
100
AcDbEntity
  8
0
100
AcDbCircle
 10
0.272
 20
-1.765
 30
4.477
 40
0.19
  0
POLYLINE
  5
5AEF7
100
AcDbEntity
  8
0
100
AcDbPolygonMesh
 66
     1
 10
0.0
 20
0.0
 30
0.0
 70
    16
 71
     6
 72
     3
  0
VERTEX
  5
5AEF8
100
AcDbEntity
  8
0
100
AcDbVertex
100
AcDbPolygonMeshVertex
 10
-3.378
 20
-2.84
 30
4.287
 70
    64
  0
VERTEX
  5
5AEF9
100
AcDbEntity
  8
0
100
AcDbVertex
100
AcDbPolygonMeshVertex
 10
-3.378
 20
-2.84
 30
0.387
 70
    64
  0
VERTEX
  5
5AEFA
100
AcDbEntity
  8
0
100
AcDbVertex
100
AcDbPolygonMeshVertex
 10
-3.378
 20
-2.84
 30
0.387
 70
    64
  0
VERTEX
  5
5AEFB
100
AcDbEntity
  8
0
100
AcDbVertex
100
AcDbPolygonMeshVertex
 10
-4.168
 20
-2.84
 30
4.287
 70
    64
  0
VERTEX
  5
5AEFC
100
AcDbEntity
  8
0
100
AcDbVertex
100
AcDbPolygonMeshVertex
 10
-4.168
 20
-2.84
 30
0.387
 70
    64
  0
VERTEX
  5
5AEFD
100
AcDbEntity
  8
0
100
AcDbVertex
100
AcDbPolygonMeshVertex
 10
-4.168
 20
-2.84
 30
0.387
 70
    64
  0
VERTEX
  5
5AEFE
100
AcDbEntity
  8
0
100
AcDbVertex
100
AcDbPolygonMeshVertex
 10
-4.168
 20
-1.47
 30
4.287
 70
    64
  0
VERTEX
  5
5AEFF
100
AcDbEntity
  8
0
100
AcDbVertex
100
AcDbPolygonMeshVertex
 10
-4.168
 20
-1.47
 30
0.387
 70
    64
  0
VERTEX
  5
5AF00
100
AcDbEntity
  8
0
100
AcDbVertex
100
AcDbPolygonMeshVertex
 10
-4.168
 20
-2.84
 30
0.387
 70
    64
  0
VERTEX
  5
5AF01
100
AcDbEntity
  8
0
100
AcDbVertex
100
AcDbPolygonMeshVertex
 10
-3.378
 20
-1.47
 30
4.287
 70
    64
  0
VERTEX
  5
5AF02
100
AcDbEntity
  8
0
100
AcDbVertex
100
AcDbPolygonMeshVertex
 10
-3.378
 20
-1.47
 30
0.387
 70
    64
  0
VERTEX
  5
5AF03
100
AcDbEntity
  8
0
100
AcDbVertex
100
AcDbPolygonMeshVertex
 10
-3.378
 20
-2.84
 30
0.387
 70
    64
  0
VERTEX
  5
5AF04
100
AcDbEntity
  8
0
100
AcDbVertex
100
AcDbPolygonMeshVertex
 10
-3.378
 20
-1.47
 30
4.287
 70
    64
  0
VERTEX
  5
5AF05
100
AcDbEntity
  8
0
100
AcDbVertex
100
AcDbPolygonMeshVertex
 10
-3.378
 20
-1.47
 30
4.287
 70
    64
  0
VERTEX
  5
5AF06
100
AcDbEntity
  8
0
100
AcDbVertex
100
AcDbPolygonMeshVertex
 10
-3.378
 20
-2.84
 30
4.287
 70
    64
  0
VERTEX
  5
5AF07
100
AcDbEntity
  8
0
100
AcDbVertex
100
AcDbPolygonMeshVertex
 10
-4.168
 20
-1.47
 30
4.287
 70
    64
  0
VERTEX
  5
5AF08
100
AcDbEntity
  8
0
100
AcDbVertex
100
AcDbPolygonMeshVertex
 10
-4.168
 20
-1.47
 30
4.287
 70
    64
  0
VERTEX
  5
5AF09
100
AcDbEntity
  8
0
100
AcDbVertex
100
AcDbPolygonMeshVertex
 10
-4.168
 20
-2.84
 30
4.287
 70
    64
  0
SEQEND
  5
5AF0A
100
AcDbEntity
  8
0
  0
POLYLINE
  5
5AF0B
100
AcDbEntity
  8
0
100
AcDbPolygonMesh
 66
     1
 10
0.0
 20
0.0
 30
0.0
 70
    16
 71
     6
 72
     3
  0
VERTEX
  5
5AF0C
100
AcDbEntity
  8
0
100
AcDbVertex
100
AcDbPolygonMeshVertex
 10
-3.418
 20
-1.97
 30
4.477
 70
    64
  0
VERTEX
  5
5AF0D
100
AcDbEntity
  8
0
100
AcDbVertex
100
AcDbPolygonMeshVertex
 10
-3.418
 20
-1.97
 30
4.287
 70
    64
  0
VERTEX
  5
5AF0E
100
AcDbEntity
  8
0
100
AcDbVertex
100
AcDbPolygonMeshVertex
 10
-3.418
 20
-1.97
 30
4.287
 70
    64
  0
VERTEX
  5
5AF0F
100
AcDbEntity
  8
0
100
AcDbVertex
100
AcDbPolygonMeshVertex
 10
-3.918
 20
-1.97
 30
4.477
 70
    64
  0
VERTEX
  5
5AF10
100
AcDbEntity
  8
0
100
AcDbVertex
100
AcDbPolygonMeshVertex
 10
-3.918
 20
-1.97
 30
4.287
 70
    64
  0
VERTEX
  5
5AF11
100
AcDbEntity
  8
0
100
AcDbVertex
100
AcDbPolygonMeshVertex
 10
-3.918
 20
-1.97
 30
4.287
 70
    64
  0
VERTEX
  5
5AF12
100
AcDbEntity
  8
0
100
AcDbVertex
100
AcDbPolygonMeshVertex
 10
-3.918
 20
-1.56
 30
4.477
 70
    64
  0
VERTEX
  5
5AF13
100
AcDbEntity
  8
0
100
AcDbVertex
100
AcDbPolygonMeshVertex
 10
-3.918
 20
-1.56
 30
4.287
 70
    64
  0
VERTEX
  5
5AF14
100
AcDbEntity
  8
0
100
AcDbVertex
100
AcDbPolygonMeshVertex
 10
-3.918
 20
-1.97
 30
4.287
 70
    64
  0
VERTEX
  5
5AF15
100
AcDbEntity
  8
0
100
AcDbVertex
100
AcDbPolygonMeshVertex
 10
-3.418
 20
-1.56
 30
4.477
 70
    64
  0
VERTEX
  5
5AF16
100
AcDbEntity
  8
0
100
AcDbVertex
100
AcDbPolygonMeshVertex
 10
-3.418
 20
-1.56
 30
4.287
 70
    64
  0
VERTEX
  5
5AF17
100
AcDbEntity
  8
0
100
AcDbVertex
100
AcDbPolygonMeshVertex
 10
-3.418
 20
-1.97
 30
4.287
 70
    64
  0
VERTEX
  5
5AF18
100
AcDbEntity
  8
0
100
AcDbVertex
100
AcDbPolygonMeshVertex
 10
-3.418
 20
-1.56
 30
4.477
 70
    64
  0
VERTEX
  5
5AF19
100
AcDbEntity
  8
0
100
AcDbVertex
100
AcDbPolygonMeshVertex
 10
-3.418
 20
-1.56
 30
4.477
 70
    64
  0
VERTEX
  5
5AF1A
100
AcDbEntity
  8
0
100
AcDbVertex
100
AcDbPolygonMeshVertex
 10
-3.418
 20
-1.97
 30
4.477
 70
    64
  0
VERTEX
  5
5AF1B
100
AcDbEntity
  8
0
100
AcDbVertex
100
AcDbPolygonMeshVertex
 10
-3.918
 20
-1.56
 30
4.477
 70
    64
  0
VERTEX
  5
5AF1C
100
AcDbEntity
  8
0
100
AcDbVertex
100
AcDbPolygonMeshVertex
 10
-3.918
 20
-1.56
 30
4.477
 70
    64
  0
VERTEX
  5
5AF1D
100
AcDbEntity
  8
0
100
AcDbVertex
100
AcDbPolygonMeshVertex
 10
-3.918
 20
-1.97
 30
4.477
 70
    64
  0
SEQEND
  5
5AF1E
100
AcDbEntity
  8
0
  0
CIRCLE
  5
5AF1F
100
AcDbEntity
  8
0
100
AcDbCircle
 10
-3.668
 20
-1.765
 30
4.477
 40
0.19
  0
LINE
  5
5AF20
100
AcDbEntity
  8
0
100
AcDbLine
 10
-3.572965
 20
-1.928318
 30
4.477
 11
-3.804216
 21
-1.631115
 31
4.477
  0
LINE
  5
5AF21
100
AcDbEntity
  8
0
100
AcDbLine
 10
-3.532278
 20
-1.897964
 30
4.477
 11
-3.763529
 21
-1.600762
 31
4.477
  0
LINE
  5
5AF22
100
AcDbEntity
  8
0
100
AcDbLine
 10
0.407722
 20
-1.897964
 30
4.477
 11
0.176471
 21
-1.600762
 31
4.477
  0
LINE
  5
5AF23
100
AcDbEntity
  8
0
100
AcDbLine
 10
0.367035
 20
-1.928318
 30
4.477
 11
0.135784
 21
-1.631115
 31
4.477
  0
ARC
  5
5AF24
100
AcDbEntity
  8
0
100
AcDbCircle
 10
-2.753
 20
-8.658
 30
0.197
 40
0.1
100
AcDbArc
 50
0.0
 51
179.999985
  0
ARC
  5
5AF25
100
AcDbEntity
  8
0
100
AcDbCircle
 10
-2.753
 20
-8.658
 30
0.0
 40
0.1
100
AcDbArc
 50
0.0
 51
179.999985
  0
LINE
  5
5AF26
100
AcDbEntity
  8
DIMS-MTG-HOLES
100
AcDbLine
 10
-2.753
 20
-8.748
 30
0.0
 11
-2.753
 21
-8.568
 31
0.0
  0
LINE
  5
5AF27
100
AcDbEntity
  8
0
100
AcDbLine
 10
-2.853
 20
-8.879
 30
0.0
 11
-2.853
 21
-8.879
 31
0.197
  0
LINE
  5
5AF28
100
AcDbEntity
  8
0
100
AcDbLine
 10
-2.853
 20
-8.658
 30
0.0
 11
-2.853
 21
-8.658
 31
0.197
  0
LINE
  5
5AF29
100
AcDbEntity
  8
0
100
AcDbLine
 10
-2.653
 20
-8.879
 30
0.0
 11
-2.653
 21
-8.879
 31
0.197
  0
LINE
  5
5AF2A
100
AcDbEntity
  8
0
100
AcDbLine
 10
-2.653
 20
-8.658
 30
0.0
 11
-2.653
 21
-8.658
 31
0.197
  0
LINE
  5
5AF2B
100
AcDbEntity
  8
DIMS-MTG-HOLES
100
AcDbLine
 10
-2.843
 20
-8.658
 30
0.0
 11
-2.663
 21
-8.658
 31
0.0
  0
LINE
  5
5AF2C
100
AcDbEntity
  8
0
100
AcDbLine
 10
-2.853
 20
-8.658
 30
0.0
 11
-2.853
 21
-8.879
 31
0.0
  0
LINE
  5
5AF2D
100
AcDbEntity
  8
0
100
AcDbLine
 10
-2.653
 20
-8.879
 30
0.0
 11
-2.653
 21
-8.658
 31
0.0
  0
LINE
  5
5AF2E
100
AcDbEntity
  8
0
100
AcDbLine
 10
-2.853
 20
-8.658
 30
0.197
 11
-2.853
 21
-8.879
 31
0.197
  0
LINE
  5
5AF2F
100
AcDbEntity
  8
0
100
AcDbLine
 10
-2.653
 20
-8.879
 30
0.197
 11
-2.653
 21
-8.658
 31
0.197
  0
LINE
  5
5AF30
100
AcDbEntity
  8
0
100
AcDbLine
 10
0.1
 20
0.0
 30
0.197
 11
0.1
 21
-0.131891
 31
0.197
  0
LINE
  5
5AF31
100
AcDbEntity
  8
0
100
AcDbLine
 10
-0.1
 20
0.0
 30
0.197
 11
-0.1
 21
-0.131891
 31
0.197
  0
LINE
  5
5AF32
100
AcDbEntity
  8
0
100
AcDbLine
 10
0.1
 20
0.0
 30
0.0
 11
0.1
 21
-0.131891
 31
0.0
  0
LINE
  5
5AF33
100
AcDbEntity
  8
0
100
AcDbLine
 10
-0.1
 20
0.0
 30
0.0
 11
-0.1
 21
-0.131891
 31
0.0
  0
LINE
  5
5AF34
100
AcDbEntity
  8
DIMS-MTG-HOLES
100
AcDbLine
 10
0.0
 20
-0.09
 30
0.0
 11
0.0
 21
0.09
 31
0.0
  0
ARC
  5
5AF35
100
AcDbEntity
  8
0
100
AcDbCircle
 10
0.0
 20
-0.344
 30
0.0
 40
0.2345
100
AcDbArc
 50
115.241821
 51
64.758209
  0
ARC
  5
5AF36
100
AcDbEntity
  8
0
100
AcDbCircle
 10
0.0
 20
-0.344
 30
0.197
 40
0.2345
100
AcDbArc
 50
115.241821
 51
64.758209
  0
LINE
  5
5AF37
100
AcDbEntity
  8
0
100
AcDbLine
 10
-0.1
 20
-0.131891
 30
0.0
 11
-0.1
 21
-0.131891
 31
0.197
  0
LINE
  5
5AF38
100
AcDbEntity
  8
0
100
AcDbLine
 10
0.1
 20
-0.131891
 30
0.0
 11
0.1
 21
-0.131891
 31
0.197
  0
LINE
  5
5AF39
100
AcDbEntity
  8
0
100
AcDbLine
 10
-0.1
 20
0.0
 30
0.0
 11
-0.1
 21
0.0
 31
0.197
  0
LINE
  5
5AF3A
100
AcDbEntity
  8
0
100
AcDbLine
 10
0.1
 20
0.0
 30
0.0
 11
0.1
 21
0.0
 31
0.197
  0
LINE
  5
5AF3B
100
AcDbEntity
  8
DIMS-MTG-HOLES
100
AcDbLine
 10
-0.09
 20
0.0
 30
0.0
 11
0.09
 21
0.0
 31
0.0
  0
ARC
  5
5AF3C
100
AcDbEntity
  8
0
100
AcDbCircle
 10
0.0
 20
0.0
 30
0.0
 40
0.1
100
AcDbArc
 50
0.0
 51
179.999985
  0
ARC
  5
5AF3D
100
AcDbEntity
  8
0
100
AcDbCircle
 10
0.0
 20
0.0
 30
0.0
 40
0.1
100
AcDbArc
 50
0.0
 51
179.999985
  0
ARC
  5
5AF3E
100
AcDbEntity
  8
0
100
AcDbCircle
 10
0.0
 20
0.0
 30
0.197
 40
0.1
100
AcDbArc
 50
0.0
 51
179.999985
  0
ARC
  5
5AF3F
100
AcDbEntity
  8
0
100
AcDbCircle
 10
0.0
 20
0.0
 30
0.197
 40
0.1
100
AcDbArc
 50
0.0
 51
179.999985
  0
ARC
  5
5AF40
100
AcDbEntity
  8
0
100
AcDbCircle
 10
4.337
 20
-8.658
 30
0.197
 40
0.1
100
AcDbArc
 50
0.0
 51
179.999985
  0
ARC
  5
5AF41
100
AcDbEntity
  8
0
100
AcDbCircle
 10
4.337
 20
-8.658
 30
0.0
 40
0.1
100
AcDbArc
 50
0.0
 51
179.999985
  0
LINE
  5
5AF42
100
AcDbEntity
  8
DIMS-MTG-HOLES
100
AcDbLine
 10
4.337
 20
-8.748
 30
0.0
 11
4.337
 21
-8.568
 31
0.0
  0
LINE
  5
5AF43
100
AcDbEntity
  8
0
100
AcDbLine
 10
4.237
 20
-8.879
 30
0.0
 11
4.237
 21
-8.879
 31
0.197
  0
LINE
  5
5AF44
100
AcDbEntity
  8
0
100
AcDbLine
 10
4.237
 20
-8.658
 30
0.0
 11
4.237
 21
-8.658
 31
0.197
  0
LINE
  5
5AF45
100
AcDbEntity
  8
0
100
AcDbLine
 10
4.437
 20
-8.879
 30
0.0
 11
4.437
 21
-8.879
 31
0.197
  0
LINE
  5
5AF46
100
AcDbEntity
  8
0
100
AcDbLine
 10
4.437
 20
-8.658
 30
0.0
 11
4.437
 21
-8.658
 31
0.197
  0
LINE
  5
5AF47
100
AcDbEntity
  8
0
100
AcDbLine
 39
0.197
 10
4.237
 20
-8.879
 30
0.0
 11
4.237
 21
-8.658
 31
0.0
  0
LINE
  5
5AF48
100
AcDbEntity
  8
0
100
AcDbLine
 39
0.197
 10
4.437
 20
-8.658
 30
0.0
 11
4.437
 21
-8.879
 31
0.0
  0
LINE
  5
5AF49
100
AcDbEntity
  8
DIMS-MTG-HOLES
100
AcDbLine
 10
4.247
 20
-8.658
 30
0.0
 11
4.427
 21
-8.658
 31
0.0
  0
LINE
  5
5AF4A
100
AcDbEntity
  8
0
100
AcDbLine
 10
4.237
 20
-8.879
 30
0.197
 11
4.237
 21
-8.658
 31
0.197
  0
LINE
  5
5AF4B
100
AcDbEntity
  8
0
100
AcDbLine
 10
4.437
 20
-8.879
 30
0.197
 11
4.437
 21
-8.658
 31
0.197
  0
POLYLINE
  5
5AF4C
100
AcDbEntity
  8
0
100
AcDbPolygonMesh
 66
     1
 10
0.0
 20
0.0
 30
0.0
 70
    16
 71
     6
 72
     3
  0
VERTEX
  5
5AF4D
100
AcDbEntity
  8
0
100
AcDbVertex
100
AcDbPolygonMeshVertex
 10
5.107
 20
-8.879
 30
0.197
 70
    64
  0
VERTEX
  5
5AF4E
100
AcDbEntity
  8
0
100
AcDbVertex
100
AcDbPolygonMeshVertex
 10
5.107
 20
-8.879
 30
0.0
 70
    64
  0
VERTEX
  5
5AF4F
100
AcDbEntity
  8
0
100
AcDbVertex
100
AcDbPolygonMeshVertex
 10
5.107
 20
-8.879
 30
0.0
 70
    64
  0
VERTEX
  5
5AF50
100
AcDbEntity
  8
0
100
AcDbVertex
100
AcDbPolygonMeshVertex
 10
-3.553
 20
-8.879
 30
0.197
 70
    64
  0
VERTEX
  5
5AF51
100
AcDbEntity
  8
0
100
AcDbVertex
100
AcDbPolygonMeshVertex
 10
-3.553
 20
-8.879
 30
0.0
 70
    64
  0
VERTEX
  5
5AF52
100
AcDbEntity
  8
0
100
AcDbVertex
100
AcDbPolygonMeshVertex
 10
-3.553
 20
-8.879
 30
0.0
 70
    64
  0
VERTEX
  5
5AF53
100
AcDbEntity
  8
0
100
AcDbVertex
100
AcDbPolygonMeshVertex
 10
-3.553
 20
-0.629
 30
0.197
 70
    64
  0
VERTEX
  5
5AF54
100
AcDbEntity
  8
0
100
AcDbVertex
100
AcDbPolygonMeshVertex
 10
-3.553
 20
-0.629
 30
0.0
 70
    64
  0
VERTEX
  5
5AF55
100
AcDbEntity
  8
0
100
AcDbVertex
100
AcDbPolygonMeshVertex
 10
-3.553
 20
-8.879
 30
0.0
 70
    64
  0
VERTEX
  5
5AF56
100
AcDbEntity
  8
0
100
AcDbVertex
100
AcDbPolygonMeshVertex
 10
5.107
 20
-0.629
 30
0.197
 70
    64
  0
VERTEX
  5
5AF57
100
AcDbEntity
  8
0
100
AcDbVertex
100
AcDbPolygonMeshVertex
 10
5.107
 20
-0.629
 30
0.0
 70
    64
  0
VERTEX
  5
5AF58
100
AcDbEntity
  8
0
100
AcDbVertex
100
AcDbPolygonMeshVertex
 10
5.107
 20
-8.879
 30
0.0
 70
    64
  0
VERTEX
  5
5AF59
100
AcDbEntity
  8
0
100
AcDbVertex
100
AcDbPolygonMeshVertex
 10
5.107
 20
-0.629
 30
0.197
 70
    64
  0
VERTEX
  5
5AF5A
100
AcDbEntity
  8
0
100
AcDbVertex
100
AcDbPolygonMeshVertex
 10
5.107
 20
-0.629
 30
0.197
 70
    64
  0
VERTEX
  5
5AF5B
100
AcDbEntity
  8
0
100
AcDbVertex
100
AcDbPolygonMeshVertex
 10
5.107
 20
-8.879
 30
0.197
 70
    64
  0
VERTEX
  5
5AF5C
100
AcDbEntity
  8
0
100
AcDbVertex
100
AcDbPolygonMeshVertex
 10
-3.553
 20
-0.629
 30
0.197
 70
    64
  0
VERTEX
  5
5AF5D
100
AcDbEntity
  8
0
100
AcDbVertex
100
AcDbPolygonMeshVertex
 10
-3.553
 20
-0.629
 30
0.197
 70
    64
  0
VERTEX
  5
5AF5E
100
AcDbEntity
  8
0
100
AcDbVertex
100
AcDbPolygonMeshVertex
 10
-3.553
 20
-8.879
 30
0.197
 70
    64
  0
SEQEND
  5
5AF5F
100
AcDbEntity
  8
0
  0
3DFACE
  5
5AF60
100
AcDbEntity
  8
0
100
AcDbFace
 10
1.91
 20
-0.629
 30
0.197
 11
1.0
 21
0.281
 31
0.197
 12
-1.0
 22
0.281
 32
0.197
 13
-1.91
 23
-0.629
 33
0.197
  0
3DFACE
  5
5AF61
100
AcDbEntity
  8
0
100
AcDbFace
 10
1.91
 20
-0.629
 30
0.0
 11
1.0
 21
0.281
 31
0.0
 12
-1.0
 22
0.281
 32
0.0
 13
-1.91
 23
-0.629
 33
0.0
  0
3DFACE
  5
5AF62
100
AcDbEntity
  8
0
100
AcDbFace
 10
1.0
 20
0.281
 30
0.197
 11
1.0
 21
0.281
 31
0.0
 12
1.91
 22
-0.629
 32
0.0
 13
1.91
 23
-0.629
 33
0.197
  0
3DFACE
  5
5AF63
100
AcDbEntity
  8
0
100
AcDbFace
 10
-1.0
 20
0.281
 30
0.197
 11
-1.0
 21
0.281
 31
0.0
 12
1.0
 22
0.281
 32
0.0
 13
1.0
 23
0.281
 33
0.197
  0
3DFACE
  5
5AF64
100
AcDbEntity
  8
0
100
AcDbFace
 10
-1.0
 20
0.281
 30
0.197
 11
-1.0
 21
0.281
 31
0.0
 12
-1.91
 22
-0.629
 32
0.0
 13
-1.91
 23
-0.629
 33
0.197
  0
LINE
  5
5AF69
100
AcDbEntity
  8
0
100
AcDbLine
 10
1.622
 20
-5.79
 30
2.007
 11
1.622
 21
-5.79
 31
3.237
  0
LINE
  5
5AF6A
100
AcDbEntity
  8
0
100
AcDbLine
 10
2.022
 20
-8.31
 30
0.387
 11
2.022
 21
-8.06
 31
0.387
  0
LINE
  5
5AF6B
100
AcDbEntity
  8
0
100
AcDbLine
 10
2.022
 20
-8.31
 30
0.577
 11
2.022
 21
-8.06
 31
0.577
  0
LINE
  5
5AF6C
100
AcDbEntity
  8
0
100
AcDbLine
 10
1.822
 20
-8.06
 30
0.387
 11
1.822
 21
-8.31
 31
0.387
  0
LINE
  5
5AF6D
100
AcDbEntity
  8
0
100
AcDbLine
 10
1.822
 20
-8.06
 30
0.577
 11
1.822
 21
-8.31
 31
0.577
  0
LINE
  5
5AF6E
100
AcDbEntity
  8
0
100
AcDbLine
 10
1.822
 20
-8.31
 30
0.387
 11
1.822
 21
-8.31
 31
0.577
  0
LINE
  5
5AF6F
100
AcDbEntity
  8
0
100
AcDbLine
 10
2.022
 20
-8.06
 30
0.387
 11
2.022
 21
-8.06
 31
0.577
  0
LINE
  5
5AF70
100
AcDbEntity
  8
0
100
AcDbLine
 10
1.822
 20
-8.06
 30
0.387
 11
1.822
 21
-8.06
 31
0.577
  0
ARC
  5
5AF71
100
AcDbEntity
  8
0
100
AcDbCircle
 10
1.922
 20
-8.06
 30
0.387
 40
0.1
100
AcDbArc
 50
0.0
 51
179.999985
  0
ARC
  5
5AF72
100
AcDbEntity
  8
0
100
AcDbCircle
 10
1.922
 20
-8.06
 30
0.577
 40
0.1
100
AcDbArc
 50
0.0
 51
179.999985
  0
3DFACE
  5
5AF73
100
AcDbEntity
  8
0
100
AcDbFace
 10
4.772
 20
-8.06
 30
0.577
 11
4.772
 21
-8.06
 31
0.387
 12
4.772
 22
-8.31
 32
0.387
 13
4.772
 23
-8.31
 33
0.577
 70
    14
  0
LINE
  5
5AF74
100
AcDbEntity
  8
0
100
AcDbLine
 10
4.572
 20
-8.06
 30
0.387
 11
4.572
 21
-8.31
 31
0.387
  0
LINE
  5
5AF75
100
AcDbEntity
  8
0
100
AcDbLine
 10
4.772
 20
-8.31
 30
0.387
 11
4.772
 21
-8.06
 31
0.387
  0
LINE
  5
5AF76
100
AcDbEntity
  8
0
100
AcDbLine
 10
4.572
 20
-8.06
 30
0.577
 11
4.572
 21
-8.31
 31
0.577
  0
LINE
  5
5AF77
100
AcDbEntity
  8
0
100
AcDbLine
 10
4.772
 20
-8.31
 30
0.577
 11
4.772
 21
-8.06
 31
0.577
  0
LINE
  5
5AF78
100
AcDbEntity
  8
0
100
AcDbLine
 10
4.572
 20
-8.31
 30
0.387
 11
4.572
 21
-8.31
 31
0.577
  0
LINE
  5
5AF79
100
AcDbEntity
  8
0
100
AcDbLine
 10
4.772
 20
-8.31
 30
0.387
 11
4.772
 21
-8.31
 31
0.577
  0
LINE
  5
5AF7A
100
AcDbEntity
  8
0
100
AcDbLine
 10
4.572
 20
-8.06
 30
0.387
 11
4.572
 21
-8.06
 31
0.577
  0
LINE
  5
5AF7B
100
AcDbEntity
  8
0
100
AcDbLine
 10
4.772
 20
-8.06
 30
0.387
 11
4.772
 21
-8.06
 31
0.577
  0
ARC
  5
5AF7C
100
AcDbEntity
  8
0
100
AcDbCircle
 10
4.672
 20
-8.06
 30
0.387
 40
0.1
100
AcDbArc
 50
0.0
 51
179.999985
  0
ARC
  5
5AF7D
100
AcDbEntity
  8
0
100
AcDbCircle
 10
4.672
 20
-8.06
 30
0.577
 40
0.1
100
AcDbArc
 50
0.0
 51
179.999985
  0
CIRCLE
  5
5AF7E
100
AcDbEntity
  8
0
100
AcDbCircle
 10
2.172
 20
-6.06811
 30
5.358772
 40
0.155
210
0.0
220
-0.3163624652213708
230
0.9486383876899864
  0
LINE
  5
5AF7F
100
AcDbEntity
  8
0
100
AcDbLine
 10
2.151925
 20
-7.597557
 30
3.115192
 11
2.172414
 21
-7.304718
 31
3.212851
210
0.0
220
-0.3163624652213708
230
0.9486383876899864
  0
LINE
  5
5AF80
100
AcDbEntity
  8
0
100
AcDbLine
 10
2.171042
 20
-7.598819
 30
3.114771
 11
2.191531
 21
-7.30598
 31
3.21243
210
0.0
220
-0.3163624652213708
230
0.9486383876899864
  0
CIRCLE
  5
5AF81
100
AcDbEntity
  8
0
100
AcDbCircle
 10
3.232
 20
-6.06811
 30
5.358772
 40
0.155
210
0.0
220
-0.3163624652213708
230
0.9486383876899864
  0
LINE
  5
5AF82
100
AcDbEntity
  8
0
100
AcDbLine
 10
3.231042
 20
-7.598819
 30
3.114771
 11
3.251531
 21
-7.30598
 31
3.21243
210
0.0
220
-0.3163624652213708
230
0.9486383876899864
  0
LINE
  5
5AF83
100
AcDbEntity
  8
0
100
AcDbLine
 10
3.211925
 20
-7.597557
 30
3.115192
 11
3.232414
 21
-7.304718
 31
3.212851
210
0.0
220
-0.3163624652213708
230
0.9486383876899864
  0
LINE
  5
5AF84
100
AcDbEntity
  8
0
100
AcDbLine
 10
2.579
 20
-6.29
 30
4.347
 11
2.579
 21
-6.29
 31
4.027
  0
LINE
  5
5AF85
100
AcDbEntity
  8
0
100
AcDbLine
 10
2.829
 20
-6.29
 30
4.347
 11
2.829
 21
-6.29
 31
4.027
  0
LINE
  5
5AF86
100
AcDbEntity
  8
0
100
AcDbLine
 10
2.829
 20
-6.04
 30
4.347
 11
2.829
 21
-6.04
 31
4.027
  0
LINE
  5
5AF87
100
AcDbEntity
  8
0
100
AcDbLine
 10
2.579
 20
-6.04
 30
4.347
 11
2.579
 21
-6.04
 31
4.027
  0
LINE
  5
5AF88
100
AcDbEntity
  8
0
100
AcDbLine
 10
2.829
 20
-6.04
 30
4.347
 11
2.829
 21
-6.04
 31
4.027
  0
3DFACE
  5
5AF89
100
AcDbEntity
  8
0
100
AcDbFace
 10
2.829
 20
-6.29
 30
4.347
 11
2.829
 21
-6.29
 31
4.027
 12
2.829
 22
-6.04
 32
4.027
 13
2.829
 23
-6.04
 33
4.347
 70
    14
  0
3DFACE
  5
5AF8A
100
AcDbEntity
  8
0
100
AcDbFace
 10
2.829
 20
-6.04
 30
4.027
 11
2.829
 21
-6.04
 31
4.347
 12
2.829
 22
-6.29
 32
4.347
 13
2.829
 23
-6.29
 33
4.027
 70
     3
  0
3DFACE
  5
5AF8B
100
AcDbEntity
  8
0
100
AcDbFace
 10
2.829
 20
-6.29
 30
4.347
 11
2.829
 21
-6.29
 31
4.027
 12
2.829
 22
-6.04
 32
4.027
 13
2.829
 23
-6.04
 33
4.027
 70
    14
  0
3DFACE
  5
5AF8C
100
AcDbEntity
  8
0
100
AcDbFace
 10
2.829
 20
-6.04
 30
4.027
 11
2.579
 21
-6.04
 31
4.027
 12
2.579
 22
-6.04
 32
4.347
 13
2.829
 23
-6.04
 33
4.347
 70
    14
  0
3DFACE
  5
5AF8D
100
AcDbEntity
  8
0
100
AcDbFace
 10
2.579
 20
-6.04
 30
4.347
 11
2.579
 21
-6.29
 31
4.347
 12
2.579
 22
-6.29
 32
4.027
 13
2.579
 23
-6.04
 33
4.027
 70
    14
  0
3DFACE
  5
5AF8E
100
AcDbEntity
  8
0
100
AcDbFace
 10
2.579
 20
-6.29
 30
4.347
 11
2.579
 21
-6.29
 31
4.027
 12
2.829
 22
-6.29
 32
4.027
 13
2.829
 23
-6.29
 33
4.347
 70
    14
  0
LINE
  5
5AF8F
100
AcDbEntity
  8
0
100
AcDbLine
 10
2.829
 20
-6.29
 30
4.027
 11
2.579
 21
-6.29
 31
4.027
  0
LINE
  5
5AF90
100
AcDbEntity
  8
0
100
AcDbLine
 10
2.579
 20
-6.04
 30
4.027
 11
2.829
 21
-6.04
 31
4.027
  0
LINE
  5
5AF91
100
AcDbEntity
  8
0
100
AcDbLine
 10
2.579
 20
-6.29
 30
4.027
 11
2.579
 21
-6.04
 31
4.027
  0
LINE
  5
5AF92
100
AcDbEntity
  8
0
100
AcDbLine
 10
2.829
 20
-6.04
 30
4.027
 11
2.829
 21
-6.29
 31
4.027
  0
3DFACE
  5
5AF93
100
AcDbEntity
  8
0
100
AcDbFace
 10
2.394
 20
-5.79
 30
4.937
 11
3.014
 21
-5.79
 31
4.937
 12
3.014
 22
-5.79
 32
4.812
 13
2.394
 23
-5.79
 33
4.812
 70
    14
  0
LINE
  5
5AF94
100
AcDbEntity
  8
0
100
AcDbLine
 10
2.394
 20
-5.79
 30
4.937
 11
3.014
 21
-5.79
 31
4.937
  0
LINE
  5
5AF95
100
AcDbEntity
  8
0
100
AcDbLine
 10
2.394
 20
-5.79
 30
4.812
 11
3.014
 21
-5.79
 31
4.812
  0
LINE
  5
5AF96
100
AcDbEntity
  8
0
100
AcDbLine
 10
2.454
 20
-5.915
 30
4.347
 11
2.954
 21
-5.915
 31
4.347
  0
3DFACE
  5
5AF97
100
AcDbEntity
  8
0
100
AcDbFace
 10
3.014
 20
-5.79
 30
4.812
 11
2.394
 21
-5.79
 31
4.812
 12
2.454
 22
-5.915
 32
4.347
 13
2.954
 23
-5.915
 33
4.347
 70
    14
  0
LINE
  5
5AF98
100
AcDbEntity
  8
0
100
AcDbLine
 10
3.014
 20
-6.54
 30
4.812
 11
2.394
 21
-6.54
 31
4.812
  0
3DFACE
  5
5AF99
100
AcDbEntity
  8
0
100
AcDbFace
 10
2.394
 20
-6.54
 30
4.937
 11
3.014
 21
-6.54
 31
4.937
 12
3.014
 22
-6.54
 32
4.812
 13
2.394
 23
-6.54
 33
4.812
 70
    14
  0
LINE
  5
5AF9A
100
AcDbEntity
  8
0
100
AcDbLine
 10
3.014
 20
-6.54
 30
4.937
 11
2.394
 21
-6.54
 31
4.937
  0
LINE
  5
5AF9B
100
AcDbEntity
  8
0
100
AcDbLine
 10
2.954
 20
-6.415
 30
4.347
 11
2.454
 21
-6.415
 31
4.347
  0
3DFACE
  5
5AF9C
100
AcDbEntity
  8
0
100
AcDbFace
 10
2.394
 20
-6.54
 30
4.812
 11
3.014
 21
-6.54
 31
4.812
 12
2.954
 22
-6.415
 32
4.347
 13
2.454
 23
-6.415
 33
4.347
 70
    14
  0
3DFACE
  5
5AF9D
100
AcDbEntity
  8
0
100
AcDbFace
 10
2.394
 20
-5.79
 30
4.937
 11
3.014
 21
-5.79
 31
4.937
 12
3.014
 22
-6.54
 32
4.937
 13
2.394
 23
-6.54
 33
4.937
 70
    14
  0
LINE
  5
5AF9E
100
AcDbEntity
  8
0
100
AcDbLine
 10
2.579
 20
-6.29
 30
4.347
 11
2.829
 21
-6.29
 31
4.347
  0
LINE
  5
5AF9F
100
AcDbEntity
  8
0
100
AcDbLine
 10
2.579
 20
-6.04
 30
4.347
 11
2.829
 21
-6.04
 31
4.347
  0
LINE
  5
5AFA0
100
AcDbEntity
  8
0
100
AcDbLine
 10
2.394
 20
-6.54
 30
4.812
 11
2.394
 21
-5.79
 31
4.812
  0
3DFACE
  5
5AFA1
100
AcDbEntity
  8
0
100
AcDbFace
 10
2.394
 20
-5.79
 30
4.937
 11
2.394
 21
-5.79
 31
4.812
 12
2.394
 22
-6.54
 32
4.812
 13
2.394
 23
-6.54
 33
4.937
 70
    14
  0
LINE
  5
5AFA2
100
AcDbEntity
  8
0
100
AcDbLine
 10
2.394
 20
-6.54
 30
4.937
 11
2.394
 21
-5.79
 31
4.937
  0
LINE
  5
5AFA3
100
AcDbEntity
  8
0
100
AcDbLine
 10
2.454
 20
-5.915
 30
4.347
 11
2.454
 21
-6.415
 31
4.347
  0
LINE
  5
5AFA4
100
AcDbEntity
  8
0
100
AcDbLine
 10
2.579
 20
-6.29
 30
4.347
 11
2.579
 21
-6.04
 31
4.347
  0
3DFACE
  5
5AFA5
100
AcDbEntity
  8
0
100
AcDbFace
 10
2.394
 20
-5.79
 30
4.812
 11
2.454
 21
-5.915
 31
4.347
 12
2.454
 22
-6.415
 32
4.347
 13
2.394
 23
-6.54
 33
4.812
 70
    14
  0
LINE
  5
5AFA6
100
AcDbEntity
  8
0
100
AcDbLine
 10
2.454
 20
-6.415
 30
4.347
 11
2.394
 21
-6.54
 31
4.812
  0
LINE
  5
5AFA7
100
AcDbEntity
  8
0
100
AcDbLine
 10
2.394
 20
-6.54
 30
4.812
 11
2.394
 21
-6.54
 31
4.937
  0
LINE
  5
5AFA8
100
AcDbEntity
  8
0
100
AcDbLine
 10
2.394
 20
-5.79
 30
4.812
 11
2.454
 21
-5.915
 31
4.347
  0
LINE
  5
5AFA9
100
AcDbEntity
  8
0
100
AcDbLine
 10
2.394
 20
-5.79
 30
4.937
 11
2.394
 21
-5.79
 31
4.812
  0
3DFACE
  5
5AFAA
100
AcDbEntity
  8
0
100
AcDbFace
 10
3.014
 20
-5.79
 30
4.937
 11
3.014
 21
-6.54
 31
4.937
 12
3.014
 22
-6.54
 32
4.812
 13
3.014
 23
-5.79
 33
4.812
 70
    14
  0
LINE
  5
5AFAB
100
AcDbEntity
  8
0
100
AcDbLine
 10
3.014
 20
-5.79
 30
4.937
 11
3.014
 21
-6.54
 31
4.937
  0
LINE
  5
5AFAC
100
AcDbEntity
  8
0
100
AcDbLine
 10
3.014
 20
-5.79
 30
4.812
 11
3.014
 21
-6.54
 31
4.812
  0
LINE
  5
5AFAD
100
AcDbEntity
  8
0
100
AcDbLine
 10
2.829
 20
-6.04
 30
4.347
 11
2.829
 21
-6.29
 31
4.347
  0
LINE
  5
5AFAE
100
AcDbEntity
  8
0
100
AcDbLine
 10
2.954
 20
-5.915
 30
4.347
 11
2.954
 21
-6.415
 31
4.347
  0
3DFACE
  5
5AFAF
100
AcDbEntity
  8
0
100
AcDbFace
 10
3.014
 20
-6.54
 30
4.812
 11
2.954
 21
-6.415
 31
4.347
 12
2.954
 22
-5.915
 32
4.347
 13
3.014
 23
-5.79
 33
4.812
 70
    14
  0
LINE
  5
5AFB0
100
AcDbEntity
  8
0
100
AcDbLine
 10
3.014
 20
-6.54
 30
4.812
 11
2.954
 21
-6.415
 31
4.347
  0
LINE
  5
5AFB1
100
AcDbEntity
  8
0
100
AcDbLine
 10
3.014
 20
-6.54
 30
4.937
 11
3.014
 21
-6.54
 31
4.812
  0
LINE
  5
5AFB2
100
AcDbEntity
  8
0
100
AcDbLine
 10
3.014
 20
-5.79
 30
4.812
 11
2.954
 21
-5.915
 31
4.347
  0
LINE
  5
5AFB3
100
AcDbEntity
  8
0
100
AcDbLine
 10
3.014
 20
-5.79
 30
4.937
 11
3.014
 21
-5.79
 31
4.812
  0
CIRCLE
  5
5AFB4
100
AcDbEntity
  8
0
100
AcDbCircle
 10
4.292
 20
-6.06811
 30
5.358772
 40
0.155
210
0.0
220
-0.3163624652213708
230
0.9486383876899864
  0
LINE
  5
5AFB5
100
AcDbEntity
  8
0
100
AcDbLine
 10
4.291042
 20
-7.598819
 30
3.114771
 11
4.311531
 21
-7.30598
 31
3.21243
210
0.0
220
-0.3163624652213708
230
0.9486383876899864
  0
LINE
  5
5AFB6
100
AcDbEntity
  8
0
100
AcDbLine
 10
4.271925
 20
-7.597557
 30
3.115192
 11
4.292414
 21
-7.304718
 31
3.212851
210
0.0
220
-0.3163624652213708
230
0.9486383876899864
  0
CIRCLE
  5
5AFB7
100
AcDbEntity
  8
0
100
AcDbCircle
 10
3.682
 20
-0.97
 30
0.577
 40
0.1
  0
CIRCLE
  5
5AFB8
100
AcDbEntity
  8
0
100
AcDbCircle
 10
3.682
 20
-0.97
 30
0.577
 40
0.1
  0
LINE
  5
5AFB9
100
AcDbEntity
  8
0
100
AcDbLine
 10
3.017
 20
-0.69
 30
0.387
 11
4.457
 21
-0.69
 31
0.387
  0
LINE
  5
5AFBA
100
AcDbEntity
  8
0
100
AcDbLine
 10
3.017
 20
-0.69
 30
0.577
 11
4.457
 21
-0.69
 31
0.577
  0
3DFACE
  5
5AFBB
100
AcDbEntity
  8
0
100
AcDbFace
 10
2.327
 20
-0.69
 30
0.577
 11
2.137
 21
-0.69
 31
0.577
 12
2.137
 22
-0.69
 32
0.387
 13
2.327
 23
-0.69
 33
0.387
 70
    14
  0
LINE
  5
5AFBC
100
AcDbEntity
  8
0
100
AcDbLine
 10
2.137
 20
-0.69
 30
0.387
 11
2.327
 21
-0.69
 31
0.387
  0
LINE
  5
5AFBD
100
AcDbEntity
  8
0
100
AcDbLine
 10
2.137
 20
-0.69
 30
0.577
 11
2.327
 21
-0.69
 31
0.577
  0
ARC
  5
5AFBE
100
AcDbEntity
  8
0
100
AcDbCircle
 10
3.302
 20
-0.97
 30
0.577
 40
0.1015
100
AcDbArc
 50
0.0
 51
179.999985
  0
ARC
  5
5AFBF
100
AcDbEntity
  8
0
100
AcDbCircle
 10
3.302
 20
-0.97
 30
0.577
 40
0.1015
100
AcDbArc
 50
0.0
 51
179.999985
  0
LINE
  5
5AFC0
100
AcDbEntity
  8
0
100
AcDbLine
 10
3.4035
 20
-1.102159
 30
0.387
 11
3.4035
 21
-1.102159
 31
0.577
  0
LINE
  5
5AFC1
100
AcDbEntity
  8
0
100
AcDbLine
 10
3.4035
 20
-0.97
 30
0.387
 11
3.4035
 21
-0.97
 31
0.577
  0
LINE
  5
5AFC2
100
AcDbEntity
  8
0
100
AcDbLine
 10
3.2005
 20
-0.97
 30
0.387
 11
3.2005
 21
-0.97
 31
0.577
  0
ARC
  5
5AFC3
100
AcDbEntity
  8
0
100
AcDbCircle
 10
3.302
 20
-1.313
 30
0.577
 40
0.234
100
AcDbArc
 50
115.70649
 51
64.293579
  0
ARC
  5
5AFC4
100
AcDbEntity
  8
0
100
AcDbCircle
 10
3.302
 20
-1.313
 30
0.577
 40
0.234
100
AcDbArc
 50
115.70649
 51
64.293579
  0
LINE
  5
5AFC5
100
AcDbEntity
  8
0
100
AcDbLine
 10
3.2005
 20
-0.97
 30
0.577
 11
3.2005
 21
-1.102159
 31
0.577
  0
LINE
  5
5AFC6
100
AcDbEntity
  8
0
100
AcDbLine
 10
3.2005
 20
-0.97
 30
0.577
 11
3.2005
 21
-1.102159
 31
0.577
  0
LINE
  5
5AFC7
100
AcDbEntity
  8
0
100
AcDbLine
 10
3.4035
 20
-0.97
 30
0.577
 11
3.4035
 21
-1.102159
 31
0.577
  0
LINE
  5
5AFC8
100
AcDbEntity
  8
0
100
AcDbLine
 10
3.4035
 20
-0.97
 30
0.577
 11
3.4035
 21
-1.102159
 31
0.577
  0
LINE
  5
5AFC9
100
AcDbEntity
  8
0
100
AcDbLine
 10
4.457
 20
-0.69
 30
0.387
 11
5.077
 21
-1.31
 31
0.387
  0
LINE
  5
5AFCA
100
AcDbEntity
  8
0
100
AcDbLine
 10
4.457
 20
-0.69
 30
0.577
 11
5.077
 21
-1.31
 31
0.577
  0
LINE
  5
5AFCB
100
AcDbEntity
  8
0
100
AcDbLine
 10
3.782
 20
-0.97
 30
0.387
 11
3.782
 21
-0.97
 31
0.577
  0
CIRCLE
  5
5AFCC
100
AcDbEntity
  8
0
100
AcDbCircle
 10
3.682
 20
-0.97
 30
0.387
 40
0.1
  0
ARC
  5
5AFCD
100
AcDbEntity
  8
0
100
AcDbCircle
 10
3.302
 20
-1.313
 30
0.387
 40
0.234
100
AcDbArc
 50
115.70649
 51
64.293579
  0
LINE
  5
5AFCE
100
AcDbEntity
  8
0
100
AcDbLine
 10
3.4035
 20
-0.97
 30
0.387
 11
3.4035
 21
-1.102159
 31
0.387
  0
ARC
  5
5AFCF
100
AcDbEntity
  8
0
100
AcDbCircle
 10
3.302
 20
-0.97
 30
0.387
 40
0.1015
100
AcDbArc
 50
0.0
 51
179.999985
  0
LINE
  5
5AFD0
100
AcDbEntity
  8
0
100
AcDbLine
 10
3.2005
 20
-0.97
 30
0.387
 11
3.2005
 21
-1.102159
 31
0.387
  0
LINE
  5
5AFD1
100
AcDbEntity
  8
0
100
AcDbLine
 10
3.2005
 20
-1.102159
 30
0.387
 11
3.2005
 21
-1.102159
 31
0.577
  0
LINE
  5
5AFD6
100
AcDbEntity
  8
0
100
AcDbLine
 10
1.622
 20
-7.2
 30
3.237
 11
1.622
 21
-7.2
 31
0.577
  0
LINE
  5
5AFD7
100
AcDbEntity
  8
0
100
AcDbLine
 10
4.982
 20
-5.79
 30
2.007
 11
4.982
 21
-7.592911
 31
2.007
  0
LINE
  5
5AFD8
100
AcDbEntity
  8
0
100
AcDbLine
 10
1.622
 20
-7.61
 30
2.157
 11
1.622
 21
-7.61
 31
2.007
  0
LINE
  5
5AFD9
100
AcDbEntity
  8
0
100
AcDbLine
 10
1.622
 20
-7.61
 30
2.007
 11
1.622
 21
-7.61
 31
0.577
  0
POLYLINE
  5
5AFDA
100
AcDbEntity
  8
0
100
AcDbPolygonMesh
 66
     1
 10
0.0
 20
0.0
 30
0.0
 70
    16
 71
     6
 72
     3
  0
VERTEX
  5
5AFDB
100
AcDbEntity
  8
0
100
AcDbVertex
100
AcDbPolygonMeshVertex
 10
4.982
 20
-7.61
 30
3.087
 70
    64
  0
VERTEX
  5
5AFDC
100
AcDbEntity
  8
0
100
AcDbVertex
100
AcDbPolygonMeshVertex
 10
4.982
 20
-7.61
 30
0.577
 70
    64
  0
VERTEX
  5
5AFDD
100
AcDbEntity
  8
0
100
AcDbVertex
100
AcDbPolygonMeshVertex
 10
4.982
 20
-7.61
 30
0.577
 70
    64
  0
VERTEX
  5
5AFDE
100
AcDbEntity
  8
0
100
AcDbVertex
100
AcDbPolygonMeshVertex
 10
1.622
 20
-7.61
 30
3.087
 70
    64
  0
VERTEX
  5
5AFDF
100
AcDbEntity
  8
0
100
AcDbVertex
100
AcDbPolygonMeshVertex
 10
1.622
 20
-7.61
 30
0.577
 70
    64
  0
VERTEX
  5
5AFE0
100
AcDbEntity
  8
0
100
AcDbVertex
100
AcDbPolygonMeshVertex
 10
1.622
 20
-7.61
 30
0.577
 70
    64
  0
VERTEX
  5
5AFE1
100
AcDbEntity
  8
0
100
AcDbVertex
100
AcDbPolygonMeshVertex
 10
1.622
 20
-7.2
 30
3.087
 70
    64
  0
VERTEX
  5
5AFE2
100
AcDbEntity
  8
0
100
AcDbVertex
100
AcDbPolygonMeshVertex
 10
1.622
 20
-7.2
 30
0.577
 70
    64
  0
VERTEX
  5
5AFE3
100
AcDbEntity
  8
0
100
AcDbVertex
100
AcDbPolygonMeshVertex
 10
1.622
 20
-7.61
 30
0.577
 70
    64
  0
VERTEX
  5
5AFE4
100
AcDbEntity
  8
0
100
AcDbVertex
100
AcDbPolygonMeshVertex
 10
4.982
 20
-7.2
 30
3.087
 70
    64
  0
VERTEX
  5
5AFE5
100
AcDbEntity
  8
0
100
AcDbVertex
100
AcDbPolygonMeshVertex
 10
4.982
 20
-7.2
 30
0.577
 70
    64
  0
VERTEX
  5
5AFE6
100
AcDbEntity
  8
0
100
AcDbVertex
100
AcDbPolygonMeshVertex
 10
4.982
 20
-7.61
 30
0.577
 70
    64
  0
VERTEX
  5
5AFE7
100
AcDbEntity
  8
0
100
AcDbVertex
100
AcDbPolygonMeshVertex
 10
4.982
 20
-7.2
 30
3.087
 70
    64
  0
VERTEX
  5
5AFE8
100
AcDbEntity
  8
0
100
AcDbVertex
100
AcDbPolygonMeshVertex
 10
4.982
 20
-7.2
 30
3.087
 70
    64
  0
VERTEX
  5
5AFE9
100
AcDbEntity
  8
0
100
AcDbVertex
100
AcDbPolygonMeshVertex
 10
4.982
 20
-7.61
 30
3.087
 70
    64
  0
VERTEX
  5
5AFEA
100
AcDbEntity
  8
0
100
AcDbVertex
100
AcDbPolygonMeshVertex
 10
1.622
 20
-7.2
 30
3.087
 70
    64
  0
VERTEX
  5
5AFEB
100
AcDbEntity
  8
0
100
AcDbVertex
100
AcDbPolygonMeshVertex
 10
1.622
 20
-7.2
 30
3.087
 70
    64
  0
VERTEX
  5
5AFEC
100
AcDbEntity
  8
0
100
AcDbVertex
100
AcDbPolygonMeshVertex
 10
1.622
 20
-7.61
 30
3.087
 70
    64
  0
SEQEND
  5
5AFED
100
AcDbEntity
  8
0
  0
POLYLINE
  5
5AFEE
100
AcDbEntity
  8
0
100
AcDbPolygonMesh
 66
     1
 10
0.0
 20
0.0
 30
0.0
 70
    16
 71
     6
 72
     3
  0
VERTEX
  5
5AFEF
100
AcDbEntity
  8
0
100
AcDbVertex
100
AcDbPolygonMeshVertex
 10
2.792
 20
-8.04
 30
0.887
 70
    64
  0
VERTEX
  5
5AFF0
100
AcDbEntity
  8
0
100
AcDbVertex
100
AcDbPolygonMeshVertex
 10
2.792
 20
-8.04
 30
0.577
 70
    64
  0
VERTEX
  5
5AFF1
100
AcDbEntity
  8
0
100
AcDbVertex
100
AcDbPolygonMeshVertex
 10
2.792
 20
-8.04
 30
0.577
 70
    64
  0
VERTEX
  5
5AFF2
100
AcDbEntity
  8
0
100
AcDbVertex
100
AcDbPolygonMeshVertex
 10
2.292
 20
-8.04
 30
0.887
 70
    64
  0
VERTEX
  5
5AFF3
100
AcDbEntity
  8
0
100
AcDbVertex
100
AcDbPolygonMeshVertex
 10
2.292
 20
-8.04
 30
0.577
 70
    64
  0
VERTEX
  5
5AFF4
100
AcDbEntity
  8
0
100
AcDbVertex
100
AcDbPolygonMeshVertex
 10
2.292
 20
-8.04
 30
0.577
 70
    64
  0
VERTEX
  5
5AFF5
100
AcDbEntity
  8
0
100
AcDbVertex
100
AcDbPolygonMeshVertex
 10
2.292
 20
-7.61
 30
0.887
 70
    64
  0
VERTEX
  5
5AFF6
100
AcDbEntity
  8
0
100
AcDbVertex
100
AcDbPolygonMeshVertex
 10
2.292
 20
-7.61
 30
0.577
 70
    64
  0
VERTEX
  5
5AFF7
100
AcDbEntity
  8
0
100
AcDbVertex
100
AcDbPolygonMeshVertex
 10
2.292
 20
-8.04
 30
0.577
 70
    64
  0
VERTEX
  5
5AFF8
100
AcDbEntity
  8
0
100
AcDbVertex
100
AcDbPolygonMeshVertex
 10
2.792
 20
-7.61
 30
0.887
 70
    64
  0
VERTEX
  5
5AFF9
100
AcDbEntity
  8
0
100
AcDbVertex
100
AcDbPolygonMeshVertex
 10
2.792
 20
-7.61
 30
0.577
 70
    64
  0
VERTEX
  5
5AFFA
100
AcDbEntity
  8
0
100
AcDbVertex
100
AcDbPolygonMeshVertex
 10
2.792
 20
-8.04
 30
0.577
 70
    64
  0
VERTEX
  5
5AFFB
100
AcDbEntity
  8
0
100
AcDbVertex
100
AcDbPolygonMeshVertex
 10
2.792
 20
-7.61
 30
0.887
 70
    64
  0
VERTEX
  5
5AFFC
100
AcDbEntity
  8
0
100
AcDbVertex
100
AcDbPolygonMeshVertex
 10
2.792
 20
-7.61
 30
0.887
 70
    64
  0
VERTEX
  5
5AFFD
100
AcDbEntity
  8
0
100
AcDbVertex
100
AcDbPolygonMeshVertex
 10
2.792
 20
-8.04
 30
0.887
 70
    64
  0
VERTEX
  5
5AFFE
100
AcDbEntity
  8
0
100
AcDbVertex
100
AcDbPolygonMeshVertex
 10
2.292
 20
-7.61
 30
0.887
 70
    64
  0
VERTEX
  5
5AFFF
100
AcDbEntity
  8
0
100
AcDbVertex
100
AcDbPolygonMeshVertex
 10
2.292
 20
-7.61
 30
0.887
 70
    64
  0
VERTEX
  5
5B000
100
AcDbEntity
  8
0
100
AcDbVertex
100
AcDbPolygonMeshVertex
 10
2.292
 20
-8.04
 30
0.887
 70
    64
  0
SEQEND
  5
5B001
100
AcDbEntity
  8
0
  0
POLYLINE
  5
5B002
100
AcDbEntity
  8
0
100
AcDbPolygonMesh
 66
     1
 10
0.0
 20
0.0
 30
0.0
 70
    16
 71
     6
 72
     3
  0
VERTEX
  5
5B003
100
AcDbEntity
  8
0
100
AcDbVertex
100
AcDbPolygonMeshVertex
 10
4.169
 20
-8.04
 30
0.887
 70
    64
  0
VERTEX
  5
5B004
100
AcDbEntity
  8
0
100
AcDbVertex
100
AcDbPolygonMeshVertex
 10
4.169
 20
-8.04
 30
0.577
 70
    64
  0
VERTEX
  5
5B005
100
AcDbEntity
  8
0
100
AcDbVertex
100
AcDbPolygonMeshVertex
 10
4.169
 20
-8.04
 30
0.577
 70
    64
  0
VERTEX
  5
5B006
100
AcDbEntity
  8
0
100
AcDbVertex
100
AcDbPolygonMeshVertex
 10
3.669
 20
-8.04
 30
0.887
 70
    64
  0
VERTEX
  5
5B007
100
AcDbEntity
  8
0
100
AcDbVertex
100
AcDbPolygonMeshVertex
 10
3.669
 20
-8.04
 30
0.577
 70
    64
  0
VERTEX
  5
5B008
100
AcDbEntity
  8
0
100
AcDbVertex
100
AcDbPolygonMeshVertex
 10
3.669
 20
-8.04
 30
0.577
 70
    64
  0
VERTEX
  5
5B009
100
AcDbEntity
  8
0
100
AcDbVertex
100
AcDbPolygonMeshVertex
 10
3.669
 20
-7.61
 30
0.887
 70
    64
  0
VERTEX
  5
5B00A
100
AcDbEntity
  8
0
100
AcDbVertex
100
AcDbPolygonMeshVertex
 10
3.669
 20
-7.61
 30
0.577
 70
    64
  0
VERTEX
  5
5B00B
100
AcDbEntity
  8
0
100
AcDbVertex
100
AcDbPolygonMeshVertex
 10
3.669
 20
-8.04
 30
0.577
 70
    64
  0
VERTEX
  5
5B00C
100
AcDbEntity
  8
0
100
AcDbVertex
100
AcDbPolygonMeshVertex
 10
4.169
 20
-7.61
 30
0.887
 70
    64
  0
VERTEX
  5
5B00D
100
AcDbEntity
  8
0
100
AcDbVertex
100
AcDbPolygonMeshVertex
 10
4.169
 20
-7.61
 30
0.577
 70
    64
  0
VERTEX
  5
5B00E
100
AcDbEntity
  8
0
100
AcDbVertex
100
AcDbPolygonMeshVertex
 10
4.169
 20
-8.04
 30
0.577
 70
    64
  0
VERTEX
  5
5B00F
100
AcDbEntity
  8
0
100
AcDbVertex
100
AcDbPolygonMeshVertex
 10
4.169
 20
-7.61
 30
0.887
 70
    64
  0
VERTEX
  5
5B010
100
AcDbEntity
  8
0
100
AcDbVertex
100
AcDbPolygonMeshVertex
 10
4.169
 20
-7.61
 30
0.887
 70
    64
  0
VERTEX
  5
5B011
100
AcDbEntity
  8
0
100
AcDbVertex
100
AcDbPolygonMeshVertex
 10
4.169
 20
-8.04
 30
0.887
 70
    64
  0
VERTEX
  5
5B012
100
AcDbEntity
  8
0
100
AcDbVertex
100
AcDbPolygonMeshVertex
 10
3.669
 20
-7.61
 30
0.887
 70
    64
  0
VERTEX
  5
5B013
100
AcDbEntity
  8
0
100
AcDbVertex
100
AcDbPolygonMeshVertex
 10
3.669
 20
-7.61
 30
0.887
 70
    64
  0
VERTEX
  5
5B014
100
AcDbEntity
  8
0
100
AcDbVertex
100
AcDbPolygonMeshVertex
 10
3.669
 20
-8.04
 30
0.887
 70
    64
  0
SEQEND
  5
5B015
100
AcDbEntity
  8
0
  0
POLYLINE
  5
5B016
100
AcDbEntity
  8
0
100
AcDbPolygonMesh
 66
     1
 10
0.0
 20
0.0
 30
0.0
 70
    16
 71
     6
 72
     3
  0
VERTEX
  5
5B017
100
AcDbEntity
  8
0
100
AcDbVertex
100
AcDbPolygonMeshVertex
 10
1.622
 20
-7.61
 30
3.087
 70
    64
  0
VERTEX
  5
5B018
100
AcDbEntity
  8
0
100
AcDbVertex
100
AcDbPolygonMeshVertex
 10
1.622
 20
-7.61
 30
3.087
 70
    64
  0
VERTEX
  5
5B019
100
AcDbEntity
  8
0
100
AcDbVertex
100
AcDbPolygonMeshVertex
 10
1.622
 20
-7.61
 30
3.087
 70
    64
  0
VERTEX
  5
5B01A
100
AcDbEntity
  8
0
100
AcDbVertex
100
AcDbPolygonMeshVertex
 10
1.622
 20
-7.2
 30
3.237
 70
    64
  0
VERTEX
  5
5B01B
100
AcDbEntity
  8
0
100
AcDbVertex
100
AcDbPolygonMeshVertex
 10
1.622
 20
-7.2
 30
3.087
 70
    64
  0
VERTEX
  5
5B01C
100
AcDbEntity
  8
0
100
AcDbVertex
100
AcDbPolygonMeshVertex
 10
1.622
 20
-7.2
 30
3.087
 70
    64
  0
VERTEX
  5
5B01D
100
AcDbEntity
  8
0
100
AcDbVertex
100
AcDbPolygonMeshVertex
 10
4.982
 20
-7.2
 30
3.237
 70
    64
  0
VERTEX
  5
5B01E
100
AcDbEntity
  8
0
100
AcDbVertex
100
AcDbPolygonMeshVertex
 10
4.982
 20
-7.2
 30
3.087
 70
    64
  0
VERTEX
  5
5B01F
100
AcDbEntity
  8
0
100
AcDbVertex
100
AcDbPolygonMeshVertex
 10
1.622
 20
-7.2
 30
3.087
 70
    64
  0
VERTEX
  5
5B020
100
AcDbEntity
  8
0
100
AcDbVertex
100
AcDbPolygonMeshVertex
 10
4.982
 20
-7.61
 30
3.087
 70
    64
  0
VERTEX
  5
5B021
100
AcDbEntity
  8
0
100
AcDbVertex
100
AcDbPolygonMeshVertex
 10
4.982
 20
-7.61
 30
3.087
 70
    64
  0
VERTEX
  5
5B022
100
AcDbEntity
  8
0
100
AcDbVertex
100
AcDbPolygonMeshVertex
 10
1.622
 20
-7.61
 30
3.087
 70
    64
  0
VERTEX
  5
5B023
100
AcDbEntity
  8
0
100
AcDbVertex
100
AcDbPolygonMeshVertex
 10
4.982
 20
-7.61
 30
3.087
 70
    64
  0
VERTEX
  5
5B024
100
AcDbEntity
  8
0
100
AcDbVertex
100
AcDbPolygonMeshVertex
 10
4.982
 20
-7.61
 30
3.087
 70
    64
  0
VERTEX
  5
5B025
100
AcDbEntity
  8
0
100
AcDbVertex
100
AcDbPolygonMeshVertex
 10
1.622
 20
-7.61
 30
3.087
 70
    64
  0
VERTEX
  5
5B026
100
AcDbEntity
  8
0
100
AcDbVertex
100
AcDbPolygonMeshVertex
 10
4.982
 20
-7.2
 30
3.237
 70
    64
  0
VERTEX
  5
5B027
100
AcDbEntity
  8
0
100
AcDbVertex
100
AcDbPolygonMeshVertex
 10
4.982
 20
-7.2
 30
3.237
 70
    64
  0
VERTEX
  5
5B028
100
AcDbEntity
  8
0
100
AcDbVertex
100
AcDbPolygonMeshVertex
 10
1.622
 20
-7.2
 30
3.237
 70
    64
  0
SEQEND
  5
5B029
100
AcDbEntity
  8
0
  0
POLYLINE
  5
5B02A
100
AcDbEntity
  8
0
100
AcDbPolygonMesh
 66
     1
 10
0.0
 20
0.0
 30
0.0
 70
    16
 71
     6
 72
     3
  0
VERTEX
  5
5B02B
100
AcDbEntity
  8
0
100
AcDbVertex
100
AcDbPolygonMeshVertex
 10
4.982
 20
-7.2
 30
4.027
 70
    64
  0
VERTEX
  5
5B02C
100
AcDbEntity
  8
0
100
AcDbVertex
100
AcDbPolygonMeshVertex
 10
4.982
 20
-7.2
 30
0.577
 70
    64
  0
VERTEX
  5
5B02D
100
AcDbEntity
  8
0
100
AcDbVertex
100
AcDbPolygonMeshVertex
 10
4.982
 20
-7.2
 30
0.577
 70
    64
  0
VERTEX
  5
5B02E
100
AcDbEntity
  8
0
100
AcDbVertex
100
AcDbPolygonMeshVertex
 10
1.622
 20
-7.2
 30
4.027
 70
    64
  0
VERTEX
  5
5B02F
100
AcDbEntity
  8
0
100
AcDbVertex
100
AcDbPolygonMeshVertex
 10
1.622
 20
-7.2
 30
0.577
 70
    64
  0
VERTEX
  5
5B030
100
AcDbEntity
  8
0
100
AcDbVertex
100
AcDbPolygonMeshVertex
 10
1.622
 20
-7.2
 30
0.577
 70
    64
  0
VERTEX
  5
5B031
100
AcDbEntity
  8
0
100
AcDbVertex
100
AcDbPolygonMeshVertex
 10
1.622
 20
-5.79
 30
4.027
 70
    64
  0
VERTEX
  5
5B032
100
AcDbEntity
  8
0
100
AcDbVertex
100
AcDbPolygonMeshVertex
 10
1.622
 20
-5.79
 30
0.577
 70
    64
  0
VERTEX
  5
5B033
100
AcDbEntity
  8
0
100
AcDbVertex
100
AcDbPolygonMeshVertex
 10
1.622
 20
-7.2
 30
0.577
 70
    64
  0
VERTEX
  5
5B034
100
AcDbEntity
  8
0
100
AcDbVertex
100
AcDbPolygonMeshVertex
 10
4.982
 20
-5.79
 30
4.027
 70
    64
  0
VERTEX
  5
5B035
100
AcDbEntity
  8
0
100
AcDbVertex
100
AcDbPolygonMeshVertex
 10
4.982
 20
-5.79
 30
0.577
 70
    64
  0
VERTEX
  5
5B036
100
AcDbEntity
  8
0
100
AcDbVertex
100
AcDbPolygonMeshVertex
 10
4.982
 20
-7.2
 30
0.577
 70
    64
  0
VERTEX
  5
5B037
100
AcDbEntity
  8
0
100
AcDbVertex
100
AcDbPolygonMeshVertex
 10
4.982
 20
-5.79
 30
4.027
 70
    64
  0
VERTEX
  5
5B038
100
AcDbEntity
  8
0
100
AcDbVertex
100
AcDbPolygonMeshVertex
 10
4.982
 20
-5.79
 30
4.027
 70
    64
  0
VERTEX
  5
5B039
100
AcDbEntity
  8
0
100
AcDbVertex
100
AcDbPolygonMeshVertex
 10
4.982
 20
-7.2
 30
4.027
 70
    64
  0
VERTEX
  5
5B03A
100
AcDbEntity
  8
0
100
AcDbVertex
100
AcDbPolygonMeshVertex
 10
1.622
 20
-5.79
 30
4.027
 70
    64
  0
VERTEX
  5
5B03B
100
AcDbEntity
  8
0
100
AcDbVertex
100
AcDbPolygonMeshVertex
 10
1.622
 20
-5.79
 30
4.027
 70
    64
  0
VERTEX
  5
5B03C
100
AcDbEntity
  8
0
100
AcDbVertex
100
AcDbPolygonMeshVertex
 10
1.622
 20
-7.2
 30
4.027
 70
    64
  0
SEQEND
  5
5B03D
100
AcDbEntity
  8
0
  0
LINE
  5
5B03E
100
AcDbEntity
  8
0
100
AcDbLine
 10
2.722674
 20
-3.825015
 30
4.857
 11
2.83729
 21
-3.975138
 31
4.857
  0
LINE
  5
5B03F
100
AcDbEntity
  8
0
100
AcDbLine
 10
2.706485
 20
-3.841205
 30
4.857
 11
2.821101
 21
-3.991327
 31
4.857
  0
CIRCLE
  5
5B040
100
AcDbEntity
  8
0
100
AcDbCircle
 10
2.772
 20
-3.91
 30
4.857
 40
0.095
  0
LINE
  5
5B041
100
AcDbEntity
  8
0
100
AcDbLine
 10
2.146965
 20
-1.398318
 30
1.867
 11
2.378216
 21
-1.101115
 31
1.867
  0
LINE
  5
5B042
100
AcDbEntity
  8
0
100
AcDbLine
 10
2.106278
 20
-1.367964
 30
1.867
 11
2.337529
 21
-1.070762
 31
1.867
  0
CIRCLE
  5
5B043
100
AcDbEntity
  8
0
100
AcDbCircle
 10
2.242
 20
-1.235
 30
1.867
 40
0.19
  0
LINE
  5
5B044
100
AcDbEntity
  8
0
100
AcDbLine
 10
3.782674
 20
-3.825015
 30
4.857
 11
3.89729
 21
-3.975138
 31
4.857
  0
LINE
  5
5B045
100
AcDbEntity
  8
0
100
AcDbLine
 10
3.766485
 20
-3.841205
 30
4.857
 11
3.8811
 21
-3.991327
 31
4.857
  0
CIRCLE
  5
5B046
100
AcDbEntity
  8
0
100
AcDbCircle
 10
3.832
 20
-3.91
 30
4.857
 40
0.095
  0
CIRCLE
  5
5B047
100
AcDbEntity
  8
0
100
AcDbCircle
 10
4.362
 20
-1.765
 30
4.667
 40
0.19
  0
POLYLINE
  5
5B048
100
AcDbEntity
  8
0
100
AcDbPolygonMesh
 66
     1
 10
0.0
 20
0.0
 30
0.0
 70
    16
 71
     6
 72
     3
  0
VERTEX
  5
5B049
100
AcDbEntity
  8
0
100
AcDbVertex
100
AcDbPolygonMeshVertex
 10
4.242
 20
-4.44
 30
4.387
 70
    64
  0
VERTEX
  5
5B04A
100
AcDbEntity
  8
0
100
AcDbVertex
100
AcDbPolygonMeshVertex
 10
4.242
 20
-4.44
 30
4.017
 70
    64
  0
VERTEX
  5
5B04B
100
AcDbEntity
  8
0
100
AcDbVertex
100
AcDbPolygonMeshVertex
 10
4.242
 20
-4.44
 30
4.017
 70
    64
  0
VERTEX
  5
5B04C
100
AcDbEntity
  8
0
100
AcDbVertex
100
AcDbPolygonMeshVertex
 10
2.362
 20
-4.44
 30
4.387
 70
    64
  0
VERTEX
  5
5B04D
100
AcDbEntity
  8
0
100
AcDbVertex
100
AcDbPolygonMeshVertex
 10
2.362
 20
-4.44
 30
4.017
 70
    64
  0
VERTEX
  5
5B04E
100
AcDbEntity
  8
0
100
AcDbVertex
100
AcDbPolygonMeshVertex
 10
2.362
 20
-4.44
 30
4.017
 70
    64
  0
VERTEX
  5
5B04F
100
AcDbEntity
  8
0
100
AcDbVertex
100
AcDbPolygonMeshVertex
 10
2.362
 20
-3.6
 30
4.387
 70
    64
  0
VERTEX
  5
5B050
100
AcDbEntity
  8
0
100
AcDbVertex
100
AcDbPolygonMeshVertex
 10
2.362
 20
-3.6
 30
4.017
 70
    64
  0
VERTEX
  5
5B051
100
AcDbEntity
  8
0
100
AcDbVertex
100
AcDbPolygonMeshVertex
 10
2.362
 20
-4.44
 30
4.017
 70
    64
  0
VERTEX
  5
5B052
100
AcDbEntity
  8
0
100
AcDbVertex
100
AcDbPolygonMeshVertex
 10
4.242
 20
-3.6
 30
4.387
 70
    64
  0
VERTEX
  5
5B053
100
AcDbEntity
  8
0
100
AcDbVertex
100
AcDbPolygonMeshVertex
 10
4.242
 20
-3.6
 30
4.017
 70
    64
  0
VERTEX
  5
5B054
100
AcDbEntity
  8
0
100
AcDbVertex
100
AcDbPolygonMeshVertex
 10
4.242
 20
-4.44
 30
4.017
 70
    64
  0
VERTEX
  5
5B055
100
AcDbEntity
  8
0
100
AcDbVertex
100
AcDbPolygonMeshVertex
 10
4.242
 20
-3.6
 30
4.387
 70
    64
  0
VERTEX
  5
5B056
100
AcDbEntity
  8
0
100
AcDbVertex
100
AcDbPolygonMeshVertex
 10
4.242
 20
-3.6
 30
4.387
 70
    64
  0
VERTEX
  5
5B057
100
AcDbEntity
  8
0
100
AcDbVertex
100
AcDbPolygonMeshVertex
 10
4.242
 20
-4.44
 30
4.387
 70
    64
  0
VERTEX
  5
5B058
100
AcDbEntity
  8
0
100
AcDbVertex
100
AcDbPolygonMeshVertex
 10
2.362
 20
-3.6
 30
4.387
 70
    64
  0
VERTEX
  5
5B059
100
AcDbEntity
  8
0
100
AcDbVertex
100
AcDbPolygonMeshVertex
 10
2.362
 20
-3.6
 30
4.387
 70
    64
  0
VERTEX
  5
5B05A
100
AcDbEntity
  8
0
100
AcDbVertex
100
AcDbPolygonMeshVertex
 10
2.362
 20
-4.44
 30
4.387
 70
    64
  0
SEQEND
  5
5B05B
100
AcDbEntity
  8
0
  0
POLYLINE
  5
5B05C
100
AcDbEntity
  8
0
100
AcDbPolygonMesh
 66
     1
 10
0.0
 20
0.0
 30
0.0
 70
    16
 71
     6
 72
     3
  0
VERTEX
  5
5B05D
100
AcDbEntity
  8
0
100
AcDbVertex
100
AcDbPolygonMeshVertex
 10
4.052
 20
-4.04
 30
4.857
 70
    64
  0
VERTEX
  5
5B05E
100
AcDbEntity
  8
0
100
AcDbVertex
100
AcDbPolygonMeshVertex
 10
4.052
 20
-4.04
 30
4.387
 70
    64
  0
VERTEX
  5
5B05F
100
AcDbEntity
  8
0
100
AcDbVertex
100
AcDbPolygonMeshVertex
 10
4.052
 20
-4.04
 30
4.387
 70
    64
  0
VERTEX
  5
5B060
100
AcDbEntity
  8
0
100
AcDbVertex
100
AcDbPolygonMeshVertex
 10
3.612
 20
-4.04
 30
4.857
 70
    64
  0
VERTEX
  5
5B061
100
AcDbEntity
  8
0
100
AcDbVertex
100
AcDbPolygonMeshVertex
 10
3.612
 20
-4.04
 30
4.387
 70
    64
  0
VERTEX
  5
5B062
100
AcDbEntity
  8
0
100
AcDbVertex
100
AcDbPolygonMeshVertex
 10
3.612
 20
-4.04
 30
4.387
 70
    64
  0
VERTEX
  5
5B063
100
AcDbEntity
  8
0
100
AcDbVertex
100
AcDbPolygonMeshVertex
 10
3.612
 20
-3.66
 30
4.857
 70
    64
  0
VERTEX
  5
5B064
100
AcDbEntity
  8
0
100
AcDbVertex
100
AcDbPolygonMeshVertex
 10
3.612
 20
-3.66
 30
4.387
 70
    64
  0
VERTEX
  5
5B065
100
AcDbEntity
  8
0
100
AcDbVertex
100
AcDbPolygonMeshVertex
 10
3.612
 20
-4.04
 30
4.387
 70
    64
  0
VERTEX
  5
5B066
100
AcDbEntity
  8
0
100
AcDbVertex
100
AcDbPolygonMeshVertex
 10
4.052
 20
-3.66
 30
4.857
 70
    64
  0
VERTEX
  5
5B067
100
AcDbEntity
  8
0
100
AcDbVertex
100
AcDbPolygonMeshVertex
 10
4.052
 20
-3.66
 30
4.387
 70
    64
  0
VERTEX
  5
5B068
100
AcDbEntity
  8
0
100
AcDbVertex
100
AcDbPolygonMeshVertex
 10
4.052
 20
-4.04
 30
4.387
 70
    64
  0
VERTEX
  5
5B069
100
AcDbEntity
  8
0
100
AcDbVertex
100
AcDbPolygonMeshVertex
 10
4.052
 20
-3.66
 30
4.857
 70
    64
  0
VERTEX
  5
5B06A
100
AcDbEntity
  8
0
100
AcDbVertex
100
AcDbPolygonMeshVertex
 10
4.052
 20
-3.66
 30
4.857
 70
    64
  0
VERTEX
  5
5B06B
100
AcDbEntity
  8
0
100
AcDbVertex
100
AcDbPolygonMeshVertex
 10
4.052
 20
-4.04
 30
4.857
 70
    64
  0
VERTEX
  5
5B06C
100
AcDbEntity
  8
0
100
AcDbVertex
100
AcDbPolygonMeshVertex
 10
3.612
 20
-3.66
 30
4.857
 70
    64
  0
VERTEX
  5
5B06D
100
AcDbEntity
  8
0
100
AcDbVertex
100
AcDbPolygonMeshVertex
 10
3.612
 20
-3.66
 30
4.857
 70
    64
  0
VERTEX
  5
5B06E
100
AcDbEntity
  8
0
100
AcDbVertex
100
AcDbPolygonMeshVertex
 10
3.612
 20
-4.04
 30
4.857
 70
    64
  0
SEQEND
  5
5B06F
100
AcDbEntity
  8
0
  0
POLYLINE
  5
5B070
100
AcDbEntity
  8
0
100
AcDbPolygonMesh
 66
     1
 10
0.0
 20
0.0
 30
0.0
 70
    16
 71
     6
 72
     3
  0
VERTEX
  5
5B071
100
AcDbEntity
  8
0
100
AcDbVertex
100
AcDbPolygonMeshVertex
 10
2.992
 20
-4.04
 30
4.857
 70
    64
  0
VERTEX
  5
5B072
100
AcDbEntity
  8
0
100
AcDbVertex
100
AcDbPolygonMeshVertex
 10
2.992
 20
-4.04
 30
4.387
 70
    64
  0
VERTEX
  5
5B073
100
AcDbEntity
  8
0
100
AcDbVertex
100
AcDbPolygonMeshVertex
 10
2.992
 20
-4.04
 30
4.387
 70
    64
  0
VERTEX
  5
5B074
100
AcDbEntity
  8
0
100
AcDbVertex
100
AcDbPolygonMeshVertex
 10
2.552
 20
-4.04
 30
4.857
 70
    64
  0
VERTEX
  5
5B075
100
AcDbEntity
  8
0
100
AcDbVertex
100
AcDbPolygonMeshVertex
 10
2.552
 20
-4.04
 30
4.387
 70
    64
  0
VERTEX
  5
5B076
100
AcDbEntity
  8
0
100
AcDbVertex
100
AcDbPolygonMeshVertex
 10
2.552
 20
-4.04
 30
4.387
 70
    64
  0
VERTEX
  5
5B077
100
AcDbEntity
  8
0
100
AcDbVertex
100
AcDbPolygonMeshVertex
 10
2.552
 20
-3.66
 30
4.857
 70
    64
  0
VERTEX
  5
5B078
100
AcDbEntity
  8
0
100
AcDbVertex
100
AcDbPolygonMeshVertex
 10
2.552
 20
-3.66
 30
4.387
 70
    64
  0
VERTEX
  5
5B079
100
AcDbEntity
  8
0
100
AcDbVertex
100
AcDbPolygonMeshVertex
 10
2.552
 20
-4.04
 30
4.387
 70
    64
  0
VERTEX
  5
5B07A
100
AcDbEntity
  8
0
100
AcDbVertex
100
AcDbPolygonMeshVertex
 10
2.992
 20
-3.66
 30
4.857
 70
    64
  0
VERTEX
  5
5B07B
100
AcDbEntity
  8
0
100
AcDbVertex
100
AcDbPolygonMeshVertex
 10
2.992
 20
-3.66
 30
4.387
 70
    64
  0
VERTEX
  5
5B07C
100
AcDbEntity
  8
0
100
AcDbVertex
100
AcDbPolygonMeshVertex
 10
2.992
 20
-4.04
 30
4.387
 70
    64
  0
VERTEX
  5
5B07D
100
AcDbEntity
  8
0
100
AcDbVertex
100
AcDbPolygonMeshVertex
 10
2.992
 20
-3.66
 30
4.857
 70
    64
  0
VERTEX
  5
5B07E
100
AcDbEntity
  8
0
100
AcDbVertex
100
AcDbPolygonMeshVertex
 10
2.992
 20
-3.66
 30
4.857
 70
    64
  0
VERTEX
  5
5B07F
100
AcDbEntity
  8
0
100
AcDbVertex
100
AcDbPolygonMeshVertex
 10
2.992
 20
-4.04
 30
4.857
 70
    64
  0
VERTEX
  5
5B080
100
AcDbEntity
  8
0
100
AcDbVertex
100
AcDbPolygonMeshVertex
 10
2.552
 20
-3.66
 30
4.857
 70
    64
  0
VERTEX
  5
5B081
100
AcDbEntity
  8
0
100
AcDbVertex
100
AcDbPolygonMeshVertex
 10
2.552
 20
-3.66
 30
4.857
 70
    64
  0
VERTEX
  5
5B082
100
AcDbEntity
  8
0
100
AcDbVertex
100
AcDbPolygonMeshVertex
 10
2.552
 20
-4.04
 30
4.857
 70
    64
  0
SEQEND
  5
5B083
100
AcDbEntity
  8
0
  0
LINE
  5
5B084
100
AcDbEntity
  8
0
100
AcDbLine
 10
1.622
 20
-2.15
 30
4.017
 11
1.622
 21
-2.15
 31
0.577
  0
POLYLINE
  5
5B085
100
AcDbEntity
  8
0
100
AcDbPolygonMesh
 66
     1
 10
0.0
 20
0.0
 30
0.0
 70
    16
 71
     6
 72
     3
  0
VERTEX
  5
5B086
100
AcDbEntity
  8
0
100
AcDbVertex
100
AcDbPolygonMeshVertex
 10
4.982
 20
-5.54
 30
4.017
 70
    64
  0
VERTEX
  5
5B087
100
AcDbEntity
  8
0
100
AcDbVertex
100
AcDbPolygonMeshVertex
 10
4.982
 20
-5.54
 30
0.577
 70
    64
  0
VERTEX
  5
5B088
100
AcDbEntity
  8
0
100
AcDbVertex
100
AcDbPolygonMeshVertex
 10
4.982
 20
-5.54
 30
0.577
 70
    64
  0
VERTEX
  5
5B089
100
AcDbEntity
  8
0
100
AcDbVertex
100
AcDbPolygonMeshVertex
 10
1.622
 20
-5.54
 30
4.017
 70
    64
  0
VERTEX
  5
5B08A
100
AcDbEntity
  8
0
100
AcDbVertex
100
AcDbPolygonMeshVertex
 10
1.622
 20
-5.54
 30
0.577
 70
    64
  0
VERTEX
  5
5B08B
100
AcDbEntity
  8
0
100
AcDbVertex
100
AcDbPolygonMeshVertex
 10
1.622
 20
-5.54
 30
0.577
 70
    64
  0
VERTEX
  5
5B08C
100
AcDbEntity
  8
0
100
AcDbVertex
100
AcDbPolygonMeshVertex
 10
1.622
 20
-2.15
 30
4.017
 70
    64
  0
VERTEX
  5
5B08D
100
AcDbEntity
  8
0
100
AcDbVertex
100
AcDbPolygonMeshVertex
 10
1.622
 20
-2.15
 30
0.577
 70
    64
  0
VERTEX
  5
5B08E
100
AcDbEntity
  8
0
100
AcDbVertex
100
AcDbPolygonMeshVertex
 10
1.622
 20
-5.54
 30
0.577
 70
    64
  0
VERTEX
  5
5B08F
100
AcDbEntity
  8
0
100
AcDbVertex
100
AcDbPolygonMeshVertex
 10
4.982
 20
-2.15
 30
4.017
 70
    64
  0
VERTEX
  5
5B090
100
AcDbEntity
  8
0
100
AcDbVertex
100
AcDbPolygonMeshVertex
 10
4.982
 20
-2.15
 30
0.577
 70
    64
  0
VERTEX
  5
5B091
100
AcDbEntity
  8
0
100
AcDbVertex
100
AcDbPolygonMeshVertex
 10
4.982
 20
-5.54
 30
0.577
 70
    64
  0
VERTEX
  5
5B092
100
AcDbEntity
  8
0
100
AcDbVertex
100
AcDbPolygonMeshVertex
 10
4.982
 20
-2.15
 30
4.017
 70
    64
  0
VERTEX
  5
5B093
100
AcDbEntity
  8
0
100
AcDbVertex
100
AcDbPolygonMeshVertex
 10
4.982
 20
-2.15
 30
4.017
 70
    64
  0
VERTEX
  5
5B094
100
AcDbEntity
  8
0
100
AcDbVertex
100
AcDbPolygonMeshVertex
 10
4.982
 20
-5.54
 30
4.017
 70
    64
  0
VERTEX
  5
5B095
100
AcDbEntity
  8
0
100
AcDbVertex
100
AcDbPolygonMeshVertex
 10
1.622
 20
-2.15
 30
4.017
 70
    64
  0
VERTEX
  5
5B096
100
AcDbEntity
  8
0
100
AcDbVertex
100
AcDbPolygonMeshVertex
 10
1.622
 20
-2.15
 30
4.017
 70
    64
  0
VERTEX
  5
5B097
100
AcDbEntity
  8
0
100
AcDbVertex
100
AcDbPolygonMeshVertex
 10
1.622
 20
-5.54
 30
4.017
 70
    64
  0
SEQEND
  5
5B098
100
AcDbEntity
  8
0
  0
POLYLINE
  5
5B099
100
AcDbEntity
  8
0
100
AcDbPolygonMesh
 66
     1
 10
0.0
 20
0.0
 30
0.0
 70
    16
 71
     6
 72
     3
  0
VERTEX
  5
5B09A
100
AcDbEntity
  8
0
100
AcDbVertex
100
AcDbPolygonMeshVertex
 10
4.982
 20
-5.79
 30
3.237
 70
    64
  0
VERTEX
  5
5B09B
100
AcDbEntity
  8
0
100
AcDbVertex
100
AcDbPolygonMeshVertex
 10
4.982
 20
-5.79
 30
2.007
 70
    64
  0
VERTEX
  5
5B09C
100
AcDbEntity
  8
0
100
AcDbVertex
100
AcDbPolygonMeshVertex
 10
4.982
 20
-5.79
 30
2.007
 70
    64
  0
VERTEX
  5
5B09D
100
AcDbEntity
  8
0
100
AcDbVertex
100
AcDbPolygonMeshVertex
 10
1.622
 20
-5.79
 30
3.237
 70
    64
  0
VERTEX
  5
5B09E
100
AcDbEntity
  8
0
100
AcDbVertex
100
AcDbPolygonMeshVertex
 10
1.622
 20
-5.79
 30
2.007
 70
    64
  0
VERTEX
  5
5B09F
100
AcDbEntity
  8
0
100
AcDbVertex
100
AcDbPolygonMeshVertex
 10
1.622
 20
-5.79
 30
2.007
 70
    64
  0
VERTEX
  5
5B0A0
100
AcDbEntity
  8
0
100
AcDbVertex
100
AcDbPolygonMeshVertex
 10
1.622
 20
-5.54
 30
3.237
 70
    64
  0
VERTEX
  5
5B0A1
100
AcDbEntity
  8
0
100
AcDbVertex
100
AcDbPolygonMeshVertex
 10
1.622
 20
-5.54
 30
2.007
 70
    64
  0
VERTEX
  5
5B0A2
100
AcDbEntity
  8
0
100
AcDbVertex
100
AcDbPolygonMeshVertex
 10
1.622
 20
-5.79
 30
2.007
 70
    64
  0
VERTEX
  5
5B0A3
100
AcDbEntity
  8
0
100
AcDbVertex
100
AcDbPolygonMeshVertex
 10
4.982
 20
-5.54
 30
3.237
 70
    64
  0
VERTEX
  5
5B0A4
100
AcDbEntity
  8
0
100
AcDbVertex
100
AcDbPolygonMeshVertex
 10
4.982
 20
-5.54
 30
2.007
 70
    64
  0
VERTEX
  5
5B0A5
100
AcDbEntity
  8
0
100
AcDbVertex
100
AcDbPolygonMeshVertex
 10
4.982
 20
-5.79
 30
2.007
 70
    64
  0
VERTEX
  5
5B0A6
100
AcDbEntity
  8
0
100
AcDbVertex
100
AcDbPolygonMeshVertex
 10
4.982
 20
-5.54
 30
3.237
 70
    64
  0
VERTEX
  5
5B0A7
100
AcDbEntity
  8
0
100
AcDbVertex
100
AcDbPolygonMeshVertex
 10
4.982
 20
-5.54
 30
3.237
 70
    64
  0
VERTEX
  5
5B0A8
100
AcDbEntity
  8
0
100
AcDbVertex
100
AcDbPolygonMeshVertex
 10
4.982
 20
-5.79
 30
3.237
 70
    64
  0
VERTEX
  5
5B0A9
100
AcDbEntity
  8
0
100
AcDbVertex
100
AcDbPolygonMeshVertex
 10
1.622
 20
-5.54
 30
3.237
 70
    64
  0
VERTEX
  5
5B0AA
100
AcDbEntity
  8
0
100
AcDbVertex
100
AcDbPolygonMeshVertex
 10
1.622
 20
-5.54
 30
3.237
 70
    64
  0
VERTEX
  5
5B0AB
100
AcDbEntity
  8
0
100
AcDbVertex
100
AcDbPolygonMeshVertex
 10
1.622
 20
-5.79
 30
3.237
 70
    64
  0
SEQEND
  5
5B0AC
100
AcDbEntity
  8
0
  0
POLYLINE
  5
5B0AD
100
AcDbEntity
  8
0
100
AcDbPolygonMesh
 66
     1
 10
0.0
 20
0.0
 30
0.0
 70
    16
 71
     6
 72
     3
  0
VERTEX
  5
5B0AE
100
AcDbEntity
  8
0
100
AcDbVertex
100
AcDbPolygonMeshVertex
 10
1.622
 20
-5.54
 30
0.577
 70
    64
  0
VERTEX
  5
5B0AF
100
AcDbEntity
  8
0
100
AcDbVertex
100
AcDbPolygonMeshVertex
 10
1.622
 20
-5.54
 30
0.577
 70
    64
  0
VERTEX
  5
5B0B0
100
AcDbEntity
  8
0
100
AcDbVertex
100
AcDbPolygonMeshVertex
 10
1.622
 20
-5.54
 30
0.577
 70
    64
  0
VERTEX
  5
5B0B1
100
AcDbEntity
  8
0
100
AcDbVertex
100
AcDbPolygonMeshVertex
 10
1.622
 20
-5.79
 30
2.007
 70
    64
  0
VERTEX
  5
5B0B2
100
AcDbEntity
  8
0
100
AcDbVertex
100
AcDbPolygonMeshVertex
 10
1.622
 20
-5.54
 30
2.007
 70
    64
  0
VERTEX
  5
5B0B3
100
AcDbEntity
  8
0
100
AcDbVertex
100
AcDbPolygonMeshVertex
 10
1.622
 20
-5.54
 30
2.007
 70
    64
  0
VERTEX
  5
5B0B4
100
AcDbEntity
  8
0
100
AcDbVertex
100
AcDbPolygonMeshVertex
 10
4.982
 20
-5.79
 30
2.007
 70
    64
  0
VERTEX
  5
5B0B5
100
AcDbEntity
  8
0
100
AcDbVertex
100
AcDbPolygonMeshVertex
 10
4.982
 20
-5.54
 30
2.007
 70
    64
  0
VERTEX
  5
5B0B6
100
AcDbEntity
  8
0
100
AcDbVertex
100
AcDbPolygonMeshVertex
 10
1.622
 20
-5.54
 30
2.007
 70
    64
  0
VERTEX
  5
5B0B7
100
AcDbEntity
  8
0
100
AcDbVertex
100
AcDbPolygonMeshVertex
 10
4.982
 20
-5.54
 30
0.577
 70
    64
  0
VERTEX
  5
5B0B8
100
AcDbEntity
  8
0
100
AcDbVertex
100
AcDbPolygonMeshVertex
 10
4.982
 20
-5.54
 30
0.577
 70
    64
  0
VERTEX
  5
5B0B9
100
AcDbEntity
  8
0
100
AcDbVertex
100
AcDbPolygonMeshVertex
 10
1.622
 20
-5.54
 30
0.577
 70
    64
  0
VERTEX
  5
5B0BA
100
AcDbEntity
  8
0
100
AcDbVertex
100
AcDbPolygonMeshVertex
 10
4.982
 20
-5.54
 30
0.577
 70
    64
  0
VERTEX
  5
5B0BB
100
AcDbEntity
  8
0
100
AcDbVertex
100
AcDbPolygonMeshVertex
 10
4.982
 20
-5.54
 30
0.577
 70
    64
  0
VERTEX
  5
5B0BC
100
AcDbEntity
  8
0
100
AcDbVertex
100
AcDbPolygonMeshVertex
 10
1.622
 20
-5.54
 30
0.577
 70
    64
  0
VERTEX
  5
5B0BD
100
AcDbEntity
  8
0
100
AcDbVertex
100
AcDbPolygonMeshVertex
 10
4.982
 20
-5.79
 30
2.007
 70
    64
  0
VERTEX
  5
5B0BE
100
AcDbEntity
  8
0
100
AcDbVertex
100
AcDbPolygonMeshVertex
 10
4.982
 20
-5.79
 30
2.007
 70
    64
  0
VERTEX
  5
5B0BF
100
AcDbEntity
  8
0
100
AcDbVertex
100
AcDbPolygonMeshVertex
 10
1.622
 20
-5.79
 30
2.007
 70
    64
  0
SEQEND
  5
5B0C0
100
AcDbEntity
  8
0
  0
POLYLINE
  5
5B0C1
100
AcDbEntity
  8
0
100
AcDbPolygonMesh
 66
     1
 10
0.0
 20
0.0
 30
0.0
 70
    16
 71
     6
 72
     3
  0
VERTEX
  5
5B0C2
100
AcDbEntity
  8
0
100
AcDbVertex
100
AcDbPolygonMeshVertex
 10
4.982
 20
-2.15
 30
4.477
 70
    64
  0
VERTEX
  5
5B0C3
100
AcDbEntity
  8
0
100
AcDbVertex
100
AcDbPolygonMeshVertex
 10
4.982
 20
-2.15
 30
0.577
 70
    64
  0
VERTEX
  5
5B0C4
100
AcDbEntity
  8
0
100
AcDbVertex
100
AcDbPolygonMeshVertex
 10
4.982
 20
-2.15
 30
0.577
 70
    64
  0
VERTEX
  5
5B0C5
100
AcDbEntity
  8
0
100
AcDbVertex
100
AcDbPolygonMeshVertex
 10
1.622
 20
-2.15
 30
4.477
 70
    64
  0
VERTEX
  5
5B0C6
100
AcDbEntity
  8
0
100
AcDbVertex
100
AcDbPolygonMeshVertex
 10
1.622
 20
-2.15
 30
0.577
 70
    64
  0
VERTEX
  5
5B0C7
100
AcDbEntity
  8
0
100
AcDbVertex
100
AcDbPolygonMeshVertex
 10
1.622
 20
-2.15
 30
0.577
 70
    64
  0
VERTEX
  5
5B0C8
100
AcDbEntity
  8
0
100
AcDbVertex
100
AcDbPolygonMeshVertex
 10
1.622
 20
-1.47
 30
4.477
 70
    64
  0
VERTEX
  5
5B0C9
100
AcDbEntity
  8
0
100
AcDbVertex
100
AcDbPolygonMeshVertex
 10
1.622
 20
-1.47
 30
0.577
 70
    64
  0
VERTEX
  5
5B0CA
100
AcDbEntity
  8
0
100
AcDbVertex
100
AcDbPolygonMeshVertex
 10
1.622
 20
-2.15
 30
0.577
 70
    64
  0
VERTEX
  5
5B0CB
100
AcDbEntity
  8
0
100
AcDbVertex
100
AcDbPolygonMeshVertex
 10
4.982
 20
-1.47
 30
4.477
 70
    64
  0
VERTEX
  5
5B0CC
100
AcDbEntity
  8
0
100
AcDbVertex
100
AcDbPolygonMeshVertex
 10
4.982
 20
-1.47
 30
0.577
 70
    64
  0
VERTEX
  5
5B0CD
100
AcDbEntity
  8
0
100
AcDbVertex
100
AcDbPolygonMeshVertex
 10
4.982
 20
-2.15
 30
0.577
 70
    64
  0
VERTEX
  5
5B0CE
100
AcDbEntity
  8
0
100
AcDbVertex
100
AcDbPolygonMeshVertex
 10
4.982
 20
-1.47
 30
4.477
 70
    64
  0
VERTEX
  5
5B0CF
100
AcDbEntity
  8
0
100
AcDbVertex
100
AcDbPolygonMeshVertex
 10
4.982
 20
-1.47
 30
4.477
 70
    64
  0
VERTEX
  5
5B0D0
100
AcDbEntity
  8
0
100
AcDbVertex
100
AcDbPolygonMeshVertex
 10
4.982
 20
-2.15
 30
4.477
 70
    64
  0
VERTEX
  5
5B0D1
100
AcDbEntity
  8
0
100
AcDbVertex
100
AcDbPolygonMeshVertex
 10
1.622
 20
-1.47
 30
4.477
 70
    64
  0
VERTEX
  5
5B0D2
100
AcDbEntity
  8
0
100
AcDbVertex
100
AcDbPolygonMeshVertex
 10
1.622
 20
-1.47
 30
4.477
 70
    64
  0
VERTEX
  5
5B0D3
100
AcDbEntity
  8
0
100
AcDbVertex
100
AcDbPolygonMeshVertex
 10
1.622
 20
-2.15
 30
4.477
 70
    64
  0
SEQEND
  5
5B0D4
100
AcDbEntity
  8
0
  0
LINE
  5
5B0D5
100
AcDbEntity
  8
0
100
AcDbLine
 10
3.922
 20
-1.47
 30
4.477
 11
3.922
 21
-1.34
 31
4.477
  0
LINE
  5
5B0D6
100
AcDbEntity
  8
0
100
AcDbLine
 10
3.922
 20
-1.34
 30
4.477
 11
3.742
 21
-1.34
 31
4.477
  0
POLYLINE
  5
5B0D7
100
AcDbEntity
  8
0
100
AcDbPolygonMesh
 66
     1
 10
0.0
 20
0.0
 30
0.0
 70
    16
 71
     6
 72
     3
  0
VERTEX
  5
5B0D8
100
AcDbEntity
  8
0
100
AcDbVertex
100
AcDbPolygonMeshVertex
 10
3.742
 20
-1.34
 30
4.857
 70
    64
  0
VERTEX
  5
5B0D9
100
AcDbEntity
  8
0
100
AcDbVertex
100
AcDbPolygonMeshVertex
 10
3.742
 20
-1.34
 30
4.477
 70
    64
  0
VERTEX
  5
5B0DA
100
AcDbEntity
  8
0
100
AcDbVertex
100
AcDbPolygonMeshVertex
 10
3.742
 20
-1.34
 30
4.477
 70
    64
  0
VERTEX
  5
5B0DB
100
AcDbEntity
  8
0
100
AcDbVertex
100
AcDbPolygonMeshVertex
 10
3.922
 20
-1.34
 30
4.857
 70
    64
  0
VERTEX
  5
5B0DC
100
AcDbEntity
  8
0
100
AcDbVertex
100
AcDbPolygonMeshVertex
 10
3.922
 20
-1.34
 30
4.477
 70
    64
  0
VERTEX
  5
5B0DD
100
AcDbEntity
  8
0
100
AcDbVertex
100
AcDbPolygonMeshVertex
 10
3.922
 20
-1.34
 30
4.477
 70
    64
  0
VERTEX
  5
5B0DE
100
AcDbEntity
  8
0
100
AcDbVertex
100
AcDbPolygonMeshVertex
 10
3.922
 20
-2.15
 30
4.857
 70
    64
  0
VERTEX
  5
5B0DF
100
AcDbEntity
  8
0
100
AcDbVertex
100
AcDbPolygonMeshVertex
 10
3.922
 20
-2.15
 30
4.477
 70
    64
  0
VERTEX
  5
5B0E0
100
AcDbEntity
  8
0
100
AcDbVertex
100
AcDbPolygonMeshVertex
 10
3.922
 20
-1.34
 30
4.477
 70
    64
  0
VERTEX
  5
5B0E1
100
AcDbEntity
  8
0
100
AcDbVertex
100
AcDbPolygonMeshVertex
 10
3.742
 20
-2.15
 30
4.857
 70
    64
  0
VERTEX
  5
5B0E2
100
AcDbEntity
  8
0
100
AcDbVertex
100
AcDbPolygonMeshVertex
 10
3.742
 20
-2.15
 30
4.477
 70
    64
  0
VERTEX
  5
5B0E3
100
AcDbEntity
  8
0
100
AcDbVertex
100
AcDbPolygonMeshVertex
 10
3.742
 20
-1.34
 30
4.477
 70
    64
  0
VERTEX
  5
5B0E4
100
AcDbEntity
  8
0
100
AcDbVertex
100
AcDbPolygonMeshVertex
 10
3.742
 20
-2.15
 30
4.857
 70
    64
  0
VERTEX
  5
5B0E5
100
AcDbEntity
  8
0
100
AcDbVertex
100
AcDbPolygonMeshVertex
 10
3.742
 20
-2.15
 30
4.857
 70
    64
  0
VERTEX
  5
5B0E6
100
AcDbEntity
  8
0
100
AcDbVertex
100
AcDbPolygonMeshVertex
 10
3.742
 20
-1.34
 30
4.857
 70
    64
  0
VERTEX
  5
5B0E7
100
AcDbEntity
  8
0
100
AcDbVertex
100
AcDbPolygonMeshVertex
 10
3.922
 20
-2.15
 30
4.857
 70
    64
  0
VERTEX
  5
5B0E8
100
AcDbEntity
  8
0
100
AcDbVertex
100
AcDbPolygonMeshVertex
 10
3.922
 20
-2.15
 30
4.857
 70
    64
  0
VERTEX
  5
5B0E9
100
AcDbEntity
  8
0
100
AcDbVertex
100
AcDbPolygonMeshVertex
 10
3.922
 20
-1.34
 30
4.857
 70
    64
  0
SEQEND
  5
5B0EA
100
AcDbEntity
  8
0
  0
POLYLINE
  5
5B0EB
100
AcDbEntity
  8
0
100
AcDbPolygonMesh
 66
     1
 10
0.0
 20
0.0
 30
0.0
 70
    16
 71
     6
 72
     3
  0
VERTEX
  5
5B0EC
100
AcDbEntity
  8
0
100
AcDbVertex
100
AcDbPolygonMeshVertex
 10
3.742
 20
-1.34
 30
4.477
 70
    64
  0
VERTEX
  5
5B0ED
100
AcDbEntity
  8
0
100
AcDbVertex
100
AcDbPolygonMeshVertex
 10
3.742
 20
-1.34
 30
3.357
 70
    64
  0
VERTEX
  5
5B0EE
100
AcDbEntity
  8
0
100
AcDbVertex
100
AcDbPolygonMeshVertex
 10
3.742
 20
-1.34
 30
3.357
 70
    64
  0
VERTEX
  5
5B0EF
100
AcDbEntity
  8
0
100
AcDbVertex
100
AcDbPolygonMeshVertex
 10
3.922
 20
-1.34
 30
4.477
 70
    64
  0
VERTEX
  5
5B0F0
100
AcDbEntity
  8
0
100
AcDbVertex
100
AcDbPolygonMeshVertex
 10
3.922
 20
-1.34
 30
3.357
 70
    64
  0
VERTEX
  5
5B0F1
100
AcDbEntity
  8
0
100
AcDbVertex
100
AcDbPolygonMeshVertex
 10
3.922
 20
-1.34
 30
3.357
 70
    64
  0
VERTEX
  5
5B0F2
100
AcDbEntity
  8
0
100
AcDbVertex
100
AcDbPolygonMeshVertex
 10
3.922
 20
-1.47
 30
4.477
 70
    64
  0
VERTEX
  5
5B0F3
100
AcDbEntity
  8
0
100
AcDbVertex
100
AcDbPolygonMeshVertex
 10
3.922
 20
-1.47
 30
3.357
 70
    64
  0
VERTEX
  5
5B0F4
100
AcDbEntity
  8
0
100
AcDbVertex
100
AcDbPolygonMeshVertex
 10
3.922
 20
-1.34
 30
3.357
 70
    64
  0
VERTEX
  5
5B0F5
100
AcDbEntity
  8
0
100
AcDbVertex
100
AcDbPolygonMeshVertex
 10
3.742
 20
-1.47
 30
4.477
 70
    64
  0
VERTEX
  5
5B0F6
100
AcDbEntity
  8
0
100
AcDbVertex
100
AcDbPolygonMeshVertex
 10
3.742
 20
-1.47
 30
3.357
 70
    64
  0
VERTEX
  5
5B0F7
100
AcDbEntity
  8
0
100
AcDbVertex
100
AcDbPolygonMeshVertex
 10
3.742
 20
-1.34
 30
3.357
 70
    64
  0
VERTEX
  5
5B0F8
100
AcDbEntity
  8
0
100
AcDbVertex
100
AcDbPolygonMeshVertex
 10
3.742
 20
-1.47
 30
4.477
 70
    64
  0
VERTEX
  5
5B0F9
100
AcDbEntity
  8
0
100
AcDbVertex
100
AcDbPolygonMeshVertex
 10
3.742
 20
-1.47
 30
4.477
 70
    64
  0
VERTEX
  5
5B0FA
100
AcDbEntity
  8
0
100
AcDbVertex
100
AcDbPolygonMeshVertex
 10
3.742
 20
-1.34
 30
4.477
 70
    64
  0
VERTEX
  5
5B0FB
100
AcDbEntity
  8
0
100
AcDbVertex
100
AcDbPolygonMeshVertex
 10
3.922
 20
-1.47
 30
4.477
 70
    64
  0
VERTEX
  5
5B0FC
100
AcDbEntity
  8
0
100
AcDbVertex
100
AcDbPolygonMeshVertex
 10
3.922
 20
-1.47
 30
4.477
 70
    64
  0
VERTEX
  5
5B0FD
100
AcDbEntity
  8
0
100
AcDbVertex
100
AcDbPolygonMeshVertex
 10
3.922
 20
-1.34
 30
4.477
 70
    64
  0
SEQEND
  5
5B0FE
100
AcDbEntity
  8
0
  0
POLYLINE
  5
5B0FF
100
AcDbEntity
  8
0
100
AcDbPolygonMesh
 66
     1
 10
0.0
 20
0.0
 30
0.0
 70
    16
 71
     6
 72
     3
  0
VERTEX
  5
5B100
100
AcDbEntity
  8
0
100
AcDbVertex
100
AcDbPolygonMeshVertex
 10
2.682
 20
-1.34
 30
4.857
 70
    64
  0
VERTEX
  5
5B101
100
AcDbEntity
  8
0
100
AcDbVertex
100
AcDbPolygonMeshVertex
 10
2.682
 20
-1.34
 30
4.477
 70
    64
  0
VERTEX
  5
5B102
100
AcDbEntity
  8
0
100
AcDbVertex
100
AcDbPolygonMeshVertex
 10
2.682
 20
-1.34
 30
4.477
 70
    64
  0
VERTEX
  5
5B103
100
AcDbEntity
  8
0
100
AcDbVertex
100
AcDbPolygonMeshVertex
 10
2.862
 20
-1.34
 30
4.857
 70
    64
  0
VERTEX
  5
5B104
100
AcDbEntity
  8
0
100
AcDbVertex
100
AcDbPolygonMeshVertex
 10
2.862
 20
-1.34
 30
4.477
 70
    64
  0
VERTEX
  5
5B105
100
AcDbEntity
  8
0
100
AcDbVertex
100
AcDbPolygonMeshVertex
 10
2.862
 20
-1.34
 30
4.477
 70
    64
  0
VERTEX
  5
5B106
100
AcDbEntity
  8
0
100
AcDbVertex
100
AcDbPolygonMeshVertex
 10
2.862
 20
-2.15
 30
4.857
 70
    64
  0
VERTEX
  5
5B107
100
AcDbEntity
  8
0
100
AcDbVertex
100
AcDbPolygonMeshVertex
 10
2.862
 20
-2.15
 30
4.477
 70
    64
  0
VERTEX
  5
5B108
100
AcDbEntity
  8
0
100
AcDbVertex
100
AcDbPolygonMeshVertex
 10
2.862
 20
-1.34
 30
4.477
 70
    64
  0
VERTEX
  5
5B109
100
AcDbEntity
  8
0
100
AcDbVertex
100
AcDbPolygonMeshVertex
 10
2.682
 20
-2.15
 30
4.857
 70
    64
  0
VERTEX
  5
5B10A
100
AcDbEntity
  8
0
100
AcDbVertex
100
AcDbPolygonMeshVertex
 10
2.682
 20
-2.15
 30
4.477
 70
    64
  0
VERTEX
  5
5B10B
100
AcDbEntity
  8
0
100
AcDbVertex
100
AcDbPolygonMeshVertex
 10
2.682
 20
-1.34
 30
4.477
 70
    64
  0
VERTEX
  5
5B10C
100
AcDbEntity
  8
0
100
AcDbVertex
100
AcDbPolygonMeshVertex
 10
2.682
 20
-2.15
 30
4.857
 70
    64
  0
VERTEX
  5
5B10D
100
AcDbEntity
  8
0
100
AcDbVertex
100
AcDbPolygonMeshVertex
 10
2.682
 20
-2.15
 30
4.857
 70
    64
  0
VERTEX
  5
5B10E
100
AcDbEntity
  8
0
100
AcDbVertex
100
AcDbPolygonMeshVertex
 10
2.682
 20
-1.34
 30
4.857
 70
    64
  0
VERTEX
  5
5B10F
100
AcDbEntity
  8
0
100
AcDbVertex
100
AcDbPolygonMeshVertex
 10
2.862
 20
-2.15
 30
4.857
 70
    64
  0
VERTEX
  5
5B110
100
AcDbEntity
  8
0
100
AcDbVertex
100
AcDbPolygonMeshVertex
 10
2.862
 20
-2.15
 30
4.857
 70
    64
  0
VERTEX
  5
5B111
100
AcDbEntity
  8
0
100
AcDbVertex
100
AcDbPolygonMeshVertex
 10
2.862
 20
-1.34
 30
4.857
 70
    64
  0
SEQEND
  5
5B112
100
AcDbEntity
  8
0
  0
POLYLINE
  5
5B113
100
AcDbEntity
  8
0
100
AcDbPolygonMesh
 66
     1
 10
0.0
 20
0.0
 30
0.0
 70
    16
 71
     6
 72
     3
  0
VERTEX
  5
5B114
100
AcDbEntity
  8
0
100
AcDbVertex
100
AcDbPolygonMeshVertex
 10
2.682
 20
-1.34
 30
4.477
 70
    64
  0
VERTEX
  5
5B115
100
AcDbEntity
  8
0
100
AcDbVertex
100
AcDbPolygonMeshVertex
 10
2.682
 20
-1.34
 30
3.357
 70
    64
  0
VERTEX
  5
5B116
100
AcDbEntity
  8
0
100
AcDbVertex
100
AcDbPolygonMeshVertex
 10
2.682
 20
-1.34
 30
3.357
 70
    64
  0
VERTEX
  5
5B117
100
AcDbEntity
  8
0
100
AcDbVertex
100
AcDbPolygonMeshVertex
 10
2.862
 20
-1.34
 30
4.477
 70
    64
  0
VERTEX
  5
5B118
100
AcDbEntity
  8
0
100
AcDbVertex
100
AcDbPolygonMeshVertex
 10
2.862
 20
-1.34
 30
3.357
 70
    64
  0
VERTEX
  5
5B119
100
AcDbEntity
  8
0
100
AcDbVertex
100
AcDbPolygonMeshVertex
 10
2.862
 20
-1.34
 30
3.357
 70
    64
  0
VERTEX
  5
5B11A
100
AcDbEntity
  8
0
100
AcDbVertex
100
AcDbPolygonMeshVertex
 10
2.862
 20
-1.47
 30
4.477
 70
    64
  0
VERTEX
  5
5B11B
100
AcDbEntity
  8
0
100
AcDbVertex
100
AcDbPolygonMeshVertex
 10
2.862
 20
-1.47
 30
3.357
 70
    64
  0
VERTEX
  5
5B11C
100
AcDbEntity
  8
0
100
AcDbVertex
100
AcDbPolygonMeshVertex
 10
2.862
 20
-1.34
 30
3.357
 70
    64
  0
VERTEX
  5
5B11D
100
AcDbEntity
  8
0
100
AcDbVertex
100
AcDbPolygonMeshVertex
 10
2.682
 20
-1.47
 30
4.477
 70
    64
  0
VERTEX
  5
5B11E
100
AcDbEntity
  8
0
100
AcDbVertex
100
AcDbPolygonMeshVertex
 10
2.682
 20
-1.47
 30
3.357
 70
    64
  0
VERTEX
  5
5B11F
100
AcDbEntity
  8
0
100
AcDbVertex
100
AcDbPolygonMeshVertex
 10
2.682
 20
-1.34
 30
3.357
 70
    64
  0
VERTEX
  5
5B120
100
AcDbEntity
  8
0
100
AcDbVertex
100
AcDbPolygonMeshVertex
 10
2.682
 20
-1.47
 30
4.477
 70
    64
  0
VERTEX
  5
5B121
100
AcDbEntity
  8
0
100
AcDbVertex
100
AcDbPolygonMeshVertex
 10
2.682
 20
-1.47
 30
4.477
 70
    64
  0
VERTEX
  5
5B122
100
AcDbEntity
  8
0
100
AcDbVertex
100
AcDbPolygonMeshVertex
 10
2.682
 20
-1.34
 30
4.477
 70
    64
  0
VERTEX
  5
5B123
100
AcDbEntity
  8
0
100
AcDbVertex
100
AcDbPolygonMeshVertex
 10
2.862
 20
-1.47
 30
4.477
 70
    64
  0
VERTEX
  5
5B124
100
AcDbEntity
  8
0
100
AcDbVertex
100
AcDbPolygonMeshVertex
 10
2.862
 20
-1.47
 30
4.477
 70
    64
  0
VERTEX
  5
5B125
100
AcDbEntity
  8
0
100
AcDbVertex
100
AcDbPolygonMeshVertex
 10
2.862
 20
-1.34
 30
4.477
 70
    64
  0
SEQEND
  5
5B126
100
AcDbEntity
  8
0
  0
POLYLINE
  5
5B127
100
AcDbEntity
  8
0
100
AcDbPolygonMesh
 66
     1
 10
0.0
 20
0.0
 30
0.0
 70
    16
 71
     6
 72
     3
  0
VERTEX
  5
5B128
100
AcDbEntity
  8
0
100
AcDbVertex
100
AcDbPolygonMeshVertex
 10
4.112
 20
-1.56
 30
4.667
 70
    64
  0
VERTEX
  5
5B129
100
AcDbEntity
  8
0
100
AcDbVertex
100
AcDbPolygonMeshVertex
 10
4.112
 20
-1.56
 30
4.477
 70
    64
  0
VERTEX
  5
5B12A
100
AcDbEntity
  8
0
100
AcDbVertex
100
AcDbPolygonMeshVertex
 10
4.112
 20
-1.56
 30
4.477
 70
    64
  0
VERTEX
  5
5B12B
100
AcDbEntity
  8
0
100
AcDbVertex
100
AcDbPolygonMeshVertex
 10
4.612
 20
-1.56
 30
4.667
 70
    64
  0
VERTEX
  5
5B12C
100
AcDbEntity
  8
0
100
AcDbVertex
100
AcDbPolygonMeshVertex
 10
4.612
 20
-1.56
 30
4.477
 70
    64
  0
VERTEX
  5
5B12D
100
AcDbEntity
  8
0
100
AcDbVertex
100
AcDbPolygonMeshVertex
 10
4.612
 20
-1.56
 30
4.477
 70
    64
  0
VERTEX
  5
5B12E
100
AcDbEntity
  8
0
100
AcDbVertex
100
AcDbPolygonMeshVertex
 10
4.612
 20
-1.97
 30
4.667
 70
    64
  0
VERTEX
  5
5B12F
100
AcDbEntity
  8
0
100
AcDbVertex
100
AcDbPolygonMeshVertex
 10
4.612
 20
-1.97
 30
4.477
 70
    64
  0
VERTEX
  5
5B130
100
AcDbEntity
  8
0
100
AcDbVertex
100
AcDbPolygonMeshVertex
 10
4.612
 20
-1.56
 30
4.477
 70
    64
  0
VERTEX
  5
5B131
100
AcDbEntity
  8
0
100
AcDbVertex
100
AcDbPolygonMeshVertex
 10
4.112
 20
-1.97
 30
4.667
 70
    64
  0
VERTEX
  5
5B132
100
AcDbEntity
  8
0
100
AcDbVertex
100
AcDbPolygonMeshVertex
 10
4.112
 20
-1.97
 30
4.477
 70
    64
  0
VERTEX
  5
5B133
100
AcDbEntity
  8
0
100
AcDbVertex
100
AcDbPolygonMeshVertex
 10
4.112
 20
-1.56
 30
4.477
 70
    64
  0
VERTEX
  5
5B134
100
AcDbEntity
  8
0
100
AcDbVertex
100
AcDbPolygonMeshVertex
 10
4.112
 20
-1.97
 30
4.667
 70
    64
  0
VERTEX
  5
5B135
100
AcDbEntity
  8
0
100
AcDbVertex
100
AcDbPolygonMeshVertex
 10
4.112
 20
-1.97
 30
4.667
 70
    64
  0
VERTEX
  5
5B136
100
AcDbEntity
  8
0
100
AcDbVertex
100
AcDbPolygonMeshVertex
 10
4.112
 20
-1.56
 30
4.667
 70
    64
  0
VERTEX
  5
5B137
100
AcDbEntity
  8
0
100
AcDbVertex
100
AcDbPolygonMeshVertex
 10
4.612
 20
-1.97
 30
4.667
 70
    64
  0
VERTEX
  5
5B138
100
AcDbEntity
  8
0
100
AcDbVertex
100
AcDbPolygonMeshVertex
 10
4.612
 20
-1.97
 30
4.667
 70
    64
  0
VERTEX
  5
5B139
100
AcDbEntity
  8
0
100
AcDbVertex
100
AcDbPolygonMeshVertex
 10
4.612
 20
-1.56
 30
4.667
 70
    64
  0
SEQEND
  5
5B13A
100
AcDbEntity
  8
0
  0
CIRCLE
  5
5B13B
100
AcDbEntity
  8
0
100
AcDbCircle
 10
3.302
 20
-1.765
 30
4.667
 40
0.19
  0
POLYLINE
  5
5B13C
100
AcDbEntity
  8
0
100
AcDbPolygonMesh
 66
     1
 10
0.0
 20
0.0
 30
0.0
 70
    16
 71
     6
 72
     3
  0
VERTEX
  5
5B13D
100
AcDbEntity
  8
0
100
AcDbVertex
100
AcDbPolygonMeshVertex
 10
3.052
 20
-1.56
 30
4.667
 70
    64
  0
VERTEX
  5
5B13E
100
AcDbEntity
  8
0
100
AcDbVertex
100
AcDbPolygonMeshVertex
 10
3.052
 20
-1.56
 30
4.477
 70
    64
  0
VERTEX
  5
5B13F
100
AcDbEntity
  8
0
100
AcDbVertex
100
AcDbPolygonMeshVertex
 10
3.052
 20
-1.56
 30
4.477
 70
    64
  0
VERTEX
  5
5B140
100
AcDbEntity
  8
0
100
AcDbVertex
100
AcDbPolygonMeshVertex
 10
3.552
 20
-1.56
 30
4.667
 70
    64
  0
VERTEX
  5
5B141
100
AcDbEntity
  8
0
100
AcDbVertex
100
AcDbPolygonMeshVertex
 10
3.552
 20
-1.56
 30
4.477
 70
    64
  0
VERTEX
  5
5B142
100
AcDbEntity
  8
0
100
AcDbVertex
100
AcDbPolygonMeshVertex
 10
3.552
 20
-1.56
 30
4.477
 70
    64
  0
VERTEX
  5
5B143
100
AcDbEntity
  8
0
100
AcDbVertex
100
AcDbPolygonMeshVertex
 10
3.552
 20
-1.97
 30
4.667
 70
    64
  0
VERTEX
  5
5B144
100
AcDbEntity
  8
0
100
AcDbVertex
100
AcDbPolygonMeshVertex
 10
3.552
 20
-1.97
 30
4.477
 70
    64
  0
VERTEX
  5
5B145
100
AcDbEntity
  8
0
100
AcDbVertex
100
AcDbPolygonMeshVertex
 10
3.552
 20
-1.56
 30
4.477
 70
    64
  0
VERTEX
  5
5B146
100
AcDbEntity
  8
0
100
AcDbVertex
100
AcDbPolygonMeshVertex
 10
3.052
 20
-1.97
 30
4.667
 70
    64
  0
VERTEX
  5
5B147
100
AcDbEntity
  8
0
100
AcDbVertex
100
AcDbPolygonMeshVertex
 10
3.052
 20
-1.97
 30
4.477
 70
    64
  0
VERTEX
  5
5B148
100
AcDbEntity
  8
0
100
AcDbVertex
100
AcDbPolygonMeshVertex
 10
3.052
 20
-1.56
 30
4.477
 70
    64
  0
VERTEX
  5
5B149
100
AcDbEntity
  8
0
100
AcDbVertex
100
AcDbPolygonMeshVertex
 10
3.052
 20
-1.97
 30
4.667
 70
    64
  0
VERTEX
  5
5B14A
100
AcDbEntity
  8
0
100
AcDbVertex
100
AcDbPolygonMeshVertex
 10
3.052
 20
-1.97
 30
4.667
 70
    64
  0
VERTEX
  5
5B14B
100
AcDbEntity
  8
0
100
AcDbVertex
100
AcDbPolygonMeshVertex
 10
3.052
 20
-1.56
 30
4.667
 70
    64
  0
VERTEX
  5
5B14C
100
AcDbEntity
  8
0
100
AcDbVertex
100
AcDbPolygonMeshVertex
 10
3.552
 20
-1.97
 30
4.667
 70
    64
  0
VERTEX
  5
5B14D
100
AcDbEntity
  8
0
100
AcDbVertex
100
AcDbPolygonMeshVertex
 10
3.552
 20
-1.97
 30
4.667
 70
    64
  0
VERTEX
  5
5B14E
100
AcDbEntity
  8
0
100
AcDbVertex
100
AcDbPolygonMeshVertex
 10
3.552
 20
-1.56
 30
4.667
 70
    64
  0
SEQEND
  5
5B14F
100
AcDbEntity
  8
0
  0
CIRCLE
  5
5B150
100
AcDbEntity
  8
0
100
AcDbCircle
 10
2.242
 20
-1.765
 30
4.667
 40
0.19
  0
POLYLINE
  5
5B151
100
AcDbEntity
  8
0
100
AcDbPolygonMesh
 66
     1
 10
0.0
 20
0.0
 30
0.0
 70
    16
 71
     6
 72
     3
  0
VERTEX
  5
5B152
100
AcDbEntity
  8
0
100
AcDbVertex
100
AcDbPolygonMeshVertex
 10
1.992
 20
-1.56
 30
4.667
 70
    64
  0
VERTEX
  5
5B153
100
AcDbEntity
  8
0
100
AcDbVertex
100
AcDbPolygonMeshVertex
 10
1.992
 20
-1.56
 30
4.477
 70
    64
  0
VERTEX
  5
5B154
100
AcDbEntity
  8
0
100
AcDbVertex
100
AcDbPolygonMeshVertex
 10
1.992
 20
-1.56
 30
4.477
 70
    64
  0
VERTEX
  5
5B155
100
AcDbEntity
  8
0
100
AcDbVertex
100
AcDbPolygonMeshVertex
 10
2.492
 20
-1.56
 30
4.667
 70
    64
  0
VERTEX
  5
5B156
100
AcDbEntity
  8
0
100
AcDbVertex
100
AcDbPolygonMeshVertex
 10
2.492
 20
-1.56
 30
4.477
 70
    64
  0
VERTEX
  5
5B157
100
AcDbEntity
  8
0
100
AcDbVertex
100
AcDbPolygonMeshVertex
 10
2.492
 20
-1.56
 30
4.477
 70
    64
  0
VERTEX
  5
5B158
100
AcDbEntity
  8
0
100
AcDbVertex
100
AcDbPolygonMeshVertex
 10
2.492
 20
-1.97
 30
4.667
 70
    64
  0
VERTEX
  5
5B159
100
AcDbEntity
  8
0
100
AcDbVertex
100
AcDbPolygonMeshVertex
 10
2.492
 20
-1.97
 30
4.477
 70
    64
  0
VERTEX
  5
5B15A
100
AcDbEntity
  8
0
100
AcDbVertex
100
AcDbPolygonMeshVertex
 10
2.492
 20
-1.56
 30
4.477
 70
    64
  0
VERTEX
  5
5B15B
100
AcDbEntity
  8
0
100
AcDbVertex
100
AcDbPolygonMeshVertex
 10
1.992
 20
-1.97
 30
4.667
 70
    64
  0
VERTEX
  5
5B15C
100
AcDbEntity
  8
0
100
AcDbVertex
100
AcDbPolygonMeshVertex
 10
1.992
 20
-1.97
 30
4.477
 70
    64
  0
VERTEX
  5
5B15D
100
AcDbEntity
  8
0
100
AcDbVertex
100
AcDbPolygonMeshVertex
 10
1.992
 20
-1.56
 30
4.477
 70
    64
  0
VERTEX
  5
5B15E
100
AcDbEntity
  8
0
100
AcDbVertex
100
AcDbPolygonMeshVertex
 10
1.992
 20
-1.97
 30
4.667
 70
    64
  0
VERTEX
  5
5B15F
100
AcDbEntity
  8
0
100
AcDbVertex
100
AcDbPolygonMeshVertex
 10
1.992
 20
-1.97
 30
4.667
 70
    64
  0
VERTEX
  5
5B160
100
AcDbEntity
  8
0
100
AcDbVertex
100
AcDbPolygonMeshVertex
 10
1.992
 20
-1.56
 30
4.667
 70
    64
  0
VERTEX
  5
5B161
100
AcDbEntity
  8
0
100
AcDbVertex
100
AcDbPolygonMeshVertex
 10
2.492
 20
-1.97
 30
4.667
 70
    64
  0
VERTEX
  5
5B162
100
AcDbEntity
  8
0
100
AcDbVertex
100
AcDbPolygonMeshVertex
 10
2.492
 20
-1.97
 30
4.667
 70
    64
  0
VERTEX
  5
5B163
100
AcDbEntity
  8
0
100
AcDbVertex
100
AcDbPolygonMeshVertex
 10
2.492
 20
-1.56
 30
4.667
 70
    64
  0
SEQEND
  5
5B164
100
AcDbEntity
  8
0
  0
POLYLINE
  5
5B165
100
AcDbEntity
  8
0
100
AcDbPolygonMesh
 66
     1
 10
0.0
 20
0.0
 30
0.0
 70
    16
 71
     6
 72
     3
  0
VERTEX
  5
5B166
100
AcDbEntity
  8
0
100
AcDbVertex
100
AcDbPolygonMeshVertex
 10
1.992
 20
-1.0
 30
1.857
 70
    64
  0
VERTEX
  5
5B167
100
AcDbEntity
  8
0
100
AcDbVertex
100
AcDbPolygonMeshVertex
 10
1.992
 20
-1.0
 30
1.547
 70
    64
  0
VERTEX
  5
5B168
100
AcDbEntity
  8
0
100
AcDbVertex
100
AcDbPolygonMeshVertex
 10
1.992
 20
-1.0
 30
1.547
 70
    64
  0
VERTEX
  5
5B169
100
AcDbEntity
  8
0
100
AcDbVertex
100
AcDbPolygonMeshVertex
 10
2.492
 20
-1.0
 30
1.857
 70
    64
  0
VERTEX
  5
5B16A
100
AcDbEntity
  8
0
100
AcDbVertex
100
AcDbPolygonMeshVertex
 10
2.492
 20
-1.0
 30
1.547
 70
    64
  0
VERTEX
  5
5B16B
100
AcDbEntity
  8
0
100
AcDbVertex
100
AcDbPolygonMeshVertex
 10
2.492
 20
-1.0
 30
1.547
 70
    64
  0
VERTEX
  5
5B16C
100
AcDbEntity
  8
0
100
AcDbVertex
100
AcDbPolygonMeshVertex
 10
2.492
 20
-1.47
 30
1.857
 70
    64
  0
VERTEX
  5
5B16D
100
AcDbEntity
  8
0
100
AcDbVertex
100
AcDbPolygonMeshVertex
 10
2.492
 20
-1.47
 30
1.547
 70
    64
  0
VERTEX
  5
5B16E
100
AcDbEntity
  8
0
100
AcDbVertex
100
AcDbPolygonMeshVertex
 10
2.492
 20
-1.0
 30
1.547
 70
    64
  0
VERTEX
  5
5B16F
100
AcDbEntity
  8
0
100
AcDbVertex
100
AcDbPolygonMeshVertex
 10
1.992
 20
-1.47
 30
1.857
 70
    64
  0
VERTEX
  5
5B170
100
AcDbEntity
  8
0
100
AcDbVertex
100
AcDbPolygonMeshVertex
 10
1.992
 20
-1.47
 30
1.547
 70
    64
  0
VERTEX
  5
5B171
100
AcDbEntity
  8
0
100
AcDbVertex
100
AcDbPolygonMeshVertex
 10
1.992
 20
-1.0
 30
1.547
 70
    64
  0
VERTEX
  5
5B172
100
AcDbEntity
  8
0
100
AcDbVertex
100
AcDbPolygonMeshVertex
 10
1.992
 20
-1.47
 30
1.857
 70
    64
  0
VERTEX
  5
5B173
100
AcDbEntity
  8
0
100
AcDbVertex
100
AcDbPolygonMeshVertex
 10
1.992
 20
-1.47
 30
1.857
 70
    64
  0
VERTEX
  5
5B174
100
AcDbEntity
  8
0
100
AcDbVertex
100
AcDbPolygonMeshVertex
 10
1.992
 20
-1.0
 30
1.857
 70
    64
  0
VERTEX
  5
5B175
100
AcDbEntity
  8
0
100
AcDbVertex
100
AcDbPolygonMeshVertex
 10
2.492
 20
-1.47
 30
1.857
 70
    64
  0
VERTEX
  5
5B176
100
AcDbEntity
  8
0
100
AcDbVertex
100
AcDbPolygonMeshVertex
 10
2.492
 20
-1.47
 30
1.857
 70
    64
  0
VERTEX
  5
5B177
100
AcDbEntity
  8
0
100
AcDbVertex
100
AcDbPolygonMeshVertex
 10
2.492
 20
-1.0
 30
1.857
 70
    64
  0
SEQEND
  5
5B178
100
AcDbEntity
  8
0
  0
POLYLINE
  5
5B179
100
AcDbEntity
  8
0
100
AcDbPolygonMesh
 66
     1
 10
0.0
 20
0.0
 30
0.0
 70
    16
 71
     6
 72
     3
  0
VERTEX
  5
5B17A
100
AcDbEntity
  8
0
100
AcDbVertex
100
AcDbPolygonMeshVertex
 10
3.052
 20
-1.0
 30
1.857
 70
    64
  0
VERTEX
  5
5B17B
100
AcDbEntity
  8
0
100
AcDbVertex
100
AcDbPolygonMeshVertex
 10
3.052
 20
-1.0
 30
1.547
 70
    64
  0
VERTEX
  5
5B17C
100
AcDbEntity
  8
0
100
AcDbVertex
100
AcDbPolygonMeshVertex
 10
3.052
 20
-1.0
 30
1.547
 70
    64
  0
VERTEX
  5
5B17D
100
AcDbEntity
  8
0
100
AcDbVertex
100
AcDbPolygonMeshVertex
 10
3.552
 20
-1.0
 30
1.857
 70
    64
  0
VERTEX
  5
5B17E
100
AcDbEntity
  8
0
100
AcDbVertex
100
AcDbPolygonMeshVertex
 10
3.552
 20
-1.0
 30
1.547
 70
    64
  0
VERTEX
  5
5B17F
100
AcDbEntity
  8
0
100
AcDbVertex
100
AcDbPolygonMeshVertex
 10
3.552
 20
-1.0
 30
1.547
 70
    64
  0
VERTEX
  5
5B180
100
AcDbEntity
  8
0
100
AcDbVertex
100
AcDbPolygonMeshVertex
 10
3.552
 20
-1.47
 30
1.857
 70
    64
  0
VERTEX
  5
5B181
100
AcDbEntity
  8
0
100
AcDbVertex
100
AcDbPolygonMeshVertex
 10
3.552
 20
-1.47
 30
1.547
 70
    64
  0
VERTEX
  5
5B182
100
AcDbEntity
  8
0
100
AcDbVertex
100
AcDbPolygonMeshVertex
 10
3.552
 20
-1.0
 30
1.547
 70
    64
  0
VERTEX
  5
5B183
100
AcDbEntity
  8
0
100
AcDbVertex
100
AcDbPolygonMeshVertex
 10
3.052
 20
-1.47
 30
1.857
 70
    64
  0
VERTEX
  5
5B184
100
AcDbEntity
  8
0
100
AcDbVertex
100
AcDbPolygonMeshVertex
 10
3.052
 20
-1.47
 30
1.547
 70
    64
  0
VERTEX
  5
5B185
100
AcDbEntity
  8
0
100
AcDbVertex
100
AcDbPolygonMeshVertex
 10
3.052
 20
-1.0
 30
1.547
 70
    64
  0
VERTEX
  5
5B186
100
AcDbEntity
  8
0
100
AcDbVertex
100
AcDbPolygonMeshVertex
 10
3.052
 20
-1.47
 30
1.857
 70
    64
  0
VERTEX
  5
5B187
100
AcDbEntity
  8
0
100
AcDbVertex
100
AcDbPolygonMeshVertex
 10
3.052
 20
-1.47
 30
1.857
 70
    64
  0
VERTEX
  5
5B188
100
AcDbEntity
  8
0
100
AcDbVertex
100
AcDbPolygonMeshVertex
 10
3.052
 20
-1.0
 30
1.857
 70
    64
  0
VERTEX
  5
5B189
100
AcDbEntity
  8
0
100
AcDbVertex
100
AcDbPolygonMeshVertex
 10
3.552
 20
-1.47
 30
1.857
 70
    64
  0
VERTEX
  5
5B18A
100
AcDbEntity
  8
0
100
AcDbVertex
100
AcDbPolygonMeshVertex
 10
3.552
 20
-1.47
 30
1.857
 70
    64
  0
VERTEX
  5
5B18B
100
AcDbEntity
  8
0
100
AcDbVertex
100
AcDbPolygonMeshVertex
 10
3.552
 20
-1.0
 30
1.857
 70
    64
  0
SEQEND
  5
5B18C
100
AcDbEntity
  8
0
  0
CIRCLE
  5
5B18D
100
AcDbEntity
  8
0
100
AcDbCircle
 10
3.302
 20
-1.235
 30
1.867
 40
0.19
  0
LINE
  5
5B18E
100
AcDbEntity
  8
0
100
AcDbLine
 10
3.166278
 20
-1.367964
 30
1.867
 11
3.397529
 21
-1.070762
 31
1.867
  0
LINE
  5
5B18F
100
AcDbEntity
  8
0
100
AcDbLine
 10
3.206965
 20
-1.398318
 30
1.867
 11
3.438216
 21
-1.101115
 31
1.867
  0
POLYLINE
  5
5B190
100
AcDbEntity
  8
0
100
AcDbPolygonMesh
 66
     1
 10
0.0
 20
0.0
 30
0.0
 70
    16
 71
     6
 72
     3
  0
VERTEX
  5
5B191
100
AcDbEntity
  8
0
100
AcDbVertex
100
AcDbPolygonMeshVertex
 10
4.112
 20
-1.0
 30
1.857
 70
    64
  0
VERTEX
  5
5B192
100
AcDbEntity
  8
0
100
AcDbVertex
100
AcDbPolygonMeshVertex
 10
4.112
 20
-1.0
 30
1.547
 70
    64
  0
VERTEX
  5
5B193
100
AcDbEntity
  8
0
100
AcDbVertex
100
AcDbPolygonMeshVertex
 10
4.112
 20
-1.0
 30
1.547
 70
    64
  0
VERTEX
  5
5B194
100
AcDbEntity
  8
0
100
AcDbVertex
100
AcDbPolygonMeshVertex
 10
4.612
 20
-1.0
 30
1.857
 70
    64
  0
VERTEX
  5
5B195
100
AcDbEntity
  8
0
100
AcDbVertex
100
AcDbPolygonMeshVertex
 10
4.612
 20
-1.0
 30
1.547
 70
    64
  0
VERTEX
  5
5B196
100
AcDbEntity
  8
0
100
AcDbVertex
100
AcDbPolygonMeshVertex
 10
4.612
 20
-1.0
 30
1.547
 70
    64
  0
VERTEX
  5
5B197
100
AcDbEntity
  8
0
100
AcDbVertex
100
AcDbPolygonMeshVertex
 10
4.612
 20
-1.47
 30
1.857
 70
    64
  0
VERTEX
  5
5B198
100
AcDbEntity
  8
0
100
AcDbVertex
100
AcDbPolygonMeshVertex
 10
4.612
 20
-1.47
 30
1.547
 70
    64
  0
VERTEX
  5
5B199
100
AcDbEntity
  8
0
100
AcDbVertex
100
AcDbPolygonMeshVertex
 10
4.612
 20
-1.0
 30
1.547
 70
    64
  0
VERTEX
  5
5B19A
100
AcDbEntity
  8
0
100
AcDbVertex
100
AcDbPolygonMeshVertex
 10
4.112
 20
-1.47
 30
1.857
 70
    64
  0
VERTEX
  5
5B19B
100
AcDbEntity
  8
0
100
AcDbVertex
100
AcDbPolygonMeshVertex
 10
4.112
 20
-1.47
 30
1.547
 70
    64
  0
VERTEX
  5
5B19C
100
AcDbEntity
  8
0
100
AcDbVertex
100
AcDbPolygonMeshVertex
 10
4.112
 20
-1.0
 30
1.547
 70
    64
  0
VERTEX
  5
5B19D
100
AcDbEntity
  8
0
100
AcDbVertex
100
AcDbPolygonMeshVertex
 10
4.112
 20
-1.47
 30
1.857
 70
    64
  0
VERTEX
  5
5B19E
100
AcDbEntity
  8
0
100
AcDbVertex
100
AcDbPolygonMeshVertex
 10
4.112
 20
-1.47
 30
1.857
 70
    64
  0
VERTEX
  5
5B19F
100
AcDbEntity
  8
0
100
AcDbVertex
100
AcDbPolygonMeshVertex
 10
4.112
 20
-1.0
 30
1.857
 70
    64
  0
VERTEX
  5
5B1A0
100
AcDbEntity
  8
0
100
AcDbVertex
100
AcDbPolygonMeshVertex
 10
4.612
 20
-1.47
 30
1.857
 70
    64
  0
VERTEX
  5
5B1A1
100
AcDbEntity
  8
0
100
AcDbVertex
100
AcDbPolygonMeshVertex
 10
4.612
 20
-1.47
 30
1.857
 70
    64
  0
VERTEX
  5
5B1A2
100
AcDbEntity
  8
0
100
AcDbVertex
100
AcDbPolygonMeshVertex
 10
4.612
 20
-1.0
 30
1.857
 70
    64
  0
SEQEND
  5
5B1A3
100
AcDbEntity
  8
0
  0
CIRCLE
  5
5B1A4
100
AcDbEntity
  8
0
100
AcDbCircle
 10
4.362
 20
-1.235
 30
1.867
 40
0.19
  0
LINE
  5
5B1A5
100
AcDbEntity
  8
0
100
AcDbLine
 10
4.226278
 20
-1.367964
 30
1.867
 11
4.457529
 21
-1.070762
 31
1.867
  0
LINE
  5
5B1A6
100
AcDbEntity
  8
0
100
AcDbLine
 10
4.266965
 20
-1.398318
 30
1.867
 11
4.498216
 21
-1.101115
 31
1.867
  0
POLYLINE
  5
5B1A7
100
AcDbEntity
  8
0
100
AcDbPolygonMesh
 66
     1
 10
0.0
 20
0.0
 30
0.0
 70
    16
 71
     6
 72
     3
  0
VERTEX
  5
5B1A8
100
AcDbEntity
  8
0
100
AcDbVertex
100
AcDbPolygonMeshVertex
 10
5.077
 20
-8.31
 30
0.577
 70
    64
  0
VERTEX
  5
5B1A9
100
AcDbEntity
  8
0
100
AcDbVertex
100
AcDbPolygonMeshVertex
 10
5.077
 20
-8.31
 30
0.387
 70
    64
  0
VERTEX
  5
5B1AA
100
AcDbEntity
  8
0
100
AcDbVertex
100
AcDbPolygonMeshVertex
 10
5.077
 20
-8.31
 30
0.387
 70
    64
  0
VERTEX
  5
5B1AB
100
AcDbEntity
  8
0
100
AcDbVertex
100
AcDbPolygonMeshVertex
 10
1.517
 20
-8.31
 30
0.577
 70
    64
  0
VERTEX
  5
5B1AC
100
AcDbEntity
  8
0
100
AcDbVertex
100
AcDbPolygonMeshVertex
 10
1.517
 20
-8.31
 30
0.387
 70
    64
  0
VERTEX
  5
5B1AD
100
AcDbEntity
  8
0
100
AcDbVertex
100
AcDbPolygonMeshVertex
 10
1.517
 20
-8.31
 30
0.387
 70
    64
  0
VERTEX
  5
5B1AE
100
AcDbEntity
  8
0
100
AcDbVertex
100
AcDbPolygonMeshVertex
 10
1.517
 20
-1.31
 30
0.577
 70
    64
  0
VERTEX
  5
5B1AF
100
AcDbEntity
  8
0
100
AcDbVertex
100
AcDbPolygonMeshVertex
 10
1.517
 20
-1.31
 30
0.387
 70
    64
  0
VERTEX
  5
5B1B0
100
AcDbEntity
  8
0
100
AcDbVertex
100
AcDbPolygonMeshVertex
 10
1.517
 20
-8.31
 30
0.387
 70
    64
  0
VERTEX
  5
5B1B1
100
AcDbEntity
  8
0
100
AcDbVertex
100
AcDbPolygonMeshVertex
 10
5.077
 20
-1.31
 30
0.577
 70
    64
  0
VERTEX
  5
5B1B2
100
AcDbEntity
  8
0
100
AcDbVertex
100
AcDbPolygonMeshVertex
 10
5.077
 20
-1.31
 30
0.387
 70
    64
  0
VERTEX
  5
5B1B3
100
AcDbEntity
  8
0
100
AcDbVertex
100
AcDbPolygonMeshVertex
 10
5.077
 20
-8.31
 30
0.387
 70
    64
  0
VERTEX
  5
5B1B4
100
AcDbEntity
  8
0
100
AcDbVertex
100
AcDbPolygonMeshVertex
 10
5.077
 20
-1.31
 30
0.577
 70
    64
  0
VERTEX
  5
5B1B5
100
AcDbEntity
  8
0
100
AcDbVertex
100
AcDbPolygonMeshVertex
 10
5.077
 20
-1.31
 30
0.577
 70
    64
  0
VERTEX
  5
5B1B6
100
AcDbEntity
  8
0
100
AcDbVertex
100
AcDbPolygonMeshVertex
 10
5.077
 20
-8.31
 30
0.577
 70
    64
  0
VERTEX
  5
5B1B7
100
AcDbEntity
  8
0
100
AcDbVertex
100
AcDbPolygonMeshVertex
 10
1.517
 20
-1.31
 30
0.577
 70
    64
  0
VERTEX
  5
5B1B8
100
AcDbEntity
  8
0
100
AcDbVertex
100
AcDbPolygonMeshVertex
 10
1.517
 20
-1.31
 30
0.577
 70
    64
  0
VERTEX
  5
5B1B9
100
AcDbEntity
  8
0
100
AcDbVertex
100
AcDbPolygonMeshVertex
 10
1.517
 20
-8.31
 30
0.577
 70
    64
  0
SEQEND
  5
5B1BA
100
AcDbEntity
  8
0
  0
LINE
  5
5B1BB
100
AcDbEntity
  8
0
100
AcDbLine
 10
2.022
 20
-8.31
 30
0.577
 11
2.022
 21
-8.31
 31
0.387
  0
3DFACE
  5
5B1BC
100
AcDbEntity
  8
0
100
AcDbFace
 10
5.077
 20
-1.31
 30
0.577
 11
4.457
 21
-0.69
 31
0.577
 12
3.017
 22
-0.69
 32
0.577
 13
2.917
 23
-0.97
 33
0.577
 70
     8
  0
3DFACE
  5
5B1BD
100
AcDbEntity
  8
0
100
AcDbFace
 10
2.427
 20
-0.97
 30
0.577
 11
2.327
 21
-0.69
 31
0.577
 12
2.137
 22
-0.69
 32
0.577
 13
1.517
 23
-1.31
 33
0.577
 70
     8
  0
3DFACE
  5
5B1BE
100
AcDbEntity
  8
0
100
AcDbFace
 10
2.427
 20
-0.97
 30
0.577
 11
1.517
 21
-1.31
 31
0.577
 12
5.077
 22
-1.31
 32
0.577
 13
2.917
 23
-0.97
 33
0.577
 70
    15
  0
3DFACE
  5
5B1BF
100
AcDbEntity
  8
0
100
AcDbFace
 10
2.427
 20
-0.97
 30
0.387
 11
1.517
 21
-1.31
 31
0.387
 12
5.077
 22
-1.31
 32
0.387
 13
2.917
 23
-0.97
 33
0.387
 70
    15
  0
3DFACE
  5
5B1C0
100
AcDbEntity
  8
0
100
AcDbFace
 10
5.077
 20
-1.31
 30
0.387
 11
4.457
 21
-0.69
 31
0.387
 12
3.017
 22
-0.69
 32
0.387
 13
2.917
 23
-0.97
 33
0.387
 70
     8
  0
3DFACE
  5
5B1C1
100
AcDbEntity
  8
0
100
AcDbFace
 10
2.427
 20
-0.97
 30
0.387
 11
2.327
 21
-0.69
 31
0.387
 12
2.137
 22
-0.69
 32
0.387
 13
1.517
 23
-1.31
 33
0.387
 70
     8
  0
3DFACE
  5
5B1C2
100
AcDbEntity
  8
0
100
AcDbFace
 10
5.077
 20
-1.31
 30
0.387
 11
5.077
 21
-1.31
 31
0.577
 12
4.457
 22
-0.69
 32
0.577
 13
4.457
 23
-0.69
 33
0.387
  0
3DFACE
  5
5B1C3
100
AcDbEntity
  8
0
100
AcDbFace
 10
4.457
 20
-0.69
 30
0.577
 11
3.017
 21
-0.69
 31
0.577
 12
3.017
 22
-0.69
 32
0.387
 13
4.457
 23
-0.69
 33
0.387
  0
3DFACE
  5
5B1C4
100
AcDbEntity
  8
0
100
AcDbFace
 10
2.427
 20
-0.97
 30
0.577
 11
2.427
 21
-0.97
 31
0.387
 12
2.327
 22
-0.69
 32
0.387
 13
2.327
 23
-0.69
 33
0.577
  0
3DFACE
  5
5B1C5
100
AcDbEntity
  8
0
100
AcDbFace
 10
2.917
 20
-0.97
 30
0.577
 11
2.917
 21
-0.97
 31
0.387
 12
2.427
 22
-0.97
 32
0.387
 13
2.427
 23
-0.97
 33
0.577
  0
3DFACE
  5
5B1C6
100
AcDbEntity
  8
0
100
AcDbFace
 10
2.327
 20
-0.69
 30
0.577
 11
2.327
 21
-0.69
 31
0.387
 12
2.137
 22
-0.69
 32
0.387
 13
2.137
 23
-0.69
 33
0.577
  0
3DFACE
  5
5B1C7
100
AcDbEntity
  8
0
100
AcDbFace
 10
2.917
 20
-0.97
 30
0.577
 11
2.917
 21
-0.97
 31
0.387
 12
3.017
 22
-0.69
 32
0.387
 13
3.017
 23
-0.69
 33
0.577
  0
3DFACE
  5
5B1C8
100
AcDbEntity
  8
0
100
AcDbFace
 10
2.137
 20
-0.69
 30
0.387
 11
2.137
 21
-0.69
 31
0.577
 12
1.517
 22
-1.31
 32
0.577
 13
1.517
 23
-1.31
 33
0.387
  0
LINE
  5
5B1C9
100
AcDbEntity
  8
0
100
AcDbLine
 10
-3.378
 20
-5.79
 30
2.007
 11
-3.378
 21
-5.79
 31
3.237
  0
LINE
  5
5B1CA
100
AcDbEntity
  8
0
100
AcDbLine
 10
-2.978
 20
-8.31
 30
0.387
 11
-2.978
 21
-8.06
 31
0.387
  0
LINE
  5
5B1CB
100
AcDbEntity
  8
0
100
AcDbLine
 10
-2.978
 20
-8.31
 30
0.577
 11
-2.978
 21
-8.06
 31
0.577
  0
LINE
  5
5B1CC
100
AcDbEntity
  8
0
100
AcDbLine
 10
-3.178
 20
-8.06
 30
0.387
 11
-3.178
 21
-8.31
 31
0.387
  0
LINE
  5
5B1CD
100
AcDbEntity
  8
0
100
AcDbLine
 10
-3.178
 20
-8.06
 30
0.577
 11
-3.178
 21
-8.31
 31
0.577
  0
LINE
  5
5B1CE
100
AcDbEntity
  8
0
100
AcDbLine
 10
-3.178
 20
-8.31
 30
0.387
 11
-3.178
 21
-8.31
 31
0.577
  0
LINE
  5
5B1CF
100
AcDbEntity
  8
0
100
AcDbLine
 10
-2.978
 20
-8.06
 30
0.387
 11
-2.978
 21
-8.06
 31
0.577
  0
LINE
  5
5B1D0
100
AcDbEntity
  8
0
100
AcDbLine
 10
-3.178
 20
-8.06
 30
0.387
 11
-3.178
 21
-8.06
 31
0.577
  0
ARC
  5
5B1D1
100
AcDbEntity
  8
0
100
AcDbCircle
 10
-3.078
 20
-8.06
 30
0.387
 40
0.1
100
AcDbArc
 50
0.0
 51
179.999985
  0
ARC
  5
5B1D2
100
AcDbEntity
  8
0
100
AcDbCircle
 10
-3.078
 20
-8.06
 30
0.577
 40
0.1
100
AcDbArc
 50
0.0
 51
179.999985
  0
3DFACE
  5
5B1D3
100
AcDbEntity
  8
0
100
AcDbFace
 10
-0.228
 20
-8.06
 30
0.577
 11
-0.228
 21
-8.06
 31
0.387
 12
-0.228
 22
-8.31
 32
0.387
 13
-0.228
 23
-8.31
 33
0.577
 70
    14
  0
LINE
  5
5B1D4
100
AcDbEntity
  8
0
100
AcDbLine
 10
-0.428
 20
-8.06
 30
0.387
 11
-0.428
 21
-8.31
 31
0.387
  0
LINE
  5
5B1D5
100
AcDbEntity
  8
0
100
AcDbLine
 10
-0.228
 20
-8.31
 30
0.387
 11
-0.228
 21
-8.06
 31
0.387
  0
LINE
  5
5B1D6
100
AcDbEntity
  8
0
100
AcDbLine
 10
-0.428
 20
-8.06
 30
0.577
 11
-0.428
 21
-8.31
 31
0.577
  0
LINE
  5
5B1D7
100
AcDbEntity
  8
0
100
AcDbLine
 10
-0.228
 20
-8.31
 30
0.577
 11
-0.228
 21
-8.06
 31
0.577
  0
LINE
  5
5B1D8
100
AcDbEntity
  8
0
100
AcDbLine
 10
-0.428
 20
-8.31
 30
0.387
 11
-0.428
 21
-8.31
 31
0.577
  0
LINE
  5
5B1D9
100
AcDbEntity
  8
0
100
AcDbLine
 10
-0.228
 20
-8.31
 30
0.387
 11
-0.228
 21
-8.31
 31
0.577
  0
LINE
  5
5B1DA
100
AcDbEntity
  8
0
100
AcDbLine
 10
-0.428
 20
-8.06
 30
0.387
 11
-0.428
 21
-8.06
 31
0.577
  0
LINE
  5
5B1DB
100
AcDbEntity
  8
0
100
AcDbLine
 10
-0.228
 20
-8.06
 30
0.387
 11
-0.228
 21
-8.06
 31
0.577
  0
ARC
  5
5B1DC
100
AcDbEntity
  8
0
100
AcDbCircle
 10
-0.328
 20
-8.06
 30
0.387
 40
0.1
100
AcDbArc
 50
0.0
 51
179.999985
  0
ARC
  5
5B1DD
100
AcDbEntity
  8
0
100
AcDbCircle
 10
-0.328
 20
-8.06
 30
0.577
 40
0.1
100
AcDbArc
 50
0.0
 51
179.999985
  0
CIRCLE
  5
5B1DE
100
AcDbEntity
  8
0
100
AcDbCircle
 10
-2.828
 20
-6.06811
 30
5.358772
 40
0.155
210
0.0
220
-0.3163624652213708
230
0.9486383876899864
  0
LINE
  5
5B1DF
100
AcDbEntity
  8
0
100
AcDbLine
 10
-2.848075
 20
-7.597557
 30
3.115192
 11
-2.827586
 21
-7.304718
 31
3.212851
210
0.0
220
-0.3163624652213708
230
0.9486383876899864
  0
LINE
  5
5B1E0
100
AcDbEntity
  8
0
100
AcDbLine
 10
-2.828958
 20
-7.598819
 30
3.114771
 11
-2.808469
 21
-7.30598
 31
3.21243
210
0.0
220
-0.3163624652213708
230
0.9486383876899864
  0
CIRCLE
  5
5B1E1
100
AcDbEntity
  8
0
100
AcDbCircle
 10
-1.768
 20
-6.06811
 30
5.358772
 40
0.155
210
0.0
220
-0.3163624652213708
230
0.9486383876899864
  0
LINE
  5
5B1E2
100
AcDbEntity
  8
0
100
AcDbLine
 10
-1.768958
 20
-7.598819
 30
3.114771
 11
-1.748469
 21
-7.30598
 31
3.21243
210
0.0
220
-0.3163624652213708
230
0.9486383876899864
  0
LINE
  5
5B1E3
100
AcDbEntity
  8
0
100
AcDbLine
 10
-1.788075
 20
-7.597557
 30
3.115192
 11
-1.767586
 21
-7.304718
 31
3.212851
210
0.0
220
-0.3163624652213708
230
0.9486383876899864
  0
LINE
  5
5B1E4
100
AcDbEntity
  8
0
100
AcDbLine
 10
-2.421
 20
-6.29
 30
4.347
 11
-2.421
 21
-6.29
 31
4.027
  0
LINE
  5
5B1E5
100
AcDbEntity
  8
0
100
AcDbLine
 10
-2.171
 20
-6.29
 30
4.347
 11
-2.171
 21
-6.29
 31
4.027
  0
LINE
  5
5B1E6
100
AcDbEntity
  8
0
100
AcDbLine
 10
-2.171
 20
-6.04
 30
4.347
 11
-2.171
 21
-6.04
 31
4.027
  0
LINE
  5
5B1E7
100
AcDbEntity
  8
0
100
AcDbLine
 10
-2.421
 20
-6.04
 30
4.347
 11
-2.421
 21
-6.04
 31
4.027
  0
LINE
  5
5B1E8
100
AcDbEntity
  8
0
100
AcDbLine
 10
-2.171
 20
-6.04
 30
4.347
 11
-2.171
 21
-6.04
 31
4.027
  0
3DFACE
  5
5B1E9
100
AcDbEntity
  8
0
100
AcDbFace
 10
-2.171
 20
-6.29
 30
4.347
 11
-2.171
 21
-6.29
 31
4.027
 12
-2.171
 22
-6.04
 32
4.027
 13
-2.171
 23
-6.04
 33
4.347
 70
    14
  0
3DFACE
  5
5B1EA
100
AcDbEntity
  8
0
100
AcDbFace
 10
-2.171
 20
-6.04
 30
4.027
 11
-2.171
 21
-6.04
 31
4.347
 12
-2.171
 22
-6.29
 32
4.347
 13
-2.171
 23
-6.29
 33
4.027
 70
     3
  0
3DFACE
  5
5B1EB
100
AcDbEntity
  8
0
100
AcDbFace
 10
-2.171
 20
-6.29
 30
4.347
 11
-2.171
 21
-6.29
 31
4.027
 12
-2.171
 22
-6.04
 32
4.027
 13
-2.171
 23
-6.04
 33
4.027
 70
    14
  0
3DFACE
  5
5B1EC
100
AcDbEntity
  8
0
100
AcDbFace
 10
-2.171
 20
-6.04
 30
4.027
 11
-2.421
 21
-6.04
 31
4.027
 12
-2.421
 22
-6.04
 32
4.347
 13
-2.171
 23
-6.04
 33
4.347
 70
    14
  0
3DFACE
  5
5B1ED
100
AcDbEntity
  8
0
100
AcDbFace
 10
-2.421
 20
-6.04
 30
4.347
 11
-2.421
 21
-6.29
 31
4.347
 12
-2.421
 22
-6.29
 32
4.027
 13
-2.421
 23
-6.04
 33
4.027
 70
    14
  0
3DFACE
  5
5B1EE
100
AcDbEntity
  8
0
100
AcDbFace
 10
-2.421
 20
-6.29
 30
4.347
 11
-2.421
 21
-6.29
 31
4.027
 12
-2.171
 22
-6.29
 32
4.027
 13
-2.171
 23
-6.29
 33
4.347
 70
    14
  0
LINE
  5
5B1EF
100
AcDbEntity
  8
0
100
AcDbLine
 10
-2.171
 20
-6.29
 30
4.027
 11
-2.421
 21
-6.29
 31
4.027
  0
LINE
  5
5B1F0
100
AcDbEntity
  8
0
100
AcDbLine
 10
-2.421
 20
-6.04
 30
4.027
 11
-2.171
 21
-6.04
 31
4.027
  0
LINE
  5
5B1F1
100
AcDbEntity
  8
0
100
AcDbLine
 10
-2.421
 20
-6.29
 30
4.027
 11
-2.421
 21
-6.04
 31
4.027
  0
LINE
  5
5B1F2
100
AcDbEntity
  8
0
100
AcDbLine
 10
-2.171
 20
-6.04
 30
4.027
 11
-2.171
 21
-6.29
 31
4.027
  0
3DFACE
  5
5B1F3
100
AcDbEntity
  8
0
100
AcDbFace
 10
-2.606
 20
-5.79
 30
4.937
 11
-1.986
 21
-5.79
 31
4.937
 12
-1.986
 22
-5.79
 32
4.812
 13
-2.606
 23
-5.79
 33
4.812
 70
    14
  0
LINE
  5
5B1F4
100
AcDbEntity
  8
0
100
AcDbLine
 10
-2.606
 20
-5.79
 30
4.937
 11
-1.986
 21
-5.79
 31
4.937
  0
LINE
  5
5B1F5
100
AcDbEntity
  8
0
100
AcDbLine
 10
-2.606
 20
-5.79
 30
4.812
 11
-1.986
 21
-5.79
 31
4.812
  0
LINE
  5
5B1F6
100
AcDbEntity
  8
0
100
AcDbLine
 10
-2.546
 20
-5.915
 30
4.347
 11
-2.046
 21
-5.915
 31
4.347
  0
3DFACE
  5
5B1F7
100
AcDbEntity
  8
0
100
AcDbFace
 10
-1.986
 20
-5.79
 30
4.812
 11
-2.606
 21
-5.79
 31
4.812
 12
-2.546
 22
-5.915
 32
4.347
 13
-2.046
 23
-5.915
 33
4.347
 70
    14
  0
LINE
  5
5B1F8
100
AcDbEntity
  8
0
100
AcDbLine
 10
-1.986
 20
-6.54
 30
4.812
 11
-2.606
 21
-6.54
 31
4.812
  0
3DFACE
  5
5B1F9
100
AcDbEntity
  8
0
100
AcDbFace
 10
-2.606
 20
-6.54
 30
4.937
 11
-1.986
 21
-6.54
 31
4.937
 12
-1.986
 22
-6.54
 32
4.812
 13
-2.606
 23
-6.54
 33
4.812
 70
    14
  0
LINE
  5
5B1FA
100
AcDbEntity
  8
0
100
AcDbLine
 10
-1.986
 20
-6.54
 30
4.937
 11
-2.606
 21
-6.54
 31
4.937
  0
LINE
  5
5B1FB
100
AcDbEntity
  8
0
100
AcDbLine
 10
-2.046
 20
-6.415
 30
4.347
 11
-2.546
 21
-6.415
 31
4.347
  0
3DFACE
  5
5B1FC
100
AcDbEntity
  8
0
100
AcDbFace
 10
-2.606
 20
-6.54
 30
4.812
 11
-1.986
 21
-6.54
 31
4.812
 12
-2.046
 22
-6.415
 32
4.347
 13
-2.546
 23
-6.415
 33
4.347
 70
    14
  0
3DFACE
  5
5B1FD
100
AcDbEntity
  8
0
100
AcDbFace
 10
-2.606
 20
-5.79
 30
4.937
 11
-1.986
 21
-5.79
 31
4.937
 12
-1.986
 22
-6.54
 32
4.937
 13
-2.606
 23
-6.54
 33
4.937
 70
    14
  0
LINE
  5
5B1FE
100
AcDbEntity
  8
0
100
AcDbLine
 10
-2.421
 20
-6.29
 30
4.347
 11
-2.171
 21
-6.29
 31
4.347
  0
LINE
  5
5B1FF
100
AcDbEntity
  8
0
100
AcDbLine
 10
-2.421
 20
-6.04
 30
4.347
 11
-2.171
 21
-6.04
 31
4.347
  0
LINE
  5
5B200
100
AcDbEntity
  8
0
100
AcDbLine
 10
-2.606
 20
-6.54
 30
4.812
 11
-2.606
 21
-5.79
 31
4.812
  0
3DFACE
  5
5B201
100
AcDbEntity
  8
0
100
AcDbFace
 10
-2.606
 20
-5.79
 30
4.937
 11
-2.606
 21
-5.79
 31
4.812
 12
-2.606
 22
-6.54
 32
4.812
 13
-2.606
 23
-6.54
 33
4.937
 70
    14
  0
LINE
  5
5B202
100
AcDbEntity
  8
0
100
AcDbLine
 10
-2.606
 20
-6.54
 30
4.937
 11
-2.606
 21
-5.79
 31
4.937
  0
LINE
  5
5B203
100
AcDbEntity
  8
0
100
AcDbLine
 10
-2.546
 20
-5.915
 30
4.347
 11
-2.546
 21
-6.415
 31
4.347
  0
LINE
  5
5B204
100
AcDbEntity
  8
0
100
AcDbLine
 10
-2.421
 20
-6.29
 30
4.347
 11
-2.421
 21
-6.04
 31
4.347
  0
3DFACE
  5
5B205
100
AcDbEntity
  8
0
100
AcDbFace
 10
-2.606
 20
-5.79
 30
4.812
 11
-2.546
 21
-5.915
 31
4.347
 12
-2.546
 22
-6.415
 32
4.347
 13
-2.606
 23
-6.54
 33
4.812
 70
    14
  0
LINE
  5
5B206
100
AcDbEntity
  8
0
100
AcDbLine
 10
-2.546
 20
-6.415
 30
4.347
 11
-2.606
 21
-6.54
 31
4.812
  0
LINE
  5
5B207
100
AcDbEntity
  8
0
100
AcDbLine
 10
-2.606
 20
-6.54
 30
4.812
 11
-2.606
 21
-6.54
 31
4.937
  0
LINE
  5
5B208
100
AcDbEntity
  8
0
100
AcDbLine
 10
-2.606
 20
-5.79
 30
4.812
 11
-2.546
 21
-5.915
 31
4.347
  0
LINE
  5
5B209
100
AcDbEntity
  8
0
100
AcDbLine
 10
-2.606
 20
-5.79
 30
4.937
 11
-2.606
 21
-5.79
 31
4.812
  0
3DFACE
  5
5B20A
100
AcDbEntity
  8
0
100
AcDbFace
 10
-1.986
 20
-5.79
 30
4.937
 11
-1.986
 21
-6.54
 31
4.937
 12
-1.986
 22
-6.54
 32
4.812
 13
-1.986
 23
-5.79
 33
4.812
 70
    14
  0
LINE
  5
5B20B
100
AcDbEntity
  8
0
100
AcDbLine
 10
-1.986
 20
-5.79
 30
4.937
 11
-1.986
 21
-6.54
 31
4.937
  0
LINE
  5
5B20C
100
AcDbEntity
  8
0
100
AcDbLine
 10
-1.986
 20
-5.79
 30
4.812
 11
-1.986
 21
-6.54
 31
4.812
  0
LINE
  5
5B20D
100
AcDbEntity
  8
0
100
AcDbLine
 10
-2.171
 20
-6.04
 30
4.347
 11
-2.171
 21
-6.29
 31
4.347
  0
LINE
  5
5B20E
100
AcDbEntity
  8
0
100
AcDbLine
 10
-2.046
 20
-5.915
 30
4.347
 11
-2.046
 21
-6.415
 31
4.347
  0
3DFACE
  5
5B20F
100
AcDbEntity
  8
0
100
AcDbFace
 10
-1.986
 20
-6.54
 30
4.812
 11
-2.046
 21
-6.415
 31
4.347
 12
-2.046
 22
-5.915
 32
4.347
 13
-1.986
 23
-5.79
 33
4.812
 70
    14
  0
LINE
  5
5B210
100
AcDbEntity
  8
0
100
AcDbLine
 10
-1.986
 20
-6.54
 30
4.812
 11
-2.046
 21
-6.415
 31
4.347
  0
LINE
  5
5B211
100
AcDbEntity
  8
0
100
AcDbLine
 10
-1.986
 20
-6.54
 30
4.937
 11
-1.986
 21
-6.54
 31
4.812
  0
LINE
  5
5B212
100
AcDbEntity
  8
0
100
AcDbLine
 10
-1.986
 20
-5.79
 30
4.812
 11
-2.046
 21
-5.915
 31
4.347
  0
LINE
  5
5B213
100
AcDbEntity
  8
0
100
AcDbLine
 10
-1.986
 20
-5.79
 30
4.937
 11
-1.986
 21
-5.79
 31
4.812
  0
CIRCLE
  5
5B214
100
AcDbEntity
  8
0
100
AcDbCircle
 10
-0.708
 20
-6.06811
 30
5.358772
 40
0.155
210
0.0
220
-0.3163624652213708
230
0.9486383876899864
  0
LINE
  5
5B215
100
AcDbEntity
  8
0
100
AcDbLine
 10
-0.708958
 20
-7.598819
 30
3.114771
 11
-0.688469
 21
-7.30598
 31
3.21243
210
0.0
220
-0.3163624652213708
230
0.9486383876899864
  0
LINE
  5
5B216
100
AcDbEntity
  8
0
100
AcDbLine
 10
-0.728075
 20
-7.597557
 30
3.115192
 11
-0.707586
 21
-7.304718
 31
3.212851
210
0.0
220
-0.3163624652213708
230
0.9486383876899864
  0
CIRCLE
  5
5B217
100
AcDbEntity
  8
0
100
AcDbCircle
 10
-1.318
 20
-0.97
 30
0.577
 40
0.1
  0
CIRCLE
  5
5B218
100
AcDbEntity
  8
0
100
AcDbCircle
 10
-1.318
 20
-0.97
 30
0.577
 40
0.1
  0
LINE
  5
5B219
100
AcDbEntity
  8
0
100
AcDbLine
 10
-1.983
 20
-0.69
 30
0.387
 11
-0.543
 21
-0.69
 31
0.387
  0
LINE
  5
5B21A
100
AcDbEntity
  8
0
100
AcDbLine
 10
-1.983
 20
-0.69
 30
0.577
 11
-0.543
 21
-0.69
 31
0.577
  0
3DFACE
  5
5B21B
100
AcDbEntity
  8
0
100
AcDbFace
 10
-2.673
 20
-0.69
 30
0.577
 11
-2.863
 21
-0.69
 31
0.577
 12
-2.863
 22
-0.69
 32
0.387
 13
-2.673
 23
-0.69
 33
0.387
 70
    14
  0
LINE
  5
5B21C
100
AcDbEntity
  8
0
100
AcDbLine
 10
-2.863
 20
-0.69
 30
0.387
 11
-2.673
 21
-0.69
 31
0.387
  0
LINE
  5
5B21D
100
AcDbEntity
  8
0
100
AcDbLine
 10
-2.863
 20
-0.69
 30
0.577
 11
-2.673
 21
-0.69
 31
0.577
  0
ARC
  5
5B21E
100
AcDbEntity
  8
0
100
AcDbCircle
 10
-1.698
 20
-0.97
 30
0.577
 40
0.1015
100
AcDbArc
 50
0.0
 51
179.999985
  0
ARC
  5
5B21F
100
AcDbEntity
  8
0
100
AcDbCircle
 10
-1.698
 20
-0.97
 30
0.577
 40
0.1015
100
AcDbArc
 50
0.0
 51
179.999985
  0
LINE
  5
5B220
100
AcDbEntity
  8
0
100
AcDbLine
 10
-1.5965
 20
-1.102159
 30
0.387
 11
-1.5965
 21
-1.102159
 31
0.577
  0
LINE
  5
5B221
100
AcDbEntity
  8
0
100
AcDbLine
 10
-1.5965
 20
-0.97
 30
0.387
 11
-1.5965
 21
-0.97
 31
0.577
  0
LINE
  5
5B222
100
AcDbEntity
  8
0
100
AcDbLine
 10
-1.7995
 20
-0.97
 30
0.387
 11
-1.7995
 21
-0.97
 31
0.577
  0
ARC
  5
5B223
100
AcDbEntity
  8
0
100
AcDbCircle
 10
-1.698
 20
-1.313
 30
0.577
 40
0.234
100
AcDbArc
 50
115.70649
 51
64.293579
  0
ARC
  5
5B224
100
AcDbEntity
  8
0
100
AcDbCircle
 10
-1.698
 20
-1.313
 30
0.577
 40
0.234
100
AcDbArc
 50
115.70649
 51
64.293579
  0
LINE
  5
5B225
100
AcDbEntity
  8
0
100
AcDbLine
 10
-1.7995
 20
-0.97
 30
0.577
 11
-1.7995
 21
-1.102159
 31
0.577
  0
LINE
  5
5B226
100
AcDbEntity
  8
0
100
AcDbLine
 10
-1.7995
 20
-0.97
 30
0.577
 11
-1.7995
 21
-1.102159
 31
0.577
  0
LINE
  5
5B227
100
AcDbEntity
  8
0
100
AcDbLine
 10
-1.5965
 20
-0.97
 30
0.577
 11
-1.5965
 21
-1.102159
 31
0.577
  0
LINE
  5
5B228
100
AcDbEntity
  8
0
100
AcDbLine
 10
-1.5965
 20
-0.97
 30
0.577
 11
-1.5965
 21
-1.102159
 31
0.577
  0
LINE
  5
5B229
100
AcDbEntity
  8
0
100
AcDbLine
 10
-0.543
 20
-0.69
 30
0.387
 11
0.077
 21
-1.31
 31
0.387
  0
LINE
  5
5B22A
100
AcDbEntity
  8
0
100
AcDbLine
 10
-0.543
 20
-0.69
 30
0.577
 11
0.077
 21
-1.31
 31
0.577
  0
LINE
  5
5B22B
100
AcDbEntity
  8
0
100
AcDbLine
 10
-1.218
 20
-0.97
 30
0.387
 11
-1.218
 21
-0.97
 31
0.577
  0
CIRCLE
  5
5B22C
100
AcDbEntity
  8
0
100
AcDbCircle
 10
-1.318
 20
-0.97
 30
0.387
 40
0.1
  0
ARC
  5
5B22D
100
AcDbEntity
  8
0
100
AcDbCircle
 10
-1.698
 20
-1.313
 30
0.387
 40
0.234
100
AcDbArc
 50
115.70649
 51
64.293579
  0
LINE
  5
5B22E
100
AcDbEntity
  8
0
100
AcDbLine
 10
-1.5965
 20
-0.97
 30
0.387
 11
-1.5965
 21
-1.102159
 31
0.387
  0
ARC
  5
5B22F
100
AcDbEntity
  8
0
100
AcDbCircle
 10
-1.698
 20
-0.97
 30
0.387
 40
0.1015
100
AcDbArc
 50
0.0
 51
179.999985
  0
LINE
  5
5B230
100
AcDbEntity
  8
0
100
AcDbLine
 10
-1.7995
 20
-0.97
 30
0.387
 11
-1.7995
 21
-1.102159
 31
0.387
  0
LINE
  5
5B231
100
AcDbEntity
  8
0
100
AcDbLine
 10
-1.7995
 20
-1.102159
 30
0.387
 11
-1.7995
 21
-1.102159
 31
0.577
  0
LINE
  5
5B236
100
AcDbEntity
  8
0
100
AcDbLine
 10
-3.378
 20
-7.2
 30
3.237
 11
-3.378
 21
-7.2
 31
0.577
  0
LINE
  5
5B237
100
AcDbEntity
  8
0
100
AcDbLine
 10
-0.018
 20
-5.79
 30
2.007
 11
-0.018
 21
-7.592911
 31
2.007
  0
LINE
  5
5B238
100
AcDbEntity
  8
0
100
AcDbLine
 10
-3.378
 20
-7.61
 30
2.157
 11
-3.378
 21
-7.61
 31
2.007
  0
LINE
  5
5B239
100
AcDbEntity
  8
0
100
AcDbLine
 10
-3.378
 20
-7.61
 30
2.007
 11
-3.378
 21
-7.61
 31
0.577
  0
POLYLINE
  5
5B23A
100
AcDbEntity
  8
0
100
AcDbPolygonMesh
 66
     1
 10
0.0
 20
0.0
 30
0.0
 70
    16
 71
     6
 72
     3
  0
VERTEX
  5
5B23B
100
AcDbEntity
  8
0
100
AcDbVertex
100
AcDbPolygonMeshVertex
 10
-0.018
 20
-7.61
 30
3.087
 70
    64
  0
VERTEX
  5
5B23C
100
AcDbEntity
  8
0
100
AcDbVertex
100
AcDbPolygonMeshVertex
 10
-0.018
 20
-7.61
 30
0.577
 70
    64
  0
VERTEX
  5
5B23D
100
AcDbEntity
  8
0
100
AcDbVertex
100
AcDbPolygonMeshVertex
 10
-0.018
 20
-7.61
 30
0.577
 70
    64
  0
VERTEX
  5
5B23E
100
AcDbEntity
  8
0
100
AcDbVertex
100
AcDbPolygonMeshVertex
 10
-3.378
 20
-7.61
 30
3.087
 70
    64
  0
VERTEX
  5
5B23F
100
AcDbEntity
  8
0
100
AcDbVertex
100
AcDbPolygonMeshVertex
 10
-3.378
 20
-7.61
 30
0.577
 70
    64
  0
VERTEX
  5
5B240
100
AcDbEntity
  8
0
100
AcDbVertex
100
AcDbPolygonMeshVertex
 10
-3.378
 20
-7.61
 30
0.577
 70
    64
  0
VERTEX
  5
5B241
100
AcDbEntity
  8
0
100
AcDbVertex
100
AcDbPolygonMeshVertex
 10
-3.378
 20
-7.2
 30
3.087
 70
    64
  0
VERTEX
  5
5B242
100
AcDbEntity
  8
0
100
AcDbVertex
100
AcDbPolygonMeshVertex
 10
-3.378
 20
-7.2
 30
0.577
 70
    64
  0
VERTEX
  5
5B243
100
AcDbEntity
  8
0
100
AcDbVertex
100
AcDbPolygonMeshVertex
 10
-3.378
 20
-7.61
 30
0.577
 70
    64
  0
VERTEX
  5
5B244
100
AcDbEntity
  8
0
100
AcDbVertex
100
AcDbPolygonMeshVertex
 10
-0.018
 20
-7.2
 30
3.087
 70
    64
  0
VERTEX
  5
5B245
100
AcDbEntity
  8
0
100
AcDbVertex
100
AcDbPolygonMeshVertex
 10
-0.018
 20
-7.2
 30
0.577
 70
    64
  0
VERTEX
  5
5B246
100
AcDbEntity
  8
0
100
AcDbVertex
100
AcDbPolygonMeshVertex
 10
-0.018
 20
-7.61
 30
0.577
 70
    64
  0
VERTEX
  5
5B247
100
AcDbEntity
  8
0
100
AcDbVertex
100
AcDbPolygonMeshVertex
 10
-0.018
 20
-7.2
 30
3.087
 70
    64
  0
VERTEX
  5
5B248
100
AcDbEntity
  8
0
100
AcDbVertex
100
AcDbPolygonMeshVertex
 10
-0.018
 20
-7.2
 30
3.087
 70
    64
  0
VERTEX
  5
5B249
100
AcDbEntity
  8
0
100
AcDbVertex
100
AcDbPolygonMeshVertex
 10
-0.018
 20
-7.61
 30
3.087
 70
    64
  0
VERTEX
  5
5B24A
100
AcDbEntity
  8
0
100
AcDbVertex
100
AcDbPolygonMeshVertex
 10
-3.378
 20
-7.2
 30
3.087
 70
    64
  0
VERTEX
  5
5B24B
100
AcDbEntity
  8
0
100
AcDbVertex
100
AcDbPolygonMeshVertex
 10
-3.378
 20
-7.2
 30
3.087
 70
    64
  0
VERTEX
  5
5B24C
100
AcDbEntity
  8
0
100
AcDbVertex
100
AcDbPolygonMeshVertex
 10
-3.378
 20
-7.61
 30
3.087
 70
    64
  0
SEQEND
  5
5B24D
100
AcDbEntity
  8
0
  0
POLYLINE
  5
5B24E
100
AcDbEntity
  8
0
100
AcDbPolygonMesh
 66
     1
 10
0.0
 20
0.0
 30
0.0
 70
    16
 71
     6
 72
     3
  0
VERTEX
  5
5B24F
100
AcDbEntity
  8
0
100
AcDbVertex
100
AcDbPolygonMeshVertex
 10
-2.208
 20
-8.04
 30
0.887
 70
    64
  0
VERTEX
  5
5B250
100
AcDbEntity
  8
0
100
AcDbVertex
100
AcDbPolygonMeshVertex
 10
-2.208
 20
-8.04
 30
0.577
 70
    64
  0
VERTEX
  5
5B251
100
AcDbEntity
  8
0
100
AcDbVertex
100
AcDbPolygonMeshVertex
 10
-2.208
 20
-8.04
 30
0.577
 70
    64
  0
VERTEX
  5
5B252
100
AcDbEntity
  8
0
100
AcDbVertex
100
AcDbPolygonMeshVertex
 10
-2.708
 20
-8.04
 30
0.887
 70
    64
  0
VERTEX
  5
5B253
100
AcDbEntity
  8
0
100
AcDbVertex
100
AcDbPolygonMeshVertex
 10
-2.708
 20
-8.04
 30
0.577
 70
    64
  0
VERTEX
  5
5B254
100
AcDbEntity
  8
0
100
AcDbVertex
100
AcDbPolygonMeshVertex
 10
-2.708
 20
-8.04
 30
0.577
 70
    64
  0
VERTEX
  5
5B255
100
AcDbEntity
  8
0
100
AcDbVertex
100
AcDbPolygonMeshVertex
 10
-2.708
 20
-7.61
 30
0.887
 70
    64
  0
VERTEX
  5
5B256
100
AcDbEntity
  8
0
100
AcDbVertex
100
AcDbPolygonMeshVertex
 10
-2.708
 20
-7.61
 30
0.577
 70
    64
  0
VERTEX
  5
5B257
100
AcDbEntity
  8
0
100
AcDbVertex
100
AcDbPolygonMeshVertex
 10
-2.708
 20
-8.04
 30
0.577
 70
    64
  0
VERTEX
  5
5B258
100
AcDbEntity
  8
0
100
AcDbVertex
100
AcDbPolygonMeshVertex
 10
-2.208
 20
-7.61
 30
0.887
 70
    64
  0
VERTEX
  5
5B259
100
AcDbEntity
  8
0
100
AcDbVertex
100
AcDbPolygonMeshVertex
 10
-2.208
 20
-7.61
 30
0.577
 70
    64
  0
VERTEX
  5
5B25A
100
AcDbEntity
  8
0
100
AcDbVertex
100
AcDbPolygonMeshVertex
 10
-2.208
 20
-8.04
 30
0.577
 70
    64
  0
VERTEX
  5
5B25B
100
AcDbEntity
  8
0
100
AcDbVertex
100
AcDbPolygonMeshVertex
 10
-2.208
 20
-7.61
 30
0.887
 70
    64
  0
VERTEX
  5
5B25C
100
AcDbEntity
  8
0
100
AcDbVertex
100
AcDbPolygonMeshVertex
 10
-2.208
 20
-7.61
 30
0.887
 70
    64
  0
VERTEX
  5
5B25D
100
AcDbEntity
  8
0
100
AcDbVertex
100
AcDbPolygonMeshVertex
 10
-2.208
 20
-8.04
 30
0.887
 70
    64
  0
VERTEX
  5
5B25E
100
AcDbEntity
  8
0
100
AcDbVertex
100
AcDbPolygonMeshVertex
 10
-2.708
 20
-7.61
 30
0.887
 70
    64
  0
VERTEX
  5
5B25F
100
AcDbEntity
  8
0
100
AcDbVertex
100
AcDbPolygonMeshVertex
 10
-2.708
 20
-7.61
 30
0.887
 70
    64
  0
VERTEX
  5
5B260
100
AcDbEntity
  8
0
100
AcDbVertex
100
AcDbPolygonMeshVertex
 10
-2.708
 20
-8.04
 30
0.887
 70
    64
  0
SEQEND
  5
5B261
100
AcDbEntity
  8
0
  0
POLYLINE
  5
5B262
100
AcDbEntity
  8
0
100
AcDbPolygonMesh
 66
     1
 10
0.0
 20
0.0
 30
0.0
 70
    16
 71
     6
 72
     3
  0
VERTEX
  5
5B263
100
AcDbEntity
  8
0
100
AcDbVertex
100
AcDbPolygonMeshVertex
 10
-0.831
 20
-8.04
 30
0.887
 70
    64
  0
VERTEX
  5
5B264
100
AcDbEntity
  8
0
100
AcDbVertex
100
AcDbPolygonMeshVertex
 10
-0.831
 20
-8.04
 30
0.577
 70
    64
  0
VERTEX
  5
5B265
100
AcDbEntity
  8
0
100
AcDbVertex
100
AcDbPolygonMeshVertex
 10
-0.831
 20
-8.04
 30
0.577
 70
    64
  0
VERTEX
  5
5B266
100
AcDbEntity
  8
0
100
AcDbVertex
100
AcDbPolygonMeshVertex
 10
-1.331
 20
-8.04
 30
0.887
 70
    64
  0
VERTEX
  5
5B267
100
AcDbEntity
  8
0
100
AcDbVertex
100
AcDbPolygonMeshVertex
 10
-1.331
 20
-8.04
 30
0.577
 70
    64
  0
VERTEX
  5
5B268
100
AcDbEntity
  8
0
100
AcDbVertex
100
AcDbPolygonMeshVertex
 10
-1.331
 20
-8.04
 30
0.577
 70
    64
  0
VERTEX
  5
5B269
100
AcDbEntity
  8
0
100
AcDbVertex
100
AcDbPolygonMeshVertex
 10
-1.331
 20
-7.61
 30
0.887
 70
    64
  0
VERTEX
  5
5B26A
100
AcDbEntity
  8
0
100
AcDbVertex
100
AcDbPolygonMeshVertex
 10
-1.331
 20
-7.61
 30
0.577
 70
    64
  0
VERTEX
  5
5B26B
100
AcDbEntity
  8
0
100
AcDbVertex
100
AcDbPolygonMeshVertex
 10
-1.331
 20
-8.04
 30
0.577
 70
    64
  0
VERTEX
  5
5B26C
100
AcDbEntity
  8
0
100
AcDbVertex
100
AcDbPolygonMeshVertex
 10
-0.831
 20
-7.61
 30
0.887
 70
    64
  0
VERTEX
  5
5B26D
100
AcDbEntity
  8
0
100
AcDbVertex
100
AcDbPolygonMeshVertex
 10
-0.831
 20
-7.61
 30
0.577
 70
    64
  0
VERTEX
  5
5B26E
100
AcDbEntity
  8
0
100
AcDbVertex
100
AcDbPolygonMeshVertex
 10
-0.831
 20
-8.04
 30
0.577
 70
    64
  0
VERTEX
  5
5B26F
100
AcDbEntity
  8
0
100
AcDbVertex
100
AcDbPolygonMeshVertex
 10
-0.831
 20
-7.61
 30
0.887
 70
    64
  0
VERTEX
  5
5B270
100
AcDbEntity
  8
0
100
AcDbVertex
100
AcDbPolygonMeshVertex
 10
-0.831
 20
-7.61
 30
0.887
 70
    64
  0
VERTEX
  5
5B271
100
AcDbEntity
  8
0
100
AcDbVertex
100
AcDbPolygonMeshVertex
 10
-0.831
 20
-8.04
 30
0.887
 70
    64
  0
VERTEX
  5
5B272
100
AcDbEntity
  8
0
100
AcDbVertex
100
AcDbPolygonMeshVertex
 10
-1.331
 20
-7.61
 30
0.887
 70
    64
  0
VERTEX
  5
5B273
100
AcDbEntity
  8
0
100
AcDbVertex
100
AcDbPolygonMeshVertex
 10
-1.331
 20
-7.61
 30
0.887
 70
    64
  0
VERTEX
  5
5B274
100
AcDbEntity
  8
0
100
AcDbVertex
100
AcDbPolygonMeshVertex
 10
-1.331
 20
-8.04
 30
0.887
 70
    64
  0
SEQEND
  5
5B275
100
AcDbEntity
  8
0
  0
POLYLINE
  5
5B276
100
AcDbEntity
  8
0
100
AcDbPolygonMesh
 66
     1
 10
0.0
 20
0.0
 30
0.0
 70
    16
 71
     6
 72
     3
  0
VERTEX
  5
5B277
100
AcDbEntity
  8
0
100
AcDbVertex
100
AcDbPolygonMeshVertex
 10
-3.378
 20
-7.61
 30
3.087
 70
    64
  0
VERTEX
  5
5B278
100
AcDbEntity
  8
0
100
AcDbVertex
100
AcDbPolygonMeshVertex
 10
-3.378
 20
-7.61
 30
3.087
 70
    64
  0
VERTEX
  5
5B279
100
AcDbEntity
  8
0
100
AcDbVertex
100
AcDbPolygonMeshVertex
 10
-3.378
 20
-7.61
 30
3.087
 70
    64
  0
VERTEX
  5
5B27A
100
AcDbEntity
  8
0
100
AcDbVertex
100
AcDbPolygonMeshVertex
 10
-3.378
 20
-7.2
 30
3.237
 70
    64
  0
VERTEX
  5
5B27B
100
AcDbEntity
  8
0
100
AcDbVertex
100
AcDbPolygonMeshVertex
 10
-3.378
 20
-7.2
 30
3.087
 70
    64
  0
VERTEX
  5
5B27C
100
AcDbEntity
  8
0
100
AcDbVertex
100
AcDbPolygonMeshVertex
 10
-3.378
 20
-7.2
 30
3.087
 70
    64
  0
VERTEX
  5
5B27D
100
AcDbEntity
  8
0
100
AcDbVertex
100
AcDbPolygonMeshVertex
 10
-0.018
 20
-7.2
 30
3.237
 70
    64
  0
VERTEX
  5
5B27E
100
AcDbEntity
  8
0
100
AcDbVertex
100
AcDbPolygonMeshVertex
 10
-0.018
 20
-7.2
 30
3.087
 70
    64
  0
VERTEX
  5
5B27F
100
AcDbEntity
  8
0
100
AcDbVertex
100
AcDbPolygonMeshVertex
 10
-3.378
 20
-7.2
 30
3.087
 70
    64
  0
VERTEX
  5
5B280
100
AcDbEntity
  8
0
100
AcDbVertex
100
AcDbPolygonMeshVertex
 10
-0.018
 20
-7.61
 30
3.087
 70
    64
  0
VERTEX
  5
5B281
100
AcDbEntity
  8
0
100
AcDbVertex
100
AcDbPolygonMeshVertex
 10
-0.018
 20
-7.61
 30
3.087
 70
    64
  0
VERTEX
  5
5B282
100
AcDbEntity
  8
0
100
AcDbVertex
100
AcDbPolygonMeshVertex
 10
-3.378
 20
-7.61
 30
3.087
 70
    64
  0
VERTEX
  5
5B283
100
AcDbEntity
  8
0
100
AcDbVertex
100
AcDbPolygonMeshVertex
 10
-0.018
 20
-7.61
 30
3.087
 70
    64
  0
VERTEX
  5
5B284
100
AcDbEntity
  8
0
100
AcDbVertex
100
AcDbPolygonMeshVertex
 10
-0.018
 20
-7.61
 30
3.087
 70
    64
  0
VERTEX
  5
5B285
100
AcDbEntity
  8
0
100
AcDbVertex
100
AcDbPolygonMeshVertex
 10
-3.378
 20
-7.61
 30
3.087
 70
    64
  0
VERTEX
  5
5B286
100
AcDbEntity
  8
0
100
AcDbVertex
100
AcDbPolygonMeshVertex
 10
-0.018
 20
-7.2
 30
3.237
 70
    64
  0
VERTEX
  5
5B287
100
AcDbEntity
  8
0
100
AcDbVertex
100
AcDbPolygonMeshVertex
 10
-0.018
 20
-7.2
 30
3.237
 70
    64
  0
VERTEX
  5
5B288
100
AcDbEntity
  8
0
100
AcDbVertex
100
AcDbPolygonMeshVertex
 10
-3.378
 20
-7.2
 30
3.237
 70
    64
  0
SEQEND
  5
5B289
100
AcDbEntity
  8
0
  0
POLYLINE
  5
5B28A
100
AcDbEntity
  8
0
100
AcDbPolygonMesh
 66
     1
 10
0.0
 20
0.0
 30
0.0
 70
    16
 71
     6
 72
     3
  0
VERTEX
  5
5B28B
100
AcDbEntity
  8
0
100
AcDbVertex
100
AcDbPolygonMeshVertex
 10
-0.018
 20
-7.2
 30
4.027
 70
    64
  0
VERTEX
  5
5B28C
100
AcDbEntity
  8
0
100
AcDbVertex
100
AcDbPolygonMeshVertex
 10
-0.018
 20
-7.2
 30
0.577
 70
    64
  0
VERTEX
  5
5B28D
100
AcDbEntity
  8
0
100
AcDbVertex
100
AcDbPolygonMeshVertex
 10
-0.018
 20
-7.2
 30
0.577
 70
    64
  0
VERTEX
  5
5B28E
100
AcDbEntity
  8
0
100
AcDbVertex
100
AcDbPolygonMeshVertex
 10
-3.378
 20
-7.2
 30
4.027
 70
    64
  0
VERTEX
  5
5B28F
100
AcDbEntity
  8
0
100
AcDbVertex
100
AcDbPolygonMeshVertex
 10
-3.378
 20
-7.2
 30
0.577
 70
    64
  0
VERTEX
  5
5B290
100
AcDbEntity
  8
0
100
AcDbVertex
100
AcDbPolygonMeshVertex
 10
-3.378
 20
-7.2
 30
0.577
 70
    64
  0
VERTEX
  5
5B291
100
AcDbEntity
  8
0
100
AcDbVertex
100
AcDbPolygonMeshVertex
 10
-3.378
 20
-5.79
 30
4.027
 70
    64
  0
VERTEX
  5
5B292
100
AcDbEntity
  8
0
100
AcDbVertex
100
AcDbPolygonMeshVertex
 10
-3.378
 20
-5.79
 30
0.577
 70
    64
  0
VERTEX
  5
5B293
100
AcDbEntity
  8
0
100
AcDbVertex
100
AcDbPolygonMeshVertex
 10
-3.378
 20
-7.2
 30
0.577
 70
    64
  0
VERTEX
  5
5B294
100
AcDbEntity
  8
0
100
AcDbVertex
100
AcDbPolygonMeshVertex
 10
-0.018
 20
-5.79
 30
4.027
 70
    64
  0
VERTEX
  5
5B295
100
AcDbEntity
  8
0
100
AcDbVertex
100
AcDbPolygonMeshVertex
 10
-0.018
 20
-5.79
 30
0.577
 70
    64
  0
VERTEX
  5
5B296
100
AcDbEntity
  8
0
100
AcDbVertex
100
AcDbPolygonMeshVertex
 10
-0.018
 20
-7.2
 30
0.577
 70
    64
  0
VERTEX
  5
5B297
100
AcDbEntity
  8
0
100
AcDbVertex
100
AcDbPolygonMeshVertex
 10
-0.018
 20
-5.79
 30
4.027
 70
    64
  0
VERTEX
  5
5B298
100
AcDbEntity
  8
0
100
AcDbVertex
100
AcDbPolygonMeshVertex
 10
-0.018
 20
-5.79
 30
4.027
 70
    64
  0
VERTEX
  5
5B299
100
AcDbEntity
  8
0
100
AcDbVertex
100
AcDbPolygonMeshVertex
 10
-0.018
 20
-7.2
 30
4.027
 70
    64
  0
VERTEX
  5
5B29A
100
AcDbEntity
  8
0
100
AcDbVertex
100
AcDbPolygonMeshVertex
 10
-3.378
 20
-5.79
 30
4.027
 70
    64
  0
VERTEX
  5
5B29B
100
AcDbEntity
  8
0
100
AcDbVertex
100
AcDbPolygonMeshVertex
 10
-3.378
 20
-5.79
 30
4.027
 70
    64
  0
VERTEX
  5
5B29C
100
AcDbEntity
  8
0
100
AcDbVertex
100
AcDbPolygonMeshVertex
 10
-3.378
 20
-7.2
 30
4.027
 70
    64
  0
SEQEND
  5
5B29D
100
AcDbEntity
  8
0
  0
LINE
  5
5B29E
100
AcDbEntity
  8
0
100
AcDbLine
 10
-2.277326
 20
-3.825015
 30
4.857
 11
-2.16271
 21
-3.975138
 31
4.857
  0
LINE
  5
5B29F
100
AcDbEntity
  8
0
100
AcDbLine
 10
-2.293515
 20
-3.841205
 30
4.857
 11
-2.178899
 21
-3.991327
 31
4.857
  0
CIRCLE
  5
5B2A0
100
AcDbEntity
  8
0
100
AcDbCircle
 10
-2.228
 20
-3.91
 30
4.857
 40
0.095
  0
LINE
  5
5B2A1
100
AcDbEntity
  8
0
100
AcDbLine
 10
-2.853035
 20
-1.398318
 30
1.867
 11
-2.621784
 21
-1.101115
 31
1.867
  0
LINE
  5
5B2A2
100
AcDbEntity
  8
0
100
AcDbLine
 10
-2.893722
 20
-1.367964
 30
1.867
 11
-2.662471
 21
-1.070762
 31
1.867
  0
CIRCLE
  5
5B2A3
100
AcDbEntity
  8
0
100
AcDbCircle
 10
-2.758
 20
-1.235
 30
1.867
 40
0.19
  0
LINE
  5
5B2A4
100
AcDbEntity
  8
0
100
AcDbLine
 10
-1.217326
 20
-3.825015
 30
4.857
 11
-1.10271
 21
-3.975138
 31
4.857
  0
LINE
  5
5B2A5
100
AcDbEntity
  8
0
100
AcDbLine
 10
-1.233515
 20
-3.841205
 30
4.857
 11
-1.1189
 21
-3.991327
 31
4.857
  0
CIRCLE
  5
5B2A6
100
AcDbEntity
  8
0
100
AcDbCircle
 10
-1.168
 20
-3.91
 30
4.857
 40
0.095
  0
LINE
  5
5B2A7
100
AcDbEntity
  8
0
100
AcDbLine
 10
-0.733035
 20
-1.928318
 30
4.667
 11
-0.501784
 21
-1.631115
 31
4.667
  0
LINE
  5
5B2A8
100
AcDbEntity
  8
0
100
AcDbLine
 10
-0.773722
 20
-1.897964
 30
4.667
 11
-0.542471
 21
-1.600762
 31
4.667
  0
CIRCLE
  5
5B2A9
100
AcDbEntity
  8
0
100
AcDbCircle
 10
-0.638
 20
-1.765
 30
4.667
 40
0.19
  0
POLYLINE
  5
5B2AA
100
AcDbEntity
  8
0
100
AcDbPolygonMesh
 66
     1
 10
0.0
 20
0.0
 30
0.0
 70
    16
 71
     6
 72
     3
  0
VERTEX
  5
5B2AB
100
AcDbEntity
  8
0
100
AcDbVertex
100
AcDbPolygonMeshVertex
 10
-0.758
 20
-4.44
 30
4.387
 70
    64
  0
VERTEX
  5
5B2AC
100
AcDbEntity
  8
0
100
AcDbVertex
100
AcDbPolygonMeshVertex
 10
-0.758
 20
-4.44
 30
4.017
 70
    64
  0
VERTEX
  5
5B2AD
100
AcDbEntity
  8
0
100
AcDbVertex
100
AcDbPolygonMeshVertex
 10
-0.758
 20
-4.44
 30
4.017
 70
    64
  0
VERTEX
  5
5B2AE
100
AcDbEntity
  8
0
100
AcDbVertex
100
AcDbPolygonMeshVertex
 10
-2.638
 20
-4.44
 30
4.387
 70
    64
  0
VERTEX
  5
5B2AF
100
AcDbEntity
  8
0
100
AcDbVertex
100
AcDbPolygonMeshVertex
 10
-2.638
 20
-4.44
 30
4.017
 70
    64
  0
VERTEX
  5
5B2B0
100
AcDbEntity
  8
0
100
AcDbVertex
100
AcDbPolygonMeshVertex
 10
-2.638
 20
-4.44
 30
4.017
 70
    64
  0
VERTEX
  5
5B2B1
100
AcDbEntity
  8
0
100
AcDbVertex
100
AcDbPolygonMeshVertex
 10
-2.638
 20
-3.6
 30
4.387
 70
    64
  0
VERTEX
  5
5B2B2
100
AcDbEntity
  8
0
100
AcDbVertex
100
AcDbPolygonMeshVertex
 10
-2.638
 20
-3.6
 30
4.017
 70
    64
  0
VERTEX
  5
5B2B3
100
AcDbEntity
  8
0
100
AcDbVertex
100
AcDbPolygonMeshVertex
 10
-2.638
 20
-4.44
 30
4.017
 70
    64
  0
VERTEX
  5
5B2B4
100
AcDbEntity
  8
0
100
AcDbVertex
100
AcDbPolygonMeshVertex
 10
-0.758
 20
-3.6
 30
4.387
 70
    64
  0
VERTEX
  5
5B2B5
100
AcDbEntity
  8
0
100
AcDbVertex
100
AcDbPolygonMeshVertex
 10
-0.758
 20
-3.6
 30
4.017
 70
    64
  0
VERTEX
  5
5B2B6
100
AcDbEntity
  8
0
100
AcDbVertex
100
AcDbPolygonMeshVertex
 10
-0.758
 20
-4.44
 30
4.017
 70
    64
  0
VERTEX
  5
5B2B7
100
AcDbEntity
  8
0
100
AcDbVertex
100
AcDbPolygonMeshVertex
 10
-0.758
 20
-3.6
 30
4.387
 70
    64
  0
VERTEX
  5
5B2B8
100
AcDbEntity
  8
0
100
AcDbVertex
100
AcDbPolygonMeshVertex
 10
-0.758
 20
-3.6
 30
4.387
 70
    64
  0
VERTEX
  5
5B2B9
100
AcDbEntity
  8
0
100
AcDbVertex
100
AcDbPolygonMeshVertex
 10
-0.758
 20
-4.44
 30
4.387
 70
    64
  0
VERTEX
  5
5B2BA
100
AcDbEntity
  8
0
100
AcDbVertex
100
AcDbPolygonMeshVertex
 10
-2.638
 20
-3.6
 30
4.387
 70
    64
  0
VERTEX
  5
5B2BB
100
AcDbEntity
  8
0
100
AcDbVertex
100
AcDbPolygonMeshVertex
 10
-2.638
 20
-3.6
 30
4.387
 70
    64
  0
VERTEX
  5
5B2BC
100
AcDbEntity
  8
0
100
AcDbVertex
100
AcDbPolygonMeshVertex
 10
-2.638
 20
-4.44
 30
4.387
 70
    64
  0
SEQEND
  5
5B2BD
100
AcDbEntity
  8
0
  0
POLYLINE
  5
5B2BE
100
AcDbEntity
  8
0
100
AcDbPolygonMesh
 66
     1
 10
0.0
 20
0.0
 30
0.0
 70
    16
 71
     6
 72
     3
  0
VERTEX
  5
5B2BF
100
AcDbEntity
  8
0
100
AcDbVertex
100
AcDbPolygonMeshVertex
 10
-0.948
 20
-4.04
 30
4.857
 70
    64
  0
VERTEX
  5
5B2C0
100
AcDbEntity
  8
0
100
AcDbVertex
100
AcDbPolygonMeshVertex
 10
-0.948
 20
-4.04
 30
4.387
 70
    64
  0
VERTEX
  5
5B2C1
100
AcDbEntity
  8
0
100
AcDbVertex
100
AcDbPolygonMeshVertex
 10
-0.948
 20
-4.04
 30
4.387
 70
    64
  0
VERTEX
  5
5B2C2
100
AcDbEntity
  8
0
100
AcDbVertex
100
AcDbPolygonMeshVertex
 10
-1.388
 20
-4.04
 30
4.857
 70
    64
  0
VERTEX
  5
5B2C3
100
AcDbEntity
  8
0
100
AcDbVertex
100
AcDbPolygonMeshVertex
 10
-1.388
 20
-4.04
 30
4.387
 70
    64
  0
VERTEX
  5
5B2C4
100
AcDbEntity
  8
0
100
AcDbVertex
100
AcDbPolygonMeshVertex
 10
-1.388
 20
-4.04
 30
4.387
 70
    64
  0
VERTEX
  5
5B2C5
100
AcDbEntity
  8
0
100
AcDbVertex
100
AcDbPolygonMeshVertex
 10
-1.388
 20
-3.66
 30
4.857
 70
    64
  0
VERTEX
  5
5B2C6
100
AcDbEntity
  8
0
100
AcDbVertex
100
AcDbPolygonMeshVertex
 10
-1.388
 20
-3.66
 30
4.387
 70
    64
  0
VERTEX
  5
5B2C7
100
AcDbEntity
  8
0
100
AcDbVertex
100
AcDbPolygonMeshVertex
 10
-1.388
 20
-4.04
 30
4.387
 70
    64
  0
VERTEX
  5
5B2C8
100
AcDbEntity
  8
0
100
AcDbVertex
100
AcDbPolygonMeshVertex
 10
-0.948
 20
-3.66
 30
4.857
 70
    64
  0
VERTEX
  5
5B2C9
100
AcDbEntity
  8
0
100
AcDbVertex
100
AcDbPolygonMeshVertex
 10
-0.948
 20
-3.66
 30
4.387
 70
    64
  0
VERTEX
  5
5B2CA
100
AcDbEntity
  8
0
100
AcDbVertex
100
AcDbPolygonMeshVertex
 10
-0.948
 20
-4.04
 30
4.387
 70
    64
  0
VERTEX
  5
5B2CB
100
AcDbEntity
  8
0
100
AcDbVertex
100
AcDbPolygonMeshVertex
 10
-0.948
 20
-3.66
 30
4.857
 70
    64
  0
VERTEX
  5
5B2CC
100
AcDbEntity
  8
0
100
AcDbVertex
100
AcDbPolygonMeshVertex
 10
-0.948
 20
-3.66
 30
4.857
 70
    64
  0
VERTEX
  5
5B2CD
100
AcDbEntity
  8
0
100
AcDbVertex
100
AcDbPolygonMeshVertex
 10
-0.948
 20
-4.04
 30
4.857
 70
    64
  0
VERTEX
  5
5B2CE
100
AcDbEntity
  8
0
100
AcDbVertex
100
AcDbPolygonMeshVertex
 10
-1.388
 20
-3.66
 30
4.857
 70
    64
  0
VERTEX
  5
5B2CF
100
AcDbEntity
  8
0
100
AcDbVertex
100
AcDbPolygonMeshVertex
 10
-1.388
 20
-3.66
 30
4.857
 70
    64
  0
VERTEX
  5
5B2D0
100
AcDbEntity
  8
0
100
AcDbVertex
100
AcDbPolygonMeshVertex
 10
-1.388
 20
-4.04
 30
4.857
 70
    64
  0
SEQEND
  5
5B2D1
100
AcDbEntity
  8
0
  0
POLYLINE
  5
5B2D2
100
AcDbEntity
  8
0
100
AcDbPolygonMesh
 66
     1
 10
0.0
 20
0.0
 30
0.0
 70
    16
 71
     6
 72
     3
  0
VERTEX
  5
5B2D3
100
AcDbEntity
  8
0
100
AcDbVertex
100
AcDbPolygonMeshVertex
 10
-2.008
 20
-4.04
 30
4.857
 70
    64
  0
VERTEX
  5
5B2D4
100
AcDbEntity
  8
0
100
AcDbVertex
100
AcDbPolygonMeshVertex
 10
-2.008
 20
-4.04
 30
4.387
 70
    64
  0
VERTEX
  5
5B2D5
100
AcDbEntity
  8
0
100
AcDbVertex
100
AcDbPolygonMeshVertex
 10
-2.008
 20
-4.04
 30
4.387
 70
    64
  0
VERTEX
  5
5B2D6
100
AcDbEntity
  8
0
100
AcDbVertex
100
AcDbPolygonMeshVertex
 10
-2.448
 20
-4.04
 30
4.857
 70
    64
  0
VERTEX
  5
5B2D7
100
AcDbEntity
  8
0
100
AcDbVertex
100
AcDbPolygonMeshVertex
 10
-2.448
 20
-4.04
 30
4.387
 70
    64
  0
VERTEX
  5
5B2D8
100
AcDbEntity
  8
0
100
AcDbVertex
100
AcDbPolygonMeshVertex
 10
-2.448
 20
-4.04
 30
4.387
 70
    64
  0
VERTEX
  5
5B2D9
100
AcDbEntity
  8
0
100
AcDbVertex
100
AcDbPolygonMeshVertex
 10
-2.448
 20
-3.66
 30
4.857
 70
    64
  0
VERTEX
  5
5B2DA
100
AcDbEntity
  8
0
100
AcDbVertex
100
AcDbPolygonMeshVertex
 10
-2.448
 20
-3.66
 30
4.387
 70
    64
  0
VERTEX
  5
5B2DB
100
AcDbEntity
  8
0
100
AcDbVertex
100
AcDbPolygonMeshVertex
 10
-2.448
 20
-4.04
 30
4.387
 70
    64
  0
VERTEX
  5
5B2DC
100
AcDbEntity
  8
0
100
AcDbVertex
100
AcDbPolygonMeshVertex
 10
-2.008
 20
-3.66
 30
4.857
 70
    64
  0
VERTEX
  5
5B2DD
100
AcDbEntity
  8
0
100
AcDbVertex
100
AcDbPolygonMeshVertex
 10
-2.008
 20
-3.66
 30
4.387
 70
    64
  0
VERTEX
  5
5B2DE
100
AcDbEntity
  8
0
100
AcDbVertex
100
AcDbPolygonMeshVertex
 10
-2.008
 20
-4.04
 30
4.387
 70
    64
  0
VERTEX
  5
5B2DF
100
AcDbEntity
  8
0
100
AcDbVertex
100
AcDbPolygonMeshVertex
 10
-2.008
 20
-3.66
 30
4.857
 70
    64
  0
VERTEX
  5
5B2E0
100
AcDbEntity
  8
0
100
AcDbVertex
100
AcDbPolygonMeshVertex
 10
-2.008
 20
-3.66
 30
4.857
 70
    64
  0
VERTEX
  5
5B2E1
100
AcDbEntity
  8
0
100
AcDbVertex
100
AcDbPolygonMeshVertex
 10
-2.008
 20
-4.04
 30
4.857
 70
    64
  0
VERTEX
  5
5B2E2
100
AcDbEntity
  8
0
100
AcDbVertex
100
AcDbPolygonMeshVertex
 10
-2.448
 20
-3.66
 30
4.857
 70
    64
  0
VERTEX
  5
5B2E3
100
AcDbEntity
  8
0
100
AcDbVertex
100
AcDbPolygonMeshVertex
 10
-2.448
 20
-3.66
 30
4.857
 70
    64
  0
VERTEX
  5
5B2E4
100
AcDbEntity
  8
0
100
AcDbVertex
100
AcDbPolygonMeshVertex
 10
-2.448
 20
-4.04
 30
4.857
 70
    64
  0
SEQEND
  5
5B2E5
100
AcDbEntity
  8
0
  0
LINE
  5
5B2E6
100
AcDbEntity
  8
0
100
AcDbLine
 10
-3.378
 20
-2.15
 30
4.017
 11
-3.378
 21
-2.15
 31
0.577
  0
POLYLINE
  5
5B2E7
100
AcDbEntity
  8
0
100
AcDbPolygonMesh
 66
     1
 10
0.0
 20
0.0
 30
0.0
 70
    16
 71
     6
 72
     3
  0
VERTEX
  5
5B2E8
100
AcDbEntity
  8
0
100
AcDbVertex
100
AcDbPolygonMeshVertex
 10
-0.018
 20
-5.54
 30
4.017
 70
    64
  0
VERTEX
  5
5B2E9
100
AcDbEntity
  8
0
100
AcDbVertex
100
AcDbPolygonMeshVertex
 10
-0.018
 20
-5.54
 30
0.577
 70
    64
  0
VERTEX
  5
5B2EA
100
AcDbEntity
  8
0
100
AcDbVertex
100
AcDbPolygonMeshVertex
 10
-0.018
 20
-5.54
 30
0.577
 70
    64
  0
VERTEX
  5
5B2EB
100
AcDbEntity
  8
0
100
AcDbVertex
100
AcDbPolygonMeshVertex
 10
-3.378
 20
-5.54
 30
4.017
 70
    64
  0
VERTEX
  5
5B2EC
100
AcDbEntity
  8
0
100
AcDbVertex
100
AcDbPolygonMeshVertex
 10
-3.378
 20
-5.54
 30
0.577
 70
    64
  0
VERTEX
  5
5B2ED
100
AcDbEntity
  8
0
100
AcDbVertex
100
AcDbPolygonMeshVertex
 10
-3.378
 20
-5.54
 30
0.577
 70
    64
  0
VERTEX
  5
5B2EE
100
AcDbEntity
  8
0
100
AcDbVertex
100
AcDbPolygonMeshVertex
 10
-3.378
 20
-2.15
 30
4.017
 70
    64
  0
VERTEX
  5
5B2EF
100
AcDbEntity
  8
0
100
AcDbVertex
100
AcDbPolygonMeshVertex
 10
-3.378
 20
-2.15
 30
0.577
 70
    64
  0
VERTEX
  5
5B2F0
100
AcDbEntity
  8
0
100
AcDbVertex
100
AcDbPolygonMeshVertex
 10
-3.378
 20
-5.54
 30
0.577
 70
    64
  0
VERTEX
  5
5B2F1
100
AcDbEntity
  8
0
100
AcDbVertex
100
AcDbPolygonMeshVertex
 10
-0.018
 20
-2.15
 30
4.017
 70
    64
  0
VERTEX
  5
5B2F2
100
AcDbEntity
  8
0
100
AcDbVertex
100
AcDbPolygonMeshVertex
 10
-0.018
 20
-2.15
 30
0.577
 70
    64
  0
VERTEX
  5
5B2F3
100
AcDbEntity
  8
0
100
AcDbVertex
100
AcDbPolygonMeshVertex
 10
-0.018
 20
-5.54
 30
0.577
 70
    64
  0
VERTEX
  5
5B2F4
100
AcDbEntity
  8
0
100
AcDbVertex
100
AcDbPolygonMeshVertex
 10
-0.018
 20
-2.15
 30
4.017
 70
    64
  0
VERTEX
  5
5B2F5
100
AcDbEntity
  8
0
100
AcDbVertex
100
AcDbPolygonMeshVertex
 10
-0.018
 20
-2.15
 30
4.017
 70
    64
  0
VERTEX
  5
5B2F6
100
AcDbEntity
  8
0
100
AcDbVertex
100
AcDbPolygonMeshVertex
 10
-0.018
 20
-5.54
 30
4.017
 70
    64
  0
VERTEX
  5
5B2F7
100
AcDbEntity
  8
0
100
AcDbVertex
100
AcDbPolygonMeshVertex
 10
-3.378
 20
-2.15
 30
4.017
 70
    64
  0
VERTEX
  5
5B2F8
100
AcDbEntity
  8
0
100
AcDbVertex
100
AcDbPolygonMeshVertex
 10
-3.378
 20
-2.15
 30
4.017
 70
    64
  0
VERTEX
  5
5B2F9
100
AcDbEntity
  8
0
100
AcDbVertex
100
AcDbPolygonMeshVertex
 10
-3.378
 20
-5.54
 30
4.017
 70
    64
  0
SEQEND
  5
5B2FA
100
AcDbEntity
  8
0
  0
POLYLINE
  5
5B2FB
100
AcDbEntity
  8
0
100
AcDbPolygonMesh
 66
     1
 10
0.0
 20
0.0
 30
0.0
 70
    16
 71
     6
 72
     3
  0
VERTEX
  5
5B2FC
100
AcDbEntity
  8
0
100
AcDbVertex
100
AcDbPolygonMeshVertex
 10
-0.018
 20
-5.79
 30
3.237
 70
    64
  0
VERTEX
  5
5B2FD
100
AcDbEntity
  8
0
100
AcDbVertex
100
AcDbPolygonMeshVertex
 10
-0.018
 20
-5.79
 30
2.007
 70
    64
  0
VERTEX
  5
5B2FE
100
AcDbEntity
  8
0
100
AcDbVertex
100
AcDbPolygonMeshVertex
 10
-0.018
 20
-5.79
 30
2.007
 70
    64
  0
VERTEX
  5
5B2FF
100
AcDbEntity
  8
0
100
AcDbVertex
100
AcDbPolygonMeshVertex
 10
-3.378
 20
-5.79
 30
3.237
 70
    64
  0
VERTEX
  5
5B300
100
AcDbEntity
  8
0
100
AcDbVertex
100
AcDbPolygonMeshVertex
 10
-3.378
 20
-5.79
 30
2.007
 70
    64
  0
VERTEX
  5
5B301
100
AcDbEntity
  8
0
100
AcDbVertex
100
AcDbPolygonMeshVertex
 10
-3.378
 20
-5.79
 30
2.007
 70
    64
  0
VERTEX
  5
5B302
100
AcDbEntity
  8
0
100
AcDbVertex
100
AcDbPolygonMeshVertex
 10
-3.378
 20
-5.54
 30
3.237
 70
    64
  0
VERTEX
  5
5B303
100
AcDbEntity
  8
0
100
AcDbVertex
100
AcDbPolygonMeshVertex
 10
-3.378
 20
-5.54
 30
2.007
 70
    64
  0
VERTEX
  5
5B304
100
AcDbEntity
  8
0
100
AcDbVertex
100
AcDbPolygonMeshVertex
 10
-3.378
 20
-5.79
 30
2.007
 70
    64
  0
VERTEX
  5
5B305
100
AcDbEntity
  8
0
100
AcDbVertex
100
AcDbPolygonMeshVertex
 10
-0.018
 20
-5.54
 30
3.237
 70
    64
  0
VERTEX
  5
5B306
100
AcDbEntity
  8
0
100
AcDbVertex
100
AcDbPolygonMeshVertex
 10
-0.018
 20
-5.54
 30
2.007
 70
    64
  0
VERTEX
  5
5B307
100
AcDbEntity
  8
0
100
AcDbVertex
100
AcDbPolygonMeshVertex
 10
-0.018
 20
-5.79
 30
2.007
 70
    64
  0
VERTEX
  5
5B308
100
AcDbEntity
  8
0
100
AcDbVertex
100
AcDbPolygonMeshVertex
 10
-0.018
 20
-5.54
 30
3.237
 70
    64
  0
VERTEX
  5
5B309
100
AcDbEntity
  8
0
100
AcDbVertex
100
AcDbPolygonMeshVertex
 10
-0.018
 20
-5.54
 30
3.237
 70
    64
  0
VERTEX
  5
5B30A
100
AcDbEntity
  8
0
100
AcDbVertex
100
AcDbPolygonMeshVertex
 10
-0.018
 20
-5.79
 30
3.237
 70
    64
  0
VERTEX
  5
5B30B
100
AcDbEntity
  8
0
100
AcDbVertex
100
AcDbPolygonMeshVertex
 10
-3.378
 20
-5.54
 30
3.237
 70
    64
  0
VERTEX
  5
5B30C
100
AcDbEntity
  8
0
100
AcDbVertex
100
AcDbPolygonMeshVertex
 10
-3.378
 20
-5.54
 30
3.237
 70
    64
  0
VERTEX
  5
5B30D
100
AcDbEntity
  8
0
100
AcDbVertex
100
AcDbPolygonMeshVertex
 10
-3.378
 20
-5.79
 30
3.237
 70
    64
  0
SEQEND
  5
5B30E
100
AcDbEntity
  8
0
  0
POLYLINE
  5
5B30F
100
AcDbEntity
  8
0
100
AcDbPolygonMesh
 66
     1
 10
0.0
 20
0.0
 30
0.0
 70
    16
 71
     6
 72
     3
  0
VERTEX
  5
5B310
100
AcDbEntity
  8
0
100
AcDbVertex
100
AcDbPolygonMeshVertex
 10
-3.378
 20
-5.54
 30
0.577
 70
    64
  0
VERTEX
  5
5B311
100
AcDbEntity
  8
0
100
AcDbVertex
100
AcDbPolygonMeshVertex
 10
-3.378
 20
-5.54
 30
0.577
 70
    64
  0
VERTEX
  5
5B312
100
AcDbEntity
  8
0
100
AcDbVertex
100
AcDbPolygonMeshVertex
 10
-3.378
 20
-5.54
 30
0.577
 70
    64
  0
VERTEX
  5
5B313
100
AcDbEntity
  8
0
100
AcDbVertex
100
AcDbPolygonMeshVertex
 10
-3.378
 20
-5.79
 30
2.007
 70
    64
  0
VERTEX
  5
5B314
100
AcDbEntity
  8
0
100
AcDbVertex
100
AcDbPolygonMeshVertex
 10
-3.378
 20
-5.54
 30
2.007
 70
    64
  0
VERTEX
  5
5B315
100
AcDbEntity
  8
0
100
AcDbVertex
100
AcDbPolygonMeshVertex
 10
-3.378
 20
-5.54
 30
2.007
 70
    64
  0
VERTEX
  5
5B316
100
AcDbEntity
  8
0
100
AcDbVertex
100
AcDbPolygonMeshVertex
 10
-0.018
 20
-5.79
 30
2.007
 70
    64
  0
VERTEX
  5
5B317
100
AcDbEntity
  8
0
100
AcDbVertex
100
AcDbPolygonMeshVertex
 10
-0.018
 20
-5.54
 30
2.007
 70
    64
  0
VERTEX
  5
5B318
100
AcDbEntity
  8
0
100
AcDbVertex
100
AcDbPolygonMeshVertex
 10
-3.378
 20
-5.54
 30
2.007
 70
    64
  0
VERTEX
  5
5B319
100
AcDbEntity
  8
0
100
AcDbVertex
100
AcDbPolygonMeshVertex
 10
-0.018
 20
-5.54
 30
0.577
 70
    64
  0
VERTEX
  5
5B31A
100
AcDbEntity
  8
0
100
AcDbVertex
100
AcDbPolygonMeshVertex
 10
-0.018
 20
-5.54
 30
0.577
 70
    64
  0
VERTEX
  5
5B31B
100
AcDbEntity
  8
0
100
AcDbVertex
100
AcDbPolygonMeshVertex
 10
-3.378
 20
-5.54
 30
0.577
 70
    64
  0
VERTEX
  5
5B31C
100
AcDbEntity
  8
0
100
AcDbVertex
100
AcDbPolygonMeshVertex
 10
-0.018
 20
-5.54
 30
0.577
 70
    64
  0
VERTEX
  5
5B31D
100
AcDbEntity
  8
0
100
AcDbVertex
100
AcDbPolygonMeshVertex
 10
-0.018
 20
-5.54
 30
0.577
 70
    64
  0
VERTEX
  5
5B31E
100
AcDbEntity
  8
0
100
AcDbVertex
100
AcDbPolygonMeshVertex
 10
-3.378
 20
-5.54
 30
0.577
 70
    64
  0
VERTEX
  5
5B31F
100
AcDbEntity
  8
0
100
AcDbVertex
100
AcDbPolygonMeshVertex
 10
-0.018
 20
-5.79
 30
2.007
 70
    64
  0
VERTEX
  5
5B320
100
AcDbEntity
  8
0
100
AcDbVertex
100
AcDbPolygonMeshVertex
 10
-0.018
 20
-5.79
 30
2.007
 70
    64
  0
VERTEX
  5
5B321
100
AcDbEntity
  8
0
100
AcDbVertex
100
AcDbPolygonMeshVertex
 10
-3.378
 20
-5.79
 30
2.007
 70
    64
  0
SEQEND
  5
5B322
100
AcDbEntity
  8
0
  0
POLYLINE
  5
5B323
100
AcDbEntity
  8
0
100
AcDbPolygonMesh
 66
     1
 10
0.0
 20
0.0
 30
0.0
 70
    16
 71
     6
 72
     3
  0
VERTEX
  5
5B324
100
AcDbEntity
  8
0
100
AcDbVertex
100
AcDbPolygonMeshVertex
 10
-0.018
 20
-2.15
 30
4.477
 70
    64
  0
VERTEX
  5
5B325
100
AcDbEntity
  8
0
100
AcDbVertex
100
AcDbPolygonMeshVertex
 10
-0.018
 20
-2.15
 30
0.577
 70
    64
  0
VERTEX
  5
5B326
100
AcDbEntity
  8
0
100
AcDbVertex
100
AcDbPolygonMeshVertex
 10
-0.018
 20
-2.15
 30
0.577
 70
    64
  0
VERTEX
  5
5B327
100
AcDbEntity
  8
0
100
AcDbVertex
100
AcDbPolygonMeshVertex
 10
-3.378
 20
-2.15
 30
4.477
 70
    64
  0
VERTEX
  5
5B328
100
AcDbEntity
  8
0
100
AcDbVertex
100
AcDbPolygonMeshVertex
 10
-3.378
 20
-2.15
 30
0.577
 70
    64
  0
VERTEX
  5
5B329
100
AcDbEntity
  8
0
100
AcDbVertex
100
AcDbPolygonMeshVertex
 10
-3.378
 20
-2.15
 30
0.577
 70
    64
  0
VERTEX
  5
5B32A
100
AcDbEntity
  8
0
100
AcDbVertex
100
AcDbPolygonMeshVertex
 10
-3.378
 20
-1.47
 30
4.477
 70
    64
  0
VERTEX
  5
5B32B
100
AcDbEntity
  8
0
100
AcDbVertex
100
AcDbPolygonMeshVertex
 10
-3.378
 20
-1.47
 30
0.577
 70
    64
  0
VERTEX
  5
5B32C
100
AcDbEntity
  8
0
100
AcDbVertex
100
AcDbPolygonMeshVertex
 10
-3.378
 20
-2.15
 30
0.577
 70
    64
  0
VERTEX
  5
5B32D
100
AcDbEntity
  8
0
100
AcDbVertex
100
AcDbPolygonMeshVertex
 10
-0.018
 20
-1.47
 30
4.477
 70
    64
  0
VERTEX
  5
5B32E
100
AcDbEntity
  8
0
100
AcDbVertex
100
AcDbPolygonMeshVertex
 10
-0.018
 20
-1.47
 30
0.577
 70
    64
  0
VERTEX
  5
5B32F
100
AcDbEntity
  8
0
100
AcDbVertex
100
AcDbPolygonMeshVertex
 10
-0.018
 20
-2.15
 30
0.577
 70
    64
  0
VERTEX
  5
5B330
100
AcDbEntity
  8
0
100
AcDbVertex
100
AcDbPolygonMeshVertex
 10
-0.018
 20
-1.47
 30
4.477
 70
    64
  0
VERTEX
  5
5B331
100
AcDbEntity
  8
0
100
AcDbVertex
100
AcDbPolygonMeshVertex
 10
-0.018
 20
-1.47
 30
4.477
 70
    64
  0
VERTEX
  5
5B332
100
AcDbEntity
  8
0
100
AcDbVertex
100
AcDbPolygonMeshVertex
 10
-0.018
 20
-2.15
 30
4.477
 70
    64
  0
VERTEX
  5
5B333
100
AcDbEntity
  8
0
100
AcDbVertex
100
AcDbPolygonMeshVertex
 10
-3.378
 20
-1.47
 30
4.477
 70
    64
  0
VERTEX
  5
5B334
100
AcDbEntity
  8
0
100
AcDbVertex
100
AcDbPolygonMeshVertex
 10
-3.378
 20
-1.47
 30
4.477
 70
    64
  0
VERTEX
  5
5B335
100
AcDbEntity
  8
0
100
AcDbVertex
100
AcDbPolygonMeshVertex
 10
-3.378
 20
-2.15
 30
4.477
 70
    64
  0
SEQEND
  5
5B336
100
AcDbEntity
  8
0
  0
LINE
  5
5B337
100
AcDbEntity
  8
0
100
AcDbLine
 10
-1.078
 20
-1.47
 30
4.477
 11
-1.078
 21
-1.34
 31
4.477
  0
LINE
  5
5B338
100
AcDbEntity
  8
0
100
AcDbLine
 10
-1.078
 20
-1.34
 30
4.477
 11
-1.258
 21
-1.34
 31
4.477
  0
POLYLINE
  5
5B339
100
AcDbEntity
  8
0
100
AcDbPolygonMesh
 66
     1
 10
0.0
 20
0.0
 30
0.0
 70
    16
 71
     6
 72
     3
  0
VERTEX
  5
5B33A
100
AcDbEntity
  8
0
100
AcDbVertex
100
AcDbPolygonMeshVertex
 10
-1.258
 20
-1.34
 30
4.857
 70
    64
  0
VERTEX
  5
5B33B
100
AcDbEntity
  8
0
100
AcDbVertex
100
AcDbPolygonMeshVertex
 10
-1.258
 20
-1.34
 30
4.477
 70
    64
  0
VERTEX
  5
5B33C
100
AcDbEntity
  8
0
100
AcDbVertex
100
AcDbPolygonMeshVertex
 10
-1.258
 20
-1.34
 30
4.477
 70
    64
  0
VERTEX
  5
5B33D
100
AcDbEntity
  8
0
100
AcDbVertex
100
AcDbPolygonMeshVertex
 10
-1.078
 20
-1.34
 30
4.857
 70
    64
  0
VERTEX
  5
5B33E
100
AcDbEntity
  8
0
100
AcDbVertex
100
AcDbPolygonMeshVertex
 10
-1.078
 20
-1.34
 30
4.477
 70
    64
  0
VERTEX
  5
5B33F
100
AcDbEntity
  8
0
100
AcDbVertex
100
AcDbPolygonMeshVertex
 10
-1.078
 20
-1.34
 30
4.477
 70
    64
  0
VERTEX
  5
5B340
100
AcDbEntity
  8
0
100
AcDbVertex
100
AcDbPolygonMeshVertex
 10
-1.078
 20
-2.15
 30
4.857
 70
    64
  0
VERTEX
  5
5B341
100
AcDbEntity
  8
0
100
AcDbVertex
100
AcDbPolygonMeshVertex
 10
-1.078
 20
-2.15
 30
4.477
 70
    64
  0
VERTEX
  5
5B342
100
AcDbEntity
  8
0
100
AcDbVertex
100
AcDbPolygonMeshVertex
 10
-1.078
 20
-1.34
 30
4.477
 70
    64
  0
VERTEX
  5
5B343
100
AcDbEntity
  8
0
100
AcDbVertex
100
AcDbPolygonMeshVertex
 10
-1.258
 20
-2.15
 30
4.857
 70
    64
  0
VERTEX
  5
5B344
100
AcDbEntity
  8
0
100
AcDbVertex
100
AcDbPolygonMeshVertex
 10
-1.258
 20
-2.15
 30
4.477
 70
    64
  0
VERTEX
  5
5B345
100
AcDbEntity
  8
0
100
AcDbVertex
100
AcDbPolygonMeshVertex
 10
-1.258
 20
-1.34
 30
4.477
 70
    64
  0
VERTEX
  5
5B346
100
AcDbEntity
  8
0
100
AcDbVertex
100
AcDbPolygonMeshVertex
 10
-1.258
 20
-2.15
 30
4.857
 70
    64
  0
VERTEX
  5
5B347
100
AcDbEntity
  8
0
100
AcDbVertex
100
AcDbPolygonMeshVertex
 10
-1.258
 20
-2.15
 30
4.857
 70
    64
  0
VERTEX
  5
5B348
100
AcDbEntity
  8
0
100
AcDbVertex
100
AcDbPolygonMeshVertex
 10
-1.258
 20
-1.34
 30
4.857
 70
    64
  0
VERTEX
  5
5B349
100
AcDbEntity
  8
0
100
AcDbVertex
100
AcDbPolygonMeshVertex
 10
-1.078
 20
-2.15
 30
4.857
 70
    64
  0
VERTEX
  5
5B34A
100
AcDbEntity
  8
0
100
AcDbVertex
100
AcDbPolygonMeshVertex
 10
-1.078
 20
-2.15
 30
4.857
 70
    64
  0
VERTEX
  5
5B34B
100
AcDbEntity
  8
0
100
AcDbVertex
100
AcDbPolygonMeshVertex
 10
-1.078
 20
-1.34
 30
4.857
 70
    64
  0
SEQEND
  5
5B34C
100
AcDbEntity
  8
0
  0
POLYLINE
  5
5B34D
100
AcDbEntity
  8
0
100
AcDbPolygonMesh
 66
     1
 10
0.0
 20
0.0
 30
0.0
 70
    16
 71
     6
 72
     3
  0
VERTEX
  5
5B34E
100
AcDbEntity
  8
0
100
AcDbVertex
100
AcDbPolygonMeshVertex
 10
-1.258
 20
-1.34
 30
4.477
 70
    64
  0
VERTEX
  5
5B34F
100
AcDbEntity
  8
0
100
AcDbVertex
100
AcDbPolygonMeshVertex
 10
-1.258
 20
-1.34
 30
3.357
 70
    64
  0
VERTEX
  5
5B350
100
AcDbEntity
  8
0
100
AcDbVertex
100
AcDbPolygonMeshVertex
 10
-1.258
 20
-1.34
 30
3.357
 70
    64
  0
VERTEX
  5
5B351
100
AcDbEntity
  8
0
100
AcDbVertex
100
AcDbPolygonMeshVertex
 10
-1.078
 20
-1.34
 30
4.477
 70
    64
  0
VERTEX
  5
5B352
100
AcDbEntity
  8
0
100
AcDbVertex
100
AcDbPolygonMeshVertex
 10
-1.078
 20
-1.34
 30
3.357
 70
    64
  0
VERTEX
  5
5B353
100
AcDbEntity
  8
0
100
AcDbVertex
100
AcDbPolygonMeshVertex
 10
-1.078
 20
-1.34
 30
3.357
 70
    64
  0
VERTEX
  5
5B354
100
AcDbEntity
  8
0
100
AcDbVertex
100
AcDbPolygonMeshVertex
 10
-1.078
 20
-1.47
 30
4.477
 70
    64
  0
VERTEX
  5
5B355
100
AcDbEntity
  8
0
100
AcDbVertex
100
AcDbPolygonMeshVertex
 10
-1.078
 20
-1.47
 30
3.357
 70
    64
  0
VERTEX
  5
5B356
100
AcDbEntity
  8
0
100
AcDbVertex
100
AcDbPolygonMeshVertex
 10
-1.078
 20
-1.34
 30
3.357
 70
    64
  0
VERTEX
  5
5B357
100
AcDbEntity
  8
0
100
AcDbVertex
100
AcDbPolygonMeshVertex
 10
-1.258
 20
-1.47
 30
4.477
 70
    64
  0
VERTEX
  5
5B358
100
AcDbEntity
  8
0
100
AcDbVertex
100
AcDbPolygonMeshVertex
 10
-1.258
 20
-1.47
 30
3.357
 70
    64
  0
VERTEX
  5
5B359
100
AcDbEntity
  8
0
100
AcDbVertex
100
AcDbPolygonMeshVertex
 10
-1.258
 20
-1.34
 30
3.357
 70
    64
  0
VERTEX
  5
5B35A
100
AcDbEntity
  8
0
100
AcDbVertex
100
AcDbPolygonMeshVertex
 10
-1.258
 20
-1.47
 30
4.477
 70
    64
  0
VERTEX
  5
5B35B
100
AcDbEntity
  8
0
100
AcDbVertex
100
AcDbPolygonMeshVertex
 10
-1.258
 20
-1.47
 30
4.477
 70
    64
  0
VERTEX
  5
5B35C
100
AcDbEntity
  8
0
100
AcDbVertex
100
AcDbPolygonMeshVertex
 10
-1.258
 20
-1.34
 30
4.477
 70
    64
  0
VERTEX
  5
5B35D
100
AcDbEntity
  8
0
100
AcDbVertex
100
AcDbPolygonMeshVertex
 10
-1.078
 20
-1.47
 30
4.477
 70
    64
  0
VERTEX
  5
5B35E
100
AcDbEntity
  8
0
100
AcDbVertex
100
AcDbPolygonMeshVertex
 10
-1.078
 20
-1.47
 30
4.477
 70
    64
  0
VERTEX
  5
5B35F
100
AcDbEntity
  8
0
100
AcDbVertex
100
AcDbPolygonMeshVertex
 10
-1.078
 20
-1.34
 30
4.477
 70
    64
  0
SEQEND
  5
5B360
100
AcDbEntity
  8
0
  0
POLYLINE
  5
5B361
100
AcDbEntity
  8
0
100
AcDbPolygonMesh
 66
     1
 10
0.0
 20
0.0
 30
0.0
 70
    16
 71
     6
 72
     3
  0
VERTEX
  5
5B362
100
AcDbEntity
  8
0
100
AcDbVertex
100
AcDbPolygonMeshVertex
 10
-2.318
 20
-1.34
 30
4.857
 70
    64
  0
VERTEX
  5
5B363
100
AcDbEntity
  8
0
100
AcDbVertex
100
AcDbPolygonMeshVertex
 10
-2.318
 20
-1.34
 30
4.477
 70
    64
  0
VERTEX
  5
5B364
100
AcDbEntity
  8
0
100
AcDbVertex
100
AcDbPolygonMeshVertex
 10
-2.318
 20
-1.34
 30
4.477
 70
    64
  0
VERTEX
  5
5B365
100
AcDbEntity
  8
0
100
AcDbVertex
100
AcDbPolygonMeshVertex
 10
-2.138
 20
-1.34
 30
4.857
 70
    64
  0
VERTEX
  5
5B366
100
AcDbEntity
  8
0
100
AcDbVertex
100
AcDbPolygonMeshVertex
 10
-2.138
 20
-1.34
 30
4.477
 70
    64
  0
VERTEX
  5
5B367
100
AcDbEntity
  8
0
100
AcDbVertex
100
AcDbPolygonMeshVertex
 10
-2.138
 20
-1.34
 30
4.477
 70
    64
  0
VERTEX
  5
5B368
100
AcDbEntity
  8
0
100
AcDbVertex
100
AcDbPolygonMeshVertex
 10
-2.138
 20
-2.15
 30
4.857
 70
    64
  0
VERTEX
  5
5B369
100
AcDbEntity
  8
0
100
AcDbVertex
100
AcDbPolygonMeshVertex
 10
-2.138
 20
-2.15
 30
4.477
 70
    64
  0
VERTEX
  5
5B36A
100
AcDbEntity
  8
0
100
AcDbVertex
100
AcDbPolygonMeshVertex
 10
-2.138
 20
-1.34
 30
4.477
 70
    64
  0
VERTEX
  5
5B36B
100
AcDbEntity
  8
0
100
AcDbVertex
100
AcDbPolygonMeshVertex
 10
-2.318
 20
-2.15
 30
4.857
 70
    64
  0
VERTEX
  5
5B36C
100
AcDbEntity
  8
0
100
AcDbVertex
100
AcDbPolygonMeshVertex
 10
-2.318
 20
-2.15
 30
4.477
 70
    64
  0
VERTEX
  5
5B36D
100
AcDbEntity
  8
0
100
AcDbVertex
100
AcDbPolygonMeshVertex
 10
-2.318
 20
-1.34
 30
4.477
 70
    64
  0
VERTEX
  5
5B36E
100
AcDbEntity
  8
0
100
AcDbVertex
100
AcDbPolygonMeshVertex
 10
-2.318
 20
-2.15
 30
4.857
 70
    64
  0
VERTEX
  5
5B36F
100
AcDbEntity
  8
0
100
AcDbVertex
100
AcDbPolygonMeshVertex
 10
-2.318
 20
-2.15
 30
4.857
 70
    64
  0
VERTEX
  5
5B370
100
AcDbEntity
  8
0
100
AcDbVertex
100
AcDbPolygonMeshVertex
 10
-2.318
 20
-1.34
 30
4.857
 70
    64
  0
VERTEX
  5
5B371
100
AcDbEntity
  8
0
100
AcDbVertex
100
AcDbPolygonMeshVertex
 10
-2.138
 20
-2.15
 30
4.857
 70
    64
  0
VERTEX
  5
5B372
100
AcDbEntity
  8
0
100
AcDbVertex
100
AcDbPolygonMeshVertex
 10
-2.138
 20
-2.15
 30
4.857
 70
    64
  0
VERTEX
  5
5B373
100
AcDbEntity
  8
0
100
AcDbVertex
100
AcDbPolygonMeshVertex
 10
-2.138
 20
-1.34
 30
4.857
 70
    64
  0
SEQEND
  5
5B374
100
AcDbEntity
  8
0
  0
POLYLINE
  5
5B375
100
AcDbEntity
  8
0
100
AcDbPolygonMesh
 66
     1
 10
0.0
 20
0.0
 30
0.0
 70
    16
 71
     6
 72
     3
  0
VERTEX
  5
5B376
100
AcDbEntity
  8
0
100
AcDbVertex
100
AcDbPolygonMeshVertex
 10
-2.318
 20
-1.34
 30
4.477
 70
    64
  0
VERTEX
  5
5B377
100
AcDbEntity
  8
0
100
AcDbVertex
100
AcDbPolygonMeshVertex
 10
-2.318
 20
-1.34
 30
3.357
 70
    64
  0
VERTEX
  5
5B378
100
AcDbEntity
  8
0
100
AcDbVertex
100
AcDbPolygonMeshVertex
 10
-2.318
 20
-1.34
 30
3.357
 70
    64
  0
VERTEX
  5
5B379
100
AcDbEntity
  8
0
100
AcDbVertex
100
AcDbPolygonMeshVertex
 10
-2.138
 20
-1.34
 30
4.477
 70
    64
  0
VERTEX
  5
5B37A
100
AcDbEntity
  8
0
100
AcDbVertex
100
AcDbPolygonMeshVertex
 10
-2.138
 20
-1.34
 30
3.357
 70
    64
  0
VERTEX
  5
5B37B
100
AcDbEntity
  8
0
100
AcDbVertex
100
AcDbPolygonMeshVertex
 10
-2.138
 20
-1.34
 30
3.357
 70
    64
  0
VERTEX
  5
5B37C
100
AcDbEntity
  8
0
100
AcDbVertex
100
AcDbPolygonMeshVertex
 10
-2.138
 20
-1.47
 30
4.477
 70
    64
  0
VERTEX
  5
5B37D
100
AcDbEntity
  8
0
100
AcDbVertex
100
AcDbPolygonMeshVertex
 10
-2.138
 20
-1.47
 30
3.357
 70
    64
  0
VERTEX
  5
5B37E
100
AcDbEntity
  8
0
100
AcDbVertex
100
AcDbPolygonMeshVertex
 10
-2.138
 20
-1.34
 30
3.357
 70
    64
  0
VERTEX
  5
5B37F
100
AcDbEntity
  8
0
100
AcDbVertex
100
AcDbPolygonMeshVertex
 10
-2.318
 20
-1.47
 30
4.477
 70
    64
  0
VERTEX
  5
5B380
100
AcDbEntity
  8
0
100
AcDbVertex
100
AcDbPolygonMeshVertex
 10
-2.318
 20
-1.47
 30
3.357
 70
    64
  0
VERTEX
  5
5B381
100
AcDbEntity
  8
0
100
AcDbVertex
100
AcDbPolygonMeshVertex
 10
-2.318
 20
-1.34
 30
3.357
 70
    64
  0
VERTEX
  5
5B382
100
AcDbEntity
  8
0
100
AcDbVertex
100
AcDbPolygonMeshVertex
 10
-2.318
 20
-1.47
 30
4.477
 70
    64
  0
VERTEX
  5
5B383
100
AcDbEntity
  8
0
100
AcDbVertex
100
AcDbPolygonMeshVertex
 10
-2.318
 20
-1.47
 30
4.477
 70
    64
  0
VERTEX
  5
5B384
100
AcDbEntity
  8
0
100
AcDbVertex
100
AcDbPolygonMeshVertex
 10
-2.318
 20
-1.34
 30
4.477
 70
    64
  0
VERTEX
  5
5B385
100
AcDbEntity
  8
0
100
AcDbVertex
100
AcDbPolygonMeshVertex
 10
-2.138
 20
-1.47
 30
4.477
 70
    64
  0
VERTEX
  5
5B386
100
AcDbEntity
  8
0
100
AcDbVertex
100
AcDbPolygonMeshVertex
 10
-2.138
 20
-1.47
 30
4.477
 70
    64
  0
VERTEX
  5
5B387
100
AcDbEntity
  8
0
100
AcDbVertex
100
AcDbPolygonMeshVertex
 10
-2.138
 20
-1.34
 30
4.477
 70
    64
  0
SEQEND
  5
5B388
100
AcDbEntity
  8
0
  0
POLYLINE
  5
5B389
100
AcDbEntity
  8
0
100
AcDbPolygonMesh
 66
     1
 10
0.0
 20
0.0
 30
0.0
 70
    16
 71
     6
 72
     3
  0
VERTEX
  5
5B38A
100
AcDbEntity
  8
0
100
AcDbVertex
100
AcDbPolygonMeshVertex
 10
-0.888
 20
-1.56
 30
4.667
 70
    64
  0
VERTEX
  5
5B38B
100
AcDbEntity
  8
0
100
AcDbVertex
100
AcDbPolygonMeshVertex
 10
-0.888
 20
-1.56
 30
4.477
 70
    64
  0
VERTEX
  5
5B38C
100
AcDbEntity
  8
0
100
AcDbVertex
100
AcDbPolygonMeshVertex
 10
-0.888
 20
-1.56
 30
4.477
 70
    64
  0
VERTEX
  5
5B38D
100
AcDbEntity
  8
0
100
AcDbVertex
100
AcDbPolygonMeshVertex
 10
-0.388
 20
-1.56
 30
4.667
 70
    64
  0
VERTEX
  5
5B38E
100
AcDbEntity
  8
0
100
AcDbVertex
100
AcDbPolygonMeshVertex
 10
-0.388
 20
-1.56
 30
4.477
 70
    64
  0
VERTEX
  5
5B38F
100
AcDbEntity
  8
0
100
AcDbVertex
100
AcDbPolygonMeshVertex
 10
-0.388
 20
-1.56
 30
4.477
 70
    64
  0
VERTEX
  5
5B390
100
AcDbEntity
  8
0
100
AcDbVertex
100
AcDbPolygonMeshVertex
 10
-0.388
 20
-1.97
 30
4.667
 70
    64
  0
VERTEX
  5
5B391
100
AcDbEntity
  8
0
100
AcDbVertex
100
AcDbPolygonMeshVertex
 10
-0.388
 20
-1.97
 30
4.477
 70
    64
  0
VERTEX
  5
5B392
100
AcDbEntity
  8
0
100
AcDbVertex
100
AcDbPolygonMeshVertex
 10
-0.388
 20
-1.56
 30
4.477
 70
    64
  0
VERTEX
  5
5B393
100
AcDbEntity
  8
0
100
AcDbVertex
100
AcDbPolygonMeshVertex
 10
-0.888
 20
-1.97
 30
4.667
 70
    64
  0
VERTEX
  5
5B394
100
AcDbEntity
  8
0
100
AcDbVertex
100
AcDbPolygonMeshVertex
 10
-0.888
 20
-1.97
 30
4.477
 70
    64
  0
VERTEX
  5
5B395
100
AcDbEntity
  8
0
100
AcDbVertex
100
AcDbPolygonMeshVertex
 10
-0.888
 20
-1.56
 30
4.477
 70
    64
  0
VERTEX
  5
5B396
100
AcDbEntity
  8
0
100
AcDbVertex
100
AcDbPolygonMeshVertex
 10
-0.888
 20
-1.97
 30
4.667
 70
    64
  0
VERTEX
  5
5B397
100
AcDbEntity
  8
0
100
AcDbVertex
100
AcDbPolygonMeshVertex
 10
-0.888
 20
-1.97
 30
4.667
 70
    64
  0
VERTEX
  5
5B398
100
AcDbEntity
  8
0
100
AcDbVertex
100
AcDbPolygonMeshVertex
 10
-0.888
 20
-1.56
 30
4.667
 70
    64
  0
VERTEX
  5
5B399
100
AcDbEntity
  8
0
100
AcDbVertex
100
AcDbPolygonMeshVertex
 10
-0.388
 20
-1.97
 30
4.667
 70
    64
  0
VERTEX
  5
5B39A
100
AcDbEntity
  8
0
100
AcDbVertex
100
AcDbPolygonMeshVertex
 10
-0.388
 20
-1.97
 30
4.667
 70
    64
  0
VERTEX
  5
5B39B
100
AcDbEntity
  8
0
100
AcDbVertex
100
AcDbPolygonMeshVertex
 10
-0.388
 20
-1.56
 30
4.667
 70
    64
  0
SEQEND
  5
5B39C
100
AcDbEntity
  8
0
  0
LINE
  5
5B39D
100
AcDbEntity
  8
0
100
AcDbLine
 10
-1.833722
 20
-1.897964
 30
4.667
 11
-1.602471
 21
-1.600762
 31
4.667
  0
LINE
  5
5B39E
100
AcDbEntity
  8
0
100
AcDbLine
 10
-1.793035
 20
-1.928318
 30
4.667
 11
-1.561784
 21
-1.631115
 31
4.667
  0
CIRCLE
  5
5B39F
100
AcDbEntity
  8
0
100
AcDbCircle
 10
-1.698
 20
-1.765
 30
4.667
 40
0.19
  0
POLYLINE
  5
5B3A0
100
AcDbEntity
  8
0
100
AcDbPolygonMesh
 66
     1
 10
0.0
 20
0.0
 30
0.0
 70
    16
 71
     6
 72
     3
  0
VERTEX
  5
5B3A1
100
AcDbEntity
  8
0
100
AcDbVertex
100
AcDbPolygonMeshVertex
 10
-1.948
 20
-1.56
 30
4.667
 70
    64
  0
VERTEX
  5
5B3A2
100
AcDbEntity
  8
0
100
AcDbVertex
100
AcDbPolygonMeshVertex
 10
-1.948
 20
-1.56
 30
4.477
 70
    64
  0
VERTEX
  5
5B3A3
100
AcDbEntity
  8
0
100
AcDbVertex
100
AcDbPolygonMeshVertex
 10
-1.948
 20
-1.56
 30
4.477
 70
    64
  0
VERTEX
  5
5B3A4
100
AcDbEntity
  8
0
100
AcDbVertex
100
AcDbPolygonMeshVertex
 10
-1.448
 20
-1.56
 30
4.667
 70
    64
  0
VERTEX
  5
5B3A5
100
AcDbEntity
  8
0
100
AcDbVertex
100
AcDbPolygonMeshVertex
 10
-1.448
 20
-1.56
 30
4.477
 70
    64
  0
VERTEX
  5
5B3A6
100
AcDbEntity
  8
0
100
AcDbVertex
100
AcDbPolygonMeshVertex
 10
-1.448
 20
-1.56
 30
4.477
 70
    64
  0
VERTEX
  5
5B3A7
100
AcDbEntity
  8
0
100
AcDbVertex
100
AcDbPolygonMeshVertex
 10
-1.448
 20
-1.97
 30
4.667
 70
    64
  0
VERTEX
  5
5B3A8
100
AcDbEntity
  8
0
100
AcDbVertex
100
AcDbPolygonMeshVertex
 10
-1.448
 20
-1.97
 30
4.477
 70
    64
  0
VERTEX
  5
5B3A9
100
AcDbEntity
  8
0
100
AcDbVertex
100
AcDbPolygonMeshVertex
 10
-1.448
 20
-1.56
 30
4.477
 70
    64
  0
VERTEX
  5
5B3AA
100
AcDbEntity
  8
0
100
AcDbVertex
100
AcDbPolygonMeshVertex
 10
-1.948
 20
-1.97
 30
4.667
 70
    64
  0
VERTEX
  5
5B3AB
100
AcDbEntity
  8
0
100
AcDbVertex
100
AcDbPolygonMeshVertex
 10
-1.948
 20
-1.97
 30
4.477
 70
    64
  0
VERTEX
  5
5B3AC
100
AcDbEntity
  8
0
100
AcDbVertex
100
AcDbPolygonMeshVertex
 10
-1.948
 20
-1.56
 30
4.477
 70
    64
  0
VERTEX
  5
5B3AD
100
AcDbEntity
  8
0
100
AcDbVertex
100
AcDbPolygonMeshVertex
 10
-1.948
 20
-1.97
 30
4.667
 70
    64
  0
VERTEX
  5
5B3AE
100
AcDbEntity
  8
0
100
AcDbVertex
100
AcDbPolygonMeshVertex
 10
-1.948
 20
-1.97
 30
4.667
 70
    64
  0
VERTEX
  5
5B3AF
100
AcDbEntity
  8
0
100
AcDbVertex
100
AcDbPolygonMeshVertex
 10
-1.948
 20
-1.56
 30
4.667
 70
    64
  0
VERTEX
  5
5B3B0
100
AcDbEntity
  8
0
100
AcDbVertex
100
AcDbPolygonMeshVertex
 10
-1.448
 20
-1.97
 30
4.667
 70
    64
  0
VERTEX
  5
5B3B1
100
AcDbEntity
  8
0
100
AcDbVertex
100
AcDbPolygonMeshVertex
 10
-1.448
 20
-1.97
 30
4.667
 70
    64
  0
VERTEX
  5
5B3B2
100
AcDbEntity
  8
0
100
AcDbVertex
100
AcDbPolygonMeshVertex
 10
-1.448
 20
-1.56
 30
4.667
 70
    64
  0
SEQEND
  5
5B3B3
100
AcDbEntity
  8
0
  0
LINE
  5
5B3B4
100
AcDbEntity
  8
0
100
AcDbLine
 10
-2.893722
 20
-1.897964
 30
4.667
 11
-2.662471
 21
-1.600762
 31
4.667
  0
LINE
  5
5B3B5
100
AcDbEntity
  8
0
100
AcDbLine
 10
-2.853035
 20
-1.928318
 30
4.667
 11
-2.621784
 21
-1.631115
 31
4.667
  0
CIRCLE
  5
5B3B6
100
AcDbEntity
  8
0
100
AcDbCircle
 10
-2.758
 20
-1.765
 30
4.667
 40
0.19
  0
POLYLINE
  5
5B3B7
100
AcDbEntity
  8
0
100
AcDbPolygonMesh
 66
     1
 10
0.0
 20
0.0
 30
0.0
 70
    16
 71
     6
 72
     3
  0
VERTEX
  5
5B3B8
100
AcDbEntity
  8
0
100
AcDbVertex
100
AcDbPolygonMeshVertex
 10
-3.008
 20
-1.56
 30
4.667
 70
    64
  0
VERTEX
  5
5B3B9
100
AcDbEntity
  8
0
100
AcDbVertex
100
AcDbPolygonMeshVertex
 10
-3.008
 20
-1.56
 30
4.477
 70
    64
  0
VERTEX
  5
5B3BA
100
AcDbEntity
  8
0
100
AcDbVertex
100
AcDbPolygonMeshVertex
 10
-3.008
 20
-1.56
 30
4.477
 70
    64
  0
VERTEX
  5
5B3BB
100
AcDbEntity
  8
0
100
AcDbVertex
100
AcDbPolygonMeshVertex
 10
-2.508
 20
-1.56
 30
4.667
 70
    64
  0
VERTEX
  5
5B3BC
100
AcDbEntity
  8
0
100
AcDbVertex
100
AcDbPolygonMeshVertex
 10
-2.508
 20
-1.56
 30
4.477
 70
    64
  0
VERTEX
  5
5B3BD
100
AcDbEntity
  8
0
100
AcDbVertex
100
AcDbPolygonMeshVertex
 10
-2.508
 20
-1.56
 30
4.477
 70
    64
  0
VERTEX
  5
5B3BE
100
AcDbEntity
  8
0
100
AcDbVertex
100
AcDbPolygonMeshVertex
 10
-2.508
 20
-1.97
 30
4.667
 70
    64
  0
VERTEX
  5
5B3BF
100
AcDbEntity
  8
0
100
AcDbVertex
100
AcDbPolygonMeshVertex
 10
-2.508
 20
-1.97
 30
4.477
 70
    64
  0
VERTEX
  5
5B3C0
100
AcDbEntity
  8
0
100
AcDbVertex
100
AcDbPolygonMeshVertex
 10
-2.508
 20
-1.56
 30
4.477
 70
    64
  0
VERTEX
  5
5B3C1
100
AcDbEntity
  8
0
100
AcDbVertex
100
AcDbPolygonMeshVertex
 10
-3.008
 20
-1.97
 30
4.667
 70
    64
  0
VERTEX
  5
5B3C2
100
AcDbEntity
  8
0
100
AcDbVertex
100
AcDbPolygonMeshVertex
 10
-3.008
 20
-1.97
 30
4.477
 70
    64
  0
VERTEX
  5
5B3C3
100
AcDbEntity
  8
0
100
AcDbVertex
100
AcDbPolygonMeshVertex
 10
-3.008
 20
-1.56
 30
4.477
 70
    64
  0
VERTEX
  5
5B3C4
100
AcDbEntity
  8
0
100
AcDbVertex
100
AcDbPolygonMeshVertex
 10
-3.008
 20
-1.97
 30
4.667
 70
    64
  0
VERTEX
  5
5B3C5
100
AcDbEntity
  8
0
100
AcDbVertex
100
AcDbPolygonMeshVertex
 10
-3.008
 20
-1.97
 30
4.667
 70
    64
  0
VERTEX
  5
5B3C6
100
AcDbEntity
  8
0
100
AcDbVertex
100
AcDbPolygonMeshVertex
 10
-3.008
 20
-1.56
 30
4.667
 70
    64
  0
VERTEX
  5
5B3C7
100
AcDbEntity
  8
0
100
AcDbVertex
100
AcDbPolygonMeshVertex
 10
-2.508
 20
-1.97
 30
4.667
 70
    64
  0
VERTEX
  5
5B3C8
100
AcDbEntity
  8
0
100
AcDbVertex
100
AcDbPolygonMeshVertex
 10
-2.508
 20
-1.97
 30
4.667
 70
    64
  0
VERTEX
  5
5B3C9
100
AcDbEntity
  8
0
100
AcDbVertex
100
AcDbPolygonMeshVertex
 10
-2.508
 20
-1.56
 30
4.667
 70
    64
  0
SEQEND
  5
5B3CA
100
AcDbEntity
  8
0
  0
POLYLINE
  5
5B3CB
100
AcDbEntity
  8
0
100
AcDbPolygonMesh
 66
     1
 10
0.0
 20
0.0
 30
0.0
 70
    16
 71
     6
 72
     3
  0
VERTEX
  5
5B3CC
100
AcDbEntity
  8
0
100
AcDbVertex
100
AcDbPolygonMeshVertex
 10
-3.008
 20
-1.0
 30
1.857
 70
    64
  0
VERTEX
  5
5B3CD
100
AcDbEntity
  8
0
100
AcDbVertex
100
AcDbPolygonMeshVertex
 10
-3.008
 20
-1.0
 30
1.547
 70
    64
  0
VERTEX
  5
5B3CE
100
AcDbEntity
  8
0
100
AcDbVertex
100
AcDbPolygonMeshVertex
 10
-3.008
 20
-1.0
 30
1.547
 70
    64
  0
VERTEX
  5
5B3CF
100
AcDbEntity
  8
0
100
AcDbVertex
100
AcDbPolygonMeshVertex
 10
-2.508
 20
-1.0
 30
1.857
 70
    64
  0
VERTEX
  5
5B3D0
100
AcDbEntity
  8
0
100
AcDbVertex
100
AcDbPolygonMeshVertex
 10
-2.508
 20
-1.0
 30
1.547
 70
    64
  0
VERTEX
  5
5B3D1
100
AcDbEntity
  8
0
100
AcDbVertex
100
AcDbPolygonMeshVertex
 10
-2.508
 20
-1.0
 30
1.547
 70
    64
  0
VERTEX
  5
5B3D2
100
AcDbEntity
  8
0
100
AcDbVertex
100
AcDbPolygonMeshVertex
 10
-2.508
 20
-1.47
 30
1.857
 70
    64
  0
VERTEX
  5
5B3D3
100
AcDbEntity
  8
0
100
AcDbVertex
100
AcDbPolygonMeshVertex
 10
-2.508
 20
-1.47
 30
1.547
 70
    64
  0
VERTEX
  5
5B3D4
100
AcDbEntity
  8
0
100
AcDbVertex
100
AcDbPolygonMeshVertex
 10
-2.508
 20
-1.0
 30
1.547
 70
    64
  0
VERTEX
  5
5B3D5
100
AcDbEntity
  8
0
100
AcDbVertex
100
AcDbPolygonMeshVertex
 10
-3.008
 20
-1.47
 30
1.857
 70
    64
  0
VERTEX
  5
5B3D6
100
AcDbEntity
  8
0
100
AcDbVertex
100
AcDbPolygonMeshVertex
 10
-3.008
 20
-1.47
 30
1.547
 70
    64
  0
VERTEX
  5
5B3D7
100
AcDbEntity
  8
0
100
AcDbVertex
100
AcDbPolygonMeshVertex
 10
-3.008
 20
-1.0
 30
1.547
 70
    64
  0
VERTEX
  5
5B3D8
100
AcDbEntity
  8
0
100
AcDbVertex
100
AcDbPolygonMeshVertex
 10
-3.008
 20
-1.47
 30
1.857
 70
    64
  0
VERTEX
  5
5B3D9
100
AcDbEntity
  8
0
100
AcDbVertex
100
AcDbPolygonMeshVertex
 10
-3.008
 20
-1.47
 30
1.857
 70
    64
  0
VERTEX
  5
5B3DA
100
AcDbEntity
  8
0
100
AcDbVertex
100
AcDbPolygonMeshVertex
 10
-3.008
 20
-1.0
 30
1.857
 70
    64
  0
VERTEX
  5
5B3DB
100
AcDbEntity
  8
0
100
AcDbVertex
100
AcDbPolygonMeshVertex
 10
-2.508
 20
-1.47
 30
1.857
 70
    64
  0
VERTEX
  5
5B3DC
100
AcDbEntity
  8
0
100
AcDbVertex
100
AcDbPolygonMeshVertex
 10
-2.508
 20
-1.47
 30
1.857
 70
    64
  0
VERTEX
  5
5B3DD
100
AcDbEntity
  8
0
100
AcDbVertex
100
AcDbPolygonMeshVertex
 10
-2.508
 20
-1.0
 30
1.857
 70
    64
  0
SEQEND
  5
5B3DE
100
AcDbEntity
  8
0
  0
POLYLINE
  5
5B3DF
100
AcDbEntity
  8
0
100
AcDbPolygonMesh
 66
     1
 10
0.0
 20
0.0
 30
0.0
 70
    16
 71
     6
 72
     3
  0
VERTEX
  5
5B3E0
100
AcDbEntity
  8
0
100
AcDbVertex
100
AcDbPolygonMeshVertex
 10
-1.948
 20
-1.0
 30
1.857
 70
    64
  0
VERTEX
  5
5B3E1
100
AcDbEntity
  8
0
100
AcDbVertex
100
AcDbPolygonMeshVertex
 10
-1.948
 20
-1.0
 30
1.547
 70
    64
  0
VERTEX
  5
5B3E2
100
AcDbEntity
  8
0
100
AcDbVertex
100
AcDbPolygonMeshVertex
 10
-1.948
 20
-1.0
 30
1.547
 70
    64
  0
VERTEX
  5
5B3E3
100
AcDbEntity
  8
0
100
AcDbVertex
100
AcDbPolygonMeshVertex
 10
-1.448
 20
-1.0
 30
1.857
 70
    64
  0
VERTEX
  5
5B3E4
100
AcDbEntity
  8
0
100
AcDbVertex
100
AcDbPolygonMeshVertex
 10
-1.448
 20
-1.0
 30
1.547
 70
    64
  0
VERTEX
  5
5B3E5
100
AcDbEntity
  8
0
100
AcDbVertex
100
AcDbPolygonMeshVertex
 10
-1.448
 20
-1.0
 30
1.547
 70
    64
  0
VERTEX
  5
5B3E6
100
AcDbEntity
  8
0
100
AcDbVertex
100
AcDbPolygonMeshVertex
 10
-1.448
 20
-1.47
 30
1.857
 70
    64
  0
VERTEX
  5
5B3E7
100
AcDbEntity
  8
0
100
AcDbVertex
100
AcDbPolygonMeshVertex
 10
-1.448
 20
-1.47
 30
1.547
 70
    64
  0
VERTEX
  5
5B3E8
100
AcDbEntity
  8
0
100
AcDbVertex
100
AcDbPolygonMeshVertex
 10
-1.448
 20
-1.0
 30
1.547
 70
    64
  0
VERTEX
  5
5B3E9
100
AcDbEntity
  8
0
100
AcDbVertex
100
AcDbPolygonMeshVertex
 10
-1.948
 20
-1.47
 30
1.857
 70
    64
  0
VERTEX
  5
5B3EA
100
AcDbEntity
  8
0
100
AcDbVertex
100
AcDbPolygonMeshVertex
 10
-1.948
 20
-1.47
 30
1.547
 70
    64
  0
VERTEX
  5
5B3EB
100
AcDbEntity
  8
0
100
AcDbVertex
100
AcDbPolygonMeshVertex
 10
-1.948
 20
-1.0
 30
1.547
 70
    64
  0
VERTEX
  5
5B3EC
100
AcDbEntity
  8
0
100
AcDbVertex
100
AcDbPolygonMeshVertex
 10
-1.948
 20
-1.47
 30
1.857
 70
    64
  0
VERTEX
  5
5B3ED
100
AcDbEntity
  8
0
100
AcDbVertex
100
AcDbPolygonMeshVertex
 10
-1.948
 20
-1.47
 30
1.857
 70
    64
  0
VERTEX
  5
5B3EE
100
AcDbEntity
  8
0
100
AcDbVertex
100
AcDbPolygonMeshVertex
 10
-1.948
 20
-1.0
 30
1.857
 70
    64
  0
VERTEX
  5
5B3EF
100
AcDbEntity
  8
0
100
AcDbVertex
100
AcDbPolygonMeshVertex
 10
-1.448
 20
-1.47
 30
1.857
 70
    64
  0
VERTEX
  5
5B3F0
100
AcDbEntity
  8
0
100
AcDbVertex
100
AcDbPolygonMeshVertex
 10
-1.448
 20
-1.47
 30
1.857
 70
    64
  0
VERTEX
  5
5B3F1
100
AcDbEntity
  8
0
100
AcDbVertex
100
AcDbPolygonMeshVertex
 10
-1.448
 20
-1.0
 30
1.857
 70
    64
  0
SEQEND
  5
5B3F2
100
AcDbEntity
  8
0
  0
CIRCLE
  5
5B3F3
100
AcDbEntity
  8
0
100
AcDbCircle
 10
-1.698
 20
-1.235
 30
1.867
 40
0.19
  0
LINE
  5
5B3F4
100
AcDbEntity
  8
0
100
AcDbLine
 10
-1.833722
 20
-1.367964
 30
1.867
 11
-1.602471
 21
-1.070762
 31
1.867
  0
LINE
  5
5B3F5
100
AcDbEntity
  8
0
100
AcDbLine
 10
-1.793035
 20
-1.398318
 30
1.867
 11
-1.561784
 21
-1.101115
 31
1.867
  0
POLYLINE
  5
5B3F6
100
AcDbEntity
  8
0
100
AcDbPolygonMesh
 66
     1
 10
0.0
 20
0.0
 30
0.0
 70
    16
 71
     6
 72
     3
  0
VERTEX
  5
5B3F7
100
AcDbEntity
  8
0
100
AcDbVertex
100
AcDbPolygonMeshVertex
 10
-0.888
 20
-1.0
 30
1.857
 70
    64
  0
VERTEX
  5
5B3F8
100
AcDbEntity
  8
0
100
AcDbVertex
100
AcDbPolygonMeshVertex
 10
-0.888
 20
-1.0
 30
1.547
 70
    64
  0
VERTEX
  5
5B3F9
100
AcDbEntity
  8
0
100
AcDbVertex
100
AcDbPolygonMeshVertex
 10
-0.888
 20
-1.0
 30
1.547
 70
    64
  0
VERTEX
  5
5B3FA
100
AcDbEntity
  8
0
100
AcDbVertex
100
AcDbPolygonMeshVertex
 10
-0.388
 20
-1.0
 30
1.857
 70
    64
  0
VERTEX
  5
5B3FB
100
AcDbEntity
  8
0
100
AcDbVertex
100
AcDbPolygonMeshVertex
 10
-0.388
 20
-1.0
 30
1.547
 70
    64
  0
VERTEX
  5
5B3FC
100
AcDbEntity
  8
0
100
AcDbVertex
100
AcDbPolygonMeshVertex
 10
-0.388
 20
-1.0
 30
1.547
 70
    64
  0
VERTEX
  5
5B3FD
100
AcDbEntity
  8
0
100
AcDbVertex
100
AcDbPolygonMeshVertex
 10
-0.388
 20
-1.47
 30
1.857
 70
    64
  0
VERTEX
  5
5B3FE
100
AcDbEntity
  8
0
100
AcDbVertex
100
AcDbPolygonMeshVertex
 10
-0.388
 20
-1.47
 30
1.547
 70
    64
  0
VERTEX
  5
5B3FF
100
AcDbEntity
  8
0
100
AcDbVertex
100
AcDbPolygonMeshVertex
 10
-0.388
 20
-1.0
 30
1.547
 70
    64
  0
VERTEX
  5
5B400
100
AcDbEntity
  8
0
100
AcDbVertex
100
AcDbPolygonMeshVertex
 10
-0.888
 20
-1.47
 30
1.857
 70
    64
  0
VERTEX
  5
5B401
100
AcDbEntity
  8
0
100
AcDbVertex
100
AcDbPolygonMeshVertex
 10
-0.888
 20
-1.47
 30
1.547
 70
    64
  0
VERTEX
  5
5B402
100
AcDbEntity
  8
0
100
AcDbVertex
100
AcDbPolygonMeshVertex
 10
-0.888
 20
-1.0
 30
1.547
 70
    64
  0
VERTEX
  5
5B403
100
AcDbEntity
  8
0
100
AcDbVertex
100
AcDbPolygonMeshVertex
 10
-0.888
 20
-1.47
 30
1.857
 70
    64
  0
VERTEX
  5
5B404
100
AcDbEntity
  8
0
100
AcDbVertex
100
AcDbPolygonMeshVertex
 10
-0.888
 20
-1.47
 30
1.857
 70
    64
  0
VERTEX
  5
5B405
100
AcDbEntity
  8
0
100
AcDbVertex
100
AcDbPolygonMeshVertex
 10
-0.888
 20
-1.0
 30
1.857
 70
    64
  0
VERTEX
  5
5B406
100
AcDbEntity
  8
0
100
AcDbVertex
100
AcDbPolygonMeshVertex
 10
-0.388
 20
-1.47
 30
1.857
 70
    64
  0
VERTEX
  5
5B407
100
AcDbEntity
  8
0
100
AcDbVertex
100
AcDbPolygonMeshVertex
 10
-0.388
 20
-1.47
 30
1.857
 70
    64
  0
VERTEX
  5
5B408
100
AcDbEntity
  8
0
100
AcDbVertex
100
AcDbPolygonMeshVertex
 10
-0.388
 20
-1.0
 30
1.857
 70
    64
  0
SEQEND
  5
5B409
100
AcDbEntity
  8
0
  0
CIRCLE
  5
5B40A
100
AcDbEntity
  8
0
100
AcDbCircle
 10
-0.638
 20
-1.235
 30
1.867
 40
0.19
  0
LINE
  5
5B40B
100
AcDbEntity
  8
0
100
AcDbLine
 10
-0.773722
 20
-1.367964
 30
1.867
 11
-0.542471
 21
-1.070762
 31
1.867
  0
LINE
  5
5B40C
100
AcDbEntity
  8
0
100
AcDbLine
 10
-0.733035
 20
-1.398318
 30
1.867
 11
-0.501784
 21
-1.101115
 31
1.867
  0
POLYLINE
  5
5B40D
100
AcDbEntity
  8
0
100
AcDbPolygonMesh
 66
     1
 10
0.0
 20
0.0
 30
0.0
 70
    16
 71
     6
 72
     3
  0
VERTEX
  5
5B40E
100
AcDbEntity
  8
0
100
AcDbVertex
100
AcDbPolygonMeshVertex
 10
0.077
 20
-8.31
 30
0.577
 70
    64
  0
VERTEX
  5
5B40F
100
AcDbEntity
  8
0
100
AcDbVertex
100
AcDbPolygonMeshVertex
 10
0.077
 20
-8.31
 30
0.387
 70
    64
  0
VERTEX
  5
5B410
100
AcDbEntity
  8
0
100
AcDbVertex
100
AcDbPolygonMeshVertex
 10
0.077
 20
-8.31
 30
0.387
 70
    64
  0
VERTEX
  5
5B411
100
AcDbEntity
  8
0
100
AcDbVertex
100
AcDbPolygonMeshVertex
 10
-3.483
 20
-8.31
 30
0.577
 70
    64
  0
VERTEX
  5
5B412
100
AcDbEntity
  8
0
100
AcDbVertex
100
AcDbPolygonMeshVertex
 10
-3.483
 20
-8.31
 30
0.387
 70
    64
  0
VERTEX
  5
5B413
100
AcDbEntity
  8
0
100
AcDbVertex
100
AcDbPolygonMeshVertex
 10
-3.483
 20
-8.31
 30
0.387
 70
    64
  0
VERTEX
  5
5B414
100
AcDbEntity
  8
0
100
AcDbVertex
100
AcDbPolygonMeshVertex
 10
-3.483
 20
-1.31
 30
0.577
 70
    64
  0
VERTEX
  5
5B415
100
AcDbEntity
  8
0
100
AcDbVertex
100
AcDbPolygonMeshVertex
 10
-3.483
 20
-1.31
 30
0.387
 70
    64
  0
VERTEX
  5
5B416
100
AcDbEntity
  8
0
100
AcDbVertex
100
AcDbPolygonMeshVertex
 10
-3.483
 20
-8.31
 30
0.387
 70
    64
  0
VERTEX
  5
5B417
100
AcDbEntity
  8
0
100
AcDbVertex
100
AcDbPolygonMeshVertex
 10
0.077
 20
-1.31
 30
0.577
 70
    64
  0
VERTEX
  5
5B418
100
AcDbEntity
  8
0
100
AcDbVertex
100
AcDbPolygonMeshVertex
 10
0.077
 20
-1.31
 30
0.387
 70
    64
  0
VERTEX
  5
5B419
100
AcDbEntity
  8
0
100
AcDbVertex
100
AcDbPolygonMeshVertex
 10
0.077
 20
-8.31
 30
0.387
 70
    64
  0
VERTEX
  5
5B41A
100
AcDbEntity
  8
0
100
AcDbVertex
100
AcDbPolygonMeshVertex
 10
0.077
 20
-1.31
 30
0.577
 70
    64
  0
VERTEX
  5
5B41B
100
AcDbEntity
  8
0
100
AcDbVertex
100
AcDbPolygonMeshVertex
 10
0.077
 20
-1.31
 30
0.577
 70
    64
  0
VERTEX
  5
5B41C
100
AcDbEntity
  8
0
100
AcDbVertex
100
AcDbPolygonMeshVertex
 10
0.077
 20
-8.31
 30
0.577
 70
    64
  0
VERTEX
  5
5B41D
100
AcDbEntity
  8
0
100
AcDbVertex
100
AcDbPolygonMeshVertex
 10
-3.483
 20
-1.31
 30
0.577
 70
    64
  0
VERTEX
  5
5B41E
100
AcDbEntity
  8
0
100
AcDbVertex
100
AcDbPolygonMeshVertex
 10
-3.483
 20
-1.31
 30
0.577
 70
    64
  0
VERTEX
  5
5B41F
100
AcDbEntity
  8
0
100
AcDbVertex
100
AcDbPolygonMeshVertex
 10
-3.483
 20
-8.31
 30
0.577
 70
    64
  0
SEQEND
  5
5B420
100
AcDbEntity
  8
0
  0
LINE
  5
5B421
100
AcDbEntity
  8
0
100
AcDbLine
 10
-2.978
 20
-8.31
 30
0.577
 11
-2.978
 21
-8.31
 31
0.387
  0
3DFACE
  5
5B422
100
AcDbEntity
  8
0
100
AcDbFace
 10
0.077
 20
-1.31
 30
0.577
 11
-0.543
 21
-0.69
 31
0.577
 12
-1.983
 22
-0.69
 32
0.577
 13
-2.083
 23
-0.97
 33
0.577
 70
     8
  0
3DFACE
  5
5B423
100
AcDbEntity
  8
0
100
AcDbFace
 10
-2.573
 20
-0.97
 30
0.577
 11
-2.673
 21
-0.69
 31
0.577
 12
-2.863
 22
-0.69
 32
0.577
 13
-3.483
 23
-1.31
 33
0.577
 70
     8
  0
3DFACE
  5
5B424
100
AcDbEntity
  8
0
100
AcDbFace
 10
-2.573
 20
-0.97
 30
0.577
 11
-3.483
 21
-1.31
 31
0.577
 12
0.077
 22
-1.31
 32
0.577
 13
-2.083
 23
-0.97
 33
0.577
 70
    15
  0
3DFACE
  5
5B425
100
AcDbEntity
  8
0
100
AcDbFace
 10
-2.573
 20
-0.97
 30
0.387
 11
-3.483
 21
-1.31
 31
0.387
 12
0.077
 22
-1.31
 32
0.387
 13
-2.083
 23
-0.97
 33
0.387
 70
    15
  0
3DFACE
  5
5B426
100
AcDbEntity
  8
0
100
AcDbFace
 10
0.077
 20
-1.31
 30
0.387
 11
-0.543
 21
-0.69
 31
0.387
 12
-1.983
 22
-0.69
 32
0.387
 13
-2.083
 23
-0.97
 33
0.387
 70
     8
  0
3DFACE
  5
5B427
100
AcDbEntity
  8
0
100
AcDbFace
 10
-2.573
 20
-0.97
 30
0.387
 11
-2.673
 21
-0.69
 31
0.387
 12
-2.863
 22
-0.69
 32
0.387
 13
-3.483
 23
-1.31
 33
0.387
 70
     8
  0
3DFACE
  5
5B428
100
AcDbEntity
  8
0
100
AcDbFace
 10
0.077
 20
-1.31
 30
0.387
 11
0.077
 21
-1.31
 31
0.577
 12
-0.543
 22
-0.69
 32
0.577
 13
-0.543
 23
-0.69
 33
0.387
  0
3DFACE
  5
5B429
100
AcDbEntity
  8
0
100
AcDbFace
 10
-0.543
 20
-0.69
 30
0.577
 11
-1.983
 21
-0.69
 31
0.577
 12
-1.983
 22
-0.69
 32
0.387
 13
-0.543
 23
-0.69
 33
0.387
  0
3DFACE
  5
5B42A
100
AcDbEntity
  8
0
100
AcDbFace
 10
-2.573
 20
-0.97
 30
0.577
 11
-2.573
 21
-0.97
 31
0.387
 12
-2.673
 22
-0.69
 32
0.387
 13
-2.673
 23
-0.69
 33
0.577
  0
3DFACE
  5
5B42B
100
AcDbEntity
  8
0
100
AcDbFace
 10
-2.083
 20
-0.97
 30
0.577
 11
-2.083
 21
-0.97
 31
0.387
 12
-2.573
 22
-0.97
 32
0.387
 13
-2.573
 23
-0.97
 33
0.577
  0
3DFACE
  5
5B42C
100
AcDbEntity
  8
0
100
AcDbFace
 10
-2.673
 20
-0.69
 30
0.577
 11
-2.673
 21
-0.69
 31
0.387
 12
-2.863
 22
-0.69
 32
0.387
 13
-2.863
 23
-0.69
 33
0.577
  0
3DFACE
  5
5B42D
100
AcDbEntity
  8
0
100
AcDbFace
 10
-2.083
 20
-0.97
 30
0.577
 11
-2.083
 21
-0.97
 31
0.387
 12
-1.983
 22
-0.69
 32
0.387
 13
-1.983
 23
-0.69
 33
0.577
  0
3DFACE
  5
5B42E
100
AcDbEntity
  8
0
100
AcDbFace
 10
-2.863
 20
-0.69
 30
0.387
 11
-2.863
 21
-0.69
 31
0.577
 12
-3.483
 22
-1.31
 32
0.577
 13
-3.483
 23
-1.31
 33
0.387
  0
TEXT
  5
5B42F
100
AcDbEntity
  8
0
100
AcDbText
 10
2.151676
 20
-1.83504
 30
4.667
 40
0.157527
  1
L1
100
AcDbText
  0
TEXT
  5
5B430
100
AcDbEntity
  8
0
100
AcDbText
 10
3.179466
 20
-1.85503
 30
4.667
 40
0.157527
  1
L2
100
AcDbText
  0
TEXT
  5
5B431
100
AcDbEntity
  8
0
100
AcDbText
 10
4.25008
 20
-1.846485
 30
4.667
 40
0.157527
  1
L3
100
AcDbText
  0
TEXT
  5
5B432
100
AcDbEntity
  8
0
100
AcDbText
 10
2.065255
 20
-7.144528
 30
4.027
 40
0.157527
  1
T1
100
AcDbText
  0
TEXT
  5
5B433
100
AcDbEntity
  8
0
100
AcDbText
 10
3.093044
 20
-7.135983
 30
4.027
 40
0.157527
  1
T2
100
AcDbText
  0
TEXT
  5
5B434
100
AcDbEntity
  8
0
100
AcDbText
 10
4.149383
 20
-7.141706
 30
4.027
 40
0.157527
  1
T3
100
AcDbText
  0
ATTDEF
  5
5B435
100
AcDbEntity
  8
ATTRIBUTES
100
AcDbText
 10
-3.206196
 20
-5.957159
 30
0.0
 40
0.12
  1
ALLEN-BRADLEY
100
AcDbAttributeDefinition
  3
MANUFACTURER NAME?
  2
AC_VND_LABEL
 70
     0
  0
ATTDEF
  5
5B436
100
AcDbEntity
  8
ATTRIBUTES
100
AcDbText
 10
-3.206196
 20
-6.207159
 30
0.0
 40
0.12
  1
520F-A
100
AcDbAttributeDefinition
  3
CATALOG NUMBER?
  2
AC_PART_NO
 70
     0
  0
ATTDEF
  5
5B437
100
AcDbEntity
  8
ATTRIBUTES
100
AcDbText
 10
-3.206196
 20
-6.457159
 30
0.0
 40
0.12
  1
2 SPEED CONSTANT/VARIABLE TORQUE w/EUTECTIC ALLOY OLR, NEMA SIZE 0 & 1
100
AcDbAttributeDefinition
  3
PART DESCRIPTION?
  2
AC_DESCRIPTION
 70
     0
  0
ATTDEF
  5
5B438
100
AcDbEntity
  8
ATTRIBUTES
100
AcDbText
 10
-3.206196
 20
-6.707159
 30
0.0
 40
0.12
  1

100
AcDbAttributeDefinition
  3
DEVICE ID?
  2
DEVICE_ID
 70
     0
  0
ATTDEF
  5
5B439
100
AcDbEntity
  8
ATTRIBUTES
100
AcDbText
 10
-3.206196
 20
-6.957159
 30
0.0
 40
0.12
  1

100
AcDbAttributeDefinition
  3
CUSTOMER PART NUMBER?
  2
AC_CPART_NO
 70
     0
  0
ATTDEF
  5
5B43A
100
AcDbEntity
  8
ATTRIBUTES
100
AcDbText
 10
-3.206196
 20
-7.207159
 30
0.0
 40
0.12
  1

100
AcDbAttributeDefinition
  3
CUSTOMER NOTE?
  2
AC_NOTE
 70
     0
  0
ATTDEF
  5
5B43B
100
AcDbEntity
  8
ATTRIBUTES
100
AcDbText
 10
-3.206196
 20
-7.457159
 30
0.0
 40
0.12
  1

100
AcDbAttributeDefinition
  3
FASTENER DATA?
  2
FASTENER
 70
     0
  0
ATTDEF
  5
5B43C
100
AcDbEntity
  8
ATTRIBUTES
100
AcDbText
 10
-3.206196
 20
-7.707159
 30
0.0
 40
0.12
  1

100
AcDbAttributeDefinition
  3
UNIT OF SCALE?
  2
AC_SCALE_UNIT
 70
     0
  0
ATTDEF
  5
5B43D
100
AcDbEntity
  8
ATTRIBUTES
100
AcDbText
 10
-3.206196
 20
-7.957159
 30
0.0
 40
0.12
  1

100
AcDbAttributeDefinition
  3
VIEW CODE?
  2
AC_VIEW_CODE
 70
     0
  0
DIMENSION
  5
5B43E
100
AcDbEntity
  8
AREA1
100
AcDbDimension
  2
*D0
 10
-5.203583
 20
-8.879
 30
0.0
 11
-5.203583
 21
-4.448731
 31
0.0
 70
   160
  3
ABECAD_3V
100
AcDbAlignedDimension
 13
-1.0
 23
0.281
 33
0.0
 14
-3.553
 24
-8.879
 34
0.0
 50
90.0
100
AcDbRotatedDimension
1001
ACAD
1000
DSTYLE
1002
{
1070
    40
1040
2.796589
1002
}
  0
DIMENSION
  5
5B43F
100
AcDbEntity
  8
AREA1
100
AcDbDimension
  2
*D1
 10
5.107
 20
1.259948
 30
0.0
 11
0.538441
 21
1.259948
 31
0.0
 70
   160
  3
ABECAD_3V
100
AcDbAlignedDimension
 13
-4.168
 23
-1.47
 33
0.387
 14
5.107
 24
-0.629
 34
0.0
100
AcDbRotatedDimension
1001
ACAD
1000
DSTYLE
1002
{
1070
    40
1040
2.796589
1002
}
  0
LWPOLYLINE
  5
5B440
100
AcDbEntity
  8
SCALE
100
AcDbPolyline
 90
        4
 70
     1
 43
0.0
 10
-0.230204
 20
-9.067297
 10
0.905425
 20
-9.067297
 10
0.905425
 20
-9.908906
 10
-0.230204
 20
-9.908906
  0
LINE
  5
5B441
100
AcDbEntity
  8
SCALE
100
AcDbLine
 10
-0.172205
 20
-9.447375
 30
0.0
 11
0.827795
 21
-9.447375
 31
0.0
  0
LINE
  5
5B442
100
AcDbEntity
  8
SCALE
100
AcDbLine
 10
-0.172205
 20
-9.747375
 30
0.0
 11
0.221495
 21
-9.747375
 31
0.0
  0
LINE
  5
5B443
100
AcDbEntity
  8
SCALE
100
AcDbLine
 10
-0.172205
 20
-9.547375
 30
0.0
 11
-0.172205
 21
-9.347375
 31
0.0
  0
TEXT
  5
5B444
100
AcDbEntity
  8
SCALE
100
AcDbText
 10
-0.116229
 20
-9.69969
 30
0.0
 40
0.0625
  1
[10mm]
100
AcDbText
  0
LINE
  5
5B445
100
AcDbEntity
  8
SCALE
100
AcDbLine
 10
-0.172205
 20
-9.847375
 30
0.0
 11
-0.172205
 21
-9.647375
 31
0.0
  0
TEXT
  5
5B446
100
AcDbEntity
  8
SCALE
100
AcDbText
 10
-0.170675
 20
-9.172498
 30
0.0
 40
0.0625
  1
SCALE:
100
AcDbText
  0
LINE
  5
5B447
100
AcDbEntity
  8
SCALE
100
AcDbLine
 10
0.221495
 20
-9.847375
 30
0.0
 11
0.221495
 21
-9.647375
 31
0.0
  0
TEXT
  5
5B448
100
AcDbEntity
  8
SCALE
100
AcDbText
 10
0.191078
 20
-9.378327
 30
0.0
 40
0.0625
  1
1 Inch
100
AcDbText
  0
LINE
  5
5B449
100
AcDbEntity
  8
SCALE
100
AcDbLine
 10
0.827795
 20
-9.447375
 30
0.0
 11
0.827795
 21
-9.547375
 31
0.0
  0
LINE
  5
5B44A
100
AcDbEntity
  8
SCALE
100
AcDbLine
 10
0.827795
 20
-9.547375
 30
0.0
 11
0.827795
 21
-9.347375
 31
0.0
  0
DIMENSION
  5
5B479
100
AcDbEntity
  8
AREA2
100
AcDbDimension
  2
*D2
 10
-5.056941
 20
0.0
 30
0.0
 11
-5.58267
 21
2.319243
 31
0.0
 70
   160
210
0.0
220
-1.0
230
0.0
  3
ABECAD_3V
100
AcDbAlignedDimension
 13
-2.606
 23
-5.79
 33
4.937
 14
-3.553
 24
-0.629
 34
0.0
 50
90.0
100
AcDbRotatedDimension
1001
ACAD
1000
DSTYLE
1002
{
1070
    40
1040
2.796589
1002
}
  0
VIEWPORT
  5
2C
102
{ACAD_XDICTIONARY
360
5B57B
102
}
100
AcDbEntity
 67
     1
  8
0
100
AcDbViewport
 10
4.999849
 20
3.750155
 30
0.0
 40
14.605422
 41
7.605506
 68
     1
 69
     1
1001
ACAD
1000
MVIEW
1002
{
1070
    16
1010
0.0
1020
0.0
1030
0.0
1010
0.0
1020
0.0
1030
1.0
1040
0.0
1040
7.605506
1040
4.999849
1040
3.750155
1040
50.0
1040
0.0
1040
0.0
1070
     0
1070
   100
1070
     1
1070
     1
1070
     0
1070
     0
1070
     0
1070
     0
1040
0.0
1040
0.0
1040
0.0
1040
1.0
1040
1.0
1040
0.0
1040
0.0
1070
     0
1002
{
1002
}
1002
}
  0
VIEWPORT
  5
2D
102
{ACAD_XDICTIONARY
360
5B57D
102
}
100
AcDbEntity
 67
     1
  8
0
100
AcDbViewport
 10
2.5
 20
5.625
 30
0.0
 40
5.0
 41
3.75
 68
     3
 69
     2
1001
ACAD
1000
MVIEW
1002
{
1070
    16
1010
0.0
1020
0.0
1030
0.0
1010
0.0
1020
0.0
1030
1.0
1040
0.0
1040
10.986244
1040
-0.091175
1040
-3.711545
1040
50.0
1040
0.0
1040
0.0
1070
     0
1070
   100
1070
     1
1070
     0
1070
     0
1070
     0
1070
     0
1070
     0
1040
0.0
1040
0.0
1040
0.0
1040
1.0
1040
1.0
1040
0.0
1040
0.0
1070
     0
1002
{
1003
AREA2
1002
}
1002
}
  0
VIEWPORT
  5
2E
102
{ACAD_XDICTIONARY
360
5B57F
102
}
100
AcDbEntity
 67
     1
  8
0
100
AcDbViewport
 10
2.5
 20
1.875
 30
0.0
 40
5.0
 41
3.75
 68
     2
 69
     3
1001
ACAD
1000
MVIEW
1002
{
1070
    16
1010
0.0
1020
0.0
1030
0.0
1010
0.0
1020
-1.0
1030
0.0
1040
0.0
1040
10.487208
1040
0.031718
1040
2.4685
1040
50.0
1040
0.0
1040
0.0
1070
     0
1070
   100
1070
     1
1070
     0
1070
     0
1070
     0
1070
     0
1070
     0
1040
0.0
1040
0.0
1040
0.0
1040
1.0
1040
1.0
1040
0.0
1040
0.0
1070
     0
1002
{
1003
AREA1
1002
}
1002
}
  0
VIEWPORT
  5
2F
102
{ACAD_XDICTIONARY
360
5B581
102
}
100
AcDbEntity
 67
     1
  8
0
100
AcDbViewport
 10
7.5
 20
3.75
 30
0.0
 40
5.0
 41
7.5
 68
     4
 69
     4
1001
ACAD
1000
MVIEW
1002
{
1070
    16
1010
0.0
1020
0.0
1030
0.0
1010
-1.0
1020
-1.0
1030
1.0
1040
0.0
1040
18.812062
1040
3.799041
1040
0.729659
1040
50.0
1040
0.0
1040
0.0
1070
     0
1070
   100
1070
     1
1070
     0
1070
     0
1070
     0
1070
     0
1070
     0
1040
0.0
1040
0.0
1040
0.0
1040
1.0
1040
1.0
1040
0.0
1040
0.0
1070
     0
1002
{
1003
AREA1
1003
AREA2
1002
}
1002
}
  0
TEXT
  5
42D
100
AcDbEntity
 67
     1
  8
0
100
AcDbText
 10
5.253785
 20
7.092701
 30
0.0
 40
0.2
  1

100
AcDbText
  0
TEXT
  5
431
100
AcDbEntity
 67
     1
  8
0
100
AcDbText
 10
5.253785
 20
6.759368
 30
0.0
 40
0.2
  1

100
AcDbText
1001
ACAD
1000
R13OBJECT
1002
{
1005
42D
1002
}
  0
TEXT
  5
11D16
100
AcDbEntity
 67
     1
  8
AREA2
100
AcDbText
 10
5.101109
 20
7.152637
 30
0.0
 40
0.2
  1
520F-A
100
AcDbText
  0
TEXT
  5
24C0A
100
AcDbEntity
 67
     1
  8
AREA2
100
AcDbText
 10
5.101109
 20
6.881437
 30
0.0
 40
0.2
  1
2 SPEED CONSTANT/
100
AcDbText
  0
TEXT
  5
2F662
100
AcDbEntity
 67
     1
  8
AREA2
100
AcDbText
 10
5.101109
 20
6.599834
 30
0.0
 40
0.2
  1
VARIABLE TORQUE 
100
AcDbText
  0
TEXT
  5
4B785
100
AcDbEntity
 67
     1
  8
AREA2
100
AcDbText
 10
5.101109
 20
6.310076
 30
0.0
 40
0.2
  1
w/EUTECTIC ALLOY OLR, 
100
AcDbText
  0
TEXT
  5
5B488
100
AcDbEntity
 67
     1
  8
AREA2
100
AcDbText
 10
5.101109
 20
6.022647
 30
0.0
 40
0.2
  1
NEMA SIZE 0 & 1
100
AcDbText
  0
ENDSEC
  0
SECTION
  2
OBJECTS
  0
DICTIONARY
  5
46D
100
AcDbDictionary
  3
ACAD_GROUP
350
46E
  3
ACAD_LAYOUT
350
49E
  3
ACAD_MLINESTYLE
350
47B
  3
ACAD_PLOTSETTINGS
350
49F
  3
ACAD_PLOTSTYLENAME
350
49C
  3
ACDBHEADERROUNDTRIPXREC
350
5B55A
  3
ACDBVARIABLEDICTIONARY
350
48D
  0
DICTIONARY
  5
5B558
100
AcDbDictionary
280
     1
  3
ACAD_XREC_ROUNDTRIP
360
5B559
  0
DICTIONARY
  5
5B585
100
AcDbDictionary
280
     1
  3
ACAD_XREC_ROUNDTRIP
360
5B586
  0
DICTIONARY
  5
5B587
100
AcDbDictionary
280
     1
  3
ACAD_XREC_ROUNDTRIP
360
5B588
  0
DICTIONARY
  5
5B58B
100
AcDbDictionary
280
     1
  3
ACAD_XREC_ROUNDTRIP
360
5B58C
  0
DICTIONARY
  5
4D2
100
AcDbDictionary
280
     1
  3
ACAD_LAYOUTSELFREF
360
5B584
  0
DICTIONARY
  5
4D0
100
AcDbDictionary
280
     1
  3
ACAD_LAYOUTSELFREF
360
5B583
  0
DICTIONARY
  5
5B57B
100
AcDbDictionary
280
     1
  3
ACAD_XREC_ROUNDTRIP
360
5B57C
  0
DICTIONARY
  5
5B57D
100
AcDbDictionary
280
     1
  3
ACAD_XREC_ROUNDTRIP
360
5B57E
  0
DICTIONARY
  5
5B57F
100
AcDbDictionary
280
     1
  3
ACAD_XREC_ROUNDTRIP
360
5B580
  0
DICTIONARY
  5
5B581
100
AcDbDictionary
280
     1
  3
ACAD_XREC_ROUNDTRIP
360
5B582
  0
DICTIONARY
  5
46E
102
{ACAD_REACTORS
330
46D
102
}
100
AcDbDictionary
  0
DICTIONARY
  5
49E
102
{ACAD_XDICTIONARY
360
5B589
102
}
102
{ACAD_REACTORS
330
46D
102
}
100
AcDbDictionary
  3
LAYOUT1
350
4A1
  3
MODEL
350
4A0
  0
DICTIONARY
  5
47B
102
{ACAD_REACTORS
330
46D
102
}
100
AcDbDictionary
  3
STANDARD
350
47C
  0
DICTIONARY
  5
49F
102
{ACAD_REACTORS
330
46D
102
}
100
AcDbDictionary
  0
ACAD_PROXY_OBJECT
  5
49C
102
{ACAD_REACTORS
330
46D
102
}
100
AcDbProxyObject
 90
      499
 91
      501
 93
       86
310
405010041939BDC9B585B0
350
49D
340
49D
 94
        0
  0
DICTIONARY
  5
5B55A
102
{ACAD_REACTORS
330
46D
102
}
100
AcDbDictionary
  3
CEPSNTYPE
350
5B564
  3
DIMSTYLEDATA
350
5B568
  3
FINGERPRINTGUID
350
5B565
  3
HYPERLINKBASE
350
5B55D
  3
INSUNITS
350
5B563
  3
LAYOUTDICT
350
5B55F
  3
LWETCUNION
350
5B562
  3
PLOTSETDICT
350
5B560
  3
PLOTSTYLNAMDICT
350
5B561
  3
PSVPSCALE
350
5B567
  3
PUCSBASE
350
5B56B
  3
PUCSORGBACK
350
5B571
  3
PUCSORGBOTTOM
350
5B56D
  3
PUCSORGFRONT
350
5B570
  3
PUCSORGLEFT
350
5B56E
  3
PUCSORGRIGHT
350
5B56F
  3
PUCSORGTOP
350
5B56C
  3
PUCSORTHOREF
350
5B569
  3
PUCSORTHOVIEW
350
5B56A
  3
STYLESHEET
350
5B55E
  3
TSTACKALIGN
350
5B55B
  3
TSTACKSIZE
350
5B55C
  3
UCSBASE
350
5B574
  3
UCSORGBACK
350
5B57A
  3
UCSORGBOTTOM
350
5B576
  3
UCSORGFRONT
350
5B579
  3
UCSORGLEFT
350
5B577
  3
UCSORGRIGHT
350
5B578
  3
UCSORGTOP
350
5B575
  3
UCSORTHOREF
350
5B572
  3
UCSORTHOVIEW
350
5B573
  3
VERSIONGUID
350
5B566
  0
DICTIONARY
  5
48D
102
{ACAD_REACTORS
330
46D
102
}
100
AcDbDictionary
  3
DIMADEC
350
48E
  0
XRECORD
  5
5B559
102
{ACAD_REACTORS
330
5B558
102
}
100
AcDbXrecord
102
EXTNAMES
  1
*ACTIVE
  2
*Active
102
UCS
 74
     0
 71
     1
 10
0.0
 20
0.0
 30
0.0
 10
1.0
 20
0.0
 30
0.0
 10
0.0
 20
1.0
 30
0.0
146
0.0
 79
     1
102
VIEW
281
     1
  0
XRECORD
  5
5B586
102
{ACAD_REACTORS
330
5B585
102
}
100
AcDbXrecord
102
PLOTBIT
280
     0
  0
XRECORD
  5
5B588
102
{ACAD_REACTORS
330
5B587
102
}
100
AcDbXrecord
102
ACADR14ROUNDTRIP
1000
DSTYLE
1002
{
1070
   276
 70
     2
1070
   277
 70
     5
1070
   279
 70
     2
1002
}
  0
XRECORD
  5
5B58C
102
{ACAD_REACTORS
330
5B58B
102
}
100
AcDbXrecord
102
ACADR14ROUNDTRIP
1000
DSTYLE
1002
{
1070
   276
 70
     2
1070
   277
 70
     5
1070
   279
 70
     2
1070
   289
 70
     2
1002
}
  0
XRECORD
  5
5B584
102
{ACAD_REACTORS
330
4D2
102
}
100
AcDbXrecord
340
478
  0
XRECORD
  5
5B583
102
{ACAD_REACTORS
330
4D0
102
}
100
AcDbXrecord
340
475
  0
XRECORD
  5
5B57C
102
{ACAD_REACTORS
330
5B57B
102
}
100
AcDbXrecord
102
UCS
 74
     0
 71
     1
 10
0.0
 20
0.0
 30
0.0
 10
1.0
 20
0.0
 30
0.0
 10
0.0
 20
1.0
 30
0.0
146
0.0
 79
     0
102
VIEW
281
     0
102
NEWVIEWCONTROL
280
     4
  0
XRECORD
  5
5B57E
102
{ACAD_REACTORS
330
5B57D
102
}
100
AcDbXrecord
102
UCS
 74
     0
 71
     1
 10
0.0
 20
0.0
 30
0.0
 10
1.0
 20
0.0
 30
0.0
 10
0.0
 20
1.0
 30
0.0
146
0.0
 79
     1
102
VIEW
281
     0
102
NEWVIEWCONTROL
280
     4
  0
XRECORD
  5
5B580
102
{ACAD_REACTORS
330
5B57F
102
}
100
AcDbXrecord
102
UCS
 74
     0
 71
     1
 10
0.0
 20
0.0
 30
0.0
 10
1.0
 20
0.0
 30
0.0
 10
0.0
 20
0.0
 30
1.0
146
0.0
 79
     3
102
VIEW
281
     0
102
NEWVIEWCONTROL
280
     4
  0
XRECORD
  5
5B582
102
{ACAD_REACTORS
330
5B581
102
}
100
AcDbXrecord
102
UCS
 74
     0
 71
     1
 10
0.0
 20
0.0
 30
0.0
 10
1.0
 20
0.0
 30
0.0
 10
0.0
 20
1.0
 30
0.0
146
0.0
 79
     0
102
VIEW
281
     0
102
NEWVIEWCONTROL
280
     4
  0
DICTIONARY
  5
5B589
100
AcDbDictionary
280
     1
  3
ACAD_XREC_ROUNDTRIP
360
5B58A
  0
ACAD_PROXY_OBJECT
  5
4A1
102
{ACAD_REACTORS
330
49E
102
}
100
AcDbProxyObject
 90
      499
 91
      503
 93
     2044
310
91D4850204C617365724A65742035303030205365726965732050434C20362C008000000C0BB1B1440000000102F06C510000000000BC1B1440000000002E06C5100000000C0CCFC6A4000000018199D9C501064C6574746572A901406AA427D84144352EEE3F47D11959985D5B1D08148C4D081C195B88185CDCDA59DB9B5
310
95B9D1CCB98DD18A30EDE3B1BBFDBC0FC1D572C8D6D0C833F1A2B3054E9249F0FD074C61796F75743140501A97D7DB4AA43C31EFF91E46EBA53B71EFD1F32A15809809100B6537F8EAD447D02A6A6A00200C0093BD106FC0000F06EE366FABE0000032E846F6A2F44424FF2920002440160B7F435600079000000D00CEECC5
310
43D0
330
475
330
2C
340
0
340
0
 94
        0
  0
ACAD_PROXY_OBJECT
  5
4A0
102
{ACAD_REACTORS
330
49E
102
}
100
AcDbProxyObject
 90
      499
 91
      503
 93
      924
310
91D4850204C617365724A65742035303030205365726965732050434C20362C01AAAAAAAAA547D11959985D5B1D08148C4D081C195B88185CDCDA59DB9B595B9D1CCB98DD18A69054D6F64656C901A800000000000000000000000000000000000000000000A1000000000000008902A6A6AAAA0
330
478
330
0
340
0
340
0
 94
        0
  0
MLINESTYLE
  5
47C
102
{ACAD_REACTORS
330
47B
102
}
100
AcDbMlineStyle
  2
STANDARD
 70
     0
  3

 62
   256
 51
90.0
 52
90.0
 71
     2
 49
0.5
 62
   256
  6
BYLAYER
 49
-0.5
 62
   256
  6
BYLAYER
  0
ACAD_PROXY_OBJECT
  5
49D
102
{ACAD_REACTORS
330
49C
102
}
100
AcDbProxyObject
 90
      499
 91
      502
 93
        0
 94
        0
  0
XRECORD
  5
5B564
102
{ACAD_REACTORS
330
5B55A
102
}
100
AcDbXrecord
 90
        0
  0
XRECORD
  5
5B568
102
{ACAD_REACTORS
330
5B55A
102
}
100
AcDbXrecord
1000
DSTYLE
1002
{
1070
   276
 70
     2
1070
   277
 70
     5
1070
   279
 70
     2
1002
}
  0
XRECORD
  5
5B565
102
{ACAD_REACTORS
330
5B55A
102
}
100
AcDbXrecord
  1
{6E0CF4B5-225E-11D4-A150-00A0CC3303EC}
  0
XRECORD
  5
5B55D
102
{ACAD_REACTORS
330
5B55A
102
}
100
AcDbXrecord
  1

  0
XRECORD
  5
5B563
102
{ACAD_REACTORS
330
5B55A
102
}
100
AcDbXrecord
 90
        0
  0
XRECORD
  5
5B55F
102
{ACAD_REACTORS
330
5B55A
102
}
100
AcDbXrecord
340
49E
  0
XRECORD
  5
5B562
102
{ACAD_REACTORS
330
5B55A
102
}
100
AcDbXrecord
 90
    14877
  0
XRECORD
  5
5B560
102
{ACAD_REACTORS
330
5B55A
102
}
100
AcDbXrecord
340
49F
  0
XRECORD
  5
5B561
102
{ACAD_REACTORS
330
5B55A
102
}
100
AcDbXrecord
340
49C
  0
XRECORD
  5
5B567
102
{ACAD_REACTORS
330
5B55A
102
}
100
AcDbXrecord
 40
0.0
  0
XRECORD
  5
5B56B
102
{ACAD_REACTORS
330
5B55A
102
}
100
AcDbXrecord
340
0
  0
XRECORD
  5
5B571
102
{ACAD_REACTORS
330
5B55A
102
}
100
AcDbXrecord
 10
0.0
 20
0.0
 30
0.0
  0
XRECORD
  5
5B56D
102
{ACAD_REACTORS
330
5B55A
102
}
100
AcDbXrecord
 10
0.0
 20
0.0
 30
0.0
  0
XRECORD
  5
5B570
102
{ACAD_REACTORS
330
5B55A
102
}
100
AcDbXrecord
 10
0.0
 20
0.0
 30
0.0
  0
XRECORD
  5
5B56E
102
{ACAD_REACTORS
330
5B55A
102
}
100
AcDbXrecord
 10
0.0
 20
0.0
 30
0.0
  0
XRECORD
  5
5B56F
102
{ACAD_REACTORS
330
5B55A
102
}
100
AcDbXrecord
 10
0.0
 20
0.0
 30
0.0
  0
XRECORD
  5
5B56C
102
{ACAD_REACTORS
330
5B55A
102
}
100
AcDbXrecord
 10
0.0
 20
0.0
 30
0.0
  0
XRECORD
  5
5B569
102
{ACAD_REACTORS
330
5B55A
102
}
100
AcDbXrecord
340
0
  0
XRECORD
  5
5B56A
102
{ACAD_REACTORS
330
5B55A
102
}
100
AcDbXrecord
 70
     0
  0
XRECORD
  5
5B55E
102
{ACAD_REACTORS
330
5B55A
102
}
100
AcDbXrecord
  1

  0
XRECORD
  5
5B55B
102
{ACAD_REACTORS
330
5B55A
102
}
100
AcDbXrecord
 90
        1
  0
XRECORD
  5
5B55C
102
{ACAD_REACTORS
330
5B55A
102
}
100
AcDbXrecord
 90
       70
  0
XRECORD
  5
5B574
102
{ACAD_REACTORS
330
5B55A
102
}
100
AcDbXrecord
340
0
  0
XRECORD
  5
5B57A
102
{ACAD_REACTORS
330
5B55A
102
}
100
AcDbXrecord
 10
0.0
 20
0.0
 30
0.0
  0
XRECORD
  5
5B576
102
{ACAD_REACTORS
330
5B55A
102
}
100
AcDbXrecord
 10
0.0
 20
0.0
 30
0.0
  0
XRECORD
  5
5B579
102
{ACAD_REACTORS
330
5B55A
102
}
100
AcDbXrecord
 10
0.0
 20
0.0
 30
0.0
  0
XRECORD
  5
5B577
102
{ACAD_REACTORS
330
5B55A
102
}
100
AcDbXrecord
 10
0.0
 20
0.0
 30
0.0
  0
XRECORD
  5
5B578
102
{ACAD_REACTORS
330
5B55A
102
}
100
AcDbXrecord
 10
0.0
 20
0.0
 30
0.0
  0
XRECORD
  5
5B575
102
{ACAD_REACTORS
330
5B55A
102
}
100
AcDbXrecord
 10
0.0
 20
0.0
 30
0.0
  0
XRECORD
  5
5B572
102
{ACAD_REACTORS
330
5B55A
102
}
100
AcDbXrecord
340
0
  0
XRECORD
  5
5B573
102
{ACAD_REACTORS
330
5B55A
102
}
100
AcDbXrecord
 70
     3
  0
XRECORD
  5
5B566
102
{ACAD_REACTORS
330
5B55A
102
}
100
AcDbXrecord
  1
{3D7CC7D8-0C09-4B1B-B7C6-1FF3A50F4E81}
  0
DICTIONARYVAR
  5
48E
102
{ACAD_REACTORS
330
48D
102
}
100
DictionaryVariables
280
     0
  1
0
  0
XRECORD
  5
5B58A
102
{ACAD_REACTORS
330
5B589
102
}
100
AcDbXrecord
102
EXTNAMES
  1
LAYOUT1
  2
Layout1
  1
MODEL
  2
Model
  0
ENDSEC
  0
EOF
