  0
SECTION
  2
HEADER
  9
$ACADVER
  1
AC1014
  9
$ACADMAINTVER
 70
     8
  9
$DWGCODEPAGE
  3
ANSI_1252
  9
$INSBASE
 10
0.0
 20
0.0
 30
0.0
  9
$EXTMIN
 10
-1.686146
 20
-0.906283
 30
-1.97328
  9
$EXTMAX
 10
0.674376
 20
1.116146
 30
0.029725
  9
$LIMMIN
 10
0.0
 20
0.0
  9
$LIMMAX
 10
12.0
 20
9.0
  9
$ORTHOMODE
 70
     0
  9
$REGENMODE
 70
     1
  9
$FILLMODE
 70
     1
  9
$QTEXTMODE
 70
     0
  9
$MIRRTEXT
 70
     1
  9
$DRAGMODE
 70
     2
  9
$LTSCALE
 40
1.0
  9
$OSMODE
 70
    31
  9
$ATTMODE
 70
     0
  9
$TEXTSIZE
 40
0.2
  9
$TRACEWID
 40
0.05
  9
$TEXTSTYLE
  7
STANDARD
  9
$CLAYER
  8
0
  9
$CELTYPE
  6
BYLAYER
  9
$CECOLOR
 62
   256
  9
$CELTSCALE
 40
1.0
  9
$DELOBJ
 70
     1
  9
$DISPSILH
 70
     1
  9
$DIMSCALE
 40
1.0
  9
$DIMASZ
 40
0.09
  9
$DIMEXO
 40
0.0625
  9
$DIMDLI
 40
0.375
  9
$DIMRND
 40
0.0
  9
$DIMDLE
 40
0.0
  9
$DIMEXE
 40
0.05
  9
$DIMTP
 40
0.0
  9
$DIMTM
 40
0.0
  9
$DIMTXT
 40
0.09
  9
$DIMCEN
 40
0.09
  9
$DIMTSZ
 40
0.0
  9
$DIMTOL
 70
     0
  9
$DIMLIM
 70
     0
  9
$DIMTIH
 70
     0
  9
$DIMTOH
 70
     1
  9
$DIMSE1
 70
     0
  9
$DIMSE2
 70
     0
  9
$DIMTAD
 70
     0
  9
$DIMZIN
 70
     4
  9
$DIMBLK
  1

  9
$DIMASO
 70
     1
  9
$DIMSHO
 70
     1
  9
$DIMPOST
  1

  9
$DIMAPOST
  1

  9
$DIMALT
 70
     1
  9
$DIMALTD
 70
     2
  9
$DIMALTF
 40
25.4
  9
$DIMLFAC
 40
1.0
  9
$DIMTOFL
 70
     0
  9
$DIMTVP
 40
0.0
  9
$DIMTIX
 70
     0
  9
$DIMSOXD
 70
     0
  9
$DIMSAH
 70
     0
  9
$DIMBLK1
  1

  9
$DIMBLK2
  1

  9
$DIMSTYLE
  2
ABECAD_3D
  9
$DIMCLRD
 70
     0
  9
$DIMCLRE
 70
     0
  9
$DIMCLRT
 70
     0
  9
$DIMTFAC
 40
1.5
  9
$DIMGAP
 40
0.09
  9
$DIMJUST
 70
     0
  9
$DIMSD1
 70
     0
  9
$DIMSD2
 70
     0
  9
$DIMTOLJ
 70
     1
  9
$DIMTZIN
 70
     4
  9
$DIMALTZ
 70
     4
  9
$DIMALTTZ
 70
     4
  9
$DIMFIT
 70
     5
  9
$DIMUPT
 70
     0
  9
$DIMUNIT
 70
     7
  9
$DIMDEC
 70
     6
  9
$DIMTDEC
 70
     6
  9
$DIMALTU
 70
     2
  9
$DIMALTTD
 70
     2
  9
$DIMTXSTY
  7
STANDARD
  9
$DIMAUNIT
 70
     0
  9
$LUNITS
 70
     2
  9
$LUPREC
 70
     6
  9
$SKETCHINC
 40
0.1
  9
$FILLETRAD
 40
0.0
  9
$AUNITS
 70
     0
  9
$AUPREC
 70
     0
  9
$MENU
  1
acad
  9
$ELEVATION
 40
0.0
  9
$PELEVATION
 40
0.0
  9
$THICKNESS
 40
0.0
  9
$LIMCHECK
 70
     0
  9
$BLIPMODE
 70
     0
  9
$CHAMFERA
 40
0.0
  9
$CHAMFERB
 40
0.0
  9
$CHAMFERC
 40
0.0
  9
$CHAMFERD
 40
0.0
  9
$SKPOLY
 70
     0
  9
$TDCREATE
 40
2451670.449415046
  9
$TDUPDATE
 40
2452769.640050532
  9
$TDINDWG
 40
0.5090096644
  9
$TDUSRTIMER
 40
0.5090096644
  9
$USRTIMER
 70
     1
  9
$ANGBASE
 50
0.0
  9
$ANGDIR
 70
     0
  9
$PDMODE
 70
     3
  9
$PDSIZE
 40
0.075
  9
$PLINEWID
 40
0.0
  9
$COORDS
 70
     1
  9
$SPLFRAME
 70
     0
  9
$SPLINETYPE
 70
     6
  9
$SPLINESEGS
 70
     8
  9
$ATTDIA
 70
     0
  9
$ATTREQ
 70
     1
  9
$HANDLING
 70
     1
  9
$HANDSEED
  5
318E
  9
$SURFTAB1
 70
     6
  9
$SURFTAB2
 70
     6
  9
$SURFTYPE
 70
     6
  9
$SURFU
 70
     6
  9
$SURFV
 70
     6
  9
$UCSNAME
  2

  9
$UCSORG
 10
0.0
 20
0.0
 30
0.0
  9
$UCSXDIR
 10
1.0
 20
0.0
 30
0.0
  9
$UCSYDIR
 10
0.0
 20
1.0
 30
0.0
  9
$PUCSNAME
  2

  9
$PUCSORG
 10
0.0
 20
0.0
 30
0.0
  9
$PUCSXDIR
 10
1.0
 20
0.0
 30
0.0
  9
$PUCSYDIR
 10
0.0
 20
1.0
 30
0.0
  9
$USERI1
 70
     0
  9
$USERI2
 70
     0
  9
$USERI3
 70
     0
  9
$USERI4
 70
     0
  9
$USERI5
 70
     0
  9
$USERR1
 40
0.0
  9
$USERR2
 40
0.0
  9
$USERR3
 40
0.0
  9
$USERR4
 40
0.0
  9
$USERR5
 40
0.0
  9
$WORLDVIEW
 70
     1
  9
$SHADEDGE
 70
     3
  9
$SHADEDIF
 70
    70
  9
$TILEMODE
 70
     0
  9
$MAXACTVP
 70
    16
  9
$PINSBASE
 10
0.0
 20
0.0
 30
0.0
  9
$PLIMCHECK
 70
     0
  9
$PEXTMIN
 10
0.0
 20
0.0
 30
0.0
  9
$PEXTMAX
 10
10.0
 20
7.5
 30
0.0
  9
$PLIMMIN
 10
-0.187983
 20
-0.285972
  9
$PLIMMAX
 10
10.251764
 20
7.781105
  9
$UNITMODE
 70
     0
  9
$VISRETAIN
 70
     0
  9
$PLINEGEN
 70
     0
  9
$PSLTSCALE
 70
     1
  9
$TREEDEPTH
 70
  3020
  9
$PICKSTYLE
 70
     1
  9
$CMLSTYLE
  2
STANDARD
  9
$CMLJUST
 70
     0
  9
$CMLSCALE
 40
1.0
  9
$PROXYGRAPHICS
 70
     1
  9
$MEASUREMENT
 70
     1
  0
ENDSEC
  0
SECTION
  2
CLASSES
  0
CLASS
  1
DICTIONARYVAR
  2
AcDbDictionaryVar
  3
"AutoCAD"
 90
        0
280
     0
281
     0
  0
CLASS
  1
ACDBDICTIONARYWDFLT
  2
AcDbDictionaryWithDefault
  3
AutoCAD 2000
 90
        0
280
     0
281
     0
  0
CLASS
  1
ACDBPLACEHOLDER
  2
AcDbPlaceHolder
  3
AutoCAD 2000
 90
        0
280
     0
281
     0
  0
CLASS
  1
LAYOUT
  2
AcDbLayout
  3
AutoCAD 2000
 90
        0
280
     0
281
     0
  0
CLASS
  1
LONG_TRANSACTION
  2
AcDbLongTransaction
  3
AutoCAD 2000
 90
        0
280
     0
281
     0
  0
CLASS
  1
LWPOLYLINE
  2
AcDbPolyline
  3
"AutoCAD"
 90
        0
280
     0
281
     1
  0
CLASS
  1
HATCH
  2
AcDbHatch
  3
"ACAD_SEDONA"
 90
        0
280
     0
281
     1
  0
CLASS
  1
XRECORD
  2
AcDbXrecord
  3
"<Built In>"
 90
        0
280
     0
281
     0
  0
CLASS
  1
LONG_TRANSACTION
  2
AcDbLongTransaction
  3
AutoCAD 2000
 90
        0
280
     0
281
     0
  0
CLASS
  1
LWPOLYLINE
  2
AcDbPolyline
  3
"AutoCAD"
 90
        0
280
     0
281
     1
  0
CLASS
  1
HATCH
  2
AcDbHatch
  3
"ACAD_SEDONA"
 90
        0
280
     0
281
     1
  0
CLASS
  1
XRECORD
  2
AcDbXrecord
  3
"<Built In>"
 90
        0
280
     0
281
     0
  0
CLASS
  1
LONG_TRANSACTION
  2
AcDbLongTransaction
  3
AutoCAD 2000
 90
        0
280
     0
281
     0
  0
CLASS
  1
LWPOLYLINE
  2
AcDbPolyline
  3
"AutoCAD"
 90
        0
280
     0
281
     1
  0
CLASS
  1
HATCH
  2
AcDbHatch
  3
"ACAD_SEDONA"
 90
        0
280
     0
281
     1
  0
CLASS
  1
XRECORD
  2
AcDbXrecord
  3
"<Built In>"
 90
        0
280
     0
281
     0
  0
CLASS
  1
LONG_TRANSACTION
  2
AcDbLongTransaction
  3
AutoCAD 2000
 90
        0
280
     0
281
     0
  0
CLASS
  1
LWPOLYLINE
  2
AcDbPolyline
  3
"AutoCAD"
 90
        0
280
     0
281
     1
  0
CLASS
  1
HATCH
  2
AcDbHatch
  3
"ACAD_SEDONA"
 90
        0
280
     0
281
     1
  0
CLASS
  1
XRECORD
  2
AcDbXrecord
  3
"<Built In>"
 90
        0
280
     0
281
     0
  0
CLASS
  1
LONG_TRANSACTION
  2
AcDbLongTransaction
  3
AutoCAD 2000
 90
        0
280
     0
281
     0
  0
CLASS
  1
LWPOLYLINE
  2
AcDbPolyline
  3
"AutoCAD"
 90
        0
280
     0
281
     1
  0
CLASS
  1
HATCH
  2
AcDbHatch
  3
"ACAD_SEDONA"
 90
        0
280
     0
281
     1
  0
CLASS
  1
XRECORD
  2
AcDbXrecord
  3
"<Built In>"
 90
        0
280
     0
281
     0
  0
CLASS
  1
LONG_TRANSACTION
  2
AcDbLongTransaction
  3
AutoCAD 2000
 90
        0
280
     0
281
     0
  0
CLASS
  1
LWPOLYLINE
  2
AcDbPolyline
  3
"AutoCAD"
 90
        0
280
     0
281
     1
  0
CLASS
  1
HATCH
  2
AcDbHatch
  3
"ACAD_SEDONA"
 90
        0
280
     0
281
     1
  0
CLASS
  1
XRECORD
  2
AcDbXrecord
  3
"<Built In>"
 90
        0
280
     0
281
     0
  0
CLASS
  1
LONG_TRANSACTION
  2
AcDbLongTransaction
  3
AutoCAD 2000
 90
        0
280
     0
281
     0
  0
CLASS
  1
LWPOLYLINE
  2
AcDbPolyline
  3
"AutoCAD"
 90
        0
280
     0
281
     1
  0
CLASS
  1
HATCH
  2
AcDbHatch
  3
"ACAD_SEDONA"
 90
        0
280
     0
281
     1
  0
CLASS
  1
XRECORD
  2
AcDbXrecord
  3
"<Built In>"
 90
        0
280
     0
281
     0
  0
CLASS
  1
LONG_TRANSACTION
  2
AcDbLongTransaction
  3
AutoCAD 2000
 90
        0
280
     0
281
     0
  0
CLASS
  1
LWPOLYLINE
  2
AcDbPolyline
  3
"AutoCAD"
 90
        0
280
     0
281
     1
  0
CLASS
  1
HATCH
  2
AcDbHatch
  3
"ACAD_SEDONA"
 90
        0
280
     0
281
     1
  0
CLASS
  1
XRECORD
  2
AcDbXrecord
  3
"<Built In>"
 90
        0
280
     0
281
     0
  0
CLASS
  1
LONG_TRANSACTION
  2
AcDbLongTransaction
  3
AutoCAD 2000
 90
        0
280
     0
281
     0
  0
CLASS
  1
LWPOLYLINE
  2
AcDbPolyline
  3
"AutoCAD"
 90
        0
280
     0
281
     1
  0
CLASS
  1
HATCH
  2
AcDbHatch
  3
"ACAD_SEDONA"
 90
        0
280
     0
281
     1
  0
CLASS
  1
XRECORD
  2
AcDbXrecord
  3
"<Built In>"
 90
        0
280
     0
281
     0
  0
CLASS
  1
LONG_TRANSACTION
  2
AcDbLongTransaction
  3
AutoCAD 2000
 90
        0
280
     0
281
     0
  0
CLASS
  1
LWPOLYLINE
  2
AcDbPolyline
  3
"AutoCAD"
 90
        0
280
     0
281
     1
  0
CLASS
  1
HATCH
  2
AcDbHatch
  3
"ACAD_SEDONA"
 90
        0
280
     0
281
     1
  0
CLASS
  1
XRECORD
  2
AcDbXrecord
  3
"<Built In>"
 90
        0
280
     0
281
     0
  0
CLASS
  1
LONG_TRANSACTION
  2
AcDbLongTransaction
  3
AutoCAD 2000
 90
        0
280
     0
281
     0
  0
CLASS
  1
LWPOLYLINE
  2
AcDbPolyline
  3
"AutoCAD"
 90
        0
280
     0
281
     1
  0
CLASS
  1
HATCH
  2
AcDbHatch
  3
"ACAD_SEDONA"
 90
        0
280
     0
281
     1
  0
CLASS
  1
XRECORD
  2
AcDbXrecord
  3
"<Built In>"
 90
        0
280
     0
281
     0
  0
CLASS
  1
LONG_TRANSACTION
  2
AcDbLongTransaction
  3
AutoCAD 2000
 90
        0
280
     0
281
     0
  0
CLASS
  1
LWPOLYLINE
  2
AcDbPolyline
  3
"AutoCAD"
 90
        0
280
     0
281
     1
  0
CLASS
  1
HATCH
  2
AcDbHatch
  3
"ACAD_SEDONA"
 90
        0
280
     0
281
     1
  0
CLASS
  1
XRECORD
  2
AcDbXrecord
  3
"<Built In>"
 90
        0
280
     0
281
     0
  0
CLASS
  1
LONG_TRANSACTION
  2
AcDbLongTransaction
  3
AutoCAD 2000
 90
        0
280
     0
281
     0
  0
CLASS
  1
LWPOLYLINE
  2
AcDbPolyline
  3
"AutoCAD"
 90
        0
280
     0
281
     1
  0
CLASS
  1
HATCH
  2
AcDbHatch
  3
"ACAD_SEDONA"
 90
        0
280
     0
281
     1
  0
CLASS
  1
XRECORD
  2
AcDbXrecord
  3
"<Built In>"
 90
        0
280
     0
281
     0
  0
CLASS
  1
LONG_TRANSACTION
  2
AcDbLongTransaction
  3
AutoCAD 2000
 90
        0
280
     0
281
     0
  0
CLASS
  1
LWPOLYLINE
  2
AcDbPolyline
  3
"AutoCAD"
 90
        0
280
     0
281
     1
  0
CLASS
  1
HATCH
  2
AcDbHatch
  3
"ACAD_SEDONA"
 90
        0
280
     0
281
     1
  0
CLASS
  1
XRECORD
  2
AcDbXrecord
  3
"<Built In>"
 90
        0
280
     0
281
     0
  0
CLASS
  1
LONG_TRANSACTION
  2
AcDbLongTransaction
  3
AutoCAD 2000
 90
        0
280
     0
281
     0
  0
CLASS
  1
LWPOLYLINE
  2
AcDbPolyline
  3
"AutoCAD"
 90
        0
280
     0
281
     1
  0
CLASS
  1
HATCH
  2
AcDbHatch
  3
"ACAD_SEDONA"
 90
        0
280
     0
281
     1
  0
CLASS
  1
XRECORD
  2
AcDbXrecord
  3
"<Built In>"
 90
        0
280
     0
281
     0
  0
CLASS
  1
LONG_TRANSACTION
  2
AcDbLongTransaction
  3
AutoCAD 2000
 90
        0
280
     0
281
     0
  0
CLASS
  1
LWPOLYLINE
  2
AcDbPolyline
  3
"AutoCAD"
 90
        0
280
     0
281
     1
  0
CLASS
  1
HATCH
  2
AcDbHatch
  3
"ACAD_SEDONA"
 90
        0
280
     0
281
     1
  0
CLASS
  1
XRECORD
  2
AcDbXrecord
  3
"<Built In>"
 90
        0
280
     0
281
     0
  0
CLASS
  1
LONG_TRANSACTION
  2
AcDbLongTransaction
  3
AutoCAD 2000
 90
        0
280
     0
281
     0
  0
CLASS
  1
LWPOLYLINE
  2
AcDbPolyline
  3
"AutoCAD"
 90
        0
280
     0
281
     1
  0
CLASS
  1
HATCH
  2
AcDbHatch
  3
"ACAD_SEDONA"
 90
        0
280
     0
281
     1
  0
CLASS
  1
XRECORD
  2
AcDbXrecord
  3
"<Built In>"
 90
        0
280
     0
281
     0
  0
CLASS
  1
LONG_TRANSACTION
  2
AcDbLongTransaction
  3
AutoCAD 2000
 90
        0
280
     0
281
     0
  0
CLASS
  1
LWPOLYLINE
  2
AcDbPolyline
  3
"AutoCAD"
 90
        0
280
     0
281
     1
  0
CLASS
  1
HATCH
  2
AcDbHatch
  3
"ACAD_SEDONA"
 90
        0
280
     0
281
     1
  0
CLASS
  1
XRECORD
  2
AcDbXrecord
  3
"<Built In>"
 90
        0
280
     0
281
     0
  0
CLASS
  1
LONG_TRANSACTION
  2
AcDbLongTransaction
  3
AutoCAD 2000
 90
        0
280
     0
281
     0
  0
CLASS
  1
LWPOLYLINE
  2
AcDbPolyline
  3
"AutoCAD"
 90
        0
280
     0
281
     1
  0
CLASS
  1
HATCH
  2
AcDbHatch
  3
"ACAD_SEDONA"
 90
        0
280
     0
281
     1
  0
CLASS
  1
XRECORD
  2
AcDbXrecord
  3
"<Built In>"
 90
        0
280
     0
281
     0
  0
CLASS
  1
LONG_TRANSACTION
  2
AcDbLongTransaction
  3
AutoCAD 2000
 90
        0
280
     0
281
     0
  0
CLASS
  1
LWPOLYLINE
  2
AcDbPolyline
  3
"AutoCAD"
 90
        0
280
     0
281
     1
  0
CLASS
  1
HATCH
  2
AcDbHatch
  3
"ACAD_SEDONA"
 90
        0
280
     0
281
     1
  0
CLASS
  1
XRECORD
  2
AcDbXrecord
  3
"<Built In>"
 90
        0
280
     0
281
     0
  0
CLASS
  1
LONG_TRANSACTION
  2
AcDbLongTransaction
  3
AutoCAD 2000
 90
        0
280
     0
281
     0
  0
CLASS
  1
LWPOLYLINE
  2
AcDbPolyline
  3
"AutoCAD"
 90
        0
280
     0
281
     1
  0
CLASS
  1
HATCH
  2
AcDbHatch
  3
"ACAD_SEDONA"
 90
        0
280
     0
281
     1
  0
CLASS
  1
XRECORD
  2
AcDbXrecord
  3
"<Built In>"
 90
        0
280
     0
281
     0
  0
ENDSEC
  0
SECTION
  2
TABLES
  0
TABLE
  2
VPORT
  5
469
100
AcDbSymbolTable
 70
     1
  0
VPORT
  5
3063
102
{ACAD_XDICTIONARY
360
3160
102
}
100
AcDbSymbolTableRecord
100
AcDbViewportTableRecord
  2
*ACTIVE
 70
     0
 10
0.0
 20
0.0
 11
1.0
 21
1.0
 12
-0.505608
 22
0.105039
 13
0.0
 23
0.0
 14
1.0
 24
1.0
 15
0.0
 25
0.0
 16
0.0
 26
0.0
 36
1.0
 17
0.0
 27
0.0
 37
0.0
 40
2.039014
 41
1.603381
 42
50.0
 43
0.0
 44
0.0
 50
0.0
 51
0.0
 71
     0
 72
   100
 73
     1
 74
     1
 75
     0
 76
     0
 77
     0
 78
     0
  0
ENDTAB
  0
TABLE
  2
LTYPE
  5
466
100
AcDbSymbolTable
 70
     1
  0
LTYPE
  5
472
100
AcDbSymbolTableRecord
100
AcDbLinetypeTableRecord
  2
BYBLOCK
 70
     0
  3

 72
    65
 73
     0
 40
0.0
  0
LTYPE
  5
473
100
AcDbSymbolTableRecord
100
AcDbLinetypeTableRecord
  2
BYLAYER
 70
     0
  3

 72
    65
 73
     0
 40
0.0
  0
LTYPE
  5
474
100
AcDbSymbolTableRecord
100
AcDbLinetypeTableRecord
  2
CONTINUOUS
 70
     0
  3
Solid line
 72
    65
 73
     0
 40
0.0
  0
ENDTAB
  0
TABLE
  2
LAYER
  5
463
100
AcDbSymbolTable
 70
     8
  0
LAYER
  5
46F
100
AcDbSymbolTableRecord
100
AcDbLayerTableRecord
  2
0
 70
     0
 62
     7
  6
CONTINUOUS
  0
LAYER
  5
485
100
AcDbSymbolTableRecord
100
AcDbLayerTableRecord
  2
AREA1
 70
     0
 62
     7
  6
CONTINUOUS
  0
LAYER
  5
486
100
AcDbSymbolTableRecord
100
AcDbLayerTableRecord
  2
AREA2
 70
     0
 62
     7
  6
CONTINUOUS
  0
LAYER
  5
494
102
{ACAD_XDICTIONARY
360
3185
102
}
100
AcDbSymbolTableRecord
100
AcDbLayerTableRecord
  2
DEFPOINTS
 70
     0
 62
    -7
  6
CONTINUOUS
  0
LAYER
  5
495
100
AcDbSymbolTableRecord
100
AcDbLayerTableRecord
  2
DIMS-MTG-HOLES
 70
     0
 62
    -1
  6
CONTINUOUS
  0
LAYER
  5
4EB
100
AcDbSymbolTableRecord
100
AcDbLayerTableRecord
  2
SCALE
 70
     0
 62
    -7
  6
CONTINUOUS
  0
LAYER
  5
560
100
AcDbSymbolTableRecord
100
AcDbLayerTableRecord
  2
SNAP_POINTS
 70
     0
 62
    -1
  6
CONTINUOUS
  0
LAYER
  5
564
100
AcDbSymbolTableRecord
100
AcDbLayerTableRecord
  2
ATTRIBUTES
 70
     0
 62
    -7
  6
CONTINUOUS
  0
ENDTAB
  0
TABLE
  2
STYLE
  5
464
100
AcDbSymbolTable
 70
     1
  0
STYLE
  5
470
100
AcDbSymbolTableRecord
100
AcDbTextStyleTableRecord
  2
STANDARD
 70
     0
 40
0.0
 41
1.0
 50
0.0
 71
     0
 42
0.2
  3
txt
  4

  0
ENDTAB
  0
TABLE
  2
VIEW
  5
467
100
AcDbSymbolTable
 70
     0
  0
ENDTAB
  0
TABLE
  2
UCS
  5
468
100
AcDbSymbolTable
 70
     0
  0
ENDTAB
  0
TABLE
  2
APPID
  5
46A
100
AcDbSymbolTable
 70
     3
  0
APPID
  5
471
100
AcDbSymbolTableRecord
100
AcDbRegAppTableRecord
  2
ACAD
 70
     0
  0
APPID
  5
47E
100
AcDbSymbolTableRecord
100
AcDbRegAppTableRecord
  2
AVE_RENDER
 70
     0
  0
APPID
  5
210E
100
AcDbSymbolTableRecord
100
AcDbRegAppTableRecord
  2
DCO15
 70
     0
  0
ENDTAB
  0
TABLE
  2
DIMSTYLE
  5
46B
100
AcDbSymbolTable
 70
     2
  0
DIMSTYLE
105
1CC3
100
AcDbSymbolTableRecord
100
AcDbDimStyleTableRecord
  2
STANDARD
 70
     0
  3

  4

  5

  6

  7

 40
1.0
 41
0.18
 42
0.0625
 43
0.38
 44
0.18
 45
0.0
 46
0.0
 47
0.01
 48
0.01
140
0.125
141
0.09
142
0.0
143
25.4
144
1.0
145
0.0
146
1.0
147
0.09
 71
     0
 72
     0
 73
     1
 74
     1
 75
     0
 76
     0
 77
     0
 78
     4
170
     0
171
     2
172
     0
173
     0
174
     0
175
     0
176
     0
177
     0
178
     0
270
     2
271
     3
272
     3
273
     2
274
     2
340
470
275
     0
280
     0
281
     0
282
     0
283
     1
284
     4
285
     0
286
     0
287
     3
288
     0
  0
DIMSTYLE
105
1E40
102
{ACAD_XDICTIONARY
360
3189
102
}
102
{ACAD_REACTORS
330
1D90
330
2D25
330
2D31
102
}
100
AcDbSymbolTableRecord
100
AcDbDimStyleTableRecord
  2
ABECAD_3D
 70
     0
  3

  4

  5

  6

  7

 40
1.0
 41
0.09
 42
0.0625
 43
0.375
 44
0.05
 45
0.0
 46
0.0
 47
0.0
 48
0.0
140
0.09
141
0.09
142
0.0
143
25.4
144
1.0
145
0.0
146
1.5
147
0.09
 71
     0
 72
     0
 73
     0
 74
     1
 75
     0
 76
     0
 77
     0
 78
     4
170
     1
171
     2
172
     0
173
     0
174
     0
175
     0
176
     0
177
     0
178
     0
270
     7
271
     6
272
     6
273
     2
274
     2
340
470
275
     0
280
     0
281
     0
282
     0
283
     1
284
     4
285
     4
286
     4
287
     5
288
     0
  0
ENDTAB
  0
TABLE
  2
BLOCK_RECORD
  5
462
100
AcDbSymbolTable
 70
     3
  0
BLOCK_RECORD
  5
478
102
{ACAD_XDICTIONARY
360
4D7
102
}
100
AcDbSymbolTableRecord
100
AcDbBlockTableRecord
  2
*MODEL_SPACE
  0
BLOCK_RECORD
  5
475
102
{ACAD_XDICTIONARY
360
4D5
102
}
100
AcDbSymbolTableRecord
100
AcDbBlockTableRecord
  2
*PAPER_SPACE
  0
BLOCK_RECORD
  5
1D91
100
AcDbSymbolTableRecord
100
AcDbBlockTableRecord
  2
*D0
  0
BLOCK_RECORD
  5
2D33
100
AcDbSymbolTableRecord
100
AcDbBlockTableRecord
  2
*D1
  0
BLOCK_RECORD
  5
2D40
100
AcDbSymbolTableRecord
100
AcDbBlockTableRecord
  2
*D2
  0
ENDTAB
  0
ENDSEC
  0
SECTION
  2
BLOCKS
  0
BLOCK
  5
48B
100
AcDbEntity
  8
0
100
AcDbBlockBegin
  2
*MODEL_SPACE
 70
     0
 10
0.0
 20
0.0
 30
0.0
  3
*MODEL_SPACE
  1

  0
ENDBLK
  5
48C
100
AcDbEntity
  8
0
100
AcDbBlockEnd
  0
BLOCK
  5
489
100
AcDbEntity
 67
     1
  8
0
100
AcDbBlockBegin
  2
*PAPER_SPACE
 70
     0
 10
0.0
 20
0.0
 30
0.0
  3
*PAPER_SPACE
  1

  0
ENDBLK
  5
48A
100
AcDbEntity
 67
     1
  8
0
100
AcDbBlockEnd
  0
BLOCK
  5
1D9C
100
AcDbEntity
  8
0
100
AcDbBlockBegin
  2
*D0
 70
     1
 10
0.0
 20
0.0
 30
0.0
  3
*D0
  1

  0
LINE
  5
2D7C
100
AcDbEntity
  8
AREA2
 62
     0
100
AcDbLine
 10
0.593996
 20
-1.948819
 30
0.0
 11
1.026856
 21
-1.948819
 31
0.0
1001
ACAD
1000
RTLwPs
1070
   158
  0
LINE
  5
2D7D
100
AcDbEntity
  8
AREA2
 62
     0
100
AcDbLine
 10
0.10187
 20
0.0
 30
0.0
 11
1.026856
 21
0.0
 31
0.0
1001
ACAD
1000
RTLwPs
1070
   158
  0
LINE
  5
2D7E
100
AcDbEntity
  8
AREA2
 62
     0
100
AcDbLine
 10
0.976856
 20
-1.858819
 30
0.0
 11
0.976856
 21
-1.622861
 31
0.0
1001
ACAD
1000
RTLwPs
1070
   158
  0
LINE
  5
2D7F
100
AcDbEntity
  8
AREA2
 62
     0
100
AcDbLine
 10
0.976856
 20
-0.09
 30
0.0
 11
0.976856
 21
-0.317861
 31
0.0
1001
ACAD
1000
RTLwPs
1070
   158
  0
MTEXT
  5
2D80
100
AcDbEntity
  8
AREA2
 62
     0
100
AcDbMText
 10
0.976856
 20
-0.970361
 30
0.0
 40
0.09
 41
0.0
 71
     5
 72
     1
  1
\A1;1 61/64 [49.50]
 11
0.0
 21
1.0
 31
0.0
1001
ACAD
1000
MTEXTBEGIN
1070
    73
1070
     1
1070
    44
1040
1.0
1070
    74
1070
     0
1000
MTEXTEND
1000
MTEXTBEGIN
1070
    73
1070
     1
1070
    44
1040
1.0
1070
    74
1070
     0
1000
MTEXTEND
  0
SOLID
  5
2D81
100
AcDbEntity
  8
AREA2
 62
     0
100
AcDbTrace
 10
0.961856
 20
-1.858819
 30
0.0
 11
0.991856
 21
-1.858819
 31
0.0
 12
0.976856
 22
-1.948819
 32
0.0
 13
0.976856
 23
-1.948819
 33
0.0
  0
SOLID
  5
2D82
100
AcDbEntity
  8
AREA2
 62
     0
100
AcDbTrace
 10
0.961856
 20
-0.09
 30
0.0
 11
0.991856
 21
-0.09
 31
0.0
 12
0.976856
 22
0.0
 32
0.0
 13
0.976856
 23
0.0
 33
0.0
  0
POINT
  5
2D83
100
AcDbEntity
  8
DEFPOINTS
 62
     0
100
AcDbPoint
 10
0.531496
 20
-1.948819
 30
-0.192913
  0
POINT
  5
2D84
100
AcDbEntity
  8
DEFPOINTS
 62
     0
100
AcDbPoint
 10
0.03937
 20
0.0
 30
-0.14565
  0
POINT
  5
2D85
100
AcDbEntity
  8
DEFPOINTS
 62
     0
100
AcDbPoint
 10
0.976856
 20
0.0
 30
0.0
  0
ENDBLK
  5
1D9D
100
AcDbEntity
  8
0
100
AcDbBlockEnd
  0
BLOCK
  5
2D3E
100
AcDbEntity
  8
0
100
AcDbBlockBegin
  2
*D1
 70
     1
 10
0.0
 20
0.0
 30
0.0
  3
*D1
  1

  0
LINE
  5
2D4C
100
AcDbEntity
  8
AREA1
 62
     0
100
AcDbLine
 10
0.255413
 20
0.669291
 30
0.0
 11
0.674376
 21
0.669291
 31
0.0
1001
ACAD
1000
RTLwPs
1070
   158
  0
LINE
  5
2D4D
100
AcDbEntity
  8
AREA1
 62
     0
100
AcDbLine
 10
0.255413
 20
-0.726283
 30
0.0
 11
0.674376
 21
-0.726283
 31
0.0
1001
ACAD
1000
RTLwPs
1070
   158
  0
LINE
  5
2D4E
100
AcDbEntity
  8
AREA1
 62
     0
100
AcDbLine
 10
0.624376
 20
0.759291
 30
0.0
 11
0.624376
 21
0.849291
 31
0.0
1001
ACAD
1000
RTLwPs
1070
   158
  0
LINE
  5
2D4F
100
AcDbEntity
  8
AREA1
 62
     0
100
AcDbLine
 10
0.624376
 20
-0.816283
 30
0.0
 11
0.624376
 21
-0.906283
 31
0.0
1001
ACAD
1000
RTLwPs
1070
   158
  0
MTEXT
  5
2D50
100
AcDbEntity
  8
AREA1
 62
     0
100
AcDbMText
 10
0.624376
 20
-0.028496
 30
0.0
 40
0.09
 41
0.0
 71
     5
 72
     1
  1
\A1;1 25/64 [35.45]
 11
0.0
 21
1.0
 31
0.0
1001
ACAD
1000
MTEXTBEGIN
1070
    73
1070
     1
1070
    44
1040
1.0
1070
    74
1070
     0
1000
MTEXTEND
1000
MTEXTBEGIN
1070
    73
1070
     1
1070
    44
1040
1.0
1070
    74
1070
     0
1000
MTEXTEND
  0
SOLID
  5
2D51
100
AcDbEntity
  8
AREA1
 62
     0
100
AcDbTrace
 10
0.609376
 20
0.759291
 30
0.0
 11
0.639376
 21
0.759291
 31
0.0
 12
0.624376
 22
0.669291
 32
0.0
 13
0.624376
 23
0.669291
 33
0.0
  0
SOLID
  5
2D52
100
AcDbEntity
  8
AREA1
 62
     0
100
AcDbTrace
 10
0.609376
 20
-0.816283
 30
0.0
 11
0.639376
 21
-0.816283
 31
0.0
 12
0.624376
 22
-0.726283
 32
0.0
 13
0.624376
 23
-0.726283
 33
0.0
  0
POINT
  5
2D53
100
AcDbEntity
  8
DEFPOINTS
 62
     0
100
AcDbPoint
 10
0.192913
 20
0.669291
 30
-0.074172
  0
POINT
  5
2D54
100
AcDbEntity
  8
DEFPOINTS
 62
     0
100
AcDbPoint
 10
0.192913
 20
-0.726283
 30
0.029725
  0
POINT
  5
2D55
100
AcDbEntity
  8
DEFPOINTS
 62
     0
100
AcDbPoint
 10
0.624376
 20
-0.726283
 30
0.0
  0
ENDBLK
  5
2D3F
100
AcDbEntity
  8
0
100
AcDbBlockEnd
  0
BLOCK
  5
2D4A
100
AcDbEntity
  8
0
100
AcDbBlockBegin
  2
*D2
 70
     1
 10
0.0
 20
0.0
 30
0.0
  3
*D2
  1

  0
LINE
  5
2D5F
100
AcDbEntity
  8
AREA1
 62
     0
100
AcDbLine
 10
-0.192913
 20
0.731791
 30
0.0
 11
-0.192913
 21
0.978837
 31
0.0
1001
ACAD
1000
RTLwPs
1070
   158
  0
LINE
  5
2D60
100
AcDbEntity
  8
AREA1
 62
     0
100
AcDbLine
 10
0.192913
 20
0.731791
 30
0.0
 11
0.192913
 21
0.978837
 31
0.0
1001
ACAD
1000
RTLwPs
1070
   158
  0
LINE
  5
2D61
100
AcDbEntity
  8
AREA1
 62
     0
100
AcDbLine
 10
-0.102913
 20
0.928837
 30
0.0
 11
0.102913
 21
0.928837
 31
0.0
1001
ACAD
1000
RTLwPs
1070
   158
  0
MTEXT
  5
2D62
100
AcDbEntity
  8
AREA1
 62
     0
100
AcDbMText
 10
-0.000013
 20
1.071146
 30
0.0
 40
0.09
 41
0.0
 71
     5
 72
     1
  1
\A1;25/64 [9.80]
 11
-1.0
 21
0.0
 31
0.0
1001
ACAD
1000
MTEXTBEGIN
1070
    73
1070
     1
1070
    44
1040
1.0
1070
    74
1070
     0
1000
MTEXTEND
1000
MTEXTBEGIN
1070
    73
1070
     1
1070
    44
1040
1.0
1070
    74
1070
     0
1000
MTEXTEND
  0
SOLID
  5
2D63
100
AcDbEntity
  8
AREA1
 62
     0
100
AcDbTrace
 10
-0.102913
 20
0.943837
 30
0.0
 11
-0.102913
 21
0.913837
 31
0.0
 12
-0.192913
 22
0.928837
 32
0.0
 13
-0.192913
 23
0.928837
 33
0.0
  0
SOLID
  5
2D64
100
AcDbEntity
  8
AREA1
 62
     0
100
AcDbTrace
 10
0.102913
 20
0.943837
 30
0.0
 11
0.102913
 21
0.913837
 31
0.0
 12
0.192913
 22
0.928837
 32
0.0
 13
0.192913
 23
0.928837
 33
0.0
  0
POINT
  5
2D65
100
AcDbEntity
  8
DEFPOINTS
 62
     0
100
AcDbPoint
 10
-0.192913
 20
0.669291
 30
-0.074172
  0
POINT
  5
2D66
100
AcDbEntity
  8
DEFPOINTS
 62
     0
100
AcDbPoint
 10
0.192913
 20
0.669291
 30
-0.074172
  0
POINT
  5
2D67
100
AcDbEntity
  8
DEFPOINTS
 62
     0
100
AcDbPoint
 10
0.192913
 20
0.928837
 30
0.0
  0
ENDBLK
  5
2D4B
100
AcDbEntity
  8
0
100
AcDbBlockEnd
  0
ENDSEC
  0
SECTION
  2
ENTITIES
  0
DIMENSION
  5
1D90
100
AcDbEntity
  8
AREA2
100
AcDbDimension
  2
*D0
 10
0.0
 20
0.976856
 30
0.0
 11
0.976856
 21
-0.970361
 31
0.0
 70
   160
210
1.0
220
0.0
230
0.0
  3
ABECAD_3D
100
AcDbAlignedDimension
 13
-0.192913
 23
0.531496
 33
-1.948819
 14
-0.14565
 24
0.03937
 34
0.0
 50
90.0
100
AcDbRotatedDimension
  0
ATTDEF
  5
2D1C
100
AcDbEntity
  8
ATTRIBUTES
100
AcDbText
 10
-0.180438
 20
-0.309525
 30
-1.948819
 40
0.012
  1
0
100
AcDbAttributeDefinition
  3
VIEW CODE?
  2
AC_VIEW_CODE
 70
     1
  0
ATTDEF
  5
2D1D
100
AcDbEntity
  8
ATTRIBUTES
100
AcDbText
 10
-0.180438
 20
-0.284525
 30
-1.948819
 40
0.012
  1
INCH
100
AcDbAttributeDefinition
  3
UNIT OF SCALE?
  2
AC_SCALE_UNIT
 70
     1
  0
ATTDEF
  5
2D1E
100
AcDbEntity
  8
ATTRIBUTES
100
AcDbText
 10
-0.180438
 20
-0.259525
 30
-1.948819
 40
0.012
  1

100
AcDbAttributeDefinition
  3
FASTENER DATA?
  2
FASTENER
 70
     1
  0
ATTDEF
  5
2D1F
100
AcDbEntity
  8
ATTRIBUTES
100
AcDbText
 10
-0.180438
 20
-0.234525
 30
-1.948819
 40
0.012
  1

100
AcDbAttributeDefinition
  3
CUSTOMER NOTE?
  2
AC_NOTE
 70
     1
  0
ATTDEF
  5
2D20
100
AcDbEntity
  8
ATTRIBUTES
100
AcDbText
 10
-0.180438
 20
-0.209525
 30
-1.948819
 40
0.012
  1

100
AcDbAttributeDefinition
  3
CUSTOMER PART NUMBER?
  2
AC_CPART_NO
 70
     1
  0
ATTDEF
  5
2D21
100
AcDbEntity
  8
ATTRIBUTES
100
AcDbText
 10
-0.180438
 20
-0.184525
 30
-1.948819
 40
0.012
  1

100
AcDbAttributeDefinition
  3
DEVICE ID?
  2
DEVICE_ID
 70
     1
  0
ATTDEF
  5
2D22
100
AcDbEntity
  8
ATTRIBUTES
100
AcDbText
 10
-0.180438
 20
-0.159525
 30
-1.948819
 40
0.012
  1
DUAL CIRCUIT 1 N.O./1 N.C. CONTACT BLOCK
100
AcDbAttributeDefinition
  3
PART DESCRIPTION?
  2
AC_DESCRIPTION
 70
     1
  0
ATTDEF
  5
2D23
100
AcDbEntity
  8
ATTRIBUTES
100
AcDbText
 10
-0.180438
 20
-0.134525
 30
-1.948819
 40
0.012
  1
800F-X11D
100
AcDbAttributeDefinition
  3
CATALOG NUMBER?
  2
AC_PART_NO
 70
     1
  0
ATTDEF
  5
2D24
100
AcDbEntity
  8
ATTRIBUTES
100
AcDbText
 10
-0.180438
 20
-0.109525
 30
-1.948819
 40
0.012
  1
ALLEN-BRADLEY
100
AcDbAttributeDefinition
  3
MANUFACTURER NAME?
  2
AC_VND_LABEL
 70
     1
  0
DIMENSION
  5
2D25
100
AcDbEntity
  8
AREA1
100
AcDbDimension
  2
*D1
 10
0.624376
 20
-0.726283
 30
0.0
 11
0.624376
 21
-0.028496
 31
0.0
 70
   160
  3
ABECAD_3D
100
AcDbAlignedDimension
 13
0.192913
 23
0.669291
 33
-0.074172
 14
0.192913
 24
-0.726283
 34
0.029725
 50
90.0
100
AcDbRotatedDimension
  0
LINE
  5
2D26
100
AcDbEntity
  8
SCALE
100
AcDbLine
 10
-0.628148
 20
0.312533
 30
0.0
 11
-0.628148
 21
0.212533
 31
0.0
  0
LINE
  5
2D27
100
AcDbEntity
  8
SCALE
100
AcDbLine
 10
-0.628148
 20
0.212533
 30
0.0
 11
-0.628148
 21
0.412533
 31
0.0
  0
TEXT
  5
2D28
100
AcDbEntity
  8
SCALE
100
AcDbText
 10
-1.626617
 20
0.58741
 30
0.0
 40
0.0625
  1
SCALE:
100
AcDbText
  0
TEXT
  5
2D29
100
AcDbEntity
  8
SCALE
100
AcDbText
 10
-1.568725
 20
0.058273
 30
0.0
 40
0.0625
  1
[10mm]
100
AcDbText
  0
LINE
  5
2D2A
100
AcDbEntity
  8
SCALE
100
AcDbLine
 10
-1.628148
 20
0.012533
 30
0.0
 11
-1.234448
 21
0.012533
 31
0.0
  0
LINE
  5
2D2B
100
AcDbEntity
  8
SCALE
100
AcDbLine
 10
-1.628148
 20
-0.087467
 30
0.0
 11
-1.628148
 21
0.112533
 31
0.0
  0
LINE
  5
2D2C
100
AcDbEntity
  8
SCALE
100
AcDbLine
 10
-1.234448
 20
-0.087467
 30
0.0
 11
-1.234448
 21
0.112533
 31
0.0
  0
LINE
  5
2D2D
100
AcDbEntity
  8
SCALE
100
AcDbLine
 10
-1.628148
 20
0.212533
 30
0.0
 11
-1.628148
 21
0.412533
 31
0.0
  0
LINE
  5
2D2E
100
AcDbEntity
  8
SCALE
100
AcDbLine
 10
-1.628148
 20
0.312533
 30
0.0
 11
-0.628148
 21
0.312533
 31
0.0
  0
LWPOLYLINE
  5
2D2F
100
AcDbEntity
  8
SCALE
100
AcDbPolyline
 90
        4
 70
     1
 43
0.0
 10
-1.686146
 20
0.692611
 10
-0.550517
 20
0.692611
 10
-0.550517
 20
-0.148998
 10
-1.686146
 20
-0.148998
  0
TEXT
  5
2D30
100
AcDbEntity
  8
SCALE
100
AcDbText
 10
-1.264865
 20
0.381582
 30
0.0
 40
0.0625
  1
1 Inch
100
AcDbText
  0
DIMENSION
  5
2D31
100
AcDbEntity
  8
AREA1
100
AcDbDimension
  2
*D2
 10
0.192913
 20
0.928837
 30
0.0
 11
-0.000013
 21
1.071146
 31
0.0
 70
   160
 53
180.0
  3
ABECAD_3D
100
AcDbAlignedDimension
 13
-0.192913
 23
0.669291
 33
-0.074172
 14
0.192913
 24
0.669291
 34
-0.074172
100
AcDbRotatedDimension
  0
POINT
  5
2D32
100
AcDbEntity
  8
SNAP_POINTS
100
AcDbPoint
 10
0.0
 20
0.0
 30
0.0
 50
90.0
  0
SPLINE
  5
2F13
100
AcDbEntity
  8
0
  6
CONTINUOUS
100
AcDbSpline
210
-0.0000000000004194
220
-1.0
230
-0.0000000000000797
 70
     8
 71
     3
 72
    13
 73
     9
 74
     7
 42
0.0000001
 43
0.0000001
 44
0.0000000001
 40
0.0
 40
0.0
 40
0.0
 40
0.0
 40
0.0835776145869979
 40
0.1720395715759645
 40
0.2569039154225281
 40
0.3322678324344357
 40
0.39868427522765
 40
0.4121392565566947
 40
0.4121392565566947
 40
0.4121392565566947
 40
0.4121392565566947
 10
0.0177259810500026
 20
0.6496062992500025
 30
-0.9887199114999969
 10
0.0228117420174709
 20
0.6496062992500025
 30
-1.016111283682994
 10
0.0332804798763418
 20
0.6496062992500026
 30
-1.072494801668369
 10
0.0499936046237134
 20
0.6496062992500025
 30
-1.15648378130576
 10
0.0658771041931021
 20
0.6496062992500021
 30
-1.237845137943956
 10
0.0795223225921454
 20
0.6496062992500037
 30
-1.312153034316497
 10
0.0880038130999515
 20
0.6496062992500031
 30
-1.363202731100001
 10
0.091973870647695
 20
0.6496062992500034
 30
-1.389528908491203
 10
0.0926426586500018
 20
0.6496062992500034
 30
-1.393963763999996
 11
0.0177259810500026
 21
0.6496062992500025
 31
-0.9887199114999969
 11
0.0331540043500027
 21
0.6496062992500025
 31
-1.070861215099997
 11
0.0501740442500012
 21
0.6496062992500025
 31
-1.157670408599996
 11
0.0663192254500018
 21
0.6496062992500025
 31
-1.240984812999997
 11
0.0798379145500015
 21
0.6496062992500034
 31
-1.315126333299996
 11
0.0906251186500029
 21
0.6496062992500034
 31
-1.380660905099995
 11
0.0926426586500018
 21
0.6496062992500034
 31
-1.393963763999996
  0
LINE
  5
2F14
100
AcDbEntity
  8
0
  6
CONTINUOUS
100
AcDbLine
 10
-0.135827
 20
0.649606
 30
-1.427316
 11
-0.135827
 21
0.649606
 31
-0.946438
210
0.0
220
1.0
230
0.0000000000000002
  0
SPLINE
  5
2F15
100
AcDbEntity
  8
0
  6
CONTINUOUS
100
AcDbSpline
210
0.0000000000001703
220
1.0
230
-0.0000000000000287
 70
     8
 71
     3
 72
    13
 73
     9
 74
     7
 42
0.0000001
 43
0.0000001
 44
0.0000000001
 40
0.0
 40
0.0
 40
0.0
 40
0.0
 40
0.0591158660049746
 40
0.1256261522154844
 40
0.1998553979600778
 40
0.2829440083573631
 40
0.3722700680932774
 40
0.4577400436736411
 40
0.4577400436736411
 40
0.4577400436736411
 40
0.4577400436736411
 10
-0.0989735040499973
 20
0.6496062992500034
 30
-1.439124549199997
 10
-0.0962689355518049
 20
0.6496062992500034
 30
-1.419604947546812
 10
-0.0905215016259865
 20
0.6496062992500034
 30
-1.378124163889472
 10
-0.0795400090869618
 20
0.6496062992500037
 30
-1.312409427712397
 10
-0.0661106809763829
 20
0.6496062992500021
 30
-1.239017566905286
 10
-0.0503855692428659
 20
0.6496062992500025
 30
-1.158319809316327
 10
-0.0336092235355722
 20
0.6496062992500025
 30
-1.074010315913297
 10
-0.0229437476451416
 20
0.6496062992500024
 30
-1.016728827290922
 10
-0.017728652449998
 20
0.6496062992500025
 30
-0.9887199114999969
 11
-0.0989735040499973
 21
0.6496062992500034
 31
-1.439124549199997
 11
-0.0906039581499982
 21
0.6496062992500034
 31
-1.380604156899996
 11
-0.0798053787499988
 21
0.6496062992500034
 31
-1.314976351399996
 11
-0.0665106084499971
 21
0.6496062992500025
 31
-1.241947384499995
 11
-0.0507312985499979
 21
0.6496062992500025
 31
-1.160370852599996
 11
-0.0335426528499987
 21
0.6496062992500025
 31
-1.072714161999996
 11
-0.017728652449998
 21
0.6496062992500025
 31
-0.9887199114999969
  0
LINE
  5
2F16
100
AcDbEntity
  8
0
  6
CONTINUOUS
100
AcDbLine
 10
-0.114682
 20
0.649606
 30
-1.659863
 11
-0.115734
 21
0.649606
 31
-1.658087
210
0.0
220
1.0
230
0.0000000000000002
  0
LINE
  5
2F17
100
AcDbEntity
  8
0
  6
CONTINUOUS
100
AcDbLine
 10
-0.115734
 20
0.649606
 30
-1.658087
 11
-0.120073
 21
0.649606
 31
-1.605339
210
0.0
220
1.0
230
0.0000000000000002
  0
LINE
  5
2F18
100
AcDbEntity
  8
0
  6
CONTINUOUS
100
AcDbLine
 10
-0.114417
 20
0.649606
 30
-1.536804
 11
-0.114417
 21
0.649606
 31
-1.546646
210
0.0
220
1.0
230
0.0000000000000002
  0
LINE
  5
2F19
100
AcDbEntity
  8
0
  6
CONTINUOUS
100
AcDbLine
 10
-0.064961
 20
0.649606
 30
-1.556992
 11
-0.064961
 21
0.649606
 31
-1.546646
210
0.0
220
1.0
230
0.0000000000000002
  0
LWPOLYLINE
  5
2F1A
100
AcDbEntity
  8
0
  6
CONTINUOUS
100
AcDbPolyline
 90
        3
 70
     0
 43
0.0
 38
0.649606
 10
-0.124008
 20
-1.605339
 10
-0.123674
 20
-1.604078
 10
-0.12218
 20
-1.60287
210
0.0
220
1.0
230
0.0000000000000002
  0
LINE
  5
2F1B
100
AcDbEntity
  8
0
  6
CONTINUOUS
100
AcDbLine
 10
0.068898
 20
0.649606
 30
-1.556992
 11
0.068898
 21
0.649606
 31
-1.546644
210
0.0
220
1.0
230
0.0000000000000002
  0
LWPOLYLINE
  5
2F1C
100
AcDbEntity
  8
0
  6
CONTINUOUS
100
AcDbPolyline
 90
        3
 70
     0
 43
0.0
 38
0.649606
 10
0.120071
 20
-1.605339
 10
0.119737
 20
-1.604078
 10
0.118243
 20
-1.60287
210
0.0
220
1.0
230
0.0000000000000002
  0
LINE
  5
2F1D
100
AcDbEntity
  8
0
  6
CONTINUOUS
100
AcDbLine
 10
0.114419
 20
0.649606
 30
-1.536802
 11
0.114419
 21
0.649606
 31
-1.546644
210
0.0
220
1.0
230
0.0000000000000002
  0
LINE
  5
2F1E
100
AcDbEntity
  8
0
  6
CONTINUOUS
100
AcDbLine
 10
0.123102
 20
0.649606
 30
-1.66195
 11
0.123102
 21
0.649606
 31
-1.616372
210
0.0
220
1.0
230
0.0000000000000002
  0
LINE
  5
2F1F
100
AcDbEntity
  8
0
  6
CONTINUOUS
100
AcDbLine
 10
0.123102
 20
0.649606
 30
-1.603616
 11
0.123102
 21
0.649606
 31
-1.602616
210
0.0
220
1.0
230
0.0000000000000002
  0
LINE
  5
2F20
100
AcDbEntity
  8
0
  6
CONTINUOUS
100
AcDbLine
 10
0.129921
 20
0.649606
 30
-1.66195
 11
0.129921
 21
0.649606
 31
-1.600736
210
0.0
220
1.0
230
0.0000000000000002
  0
LINE
  5
2F21
100
AcDbEntity
  8
0
  6
CONTINUOUS
100
AcDbLine
 10
0.119671
 20
0.649606
 30
-1.658087
 11
0.12401
 21
0.649606
 31
-1.605339
210
0.0
220
1.0
230
0.0000000000000002
  0
LINE
  5
2F22
100
AcDbEntity
  8
0
  6
CONTINUOUS
100
AcDbLine
 10
0.098979
 20
0.649606
 30
-1.439125
 11
-0.098974
 21
0.649606
 31
-1.439125
210
0.0
220
1.0
230
0.0000000000000002
  0
LINE
  5
2F23
100
AcDbEntity
  8
0
  6
CONTINUOUS
100
AcDbLine
 10
0.105487
 20
0.649606
 30
-1.479195
 11
-0.105481
 21
0.649606
 31
-1.479196
210
0.0
220
1.0
230
0.0000000000000002
  0
LINE
  5
2F24
100
AcDbEntity
  8
0
  6
CONTINUOUS
100
AcDbLine
 10
0.119671
 20
0.649606
 30
-1.658087
 11
0.118619
 21
0.649606
 31
-1.659863
210
0.0
220
1.0
230
0.0000000000000002
  0
LINE
  5
2F25
100
AcDbEntity
  8
0
  6
CONTINUOUS
100
AcDbLine
 10
-0.064961
 20
0.649606
 30
-1.556992
 11
-0.102485
 21
0.649606
 31
-1.546646
210
0.0
220
1.0
230
0.0000000000000002
  0
LWPOLYLINE
  5
2F26
100
AcDbEntity
  8
0
  6
CONTINUOUS
100
AcDbPolyline
 90
        3
 70
     0
 43
0.0
 38
0.649606
 10
-0.001969
 20
-1.546916
 10
0.009654
 20
-1.546792
 10
0.014127
 20
-1.546646
210
0.0
220
1.0
230
0.0000000000000002
  0
LINE
  5
2F27
100
AcDbEntity
  8
0
  6
CONTINUOUS
100
AcDbLine
 10
0.114419
 20
0.649606
 30
-1.536802
 11
-0.114417
 21
0.649606
 31
-1.536804
210
0.0
220
1.0
230
0.0000000000000002
  0
LINE
  5
2F28
100
AcDbEntity
  8
0
  6
CONTINUOUS
100
AcDbLine
 10
0.114419
 20
0.649606
 30
-1.546644
 11
-0.114417
 21
0.649606
 31
-1.546646
210
0.0
220
1.0
230
0.0000000000000002
  0
LINE
  5
2F29
100
AcDbEntity
  8
0
  6
CONTINUOUS
100
AcDbLine
 10
0.068898
 20
0.649606
 30
-1.556992
 11
-0.064961
 21
0.649606
 31
-1.556992
210
0.0
220
1.0
230
0.0000000000000002
  0
LWPOLYLINE
  5
2F2A
100
AcDbEntity
  8
0
  6
CONTINUOUS
100
AcDbPolyline
 90
        3
 70
     0
 43
0.0
 38
0.649606
 10
-0.018124
 20
-1.546644
 10
-0.013591
 20
-1.546792
 10
-0.001969
 20
-1.546916
210
0.0
220
1.0
230
0.0000000000000002
  0
LINE
  5
2F2B
100
AcDbEntity
  8
0
  6
CONTINUOUS
100
AcDbLine
 10
0.106429
 20
0.649606
 30
-1.546644
 11
0.068898
 21
0.649606
 31
-1.556992
210
0.0
220
1.0
230
0.0000000000000002
  0
LINE
  5
2F2C
100
AcDbEntity
  8
0
  6
CONTINUOUS
100
AcDbLine
 10
-0.135827
 20
0.649606
 30
-1.598023
 11
-0.064961
 21
0.649606
 31
-1.617561
210
0.0
220
1.0
230
0.0000000000000002
  0
LWPOLYLINE
  5
2F2D
100
AcDbEntity
  8
0
  6
CONTINUOUS
100
AcDbPolyline
 90
        9
 70
     0
 43
0.0
 38
0.649606
 10
0.050986
 20
-1.618591
 10
0.066783
 20
-1.617479
 10
0.081045
 20
-1.616093
 10
0.093452
 20
-1.614464
 10
0.103728
 20
-1.612627
 10
0.111642
 20
-1.610624
 10
0.117019
 20
-1.6085
 10
0.119737
 20
-1.606301
 10
0.120071
 20
-1.605339
210
0.0
220
1.0
230
0.0000000000000002
  0
LWPOLYLINE
  5
2F2E
100
AcDbEntity
  8
0
  6
CONTINUOUS
100
AcDbPolyline
 90
        4
 70
     0
 43
0.0
 38
0.649606
 10
-0.001969
 20
-1.620064
 10
0.016222
 20
-1.619898
 10
0.034006
 20
-1.619403
 10
0.050986
 20
-1.618591
210
0.0
220
1.0
230
0.0000000000000002
  0
LINE
  5
2F2F
100
AcDbEntity
  8
0
  6
CONTINUOUS
100
AcDbLine
 10
-0.064961
 20
0.649606
 30
-1.617561
 11
0.068898
 21
0.649606
 31
-1.617561
210
0.0
220
1.0
230
0.0000000000000002
  0
LWPOLYLINE
  5
2F30
100
AcDbEntity
  8
0
  6
CONTINUOUS
100
AcDbPolyline
 90
        4
 70
     0
 43
0.0
 38
0.649606
 10
-0.001969
 20
-1.620064
 10
-0.020159
 20
-1.619898
 10
-0.037943
 20
-1.619403
 10
-0.054923
 20
-1.618591
210
0.0
220
1.0
230
0.0000000000000002
  0
LWPOLYLINE
  5
2F31
100
AcDbEntity
  8
0
  6
CONTINUOUS
100
AcDbPolyline
 90
        9
 70
     0
 43
0.0
 38
0.649606
 10
-0.054923
 20
-1.618591
 10
-0.07072
 20
-1.617479
 10
-0.084982
 20
-1.616093
 10
-0.097389
 20
-1.614464
 10
-0.107665
 20
-1.612627
 10
-0.115579
 20
-1.610624
 10
-0.120956
 20
-1.6085
 10
-0.123674
 20
-1.606301
 10
-0.124008
 20
-1.605339
210
0.0
220
1.0
230
0.0000000000000002
  0
LINE
  5
2F32
100
AcDbEntity
  8
0
  6
CONTINUOUS
100
AcDbLine
 10
0.068898
 20
0.649606
 30
-1.617561
 11
0.135827
 21
0.649606
 31
-1.599108
210
0.0
220
1.0
230
0.0000000000000002
  0
LINE
  5
2F33
100
AcDbEntity
  8
0
  6
CONTINUOUS
100
AcDbLine
 10
-0.135827
 20
0.649606
 30
-1.66195
 11
0.135827
 21
0.649606
 31
-1.66195
210
0.0
220
1.0
230
0.0000000000000002
  0
LINE
  5
2F34
100
AcDbEntity
  8
0
  6
CONTINUOUS
100
AcDbLine
 10
0.135827
 20
0.649606
 30
-1.715706
 11
-0.135827
 21
0.649606
 31
-1.715713
210
0.0
220
1.0
230
0.0000000000000002
  0
SPLINE
  5
2F35
100
AcDbEntity
  8
0
  6
CONTINUOUS
100
AcDbSpline
210
0.9965737758539567
220
0.0
230
0.0827085804508081
 70
    24
 71
     3
 72
     8
 73
     4
 74
     2
 42
0.0000001
 43
0.0000001
 44
0.0000000001
 40
0.0
 40
0.0
 40
0.0
 40
0.0
 40
0.0020945215001378
 40
0.0020945215001378
 40
0.0020945215001378
 40
0.0020945215001378
 10
-0.1145085533499976
 20
0.6496062992500034
 30
-1.661949917399995
 10
-0.1145662983166643
 20
0.6496062992500034
 30
-1.661254135666662
 10
-0.114624043283331
 20
0.6496062992500034
 30
-1.660558353933329
 10
-0.1146817882499977
 20
0.6496062992500034
 30
-1.659862572199996
 11
-0.1145085533499976
 21
0.6496062992500034
 31
-1.661949917399995
 11
-0.1146817882499977
 21
0.6496062992500034
 31
-1.659862572199996
  0
SPLINE
  5
2F36
100
AcDbEntity
  8
0
  6
CONTINUOUS
100
AcDbSpline
210
0.996573779789232
220
0.0
230
-0.0827085330338024
 70
    24
 71
     3
 72
     8
 73
     4
 74
     2
 42
0.0000001
 43
0.0000001
 44
0.0000000001
 40
0.0
 40
0.0
 40
0.0
 40
0.0
 40
0.002094521491867
 40
0.002094521491867
 40
0.002094521491867
 40
0.002094521491867
 10
0.1186187959500025
 20
0.6496062992500034
 30
-1.659862572199996
 10
0.1185610510166691
 20
0.6496062992500034
 30
-1.660558353933329
 10
0.1185033060833357
 20
0.6496062992500034
 30
-1.661254135666662
 10
0.1184455611500024
 20
0.6496062992500034
 30
-1.661949917399995
 11
0.1186187959500025
 21
0.6496062992500034
 31
-1.659862572199996
 11
0.1184455611500024
 21
0.6496062992500034
 31
-1.661949917399995
  0
SPLINE
  5
2F37
100
AcDbEntity
  8
0
  6
CONTINUOUS
100
AcDbSpline
210
0.0000000000000179
220
1.0
230
0.0000000000003525
 70
     8
 71
     3
 72
    14
 73
    10
 74
     8
 42
0.0000001
 43
0.0000001
 44
0.0000000001
 40
0.0
 40
0.0
 40
0.0
 40
0.0
 40
0.0018730220839525
 40
0.0048733470736339
 40
0.0082964599324943
 40
0.0120931030141006
 40
0.0162009999414404
 40
0.0205488789537097
 40
0.0214477146282341
 40
0.0214477146282341
 40
0.0214477146282341
 40
0.0214477146282341
 10
0.1358274360500022
 20
0.6496062992500034
 30
-1.547729129599996
 10
0.1352072394952742
 20
0.6496062992500034
 30
-1.547657197546691
 10
0.1335935729555378
 20
0.6496062992500033
 30
-1.547470040190417
 10
0.1308388876409224
 20
0.6496062992500035
 30
-1.547221569517216
 10
0.1274399380299839
 20
0.6496062992500033
 30
-1.546989108399471
 10
0.1236681805024629
 20
0.6496062992500034
 30
-1.546807240840298
 10
0.1195856527032774
 20
0.6496062992500034
 30
-1.546685872005536
 10
0.1164674967807751
 20
0.6496062992500034
 30
-1.54664667161788
 10
0.1147185932992589
 20
0.6496062992500034
 30
-1.546644643453028
 10
0.1144189816500027
 20
0.6496062992500034
 30
-1.546644295999996
 11
0.1358274360500022
 21
0.6496062992500034
 31
-1.547729129599996
 11
0.1339661908500016
 21
0.6496062992500034
 31
-1.547519420199996
 11
0.1309785038500024
 21
0.6496062992500034
 31
-1.547244326699996
 11
0.1275635265500021
 21
0.6496062992500034
 31
-1.547008462999995
 11
0.1237713939500011
 21
0.6496062992500034
 31
-1.546823452099996
 11
0.1196653628500019
 21
0.6496062992500034
 31
-1.546699654799995
 11
0.1153178158500019
 21
0.6496062992500034
 31
-1.546645924099996
 11
0.1144189816500027
 21
0.6496062992500034
 31
-1.546644295999996
  0
SPLINE
  5
2F38
100
AcDbEntity
  8
0
  6
CONTINUOUS
100
AcDbSpline
210
0.0
220
1.0
230
0.0
 70
     8
 71
     3
 72
    12
 73
     8
 74
     6
 42
0.0000001
 43
0.0000001
 44
0.0000000001
 40
0.0
 40
0.0
 40
0.0
 40
0.0
 40
0.0081425716261905
 40
0.0156409728121272
 40
0.0220012274534299
 40
0.0267854082714523
 40
0.0296901833026314
 40
0.0296901833026314
 40
0.0296901833026314
 40
0.0296901833026314
 10
0.1054845776500013
 20
0.6496062992500034
 30
-1.479194880399996
 10
0.1081983353449207
 20
0.6496062992500034
 30
-1.479245454585782
 10
0.1134111614978291
 20
0.6496062992500033
 30
-1.479342601961474
 10
0.1207486564137212
 20
0.6496062992500035
 30
-1.479083746906081
 10
0.1269313489767326
 20
0.6496062992500034
 30
-1.478585677323338
 10
0.131654728724468
 20
0.6496062992500034
 30
-1.478612677382831
 10
0.1341461628767137
 20
0.6496062992500033
 30
-1.479240068655756
 10
0.1350873902500016
 20
0.6496062992500034
 30
-1.479477087899995
 11
0.1054845776500013
 21
0.6496062992500034
 31
-1.479194880399996
 11
0.1136267990500013
 21
0.6496062992500034
 31
-1.479270400999997
 11
0.1211206668500022
 21
0.6496062992500034
 31
-1.479009698599996
 11
0.1274706013500015
 21
0.6496062992500034
 31
-1.478647523299995
 11
0.1322503476500021
 21
0.6496062992500034
 31
-1.478853463599996
 11
0.1350873902500016
 21
0.6496062992500034
 31
-1.479477087899995
  0
SPLINE
  5
2F39
100
AcDbEntity
  8
0
  6
CONTINUOUS
100
AcDbSpline
210
-0.0000000000005421
220
-1.0
230
-0.000000000000088
 70
     8
 71
     3
 72
    17
 73
    13
 74
    11
 42
0.0000001
 43
0.0000001
 44
0.0000000001
 40
0.0
 40
0.0
 40
0.0
 40
0.0
 40
0.0037777596683236
 40
0.0076487650468178
 40
0.0116015185607605
 40
0.0156244463332295
 40
0.0197061543642923
 40
0.0238352119971597
 40
0.0280002030385197
 40
0.0321896326202183
 40
0.0363920857930221
 40
0.0405971413614268
 40
0.0405971413614268
 40
0.0405971413614268
 40
0.0405971413614268
 10
0.0989788593500016
 20
0.6496062992500034
 30
-1.439125134599995
 10
0.0992128812629664
 20
0.6496062992500033
 30
-1.440362459711485
 10
0.0996867014064454
 20
0.6496062992500034
 30
-1.442867650590533
 10
0.1003634761892131
 20
0.6496062992500034
 30
-1.446675210630885
 10
0.1010302427919963
 20
0.6496062992500033
 30
-1.450567422309332
 10
0.1016852505828314
 20
0.6496062992500033
 30
-1.454532841286791
 10
0.1023313026569659
 20
0.6496062992500034
 30
-1.458559247889826
 10
0.1029698944094557
 20
0.6496062992500035
 30
-1.462634780617217
 10
0.1036028018244048
 20
0.6496062992500031
 30
-1.466747529624302
 10
0.1042317032802034
 20
0.6496062992500034
 30
-1.470885638941236
 10
0.1048580690520065
 20
0.6496062992500037
 30
-1.475037637967023
 10
0.1052757088263359
 20
0.6496062992500033
 30
-1.477808846996094
 10
0.1054845933500026
 20
0.6496062992500034
 30
-1.479194880399996
 11
0.0989788593500016
 21
0.6496062992500034
 31
-1.439125134599995
 11
0.0996741851500023
 21
0.6496062992500034
 31
-1.442838352899997
 11
0.1003547771500024
 21
0.6496062992500034
 31
-1.446649058499996
 11
0.1010224559500017
 21
0.6496062992500034
 31
-1.450545013499995
 11
0.1016790322500025
 21
0.6496062992500034
 31
-1.454514000199996
 11
0.1023263489500028
 21
0.6496062992500034
 31
-1.458544052499997
 11
0.1029661889500026
 21
0.6496062992500034
 31
-1.462623233999996
 11
0.1036002850500015
 21
0.6496062992500034
 31
-1.466739673299995
 11
0.1042302968500017
 21
0.6496062992500034
 31
-1.470881460999995
 11
0.1048578366500017
 21
0.6496062992500034
 31
-1.475036795699995
 11
0.1054845933500026
 21
0.6496062992500034
 31
-1.479194880399996
  0
SPLINE
  5
2F3A
100
AcDbEntity
  8
0
  6
CONTINUOUS
100
AcDbSpline
210
0.9546259640647333
220
0.0
230
-0.297807435658478
 70
    24
 71
     3
 72
     8
 73
     4
 74
     2
 42
0.0000001
 43
0.0000001
 44
0.0000000001
 40
0.0
 40
0.0
 40
0.0
 40
0.0
 40
0.0042301589858351
 40
0.0042301589858351
 40
0.0042301589858351
 40
0.0042301589858351
 10
0.1358267689500021
 20
0.6496062992500034
 30
-1.420373756399996
 10
0.1354068446833357
 20
0.6496062992500034
 30
-1.421719829599996
 10
0.1349869204166693
 20
0.6496062992500034
 30
-1.423065902799996
 10
0.1345669961500029
 20
0.6496062992500034
 30
-1.424411975999996
 11
0.1358267689500021
 21
0.6496062992500034
 31
-1.420373756399996
 11
0.1345669961500029
 21
0.6496062992500034
 31
-1.424411975999996
  0
SPLINE
  5
2F3B
100
AcDbEntity
  8
0
  6
CONTINUOUS
100
AcDbSpline
210
0.8265318956347066
220
0.0
230
-0.5628898875432907
 70
    24
 71
     3
 72
     8
 73
     4
 74
     2
 42
0.0000001
 43
0.0000001
 44
0.0000000001
 40
0.0
 40
0.0
 40
0.0
 40
0.0
 40
0.0012888492333162
 40
0.0012888492333162
 40
0.0012888492333162
 40
0.0012888492333162
 10
0.1345669961500029
 20
0.6496062992500034
 30
-1.424411975999996
 10
0.134325169416669
 20
0.6496062992500034
 30
-1.424767067666663
 10
0.1340833426833352
 20
0.6496062992500035
 30
-1.42512215933333
 10
0.1338415159500013
 20
0.6496062992500034
 30
-1.425477250999996
 11
0.1345669961500029
 21
0.6496062992500034
 31
-1.424411975999996
 11
0.1338415159500013
 21
0.6496062992500034
 31
-1.425477250999996
  0
SPLINE
  5
2F3C
100
AcDbEntity
  8
0
  6
CONTINUOUS
100
AcDbSpline
210
0.0000000000000245
220
-1.0
230
-0.0000000000000625
 70
     8
 71
     3
 72
    12
 73
     8
 74
     6
 42
0.0000001
 43
0.0000001
 44
0.0000000001
 40
0.0
 40
0.0
 40
0.0
 40
0.0
 40
0.0041842219325676
 40
0.0111304338008551
 40
0.0193967478732075
 40
0.0285913695185446
 40
0.0382072944680617
 40
0.0382072944680617
 40
0.0382072944680617
 40
0.0382072944680617
 10
0.1338415159500013
 20
0.6496062992500034
 30
-1.425477250999996
 10
0.1328863402855942
 20
0.6496062992500034
 30
-1.426500224260573
 10
0.1303454809162286
 20
0.6496062992500037
 30
-1.429221431773079
 10
0.1246709622613787
 20
0.6496062992500033
 30
-1.432506317000566
 10
0.1171376388419909
 20
0.6496062992500037
 30
-1.435570136895535
 10
0.1083840273378727
 20
0.6496062992500033
 30
-1.437920287307835
 10
0.1021603794119552
 20
0.6496062992500033
 30
-1.438717566565427
 10
0.0989788593500016
 20
0.6496062992500034
 30
-1.439125134599995
 11
0.1338415159500013
 21
0.6496062992500034
 31
-1.425477250999996
 11
0.1308748954500025
 21
0.6496062992500034
 31
-1.428427992599996
 11
0.1250060860500017
 21
0.6496062992500034
 31
-1.432143761099997
 11
0.1173668895500022
 21
0.6496062992500034
 31
-1.435302024099996
 11
0.1084861984500023
 21
0.6496062992500034
 31
-1.437684122499996
 11
0.0989788593500016
 21
0.6496062992500034
 31
-1.439125134599995
  0
SPLINE
  5
2F3D
100
AcDbEntity
  8
0
  6
CONTINUOUS
100
AcDbSpline
210
0.0
220
1.0
230
0.0
 70
     8
 71
     3
 72
    10
 73
     6
 74
     4
 42
0.0000001
 43
0.0000001
 44
0.0000000001
 40
0.0
 40
0.0
 40
0.0
 40
0.0
 40
0.015539844902726
 40
0.0328656929783296
 40
0.0521613810198181
 40
0.0521613810198181
 40
0.0521613810198181
 40
0.0521613810198181
 10
0.1350873902500016
 20
0.6496062992500034
 30
-1.479477087899995
 10
0.1350109380228353
 20
0.6496062992500034
 30
-1.474296867458784
 10
0.1348492468707493
 20
0.6496062992500034
 30
-1.463341060908164
 10
0.1354830764352147
 20
0.6496062992500034
 30
-1.445961283148864
 10
0.1357081706391717
 20
0.6496062992500035
 30
-1.433756461037238
 10
0.1358267715500023
 20
0.6496062992500034
 30
-1.427325806699997
 11
0.1350873902500016
 21
0.6496062992500034
 31
-1.479477087899995
 11
0.1349834664500022
 21
0.6496062992500034
 31
-1.463937590499996
 11
0.1354099190500015
 21
0.6496062992500034
 31
-1.446616991499995
 11
0.1358267715500023
 21
0.6496062992500034
 31
-1.427325806699997
  0
SPLINE
  5
2F3E
100
AcDbEntity
  8
0
  6
CONTINUOUS
100
AcDbSpline
210
0.0
220
1.0
230
0.0
 70
     8
 71
     3
 72
    17
 73
    13
 74
    11
 42
0.0000001
 43
0.0000001
 44
0.0000000001
 40
0.0
 40
0.0
 40
0.0
 40
0.0
 40
0.0002968031866219
 40
0.0008339476458358
 40
0.0017581404793955
 40
0.0031752029810625
 40
0.0051706137869497
 40
0.0078106222216346
 40
0.0110596855791615
 40
0.0147164865575858
 40
0.0184642982332291
 40
0.0219657922287054
 40
0.0219657922287054
 40
0.0219657922287054
 40
0.0219657922287054
 10
0.1358267712500023
 20
0.6496062992500034
 30
-1.540566679799995
 10
0.1357879346883276
 20
0.6496062992500035
 30
-1.540473198364272
 10
0.1356788130190167
 20
0.6496062992500034
 30
-1.540210537359386
 10
0.1351175704714008
 20
0.6496062992500034
 30
-1.539937148354082
 10
0.1342491208295375
 20
0.6496062992500034
 30
-1.539578069478619
 10
0.1328423355733593
 20
0.6496062992500037
 30
-1.5391923430892
 10
0.130877699420444
 20
0.6496062992500031
 30
-1.538754977545753
 10
0.1282868305024946
 20
0.6496062992500034
 30
-1.538297165383222
 10
0.1251382776876065
 20
0.6496062992500037
 30
-1.537840119417918
 10
0.1216111464889495
 20
0.6496062992500031
 30
-1.537422357564233
 10
0.1179928122216316
 20
0.6496062992500037
 30
-1.537068017044031
 10
0.1155829737241713
 20
0.6496062992500034
 30
-1.536888630004024
 10
0.1144189953500021
 20
0.6496062992500034
 30
-1.536801984099996
 11
0.1358267712500023
 21
0.6496062992500034
 31
-1.540566679799995
 11
0.1356903629500028
 21
0.6496062992500034
 31
-1.540303079899995
 11
0.1352445836500014
 21
0.6496062992500034
 31
-1.540003405099996
 11
0.1343895515500026
 21
0.6496062992500034
 31
-1.539652616699996
 11
0.1330298261500022
 21
0.6496062992500034
 31
-1.539253601699996
 11
0.1310834970500014
 21
0.6496062992500034
 31
-1.538813752499995
 11
0.1284855119500019
 21
0.6496062992500034
 31
-1.538344585199997
 11
0.1252708712500024
 21
0.6496062992500034
 31
-1.537872888399997
 11
0.1216400140500013
 21
0.6496062992500034
 31
-1.537438067299996
 11
0.1179098278500028
 21
0.6496062992500034
 31
-1.537075020099996
 11
0.1144189953500021
 21
0.6496062992500034
 31
-1.536801984099996
  0
SPLINE
  5
2F3F
100
AcDbEntity
  8
0
  6
CONTINUOUS
100
AcDbSpline
210
0.0
220
1.0
230
0.0
 70
     8
 71
     3
 72
     9
 73
     5
 74
     3
 42
0.0000001
 43
0.0000001
 44
0.0000000001
 40
0.0
 40
0.0
 40
0.0
 40
0.0
 40
0.0295051960757087
 40
0.0582954779218418
 40
0.0582954779218418
 40
0.0582954779218418
 40
0.0582954779218418
 10
0.1144189956500021
 20
0.6496062992500034
 30
-1.536801892899996
 10
0.1128895192762773
 20
0.6496062992500035
 30
-1.527086466651862
 10
0.1098676259139126
 20
0.6496062992500034
 30
-1.507891020029644
 10
0.1069349907528254
 20
0.6496062992500035
 30
-1.488681735082492
 10
0.1054866555500027
 20
0.6496062992500034
 30
-1.479194880399996
 11
0.1144189956500021
 21
0.6496062992500034
 31
-1.536801892899996
 11
0.1098534317500022
 21
0.6496062992500034
 31
-1.507652069199997
 11
0.1054866555500027
 21
0.6496062992500034
 31
-1.479194880399996
  0
SPLINE
  5
2F40
100
AcDbEntity
  8
0
  6
CONTINUOUS
100
AcDbSpline
210
0.0
220
-1.0
230
0.0
 70
     8
 71
     3
 72
    10
 73
     6
 74
     4
 42
0.0000001
 43
0.0000001
 44
0.0000000001
 40
0.0
 40
0.0
 40
0.0
 40
0.0
 40
0.0147735972005233
 40
0.0291732164204733
 40
0.0431872593570294
 40
0.0431872593570294
 40
0.0431872593570294
 40
0.0431872593570294
 10
0.1350873902500016
 20
0.6496062992500034
 30
-1.479477087899995
 10
0.1352263630653524
 20
0.6496062992500034
 30
-1.484399663416925
 10
0.1355007907462863
 20
0.6496062992500033
 30
-1.494120204660355
 10
0.1357678646789788
 20
0.6496062992500034
 30
-1.508513975860493
 10
0.1358073143717748
 20
0.6496062992500035
 30
-1.517985211429936
 10
0.1358267715500023
 20
0.6496062992500034
 30
-1.522656566399996
 11
0.1350873902500016
 21
0.6496062992500034
 31
-1.479477087899995
 11
0.1354801977500024
 21
0.6496062992500034
 31
-1.494245462099996
 11
0.1357352525500026
 21
0.6496062992500034
 31
-1.508642822299997
 11
0.1358267715500023
 21
0.6496062992500034
 31
-1.522656566399996
  0
SPLINE
  5
2F41
100
AcDbEntity
  8
0
  6
CONTINUOUS
100
AcDbSpline
210
0.9893779231030038
220
0.0
230
0.1453661765211799
 70
    24
 71
     3
 72
     8
 73
     4
 74
     2
 42
0.0000001
 43
0.0000001
 44
0.0000000001
 40
0.0
 40
0.0
 40
0.0
 40
0.0
 40
0.0122533180869631
 40
0.0122533180869631
 40
0.0122533180869631
 40
0.0122533180869631
 10
0.0926426586500018
 20
0.6496062992500034
 30
-1.393963763999996
 10
0.093236397983335
 20
0.6496062992500034
 30
-1.39800481813333
 10
0.0938301373166682
 20
0.6496062992500035
 30
-1.402045872266663
 10
0.0944238766500014
 20
0.6496062992500034
 30
-1.406086926399996
 11
0.0926426586500018
 21
0.6496062992500034
 31
-1.393963763999996
 11
0.0944238766500014
 21
0.6496062992500034
 31
-1.406086926399996
  0
SPLINE
  5
2F42
100
AcDbEntity
  8
0
  6
CONTINUOUS
100
AcDbSpline
210
0.9903348407778308
220
0.0
230
0.1386971634228634
 70
    24
 71
     3
 72
     8
 73
     4
 74
     2
 42
0.0000001
 43
0.0000001
 44
0.0000000001
 40
0.0
 40
0.0
 40
0.0
 40
0.0
 40
0.0228251308236777
 40
0.0228251308236777
 40
0.0228251308236777
 40
0.0228251308236777
 10
0.0944238766500014
 20
0.6496062992500034
 30
-1.406086926399996
 10
0.0954791369500014
 20
0.6496062992500034
 30
-1.413621767166663
 10
0.0965343972500013
 20
0.6496062992500034
 30
-1.42115660793333
 10
0.0975896575500013
 20
0.6496062992500034
 30
-1.428691448699996
 11
0.0944238766500014
 21
0.6496062992500034
 31
-1.406086926399996
 11
0.0975896575500013
 21
0.6496062992500034
 31
-1.428691448699996
  0
SPLINE
  5
2F43
100
AcDbEntity
  8
0
  6
CONTINUOUS
100
AcDbSpline
210
0.9909751211206392
220
0.0
230
0.1340459224293458
 70
    24
 71
     3
 72
     8
 73
     4
 74
     2
 42
0.0000001
 43
0.0000001
 44
0.0000000001
 40
0.0
 40
0.0
 40
0.0
 40
0.0
 40
0.0005568957163877
 40
0.0005568957163877
 40
0.0005568957163877
 40
0.0005568957163877
 10
0.0975896575500013
 20
0.6496062992500034
 30
-1.428691448699996
 10
0.0976145407500013
 20
0.6496062992500034
 30
-1.428875405299996
 10
0.0976394239500014
 20
0.6496062992500034
 30
-1.429059361899996
 10
0.0976643071500014
 20
0.6496062992500034
 30
-1.429243318499995
 11
0.0975896575500013
 21
0.6496062992500034
 31
-1.428691448699996
 11
0.0976643071500014
 21
0.6496062992500034
 31
-1.429243318499995
  0
SPLINE
  5
2F44
100
AcDbEntity
  8
0
  6
CONTINUOUS
100
AcDbSpline
210
0.9912675858692859
220
0.0
230
0.1318657393141892
 70
    24
 71
     3
 72
     8
 73
     4
 74
     2
 42
0.0000001
 43
0.0000001
 44
0.0000000001
 40
0.0
 40
0.0
 40
0.0
 40
0.0
 40
0.0099688683871714
 40
0.0099688683871714
 40
0.0099688683871714
 40
0.0099688683871714
 10
0.0976643071500014
 20
0.6496062992500034
 30
-1.429243318499995
 10
0.0981024912166682
 20
0.6496062992500034
 30
-1.432537257199995
 10
0.0985406752833349
 20
0.6496062992500034
 30
-1.435831195899995
 10
0.0989788593500016
 20
0.6496062992500034
 30
-1.439125134599995
 11
0.0976643071500014
 21
0.6496062992500034
 31
-1.429243318499995
 11
0.0989788593500016
 21
0.6496062992500034
 31
-1.439125134599995
  0
SPLINE
  5
2F45
100
AcDbEntity
  8
0
  6
CONTINUOUS
100
AcDbSpline
210
0.0
220
1.0
230
0.0
 70
     8
 71
     3
 72
    13
 73
     9
 74
     7
 42
0.0000001
 43
0.0000001
 44
0.0000000001
 40
0.0
 40
0.0
 40
0.0
 40
0.0
 40
0.000512559461647
 40
0.0056705515735772
 40
0.0105025224109561
 40
0.0148769602599263
 40
0.0186824381900639
 40
0.0214497914865845
 40
0.0214497914865845
 40
0.0214497914865845
 40
0.0214497914865845
 10
-0.1144167176499984
 20
0.6496062992500034
 30
-1.546646260699995
 10
-0.1145875707010492
 20
0.6496062992500034
 30
-1.546646372141786
 10
-0.1164777534212619
 20
0.6496062992500034
 30
-1.546647605045422
 10
-0.119978602737419
 20
0.6496062992500031
 30
-1.546691502871905
 10
-0.1247645505164862
 20
0.6496062992500034
 30
-1.54684926421769
 10
-0.1290952773990747
 20
0.6496062992500035
 30
-1.547092085016471
 10
-0.1327338979295265
 20
0.6496062992500034
 30
-1.547378342183473
 10
-0.1349106556002479
 20
0.6496062992500033
 30
-1.547628328839941
 10
-0.1358271339499986
 20
0.6496062992500034
 30
-1.547733580499995
 11
-0.1144167176499984
 21
0.6496062992500034
 31
-1.546646260699995
 11
-0.1149292768499972
 21
0.6496062992500034
 31
-1.546646778599995
 11
-0.1200868693499988
 21
0.6496062992500034
 31
-1.546710983199997
 11
-0.1249160975499972
 21
0.6496062992500034
 31
-1.546873762699997
 11
-0.1292835872499971
 21
0.6496062992500034
 31
-1.547120217999996
 11
-0.133076298449998
 21
0.6496062992500034
 31
-1.547431672699996
 11
-0.1358271339499986
 21
0.6496062992500034
 31
-1.547733580499995
  0
SPLINE
  5
2F46
100
AcDbEntity
  8
0
  6
CONTINUOUS
100
AcDbSpline
210
-0.0000000000000207
220
1.0
230
0.0000000000001177
 70
     8
 71
     3
 72
    17
 73
    13
 74
    11
 42
0.0000001
 43
0.0000001
 44
0.0000000001
 40
0.0
 40
0.0
 40
0.0
 40
0.0
 40
0.0035290267139958
 40
0.0071829554180801
 40
0.0108193846288788
 40
0.0140743013534445
 40
0.0167330795620018
 40
0.0187553402525687
 40
0.0201941125139874
 40
0.0211345091658801
 40
0.0216768176036079
 40
0.0219683925347817
 40
0.0219683925347817
 40
0.0219683925347817
 40
0.0219683925347817
 10
-0.1144167359499981
 20
0.6496062992500034
 30
-1.536803879799997
 10
-0.1155898716874282
 20
0.6496062992500034
 30
-1.536891155673989
 10
-0.1179776636720843
 20
0.6496062992500035
 30
-1.537068796355901
 10
-0.1215672625248657
 20
0.6496062992500034
 30
-1.537419794900014
 10
-0.1250587060799467
 20
0.6496062992500035
 30
-1.537831591117886
 10
-0.1282089760482791
 20
0.6496062992500034
 30
-1.538286520578101
 10
-0.1308172370544245
 20
0.6496062992500033
 30
-1.538744817747335
 10
-0.1328041361115888
 20
0.6496062992500034
 30
-1.539184583678275
 10
-0.1342327522658746
 20
0.6496062992500033
 30
-1.539574191199474
 10
-0.1351140577404903
 20
0.6496062992500037
 30
-1.53993738912676
 10
-0.135681300961426
 20
0.6496062992500034
 30
-1.540213801664927
 10
-0.1357890786110655
 20
0.6496062992500034
 30
-1.540476946578959
 10
-0.1358267640499982
 20
0.6496062992500034
 30
-1.540568957599996
 11
-0.1144167359499981
 21
0.6496062992500034
 31
-1.536803879799997
 11
-0.1179350162499979
 21
0.6496062992500034
 31
-1.537079076599995
 11
-0.1215718158499985
 21
0.6496062992500034
 31
-1.537432465399996
 11
-0.1251826728499985
 21
0.6496062992500034
 31
-1.537862964099996
 11
-0.1284034669499974
 21
0.6496062992500034
 31
-1.538333036699995
 11
-0.131020401149998
 21
0.6496062992500034
 31
-1.538802884499997
 11
-0.1329934729499982
 21
0.6496062992500034
 31
-1.539246196999997
 11
-0.1343745765499982
 21
0.6496062992500034
 31
-1.539649456799995
 11
-0.1352449059499978
 21
0.6496062992500034
 31
-1.540005648599995
 11
-0.1356942904499974
 21
0.6496062992500034
 31
-1.540309214099996
 11
-0.1358267640499982
 21
0.6496062992500034
 31
-1.540568957599996
  0
SPLINE
  5
2F47
100
AcDbEntity
  8
0
  6
CONTINUOUS
100
AcDbSpline
210
0.9545962398630839
220
0.0
230
0.2979027002886372
 70
    24
 71
     3
 72
     8
 73
     4
 74
     2
 42
0.0000001
 43
0.0000001
 44
0.0000000001
 40
0.0
 40
0.0
 40
0.0
 40
0.0
 40
0.0042294772715412
 40
0.0042294772715412
 40
0.0042294772715412
 40
0.0042294772715412
 10
-0.1358267717499988
 20
0.6496062992500034
 30
-1.420369650799996
 10
-0.1354067808499983
 20
0.6496062992500034
 30
-1.421715465166662
 10
-0.1349867899499978
 20
0.6496062992500035
 30
-1.423061279533329
 10
-0.1345667990499972
 20
0.6496062992500034
 30
-1.424407093899995
 11
-0.1358267717499988
 21
0.6496062992500034
 31
-1.420369650799996
 11
-0.1345667990499972
 21
0.6496062992500034
 31
-1.424407093899995
  0
SPLINE
  5
2F48
100
AcDbEntity
  8
0
  6
CONTINUOUS
100
AcDbSpline
210
0.0
220
-1.0
230
0.0
 70
     8
 71
     3
 72
    12
 73
     8
 74
     6
 42
0.0000001
 43
0.0000001
 44
0.0000000001
 40
0.0
 40
0.0
 40
0.0
 40
0.0
 40
0.0054555254341911
 40
0.0124027116490498
 40
0.0206704370665041
 40
0.0298666446921228
 40
0.0394840876173049
 40
0.0394840876173049
 40
0.0394840876173049
 40
0.0394840876173049
 10
-0.1345667990499972
 20
0.6496062992500034
 30
-1.424407093899995
 10
-0.1334006889617951
 20
0.6496062992500034
 30
-1.425818576242573
 10
-0.1307496286103251
 20
0.6496062992500035
 30
-1.429027471280071
 10
-0.1246572722512999
 20
0.6496062992500034
 30
-1.432492300724242
 10
-0.1171385818177425
 20
0.6496062992500034
 30
-1.435569392873856
 10
-0.108378940284145
 20
0.6496062992500035
 30
-1.437917072613345
 10
-0.1021550997999028
 20
0.6496062992500034
 30
-1.438716093676982
 10
-0.0989735040499973
 20
0.6496062992500034
 30
-1.439124549199997
 11
-0.1345667990499972
 21
0.6496062992500034
 31
-1.424407093899995
 11
-0.1308741191499987
 21
0.6496062992500034
 31
-1.428422921699995
 11
-0.1250044067499978
 21
0.6496062992500034
 31
-1.432139085399995
 11
-0.1173640701499981
 21
0.6496062992500034
 31
-1.435298284699996
 11
-0.1084821123499982
 21
0.6496062992500034
 31
-1.437681782199996
 11
-0.0989735040499973
 21
0.6496062992500034
 31
-1.439124549199997
  0
SPLINE
  5
2F49
100
AcDbEntity
  8
0
  6
CONTINUOUS
100
AcDbSpline
210
0.0
220
1.0
230
0.0
 70
     8
 71
     3
 72
    16
 73
    12
 74
    10
 42
0.0000001
 43
0.0000001
 44
0.0000000001
 40
0.0
 40
0.0
 40
0.0
 40
0.0
 40
0.0046682326364353
 40
0.009333670962872
 40
0.0139803737321479
 40
0.0185933705022145
 40
0.0231567741218306
 40
0.0276548412825588
 40
0.0320718921443123
 40
0.0363932177540211
 40
0.0405993444842449
 40
0.0405993444842449
 40
0.0405993444842449
 40
0.0405993444842449
 10
-0.1054824086499977
 20
0.6496062992500034
 30
-1.479195993199995
 10
-0.1052502791647272
 20
0.6496062992500034
 30
-1.477657327168392
 10
-0.104786159142219
 20
0.6496062992500035
 30
-1.474580916119671
 10
-0.1040903703933192
 20
0.6496062992500033
 30
-1.469973026941968
 10
-0.1033910127819524
 20
0.6496062992500035
 30
-1.465384299765322
 10
-0.1026860941382104
 20
0.6496062992500033
 30
-1.460830832744081
 10
-0.1019730016620742
 20
0.6496062992500034
 30
-1.45632879103806
 10
-0.1012496119905216
 20
0.6496062992500034
 30
-1.451894541804895
 10
-0.1005120175166732
 20
0.6496062992500034
 30
-1.447544467311848
 10
-0.0997622444439283
 20
0.6496062992500034
 30
-1.443295183431247
 10
-0.0992340389739054
 20
0.6496062992500033
 30
-1.440502183565433
 10
-0.0989735040499973
 20
0.6496062992500034
 30
-1.439124549199997
 11
-0.1054824086499977
 21
0.6496062992500034
 31
-1.479195993199995
 11
-0.1047859183499984
 21
0.6496062992500034
 31
-1.474580010399996
 11
-0.1040883774499974
 21
0.6496062992500034
 31
-1.469967012299996
 11
-0.1033875174499972
 21
0.6496062992500034
 31
-1.465373468799995
 11
-0.1026808935499979
 21
0.6496062992500034
 31
-1.460814913999996
 11
-0.1019660965499973
 21
0.6496062992500034
 31
-1.456307839799995
 11
-0.101240600749998
 21
0.6496062992500034
 31
-1.451868665999995
 11
-0.1005017766499971
 21
0.6496062992500034
 31
-1.447513843699995
 11
-0.0997467694499985
 21
0.6496062992500034
 31
-1.443258985399996
 11
-0.0989735040499973
 21
0.6496062992500034
 31
-1.439124549199997
  0
SPLINE
  5
2F4A
100
AcDbEntity
  8
0
  6
CONTINUOUS
100
AcDbSpline
210
0.0000000000000001
220
1.0
230
-0.0000000000001074
 70
     8
 71
     3
 72
    11
 73
     7
 74
     5
 42
0.0000001
 43
0.0000001
 44
0.0000000001
 40
0.0
 40
0.0
 40
0.0
 40
0.0
 40
0.0039440627553581
 40
0.0107246198429857
 40
0.0196357402074426
 40
0.0297131298140874
 40
0.0297131298140874
 40
0.0297131298140874
 40
0.0297131298140874
 10
-0.135080991349998
 20
0.6496062992500034
 30
-1.479224226299995
 10
-0.133793710782021
 20
0.6496062992500034
 30
-1.478945085479335
 10
-0.1302933621366907
 20
0.6496062992500035
 30
-1.47818605111048
 10
-0.1236882027207448
 20
0.6496062992500033
 30
-1.47828151070853
 10
-0.1151930337088483
 20
0.6496062992500034
 30
-1.479671612047225
 10
-0.1088490944252441
 20
0.6496062992500034
 30
-1.479360894217938
 10
-0.1054823032499978
 20
0.6496062992500034
 30
-1.479195993199995
 11
-0.135080991349998
 21
0.6496062992500034
 31
-1.479224226299995
 11
-0.1312046448499977
 21
0.6496062992500034
 31
-1.478496511499995
 11
-0.1244245781499984
 21
0.6496062992500034
 31
-1.478414964199997
 11
-0.1155589939499979
 21
0.6496062992500034
 31
-1.479314676899996
 11
-0.1054823032499978
 21
0.6496062992500034
 31
-1.479195993199995
  0
SPLINE
  5
2F4B
100
AcDbEntity
  8
0
  6
CONTINUOUS
100
AcDbSpline
210
0.0000000000012005
220
1.0
230
-0.0000000000000206
 70
     8
 71
     3
 72
    10
 73
     6
 74
     4
 42
0.0000001
 43
0.0000001
 44
0.0000000001
 40
0.0
 40
0.0
 40
0.0
 40
0.0
 40
0.0141089537419971
 40
0.0285926436712573
 40
0.0434386382526806
 40
0.0434386382526806
 40
0.0434386382526806
 40
0.0434386382526806
 10
-0.1358267717499988
 20
0.6496062992500034
 30
-1.522654989899995
 10
-0.1358071256104265
 20
0.6496062992500034
 30
-1.517951998218476
 10
-0.1357673115265066
 20
0.6496062992500037
 30
-1.508421102604416
 10
-0.1354982616253974
 20
0.6496062992500034
 30
-1.493943553996961
 10
-0.1352212221823221
 20
0.6496062992500034
 30
-1.484170908812238
 10
-0.135080991349998
 20
0.6496062992500034
 30
-1.479224226299995
 11
-0.1358267717499988
 21
0.6496062992500034
 31
-1.522654989899995
 11
-0.1357344063499983
 21
0.6496062992500034
 31
-1.508546338499996
 11
-0.1354772467499981
 21
0.6496062992500034
 31
-1.494064931699996
 11
-0.135080991349998
 21
0.6496062992500034
 31
-1.479224226299995
  0
SPLINE
  5
2F4C
100
AcDbEntity
  8
0
  6
CONTINUOUS
100
AcDbSpline
210
0.000000000004077
220
-1.0
230
-0.0000000000006324
 70
     8
 71
     3
 72
     9
 73
     5
 74
     3
 42
0.0000001
 43
0.0000001
 44
0.0000000001
 40
0.0
 40
0.0
 40
0.0
 40
0.0
 40
0.0288552188887924
 40
0.0582968320585966
 40
0.0582968320585966
 40
0.0582968320585966
 40
0.0582968320585966
 10
-0.1054806151499985
 20
0.6496062992500034
 30
-1.479195993199995
 10
-0.1069373774821154
 20
0.6496062992500035
 30
-1.488703451130382
 10
-0.1098805063958834
 20
0.6496062992500037
 30
-1.50791157706448
 10
-0.1128945471203086
 20
0.6496062992500034
 30
-1.527108704075585
 10
-0.1144167262499973
 20
0.6496062992500034
 30
-1.536803817299995
 11
-0.1054806151499985
 21
0.6496062992500034
 31
-1.479195993199995
 11
-0.1098682752499975
 21
0.6496062992500034
 31
-1.507715672299996
 11
-0.1144167262499973
 21
0.6496062992500034
 31
-1.536803817299995
  0
SPLINE
  5
2F4D
100
AcDbEntity
  8
0
  6
CONTINUOUS
100
AcDbSpline
210
0.0
220
-1.0
230
0.0
 70
     8
 71
     3
 72
    10
 73
     6
 74
     4
 42
0.0000001
 43
0.0000001
 44
0.0000000001
 40
0.0
 40
0.0
 40
0.0
 40
0.0
 40
0.0156264877806337
 40
0.0328849646459588
 40
0.0519179692553476
 40
0.0519179692553476
 40
0.0519179692553476
 40
0.0519179692553476
 10
-0.135080991349998
 20
0.6496062992500034
 30
-1.479224226299995
 10
-0.1350074627749606
 20
0.6496062992500034
 30
-1.474015077355329
 10
-0.134852726494837
 20
0.6496062992500034
 30
-1.463052749717432
 10
-0.1354912354722275
 20
0.6496062992500034
 30
-1.445754393841229
 10
-0.135711338892444
 20
0.6496062992500035
 30
-1.433659480142944
 10
-0.1358267717499988
 20
0.6496062992500034
 30
-1.427316323599995
 11
-0.135080991349998
 21
0.6496062992500034
 31
-1.479224226299995
 11
-0.1349866672499989
 21
0.6496062992500034
 31
-1.463598023199995
 11
-0.1354182510499982
 21
0.6496062992500034
 31
-1.446344943499996
 11
-0.1358267717499988
 21
0.6496062992500034
 31
-1.427316323599995
  0
LINE
  5
2F4E
100
AcDbEntity
  8
0
  6
CONTINUOUS
100
AcDbLine
 10
0.135827
 20
0.649606
 30
-1.522564
 11
0.135827
 21
0.649606
 31
-1.715706
210
0.0
220
1.0
230
0.0000000000000002
  0
LINE
  5
2F4F
100
AcDbEntity
  8
0
  6
CONTINUOUS
100
AcDbLine
 10
-0.135827
 20
0.649606
 30
-1.522567
 11
-0.135827
 21
0.649606
 31
-1.715713
210
0.0
220
1.0
230
0.0000000000000002
  0
LINE
  5
2F50
100
AcDbEntity
  8
0
  6
CONTINUOUS
100
AcDbLine
 10
-0.135827
 20
0.649606
 30
-0.946438
 11
0.135827
 21
0.649606
 31
-0.94644
210
0.0
220
1.0
230
0.0000000000000002
  0
SPLINE
  5
2F51
100
AcDbEntity
  8
0
  6
CONTINUOUS
100
AcDbSpline
210
0.0000000000000063
220
1.0
230
0.000000000000018
 70
     8
 71
     3
 72
    15
 73
    11
 74
     9
 42
0.0000001
 43
0.0000001
 44
0.0000000001
 40
0.0
 40
0.0
 40
0.0
 40
0.0
 40
0.0046308737459566
 40
0.0131147362905007
 40
0.0257490943798724
 40
0.041988271620969
 40
0.0610719055027368
 40
0.0822092924006628
 40
0.1046578974553996
 40
0.127740581772324
 40
0.127740581772324
 40
0.127740581772324
 40
0.127740581772324
 10
0.1240157479500024
 20
0.6496062992500025
 30
-0.9670194769999955
 10
0.1232388268778384
 20
0.6496062992500025
 30
-0.9656393431443085
 10
0.1210385693154596
 20
0.6496062992500026
 30
-0.961730773713166
 10
0.1122066287153041
 20
0.6496062992500025
 30
-0.9590972957106
 10
0.1005071587933547
 20
0.6496062992500025
 30
-0.9557613654390054
 10
0.0845764904109413
 20
0.6496062992500025
 30
-0.9532281335121401
 10
0.0659264272706003
 20
0.6496062992500026
 30
-0.9510412823316677
 10
0.0450742060888701
 20
0.6496062992500022
 30
-0.9494967573698454
 10
0.022873136643343
 20
0.6496062992500029
 30
-0.9485081287585597
 10
0.0076948376812572
 20
0.6496062992500029
 30
-0.9483870201151736
 10
-0.0000000000499973
 20
0.6496062992500029
 30
-0.9483256224999969
 11
0.1240157479500024
 21
0.6496062992500025
 31
-0.9670194769999955
 11
0.1213984513500019
 21
0.6496062992500025
 31
-0.9631991693999957
 11
0.1137318936500016
 21
0.6496062992500025
 31
-0.9595660141999964
 11
0.1015310159500018
 21
0.6496062992500025
 31
-0.9562849186999962
 11
0.0855352860500016
 21
0.6496062992500025
 31
-0.9534835792999967
 11
0.0665830044500027
 21
0.6496062992500025
 31
-0.9512483825999957
 11
0.0455076873500016
 21
0.6496062992500025
 31
-0.9496296997999955
 11
0.0230803736500018
 21
0.6496062992500029
 31
-0.9486522187999959
 11
-0.0000000000499973
 21
0.6496062992500029
 31
-0.9483256224999969
  0
LINE
  5
2F52
100
AcDbEntity
  8
0
  6
CONTINUOUS
100
AcDbLine
 10
0.135827
 20
0.649606
 30
-0.94644
 11
0.135827
 21
0.649606
 31
-1.427326
210
0.0
220
1.0
230
0.0000000000000002
  0
LINE
  5
2F53
100
AcDbEntity
  8
0
  6
CONTINUOUS
100
AcDbLine
 10
-0.124016
 20
0.649606
 30
-0.968097
 11
-0.124016
 21
0.649606
 31
-0.967017
210
0.0
220
1.0
230
0.0000000000000002
  0
LWPOLYLINE
  5
2F54
100
AcDbEntity
  8
0
  6
CONTINUOUS
100
AcDbPolyline
 90
        9
 70
     0
 43
0.0
 38
0.649606
 10
0.125984
 20
-0.971186
 10
0.123182
 20
-0.974862
 10
0.115769
 20
-0.9781
 10
0.104005
 20
-0.981079
 10
0.088331
 20
-0.983686
 10
0.069336
 20
-0.985824
 10
0.047731
 20
-0.987411
 10
0.024322
 20
-0.988388
 10
-0.00015
 20
-0.98872
210
0.0
220
1.0
230
0.0000000000000002
  0
LINE
  5
2F55
100
AcDbEntity
  8
0
  6
CONTINUOUS
100
AcDbLine
 10
-0.124016
 20
0.649606
 30
-0.968097
 11
-0.125984
 21
0.649606
 31
-0.971186
210
0.0
220
1.0
230
0.0000000000000002
  0
LINE
  5
2F56
100
AcDbEntity
  8
0
  6
CONTINUOUS
100
AcDbLine
 10
-0.017729
 20
0.649606
 30
-0.98872
 11
0.017718
 21
0.649606
 31
-0.98872
210
0.0
220
1.0
230
0.0000000000000002
  0
LWPOLYLINE
  5
2F57
100
AcDbEntity
  8
0
  6
CONTINUOUS
100
AcDbPolyline
 90
        9
 70
     0
 43
0.0
 38
0.649606
 10
0.0
 20
-0.98872
 10
-0.024313
 20
-0.98839
 10
-0.047712
 20
-0.987414
 10
-0.069317
 20
-0.985827
 10
-0.088316
 20
-0.98369
 10
-0.103995
 20
-0.981083
 10
-0.115763
 20
-0.978104
 10
-0.12318
 20
-0.974865
 10
-0.125984
 20
-0.971188
210
0.0
220
1.0
230
0.0000000000000002
  0
LINE
  5
2F58
100
AcDbEntity
  8
0
  6
CONTINUOUS
100
AcDbLine
 10
0.124016
 20
0.649606
 30
-0.968099
 11
0.124016
 21
0.649606
 31
-0.967019
210
0.0
220
1.0
230
0.0000000000000002
  0
LINE
  5
2F59
100
AcDbEntity
  8
0
  6
CONTINUOUS
100
AcDbLine
 10
0.125984
 20
0.649606
 30
-0.971188
 11
0.124016
 21
0.649606
 31
-0.968099
210
0.0
220
1.0
230
0.0000000000000002
  0
SPLINE
  5
2F5A
100
AcDbEntity
  8
0
  6
CONTINUOUS
100
AcDbSpline
210
0.0000000000000023
220
-1.0
230
-0.0000000000000162
 70
     8
 71
     3
 72
    16
 73
    12
 74
    10
 42
0.0000001
 43
0.0000001
 44
0.0000000001
 40
0.0
 40
0.0
 40
0.0
 40
0.0
 40
0.0033636150511688
 40
0.0094707702090035
 40
0.0186860360758134
 40
0.0309593243278772
 40
0.0460154572743706
 40
0.0630786073290621
 40
0.0817417420984398
 40
0.1014690194783967
 40
0.1212821156505213
 40
0.1212821156505213
 40
0.1212821156505213
 40
0.1212821156505213
 10
0.1358267715500023
 20
0.6496062992500025
 30
-0.9720211057999961
 10
0.1353030113096564
 20
0.6496062992500025
 30
-0.9730455884820374
 10
0.1338282846226044
 20
0.6496062992500026
 30
-0.9759301754270699
 10
0.1274978179411166
 20
0.6496062992500024
 30
-0.9780917700717672
 10
0.1189197991919158
 20
0.6496062992500024
 30
-0.9807728340600043
 10
0.1068275429619144
 20
0.6496062992500026
 30
-0.9829923440827876
 10
0.0922048702445258
 20
0.6496062992500024
 30
-0.9850230099939343
 10
0.0753378384876851
 20
0.6496062992500025
 30
-0.9866403954879515
 10
0.0568936957339178
 20
0.6496062992500025
 30
-0.9878300807197092
 10
0.0375025589009139
 20
0.6496062992500025
 30
-0.9885798378745342
 10
0.0243222748703938
 20
0.6496062992500026
 30
-0.9886731527809978
 10
0.0177178295500014
 20
0.6496062992500025
 30
-0.9887199114999969
 11
0.1358267715500023
 21
0.6496062992500025
 31
-0.9720211057999961
 11
0.1340367964500029
 21
0.6496062992500025
 31
-0.9748688935999965
 11
0.1286187828500012
 21
0.6496062992500025
 31
-0.9776871328999963
 11
0.1197911632500013
 21
0.6496062992500025
 31
-0.9803317986999964
 11
0.1077565973500025
 21
0.6496062992500025
 31
-0.9827407046999958
 11
0.0928465724500019
 21
0.6496062992500025
 31
-0.9848331426999958
 11
0.0758654969500015
 21
0.6496062992500025
 31
-0.9865047181999972
 11
0.0572425926500024
 21
0.6496062992500025
 31
-0.9877294772999967
 11
0.0375294141500025
 21
0.6496062992500025
 31
-0.9884751757999961
 11
0.0177178295500014
 21
0.6496062992500025
 31
-0.9887199114999969
  0
SPLINE
  5
2F5B
100
AcDbEntity
  8
0
  6
CONTINUOUS
100
AcDbSpline
210
-0.0000000000000084
220
1.0
230
0.0000000000000321
 70
     8
 71
     3
 72
    15
 73
    11
 74
     9
 42
0.0000001
 43
0.0000001
 44
0.0000000001
 40
0.0
 40
0.0
 40
0.0
 40
0.0
 40
0.004631762231811
 40
0.0131164615788661
 40
0.0257511730890703
 40
0.0419897838050596
 40
0.0610723963469568
 40
0.0822089930622662
 40
0.1046574484433817
 40
0.1277406036523098
 40
0.1277406036523098
 40
0.1277406036523098
 40
0.1277406036523098
 10
-0.1240157480499988
 20
0.6496062992500025
 30
-0.9670170183999964
 10
-0.1232385958500437
 20
0.6496062992500025
 30
-0.965636666429124
 10
-0.1210378164357565
 20
0.6496062992500022
 30
-0.9617277150008943
 10
-0.1122051559028974
 20
0.6496062992500025
 30
-0.959094309529269
 10
-0.1005054112374593
 20
0.6496062992500028
 30
-0.9557584526756166
 10
-0.0845751659496089
 20
0.6496062992500024
 30
-0.9532253623360844
 10
-0.0659258784291149
 20
0.6496062992500025
 30
-0.9510386186288
 10
-0.0450743138417572
 20
0.6496062992500024
 30
-0.9494941266413761
 10
-0.0228734007286209
 20
0.649606299250003
 30
-0.9485054826264779
 10
-0.0076949947333222
 20
0.649606299250003
 30
-0.9483843696375812
 10
-0.0000000000499973
 20
0.6496062992500029
 30
-0.9483229689999959
 11
-0.1240157480499988
 21
0.6496062992500025
 31
-0.9670170183999964
 11
-0.1213977143499978
 21
0.6496062992500025
 31
-0.9631961387999972
 11
-0.1137302641499982
 21
0.6496062992500025
 31
-0.9595629128999956
 11
-0.101528994549998
 21
0.6496062992500025
 31
-0.9562819137999962
 11
-0.0855338060499982
 21
0.6496062992500025
 31
-0.9534807670999967
 11
-0.0665825358499976
 21
0.6496062992500025
 31
-0.951245714699997
 11
-0.0455080076499979
 21
0.6496062992500025
 31
-0.9496270788999972
 11
-0.0230808444499982
 21
0.6496062992500029
 31
-0.9486495821999962
 11
-0.0000000000499973
 21
0.6496062992500029
 31
-0.9483229689999959
  0
SPLINE
  5
2F5C
100
AcDbEntity
  8
0
  6
CONTINUOUS
100
AcDbSpline
210
0.0000000000000045
220
-1.0
230
0.000000000000032
 70
     8
 71
     3
 72
    15
 73
    11
 74
     9
 42
0.0000001
 43
0.0000001
 44
0.0000000001
 40
0.0
 40
0.0
 40
0.0
 40
0.0
 40
0.0222819223000258
 40
0.0443211904100647
 40
0.0647716719903848
 40
0.0830999352897354
 40
0.0983613994517697
 40
0.1097963061239055
 40
0.1173234971883595
 40
0.1212445288899116
 40
0.1212445288899116
 40
0.1212445288899116
 40
0.1212445288899116
 10
-0.0177179972499975
 20
0.6496062992500025
 30
-0.9887199114999969
 10
-0.0251458893268719
 20
0.6496062992500024
 30
-0.9886612621208435
 10
-0.0399207823837507
 20
0.6496062992500025
 30
-0.9885446020649521
 10
-0.061490437681641
 20
0.6496062992500026
 30
-0.9875996923538588
 10
-0.0817293744042875
 20
0.6496062992500028
 30
-0.9861323939388386
 10
-0.0995828319797445
 20
0.6496062992500022
 30
-0.9840837450130088
 10
-0.1145541248581596
 20
0.6496062992500025
 30
-0.9817770002220685
 10
-0.1252836327156994
 20
0.6496062992500025
 30
-0.9787765271188078
 10
-0.1331689913530816
 20
0.6496062992500025
 30
-0.976551229839414
 10
-0.1351487140592973
 20
0.6496062992500026
 30
-0.9731780331164342
 10
-0.1358267717499988
 20
0.6496062992500025
 30
-0.9720227086999972
 11
-0.0177179972499975
 21
0.6496062992500025
 31
-0.9887199114999969
 11
-0.0399977646499981
 21
0.6496062992500025
 31
-0.9884100308999972
 11
-0.062016868649998
 21
0.6496062992500025
 31
-0.987467482299996
 11
-0.0824096650499975
 21
0.6496062992500025
 31
-0.9859325386999966
 11
-0.1006174210499982
 21
0.6496062992500025
 31
-0.9838342400999966
 11
-0.1156607317499976
 21
0.6496062992500025
 31
-0.981263035799996
 11
-0.126723070749998
 21
0.6496062992500025
 31
-0.9783679111999958
 11
-0.1335620606499983
 21
0.6496062992500025
 31
-0.9752235793999961
 11
-0.1358267717499988
 21
0.6496062992500025
 31
-0.9720227086999972
  0
LINE
  5
2F5D
100
AcDbEntity
  8
0
  6
CONTINUOUS
100
AcDbLine
 10
0.109929
 20
0.432503
 30
-1.948819
 11
0.113082
 21
0.417823
 31
-1.948819
210
-0.0000000000000001
220
0.0
230
-1.0
  0
LINE
  5
2F5E
100
AcDbEntity
  8
0
  6
CONTINUOUS
100
AcDbLine
 10
0.123563
 20
0.365322
 30
-1.948819
 11
0.125098
 21
0.380784
 31
-1.948819
210
-0.0000000000000001
220
0.0
230
-1.0
  0
LINE
  5
2F5F
100
AcDbEntity
  8
0
  6
CONTINUOUS
100
AcDbLine
 10
0.124861
 20
0.383195
 30
-1.948819
 11
0.123564
 21
0.370122
 31
-1.948819
210
-0.0000000000000001
220
0.0
230
-1.0
  0
LWPOLYLINE
  5
2F60
100
AcDbEntity
  8
0
  6
CONTINUOUS
100
AcDbPolyline
 90
        3
 70
     0
 43
0.0
 38
1.948819
 10
-0.11665
 20
0.391839
 10
-0.117709
 20
0.40747
 10
-0.116972
 20
0.418351
210
-0.0000000000000001
220
0.0
230
-1.0
  0
LINE
  5
2F61
100
AcDbEntity
  8
0
  6
CONTINUOUS
100
AcDbLine
 10
0.066929
 20
0.310723
 30
-1.948819
 11
0.066929
 21
0.288918
 31
-1.948819
210
-0.0000000000000001
220
0.0
230
-1.0
  0
LINE
  5
2F62
100
AcDbEntity
  8
0
  6
CONTINUOUS
100
AcDbLine
 10
-0.085285
 20
0.32685
 30
-1.948819
 11
-0.091167
 21
0.33341
 31
-1.948819
210
-0.0000000000000001
220
0.0
230
-1.0
  0
LWPOLYLINE
  5
2F63
100
AcDbEntity
  8
0
  6
CONTINUOUS
100
AcDbPolyline
 90
        7
 70
     0
 43
0.0
 38
1.948819
 10
0.085288
 20
0.326854
 10
0.074962
 20
0.316717
 10
0.061903
 20
0.306972
 10
0.047575
 20
0.299177
 10
0.032271
 20
0.293491
 10
0.016306
 20
0.290031
 10
0.0
 20
0.28887
210
-0.0000000000000001
220
0.0
230
-1.0
  0
LWPOLYLINE
  5
2F64
100
AcDbEntity
  8
0
  6
CONTINUOUS
100
AcDbPolyline
 90
        6
 70
     0
 43
0.0
 38
1.948819
 10
-0.121484
 20
0.403432
 10
-0.118987
 20
0.386992
 10
-0.113611
 20
0.369691
 10
-0.105696
 20
0.353378
 10
-0.09542
 20
0.338419
 10
-0.091169
 20
0.333414
210
-0.0000000000000001
220
0.0
230
-1.0
  0
LINE
  5
2F65
100
AcDbEntity
  8
0
  6
CONTINUOUS
100
AcDbLine
 10
0.015748
 20
0.482299
 30
-1.948819
 11
0.015748
 21
0.417823
 31
-1.948819
210
-0.0000000000000001
220
0.0
230
-1.0
  0
LINE
  5
2F66
100
AcDbEntity
  8
0
  6
CONTINUOUS
100
AcDbLine
 10
0.015748
 20
0.322085
 30
-1.948819
 11
0.015748
 21
0.391839
 31
-1.948819
210
-0.0000000000000001
220
0.0
230
-1.0
  0
LWPOLYLINE
  5
2F67
100
AcDbEntity
  8
0
  6
CONTINUOUS
100
AcDbPolyline
 90
        8
 70
     0
 43
0.0
 38
1.948819
 10
-0.123564
 20
0.370122
 10
-0.116395
 20
0.346665
 10
-0.104753
 20
0.325045
 10
-0.089084
 20
0.306095
 10
-0.069992
 20
0.290543
 10
-0.04821
 20
0.278988
 10
-0.024576
 20
0.271872
 10
0.0
 20
0.26947
210
-0.0000000000000001
220
0.0
230
-1.0
  0
LWPOLYLINE
  5
2F68
100
AcDbEntity
  8
0
  6
CONTINUOUS
100
AcDbPolyline
 90
        6
 70
     0
 43
0.0
 38
1.948819
 10
-0.113082
 20
0.386561
 10
-0.109675
 20
0.370697
 10
-0.104022
 20
0.35548
 10
-0.09624
 20
0.341221
 10
-0.086486
 20
0.328211
 10
-0.085288
 20
0.326854
210
-0.0000000000000001
220
0.0
230
-1.0
  0
LINE
  5
2F69
100
AcDbEntity
  8
0
  6
CONTINUOUS
100
AcDbLine
 10
-0.015748
 20
0.322085
 30
-1.948819
 11
-0.015748
 21
0.391839
 31
-1.948819
210
-0.0000000000000001
220
0.0
230
-1.0
  0
LINE
  5
2F6A
100
AcDbEntity
  8
0
  6
CONTINUOUS
100
AcDbLine
 10
-0.015748
 20
0.417823
 30
-1.948819
 11
-0.015748
 21
0.482299
 31
-1.948819
210
-0.0000000000000001
220
0.0
230
-1.0
  0
LINE
  5
2F6B
100
AcDbEntity
  8
0
  6
CONTINUOUS
100
AcDbLine
 10
-0.066929
 20
0.310723
 30
-1.948819
 11
-0.066929
 21
0.28927
 31
-1.948819
210
-0.0000000000000001
220
0.0
230
-1.0
  0
LWPOLYLINE
  5
2F6C
100
AcDbEntity
  8
0
  6
CONTINUOUS
100
AcDbPolyline
 90
        6
 70
     0
 43
0.0
 38
1.948819
 10
0.121449
 20
0.403199
 10
0.118987
 20
0.386992
 10
0.113611
 20
0.369691
 10
0.105696
 20
0.353378
 10
0.09542
 20
0.338419
 10
0.091169
 20
0.333414
210
-0.0000000000000001
220
0.0
230
-1.0
  0
LWPOLYLINE
  5
2F6D
100
AcDbEntity
  8
0
  6
CONTINUOUS
100
AcDbPolyline
 90
        3
 70
     0
 43
0.0
 38
1.948819
 10
0.119818
 20
0.355872
 10
0.125294
 20
0.381444
 10
0.125386
 20
0.383193
210
-0.0000000000000001
220
0.0
230
-1.0
  0
LWPOLYLINE
  5
2F6E
100
AcDbEntity
  8
0
  6
CONTINUOUS
100
AcDbPolyline
 90
        7
 70
     0
 43
0.0
 38
1.948819
 10
0.125294
 20
0.376646
 10
0.119818
 20
0.351076
 10
0.109106
 20
0.327195
 10
0.093625
 20
0.306046
 10
0.074052
 20
0.288554
 10
0.051242
 20
0.275483
 10
0.026194
 20
0.267405
210
-0.0000000000000001
220
0.0
230
-1.0
  0
LWPOLYLINE
  5
2F6F
100
AcDbEntity
  8
0
  6
CONTINUOUS
100
AcDbPolyline
 90
        6
 70
     0
 43
0.0
 38
1.948819
 10
0.113082
 20
0.386561
 10
0.109675
 20
0.370697
 10
0.104022
 20
0.35548
 10
0.09624
 20
0.341221
 10
0.086486
 20
0.328211
 10
0.085288
 20
0.326854
210
-0.0000000000000001
220
0.0
230
-1.0
  0
LINE
  5
2F70
100
AcDbEntity
  8
0
  6
CONTINUOUS
100
AcDbLine
 10
-0.125511
 20
0.380781
 30
-1.948819
 11
-0.125294
 21
0.376646
 31
-1.948819
210
-0.0000000000000001
220
0.0
230
-1.0
  0
LWPOLYLINE
  5
2F71
100
AcDbEntity
  8
0
  6
CONTINUOUS
100
AcDbPolyline
 90
        7
 70
     0
 43
0.0
 38
1.948819
 10
-0.085288
 20
0.326854
 10
-0.074962
 20
0.316717
 10
-0.061903
 20
0.306972
 10
-0.047575
 20
0.299177
 10
-0.032271
 20
0.293491
 10
-0.016306
 20
0.290031
 10
0.0
 20
0.28887
210
-0.0000000000000001
220
0.0
230
-1.0
  0
LINE
  5
2F72
100
AcDbEntity
  8
0
  6
CONTINUOUS
100
AcDbLine
 10
0.085285
 20
0.32685
 30
-1.948819
 11
0.091167
 21
0.33341
 31
-1.948819
210
-0.0000000000000001
220
0.0
230
-1.0
  0
LWPOLYLINE
  5
2F73
100
AcDbEntity
  8
0
  6
CONTINUOUS
100
AcDbPolyline
 90
        3
 70
     0
 43
0.0
 38
1.948819
 10
0.117045
 20
0.41727
 10
0.117709
 20
0.40747
 10
0.11665
 20
0.391839
210
-0.0000000000000001
220
0.0
230
-1.0
  0
LINE
  5
2F74
100
AcDbEntity
  8
0
  6
CONTINUOUS
100
AcDbLine
 10
-0.026194
 20
0.267405
 30
-1.948819
 11
0.0
 21
0.264672
 31
-1.948819
210
-0.0000000000000001
220
0.0
230
-1.0
  0
LWPOLYLINE
  5
2F75
100
AcDbEntity
  8
0
  6
CONTINUOUS
100
AcDbPolyline
 90
        7
 70
     0
 43
0.0
 38
1.948819
 10
0.0
 20
0.26947
 10
0.026191
 20
0.272202
 10
0.051239
 20
0.280279
 10
0.074049
 20
0.293349
 10
0.093622
 20
0.310841
 10
0.109104
 20
0.33199
 10
0.119818
 20
0.355872
210
-0.0000000000000001
220
0.0
230
-1.0
  0
LINE
  5
2F76
100
AcDbEntity
  8
0
  6
CONTINUOUS
100
AcDbLine
 10
0.058152
 20
0.264672
 30
-1.948819
 11
-0.058174
 21
0.264672
 31
-1.948819
210
-0.0000000000000001
220
0.0
230
-1.0
  0
LWPOLYLINE
  5
2F77
100
AcDbEntity
  8
0
  6
CONTINUOUS
100
AcDbPolyline
 90
        8
 70
     0
 43
0.0
 38
1.948819
 10
0.0
 20
0.264672
 10
-0.024578
 20
0.267075
 10
-0.048212
 20
0.274191
 10
-0.069993
 20
0.285746
 10
-0.089084
 20
0.301297
 10
-0.104752
 20
0.320246
 10
-0.116394
 20
0.341865
 10
-0.123563
 20
0.365322
210
-0.0000000000000001
220
0.0
230
-1.0
  0
LINE
  5
2F78
100
AcDbEntity
  8
0
  6
CONTINUOUS
100
AcDbLine
 10
0.015748
 20
0.322085
 30
-1.948819
 11
-0.015748
 21
0.322085
 31
-1.948819
210
-0.0000000000000001
220
0.0
230
-1.0
  0
LINE
  5
2F79
100
AcDbEntity
  8
0
  6
CONTINUOUS
100
AcDbLine
 10
0.015748
 20
0.327363
 30
-1.948819
 11
-0.015748
 21
0.327363
 31
-1.948819
210
-0.0000000000000001
220
0.0
230
-1.0
  0
LWPOLYLINE
  5
2F7A
100
AcDbEntity
  8
0
  6
CONTINUOUS
100
AcDbPolyline
 90
        3
 70
     0
 43
0.0
 38
1.948819
 10
0.109253
 20
0.434823
 10
0.109675
 20
0.433687
 10
0.113082
 20
0.417823
210
-0.0000000000000001
220
0.0
230
-1.0
  0
LINE
  5
2F7B
100
AcDbEntity
  8
0
  6
CONTINUOUS
100
AcDbLine
 10
-0.113082
 20
0.386561
 30
-1.948819
 11
-0.015748
 21
0.386561
 31
-1.948819
210
-0.0000000000000001
220
0.0
230
-1.0
  0
LINE
  5
2F7C
100
AcDbEntity
  8
0
  6
CONTINUOUS
100
AcDbLine
 10
0.113082
 20
0.386561
 30
-1.948819
 11
0.015748
 21
0.386561
 31
-1.948819
210
-0.0000000000000001
220
0.0
230
-1.0
  0
LINE
  5
2F7D
100
AcDbEntity
  8
0
  6
CONTINUOUS
100
AcDbLine
 10
0.11665
 20
0.391839
 30
-1.948819
 11
0.015748
 21
0.391839
 31
-1.948819
210
-0.0000000000000001
220
0.0
230
-1.0
  0
LINE
  5
2F7E
100
AcDbEntity
  8
0
  6
CONTINUOUS
100
AcDbLine
 10
-0.015748
 20
0.391839
 30
-1.948819
 11
-0.11665
 21
0.391839
 31
-1.948819
210
-0.0000000000000001
220
0.0
230
-1.0
  0
LINE
  5
2F7F
100
AcDbEntity
  8
0
  6
CONTINUOUS
100
AcDbLine
 10
-0.113082
 20
0.417823
 30
-1.948819
 11
-0.015748
 21
0.417823
 31
-1.948819
210
-0.0000000000000001
220
0.0
230
-1.0
  0
LINE
  5
2F80
100
AcDbEntity
  8
0
  6
CONTINUOUS
100
AcDbLine
 10
0.113082
 20
0.417823
 30
-1.948819
 11
0.015748
 21
0.417823
 31
-1.948819
210
-0.0000000000000001
220
0.0
230
-1.0
  0
LINE
  5
2F81
100
AcDbEntity
  8
0
  6
CONTINUOUS
100
AcDbLine
 10
-0.015748
 20
0.482299
 30
-1.948819
 11
0.015748
 21
0.482299
 31
-1.948819
210
-0.0000000000000001
220
0.0
230
-1.0
  0
SPLINE
  5
2F82
100
AcDbEntity
  8
0
  6
CONTINUOUS
100
AcDbSpline
210
-0.8283964814545138
220
-0.5601421868720314
230
0.0
 70
    24
 71
     3
 72
     9
 73
     5
 74
     3
 42
0.0000001
 43
0.0000001
 44
0.0000000001
 40
0.0
 40
0.0
 40
0.0
 40
0.0
 40
0.0021147591961939
 40
0.0040067619519159
 40
0.0040067619519159
 40
0.0040067619519159
 40
0.0040067619519159
 10
-0.1130819418499982
 20
0.4178227383499991
 30
-1.948818897599998
 10
-0.1134768336906853
 20
0.4184066666538273
 30
-1.948818897599998
 10
-0.1142250217610978
 20
0.4195130156483781
 30
-1.948818897599998
 10
-0.1149730686748094
 20
0.4206194600892786
 30
-1.948818897599998
 10
-0.1153262982499967
 20
0.4211419258499998
 30
-1.948818897599998
 11
-0.1130819418499982
 21
0.4178227383499991
 31
-1.948818897599998
 11
-0.1142665780499996
 21
0.4195745498499992
 31
-1.948818897599998
 11
-0.1153262982499967
 21
0.4211419258499998
 31
-1.948818897599998
  0
SPLINE
  5
2F83
100
AcDbEntity
  8
0
  6
CONTINUOUS
100
AcDbSpline
210
-0.8284041953558112
220
0.5601307785837976
230
0.0
 70
    24
 71
     3
 72
    10
 73
     6
 74
     4
 42
0.0000001
 43
0.0000001
 44
0.0000000001
 40
0.0
 40
0.0
 40
0.0
 40
0.0
 40
0.0004247840523449
 40
0.0025484205836768
 40
0.0046632317010582
 40
0.0046632317010582
 40
0.0046632317010582
 40
0.0046632317010582
 10
0.115693961449999
 20
0.4216857790499997
 30
-1.948818897599998
 10
0.115614660646611
 20
0.4215684741602944
 30
-1.948818897599998
 10
0.1151389087944865
 20
0.4208647231747272
 30
-1.948818897599998
 10
0.1142682882753656
 20
0.4195770073154405
 30
-1.948818897599998
 10
0.113476841334153
 20
0.4184066823773999
 30
-1.948818897599999
 10
0.1130819418499982
 20
0.4178227383499991
 30
-1.948818897599998
 11
0.115693961449999
 21
0.4216857790499997
 31
-1.948818897599998
 11
0.1154560580500004
 21
0.4213338650500003
 31
-1.948818897599998
 11
0.1142666071500002
 21
0.4195745928499992
 31
-1.948818897599998
 11
0.1130819418499982
 21
0.4178227383499991
 31
-1.948818897599998
  0
SPLINE
  5
2F84
100
AcDbEntity
  8
0
  6
CONTINUOUS
100
AcDbSpline
210
-0.8284240137955277
220
0.5601014670279908
230
0.0
 70
    24
 71
     3
 72
    10
 73
     6
 74
     4
 42
0.0000001
 43
0.0000001
 44
0.0000000001
 40
0.0
 40
0.0
 40
0.0
 40
0.0
 40
0.0021147591961939
 40
0.0042383956446849
 40
0.0063708995948248
 40
0.0063708995948248
 40
0.0063708995948248
 40
0.0063708995948248
 10
0.1130819418499982
 20
0.386561442249997
 30
-1.948818897599998
 10
0.1134768311598007
 20
0.3871453722647403
 30
-1.948818897599998
 10
0.1142682674300919
 20
0.3883156834924881
 30
-1.948818897599998
 10
0.1154577149142646
 20
0.3900749539852937
 30
-1.948818897599998
 10
0.1162522145684594
 20
0.3912503340090321
 30
-1.948818897599999
 10
0.1166502920499965
 20
0.3918392484499993
 30
-1.948818897599998
 11
0.1130819418499982
 21
0.386561442249997
 31
-1.948818897599998
 11
0.1142665780499996
 21
0.3883132537499971
 31
-1.948818897599998
 11
0.1154560289499997
 21
0.3900725258499999
 31
-1.948818897599998
 11
0.1166502920499965
 21
0.3918392484499993
 31
-1.948818897599998
  0
SPLINE
  5
2F85
100
AcDbEntity
  8
0
  6
CONTINUOUS
100
AcDbSpline
210
-0.8284240065122583
220
-0.5601014778003876
230
0.0
 70
    24
 71
     3
 72
    10
 73
     6
 74
     4
 42
0.0000001
 43
0.0000001
 44
0.0000000001
 40
0.0
 40
0.0
 40
0.0
 40
0.0
 40
0.0021324520289565
 40
0.0042560885334586
 40
0.0063708996508399
 40
0.0063708996508399
 40
0.0063708996508399
 40
0.0063708996508399
 10
-0.1166502921499983
 20
0.3918392484499993
 30
-1.948818897599998
 10
-0.1162522243774879
 20
0.3912503483362629
 30
-1.948818897599998
 10
-0.1154577344386215
 20
0.3900749826129586
 30
-1.948818897599998
 10
-0.1142682868261201
 20
0.3883157121843762
 30
-1.948818897599998
 10
-0.1134768408534099
 20
0.3871453866023944
 30
-1.948818897599998
 10
-0.1130819418499982
 20
0.386561442249997
 30
-1.948818897599998
 11
-0.1166502921499983
 21
0.3918392484499993
 31
-1.948818897599998
 11
-0.1154560581500021
 21
0.39007256885
 31
-1.948818897599998
 11
-0.1142666071500002
 21
0.3883132967499971
 31
-1.948818897599998
 11
-0.1130819418499982
 21
0.386561442249997
 31
-1.948818897599998
  0
SPLINE
  5
2F86
100
AcDbEntity
  8
0
  6
CONTINUOUS
100
AcDbSpline
210
0.0000000000000083
220
0.0000000000000083
230
1.0
 70
     8
 71
     3
 72
    15
 73
    11
 74
     9
 42
0.0000001
 43
0.0000001
 44
0.0000000001
 40
0.0
 40
0.0
 40
0.0
 40
0.0
 40
0.0249896020877379
 40
0.0499501794281384
 40
0.0748550427797844
 40
0.0996862857673655
 40
0.1244374347715873
 40
0.1491142263808522
 40
0.1737334652228412
 40
0.1983204455413456
 40
0.1983204455413456
 40
0.1983204455413456
 40
0.1983204455413456
 10
0.1259842519500012
 20
0.3717548726499995
 30
-1.948818897599998
 10
0.1255114709036658
 20
0.380098024817566
 30
-1.948818897599998
 10
0.1245664579334007
 20
0.3967746388069777
 30
-1.948818897599999
 10
0.1170215207690035
 20
0.4208114058026922
 30
-1.948818897599998
 10
0.1053135326545602
 20
0.4429290559268913
 30
-1.948818897599998
 10
0.089472103542626
 20
0.4622659675863083
 30
-1.948818897599999
 10
0.0702448299123115
 20
0.4781213001421934
 30
-1.948818897599998
 10
0.0483504655500909
 20
0.4897870295062169
 30
-1.948818897599999
 10
0.0246373430945389
 20
0.4972796527583058
 30
-1.948818897599999
 10
0.0082088576126546
 20
0.4982169186364528
 30
-1.948818897599998
 10
-0.0000000000500009
 20
0.4986852443499981
 30
-1.948818897599998
 11
0.1259842519500012
 21
0.3717548726499995
 31
-1.948818897599998
 11
0.1235423042500017
 21
0.396624876749998
 31
-1.948818897599998
 11
0.1163168974499982
 21
0.4205167983499987
 31
-1.948818897599998
 11
0.1046044653500004
 21
0.4424956780499994
 31
-1.948818897599998
 11
0.0888799427499976
 21
0.4617136388499983
 31
-1.948818897599998
 11
0.0697699652500035
 21
0.4774434874499978
 31
-1.948818897599998
 11
0.0480212468499985
 21
0.4891027023499977
 31
-1.948818897599998
 11
0.0244679054500026
 21
0.496268386549998
 31
-1.948818897599998
 11
-0.0000000000500009
 21
0.4986852443499981
 31
-1.948818897599998
  0
SPLINE
  5
2F87
100
AcDbEntity
  8
0
  6
CONTINUOUS
100
AcDbSpline
210
-0.0000000000000043
220
0.0000000000000044
230
1.0
 70
     8
 71
     3
 72
    15
 73
    11
 74
     9
 42
0.0000001
 43
0.0000001
 44
0.0000000001
 40
0.0
 40
0.0
 40
0.0
 40
0.0
 40
0.0245898179980721
 40
0.04920989286763
 40
0.0738859365841975
 40
0.0986354583799574
 40
0.1234648139656182
 40
0.1483682144710522
 40
0.1733285287127859
 40
0.193535998880725
 40
0.193535998880725
 40
0.193535998880725
 40
0.193535998880725
 10
-0.0000000000500009
 20
0.2496585387499994
 30
-1.948818897599998
 10
0.0082098060328877
 20
0.2501269701500862
 30
-1.948818897599998
 10
0.0246395200647135
 20
0.2510644093379609
 30
-1.948818897599998
 10
0.0483534397846929
 20
0.2585579812305388
 30
-1.948818897599999
 10
0.0702468874556662
 20
0.2702240172089634
 30
-1.948818897599998
 10
0.0894733094272873
 20
0.2860788277135637
 30
-1.948818897599998
 10
0.1053116038140729
 20
0.3054141803746209
 30
-1.948818897599999
 10
0.1170267666797643
 20
0.3275317140771512
 30
-1.948818897599998
 10
0.1240635616449219
 20
0.3500283787453819
 30
-1.948818897599999
 10
0.125328126317762
 20
0.365061242887271
 30
-1.948818897599998
 10
0.1258938758499966
 20
0.371786747749999
 30
-1.948818897599998
 11
-0.0000000000500009
 21
0.2496585387499994
 31
-1.948818897599998
 11
0.0244707018499995
 21
0.2520759542499977
 31
-1.948818897599998
 11
0.0480246559500017
 21
0.259242496849998
 31
-1.948818897599998
 11
0.0697724075499977
 21
0.2709019322500001
 31
-1.948818897599998
 11
0.0888808640499974
 21
0.2866310682499975
 31
-1.948818897599998
 11
0.1046041372499999
 21
0.30584761265
 31
-1.948818897599998
 11
0.1163161105500023
 21
0.3278250792499993
 31
-1.948818897599998
 11
0.123541851749998
 21
0.3517166248499972
 31
-1.948818897599998
 11
0.1258938758499966
 21
0.371786747749999
 31
-1.948818897599998
  0
SPLINE
  5
2F88
100
AcDbEntity
  8
0
  6
CONTINUOUS
100
AcDbSpline
210
-0.0019038093967431
220
0.9999981877532484
230
0.0
 70
    24
 71
     3
 72
     8
 73
     4
 74
     2
 42
0.0000001
 43
0.0000001
 44
0.0000000001
 40
0.0
 40
0.0
 40
0.0
 40
0.0
 40
0.0004730515572881
 40
0.0004730515572881
 40
0.0004730515572881
 40
0.0004730515572881
 10
-0.0000000000500009
 20
0.2448245008499992
 30
-1.948818897599998
 10
0.0001576835166664
 20
0.2448248010499991
 30
-1.948818897599998
 10
0.0003153670833337
 20
0.2448251012499992
 30
-1.948818897599998
 10
0.000473050650001
 20
0.2448254014499991
 30
-1.948818897599998
 11
-0.0000000000500009
 21
0.2448245008499992
 31
-1.948818897599998
 11
0.000473050650001
 21
0.2448254014499991
 31
-1.948818897599998
  0
SPLINE
  5
2F89
100
AcDbEntity
  8
0
  6
CONTINUOUS
100
AcDbSpline
210
-0.0000000000000042
220
0.0000000000000041
230
1.0
 70
     8
 71
     3
 72
    15
 73
    11
 74
     9
 42
0.0000001
 43
0.0000001
 44
0.0000000001
 40
0.0
 40
0.0
 40
0.0
 40
0.0
 40
0.0241161753946011
 40
0.0487354142657024
 40
0.0734122057868252
 40
0.0981633546502918
 40
0.1229945974971533
 40
0.1478994608075759
 40
0.1728600382436933
 40
0.1978496405304776
 40
0.1978496405304776
 40
0.1978496405304776
 40
0.1978496405304776
 10
0.000473050650001
 20
0.2448254014499991
 30
-1.948818897599998
 10
0.0085223455878695
 20
0.2453068724193753
 30
-1.948818897599999
 10
0.024788843775292
 20
0.2462798578437022
 30
-1.948818897599999
 10
0.0483503591554689
 20
0.2537221684190732
 30
-1.948818897599998
 10
0.0702448586556226
 20
0.2653885924528622
 30
-1.948818897599998
 10
0.0894720958412205
 20
0.2812437379479837
 30
-1.948818897599998
 10
0.1053135345968834
 20
0.3005806999012013
 30
-1.948818897599998
 10
0.1170215202851909
 20
0.3226983363560336
 30
-1.948818897599998
 10
0.1245664580688948
 20
0.3467351070502014
 30
-1.948818897599998
 10
0.1255114709481976
 20
0.3634117206567537
 30
-1.948818897599998
 10
0.1259842519500012
 20
0.3717548726499995
 30
-1.948818897599998
 11
0.000473050650001
 21
0.2448254014499991
 31
-1.948818897599998
 11
0.024467905649999
 21
0.2472413586499993
 31
-1.948818897599998
 11
0.0480212470500021
 21
0.2544070429499978
 31
-1.948818897599998
 11
0.0697699653499981
 21
0.2660662578499977
 31
-1.948818897599998
 11
0.0888799427499976
 21
0.281796106349999
 31
-1.948818897599998
 11
0.1046044652499987
 21
0.3010140670499997
 31
-1.948818897599998
 11
0.1163168974499982
 21
0.3229929466499986
 31
-1.948818897599998
 11
0.1235423042500017
 21
0.3468848683499974
 31
-1.948818897599998
 11
0.1259842519500012
 21
0.3717548726499995
 31
-1.948818897599998
  0
SPLINE
  5
2F8A
100
AcDbEntity
  8
0
  6
CONTINUOUS
100
AcDbSpline
210
0.0
220
0.0
230
1.0
 70
     8
 71
     3
 72
    15
 73
    11
 74
     9
 42
0.0000001
 43
0.0000001
 44
0.0000000001
 40
0.0
 40
0.0
 40
0.0
 40
0.0
 40
0.0085208516305397
 40
0.0351569723294659
 40
0.0617394592114572
 40
0.0882433565686166
 40
0.1146570901763079
 40
0.1409850438181373
 40
0.1672461661009435
 40
0.1934707093847777
 40
0.1934707093847777
 40
0.1934707093847777
 40
0.1934707093847777
 10
-0.1258926520499983
 20
0.371761607249999
 30
-1.948818897599998
 10
-0.1257269704228729
 20
0.3689256330594508
 30
-1.948818897599998
 10
-0.1250433692251389
 20
0.3572244240175248
 30
-1.948818897599999
 10
-0.1206242811514073
 20
0.3369315994982924
 30
-1.948818897599998
 10
-0.1098099658908712
 20
0.3124667643164221
 30
-1.948818897599998
 10
-0.0941429600209674
 20
0.2908504838928596
 30
-1.948818897599998
 10
-0.0744014864809814
 20
0.272989843230646
 30
-1.948818897599998
 10
-0.0514460848889023
 20
0.2597766574032515
 30
-1.948818897599999
 10
-0.0262847402280461
 20
0.2512591193210558
 30
-1.948818897599998
 10
-0.0087575083398462
 20
0.2501918176610575
 30
-1.948818897599998
 10
-0.0000000000500009
 20
0.2496585387499994
 30
-1.948818897599998
 11
-0.1258926520499983
 21
0.371761607249999
 31
-1.948818897599998
 11
-0.1252879457500029
 21
0.3632622400500001
 31
-1.948818897599998
 11
-0.119766253249999
 21
0.3372047298499989
 31
-1.948818897599998
 11
-0.1089817552499994
 21
0.3129081619500003
 31
-1.948818897599998
 11
-0.0934342698500004
 21
0.2914434869499995
 31
-1.948818897599998
 11
-0.0738318455499965
 21
0.2737395245499972
 31
-1.948818897599998
 11
-0.051048553050002
 21
0.2605454832500005
 31
-1.948818897599998
 11
-0.0260800138499988
 21
0.2524080024499984
 31
-1.948818897599998
 11
-0.0000000000500009
 21
0.2496585387499994
 31
-1.948818897599998
  0
SPLINE
  5
2F8B
100
AcDbEntity
  8
0
  6
CONTINUOUS
100
AcDbSpline
210
0.0
220
0.0
230
-1.0
 70
     8
 71
     3
 72
    15
 73
    11
 74
     9
 42
0.0000001
 43
0.0000001
 44
0.0000000001
 40
0.0
 40
0.0
 40
0.0
 40
0.0
 40
0.0262219290006109
 40
0.0524812889778813
 40
0.0788083959739683
 40
0.105222110053195
 40
0.1317266063872793
 40
0.1583103839632653
 40
0.1849481096963728
 40
0.1982946819384387
 40
0.1982946819384387
 40
0.1982946819384387
 40
0.1982946819384387
 10
-0.0000000000500009
 20
0.4986852443499981
 30
-1.948818897599998
 10
-0.0087566368710501
 20
0.4981520713033881
 30
-1.948818897599999
 10
-0.0262824103360432
 20
0.4970849641224591
 30
-1.948818897599998
 10
-0.0514422189230063
 20
0.4885687327592171
 30
-1.948818897599998
 10
-0.0743976402734415
 20
0.4753568701278589
 30
-1.948818897599999
 10
-0.094138727346138
 20
0.4574971077794096
 30
-1.948818897599998
 10
-0.1098109435506454
 20
0.4358809462843596
 30
-1.948818897599998
 10
-0.1206115593682037
 20
0.4114152821916064
 30
-1.948818897599998
 10
-0.1254233441423449
 20
0.3895356917074266
 30
-1.948818897599999
 10
-0.1258434248637654
 20
0.3762046965720145
 30
-1.948818897599998
 10
-0.125983645849999
 20
0.3717548725499977
 30
-1.948818897599998
 11
-0.0000000000500009
 21
0.4986852443499981
 31
-1.948818897599998
 11
-0.0260774428500028
 21
0.4959363286499983
 31
-1.948818897599998
 11
-0.0510445346500035
 21
0.4878000940499998
 31
-1.948818897599998
 11
-0.0738276008500023
 21
0.4746073514499987
 31
-1.948818897599998
 11
-0.0934307481499985
 21
0.4569042187499992
 31
-1.948818897599998
 11
-0.1089794256499985
 21
0.4354396676499999
 31
-1.948818897599998
 11
-0.1197652141500001
 21
0.4111422604499975
 31
-1.948818897599998
 11
-0.125287762550002
 21
0.3850832909499981
 31
-1.948818897599998
 11
-0.125983645849999
 21
0.3717548725499977
 31
-1.948818897599998
  0
SPLINE
  5
2F8C
100
AcDbEntity
  8
0
  6
CONTINUOUS
100
AcDbSpline
210
0.0000000000000084
220
0.0000000000000083
230
-1.0
 70
     8
 71
     3
 72
    15
 73
    11
 74
     9
 42
0.0000001
 43
0.0000001
 44
0.0000000001
 40
0.0
 40
0.0
 40
0.0
 40
0.0
 40
0.013346572042338
 40
0.039984297656884
 40
0.0665680753242677
 40
0.0930725717980034
 40
0.1194862860926857
 40
0.1458133933119583
 40
0.1720727532582451
 40
0.1977932204688062
 40
0.1977932204688062
 40
0.1977932204688062
 40
0.1977932204688062
 10
-0.125983645849999
 20
0.3717548725499977
 30
-1.948818897599998
 10
-0.1258434248779492
 20
0.3673050486886735
 30
-1.948818897599998
 10
-0.125423344196079
 20
0.3539740539412971
 30
-1.948818897599999
 10
-0.1206115587724551
 20
0.3320944597930724
 30
-1.948818897599998
 10
-0.1098109461728618
 20
0.3076288112314506
 30
-1.948818897599998
 10
-0.0941387179951068
 20
0.2860125919922576
 30
-1.948818897599999
 10
-0.0743976747602697
 20
0.268153043517882
 30
-1.948818897599998
 10
-0.0514420897169216
 20
0.2549403861704448
 30
-1.948818897599999
 10
-0.0264429786116462
 20
0.2464812801157236
 30
-1.948818897599998
 10
-0.009090482740731
 20
0.2453736153581443
 30
-1.948818897599998
 10
-0.0005041844500013
 20
0.2448255247500004
 30
-1.948818897599998
 11
-0.125983645849999
 21
0.3717548725499977
 31
-1.948818897599998
 11
-0.125287762550002
 21
0.3584264543499973
 31
-1.948818897599998
 11
-0.1197652142500019
 21
0.3323674849499998
 31
-1.948818897599998
 11
-0.1089794257500003
 21
0.3080700776499992
 31
-1.948818897599998
 11
-0.0934307481499985
 21
0.286605526449998
 31
-1.948818897599998
 11
-0.0738276006499987
 21
0.2689023936500003
 31
-1.948818897599998
 11
-0.0510445342500034
 21
0.2557096509499974
 31
-1.948818897599998
 11
-0.0260774424500028
 21
0.2475734164499972
 31
-1.948818897599998
 11
-0.0005041844500013
 21
0.2448255247500004
 31
-1.948818897599998
  0
SPLINE
  5
2F8D
100
AcDbEntity
  8
0
  6
CONTINUOUS
100
AcDbSpline
210
0.002030800417203
220
0.9999979379227069
230
0.0
 70
    24
 71
     3
 72
     8
 73
     4
 74
     2
 42
0.0000001
 43
0.0000001
 44
0.0000000001
 40
0.0
 40
0.0
 40
0.0
 40
0.0
 40
0.0005041854396698
 40
0.0005041854396698
 40
0.0005041854396698
 40
0.0005041854396698
 10
-0.0005041844500013
 20
0.2448255247500004
 30
-1.948818897599998
 10
-0.0003361229833345
 20
0.24482518345
 30
-1.948818897599998
 10
-0.0001680615166677
 20
0.2448248421499995
 30
-1.948818897599998
 10
-0.0000000000500009
 20
0.2448245008499992
 30
-1.948818897599998
 11
-0.0005041844500013
 21
0.2448255247500004
 31
-1.948818897599998
 11
-0.0000000000500009
 21
0.2448245008499992
 31
-1.948818897599998
  0
SPLINE
  5
2F8E
100
AcDbEntity
  8
0
  6
CONTINUOUS
100
AcDbSpline
210
0.0
220
1.0
230
0.0
 70
     8
 71
     3
 72
    12
 73
     8
 74
     6
 42
0.0000001
 43
0.0000001
 44
0.0000000001
 40
0.0
 40
0.0
 40
0.0
 40
0.0
 40
0.0028145771723334
 40
0.0056883251378333
 40
0.0084590245227681
 40
0.0111278310277627
 40
0.0137627756570722
 40
0.0137627756570722
 40
0.0137627756570722
 40
0.0137627756570722
 10
0.1456692913499999
 20
0.6496062992500047
 30
-0.6034031468999963
 10
0.1447294667441708
 20
0.6496062992500047
 30
-0.6034637294803079
 10
0.1428300596207695
 20
0.6496062992500047
 30
-0.6035861682671668
 10
0.1401439695381765
 20
0.6496062992500047
 30
-0.6045895154351096
 10
0.1378700361441479
 20
0.6496062992500047
 30
-0.6062045779592923
 10
0.1361798570283608
 20
0.6496062992500047
 30
-0.6084302308223935
 10
0.1359439647569153
 20
0.6496062992500047
 30
-0.6102091735693449
 10
0.1358267716499988
 20
0.6496062992500047
 30
-0.6110929660999958
 11
0.1456692913499999
 21
0.6496062992500047
 31
-0.6034031468999963
 11
0.1428726178499993
 21
0.6496062992500047
 31
-0.6037201042999954
 11
0.1401756390499997
 21
0.6496062992500047
 31
-0.6047124412999949
 11
0.1379327802499972
 21
0.6496062992500047
 31
-0.6063392047999941
 11
0.1363941468500016
 21
0.6496062992500047
 31
-0.6085198320999972
 11
0.1358267716499988
 21
0.6496062992500047
 31
-0.6110929660999958
  0
SPLINE
  5
2F8F
100
AcDbEntity
  8
0
  6
CONTINUOUS
100
AcDbSpline
210
0.0
220
-1.0
230
0.0
 70
     8
 71
     3
 72
    12
 73
     8
 74
     6
 42
0.0000001
 43
0.0000001
 44
0.0000000001
 40
0.0
 40
0.0
 40
0.0
 40
0.0
 40
0.0013585416414516
 40
0.0031781825415605
 40
0.0055400443754428
 40
0.0083282199434087
 40
0.0113001562937502
 40
0.0113001562937502
 40
0.0113001562937502
 40
0.0113001562937502
 10
0.1358267716499988
 20
0.6496062992500047
 30
-0.7542936568999963
 10
0.1359556945187438
 20
0.6496062992500047
 30
-0.7547413664404134
 10
0.1362572976482699
 20
0.6496062992500048
 30
-0.7557887415091106
 10
0.1379332972396371
 20
0.6496062992500047
 30
-0.7568238510400139
 10
0.1400755880133059
 20
0.6496062992500047
 30
-0.757642893348168
 10
0.1427603865902843
 20
0.6496062992500047
 30
-0.7581691304954008
 10
0.1446792510376807
 20
0.6496062992500048
 30
-0.7582358625301393
 10
0.1456692913499999
 20
0.6496062992500047
 30
-0.7582702929999954
 11
0.1358267716499988
 21
0.6496062992500047
 31
-0.7542936568999963
 11
0.1363341132500011
 21
0.6496062992500047
 31
-0.7555539107999963
 11
0.1377731012499979
 21
0.6496062992500047
 31
-0.7566676461999969
 11
0.1399696661500016
 21
0.6496062992500047
 31
-0.7575356864999954
 11
0.1427031109499985
 21
0.6496062992500047
 31
-0.7580854159999966
 11
0.1456692913499999
 21
0.6496062992500047
 31
-0.7582702929999954
  0
SPLINE
  5
2F90
100
AcDbEntity
  8
0
  6
CONTINUOUS
100
AcDbSpline
210
0.0000000000000049
220
1.0
230
-0.0000000000000545
 70
     8
 71
     3
 72
    15
 73
    11
 74
     9
 42
0.0000001
 43
0.0000001
 44
0.0000000001
 40
0.0
 40
0.0
 40
0.0
 40
0.0
 40
0.0011750321790123
 40
0.0041030807590666
 40
0.0089120384876002
 40
0.0158516036340487
 40
0.0252670664706083
 40
0.0375538140128156
 40
0.0521661842793475
 40
0.067566674333689
 40
0.067566674333689
 40
0.067566674333689
 40
0.067566674333689
 10
-0.0671193518500033
 20
0.6496062992500047
 30
-0.6506000134999966
 10
-0.0667505463582827
 20
0.6496062992500047
 30
-0.6504677548565691
 10
-0.0654627188894306
 20
0.6496062992500048
 30
-0.6500059224874132
 10
-0.0625725484571575
 20
0.6496062992500045
 30
-0.6492961754598591
 10
-0.0577759145781708
 20
0.6496062992500047
 30
-0.6483368430500866
 10
-0.0507933095586356
 20
0.6496062992500047
 30
-0.6473056954830405
 10
-0.0413014618272828
 20
0.6496062992500048
 30
-0.6462656894358113
 10
-0.0292272926862467
 20
0.6496062992500048
 30
-0.6453736445515741
 10
-0.0151383492867557
 20
0.6496062992500045
 30
-0.64474652754532
 10
-0.005133688534383
 20
0.6496062992500047
 30
-0.6446663484005891
 10
0.0000000000500009
 20
0.6496062992500047
 30
-0.6446252060999953
 11
-0.0671193518500033
 21
0.6496062992500047
 31
-0.6506000134999966
 11
-0.0660094252500017
 21
0.6496062992500047
 31
-0.6502143146999942
 11
-0.0631797308500026
 21
0.6496062992500047
 31
-0.6494617868999946
 11
-0.0584661308500003
 21
0.6496062992500047
 31
-0.6485088705999971
 11
-0.0516058504500023
 21
0.6496062992500047
 31
-0.6474628699999947
 11
-0.0422485515500029
 21
0.6496062992500047
 31
-0.6464179308999967
 11
-0.0299972412500012
 21
0.6496062992500047
 31
-0.6454854282999954
 11
-0.0153989260500005
 21
0.6496062992500047
 31
-0.644844680199995
 11
0.0000000000500009
 21
0.6496062992500047
 31
-0.6446252060999953
  0
SPLINE
  5
2F91
100
AcDbEntity
  8
0
  6
CONTINUOUS
100
AcDbSpline
210
0.0000000000000049
220
1.0
230
0.000000000000055
 70
     8
 71
     3
 72
    17
 73
    13
 74
    11
 42
0.0000001
 43
0.0000001
 44
0.0000000001
 40
0.0
 40
0.0
 40
0.0
 40
0.0
 40
0.0150224405631816
 40
0.0292687077335325
 40
0.0411305739658061
 40
0.0503655538327006
 40
0.057323408012509
 40
0.062318319714121
 40
0.0655934731066362
 40
0.06729909751727
 40
0.067498269892086
 40
0.0675503774513618
 40
0.0675503774513618
 40
0.0675503774513618
 40
0.0675503774513618
 10
0.0000000000500009
 20
0.6496062992500047
 30
-0.6446252060999953
 10
0.0050076426141116
 20
0.6496062992500047
 30
-0.644664414518828
 10
0.0147641948884587
 20
0.6496062992500046
 30
-0.6447408055517416
 10
0.028464496987096
 20
0.6496062992500047
 30
-0.6453341043641192
 10
0.0402169048092376
 20
0.6496062992500046
 30
-0.6461758291428492
 10
0.0495199725775071
 20
0.6496062992500048
 30
-0.647147836941887
 10
0.05651389055179
 20
0.6496062992500045
 30
-0.6481389273236903
 10
0.0615099916645519
 20
0.6496062992500047
 30
-0.6490505438082655
 10
0.0647421789032808
 20
0.6496062992500047
 30
-0.6498362521060554
 10
0.0664027495918805
 20
0.6496062992500047
 30
-0.6503129778201849
 10
0.0670093470108391
 20
0.6496062992500047
 30
-0.6505588822824824
 10
0.0670910985505463
 20
0.6496062992500046
 30
-0.6505773675389021
 10
0.0671080512499991
 20
0.6496062992500047
 30
-0.6505812007999943
 11
0.0000000000500009
 21
0.6496062992500047
 31
-0.6446252060999953
 11
0.0150209905499992
 21
0.6496062992500047
 31
-0.6448339280999953
 11
0.0292542959499969
 21
0.6496062992500047
 31
-0.6454415016999953
 11
0.041084278649997
 21
0.6496062992500047
 31
-0.6463106275999948
 11
0.0502671144500013
 21
0.6496062992500047
 31
-0.6472906172999942
 11
0.0571537251500018
 21
0.6496062992500047
 31
-0.6482837576999963
 11
0.062061910049998
 21
0.6496062992500047
 31
-0.6492105067999959
 11
0.0652433298499986
 21
0.6496062992500047
 31
-0.6499884513999952
 11
0.0668694959500016
 21
0.6496062992500047
 31
-0.6505029787999952
 11
0.0670573591499988
 21
0.6496062992500047
 31
-0.6505691380999963
 11
0.0671080512499991
 21
0.6496062992500047
 31
-0.6505812007999943
  0
LINE
  5
2F92
100
AcDbEntity
  8
0
  6
CONTINUOUS
100
AcDbLine
 10
0.074495
 20
0.649606
 30
-0.651983
 11
0.073045
 21
0.649606
 31
-0.6513
210
0.0000000000000002
220
1.0
230
-0.0000000000000002
  0
LINE
  5
2F93
100
AcDbEntity
  8
0
  6
CONTINUOUS
100
AcDbLine
 10
0.145669
 20
0.649606
 30
-0.603403
 11
0.145669
 21
0.649606
 31
-0.75827
210
0.0000000000000002
220
1.0
230
-0.0000000000000002
  0
LINE
  5
2F94
100
AcDbEntity
  8
0
  6
CONTINUOUS
100
AcDbLine
 10
0.135827
 20
0.649606
 30
-0.611093
 11
0.135827
 21
0.649606
 31
-0.754294
210
0.0000000000000002
220
1.0
230
-0.0000000000000002
  0
LINE
  5
2F95
100
AcDbEntity
  8
0
  6
CONTINUOUS
100
AcDbLine
 10
0.121294
 20
0.649606
 30
-0.750394
 11
0.122039
 21
0.649606
 31
-0.741358
210
0.0000000000000002
220
1.0
230
-0.0000000000000002
  0
LINE
  5
2F96
100
AcDbEntity
  8
0
  6
CONTINUOUS
100
AcDbLine
 10
0.07874
 20
0.649606
 30
-0.64005
 11
0.07874
 21
0.649606
 31
-0.650816
210
0.0000000000000002
220
1.0
230
-0.0000000000000002
  0
LINE
  5
2F97
100
AcDbEntity
  8
0
  6
CONTINUOUS
100
AcDbLine
 10
0.066929
 20
0.649606
 30
-0.714494
 11
0.066929
 21
0.649606
 31
-0.726983
210
0.0000000000000002
220
1.0
230
-0.0000000000000002
  0
LINE
  5
2F98
100
AcDbEntity
  8
0
  6
CONTINUOUS
100
AcDbLine
 10
0.066929
 20
0.649606
 30
-0.654064
 11
0.066929
 21
0.649606
 31
-0.650595
210
0.0000000000000002
220
1.0
230
-0.0000000000000002
  0
LINE
  5
2F99
100
AcDbEntity
  8
0
  6
CONTINUOUS
100
AcDbLine
 10
0.121942
 20
0.649606
 30
-0.741004
 11
0.135827
 21
0.649606
 31
-0.737185
210
0.0000000000000002
220
1.0
230
-0.0000000000000002
  0
LINE
  5
2F9A
100
AcDbEntity
  8
0
  6
CONTINUOUS
100
AcDbLine
 10
-0.135827
 20
0.649606
 30
-0.737185
 11
-0.12194
 21
0.649606
 31
-0.741004
210
0.0000000000000002
220
1.0
230
-0.0000000000000002
  0
LINE
  5
2F9B
100
AcDbEntity
  8
0
  6
CONTINUOUS
100
AcDbLine
 10
-0.121294
 20
0.649606
 30
-0.750394
 11
-0.122039
 21
0.649606
 31
-0.741358
210
0.0000000000000002
220
1.0
230
-0.0000000000000002
  0
LINE
  5
2F9C
100
AcDbEntity
  8
0
  6
CONTINUOUS
100
AcDbLine
 10
-0.066929
 20
0.649606
 30
-0.714494
 11
-0.066929
 21
0.649606
 31
-0.726983
210
0.0000000000000002
220
1.0
230
-0.0000000000000002
  0
LINE
  5
2F9D
100
AcDbEntity
  8
0
  6
CONTINUOUS
100
AcDbLine
 10
-0.066929
 20
0.649606
 30
-0.654064
 11
-0.066929
 21
0.649606
 31
-0.6506
210
0.0000000000000002
220
1.0
230
-0.0000000000000002
  0
LINE
  5
2F9E
100
AcDbEntity
  8
0
  6
CONTINUOUS
100
AcDbLine
 10
-0.07874
 20
0.649606
 30
-0.64005
 11
-0.07874
 21
0.649606
 31
-0.650816
210
0.0000000000000002
220
1.0
230
-0.0000000000000002
  0
LINE
  5
2F9F
100
AcDbEntity
  8
0
  6
CONTINUOUS
100
AcDbLine
 10
-0.135827
 20
0.649606
 30
-0.75827
 11
-0.135827
 21
0.649606
 31
-0.603403
210
0.0000000000000002
220
1.0
230
-0.0000000000000002
  0
LINE
  5
2FA0
100
AcDbEntity
  8
0
  6
CONTINUOUS
100
AcDbLine
 10
0.066929
 20
0.649606
 30
-0.714494
 11
0.135827
 21
0.649606
 31
-0.695542
210
0.0000000000000002
220
1.0
230
-0.0000000000000002
  0
LWPOLYLINE
  5
2FA1
100
AcDbEntity
  8
0
  6
CONTINUOUS
100
AcDbPolyline
 90
       12
 70
     0
 43
0.0
 38
0.649606
 10
0.0
 20
-0.724178
 10
0.01819
 20
-0.724367
 10
0.035974
 20
-0.724932
 10
0.052954
 20
-0.72586
 10
0.068752
 20
-0.727129
 10
0.083013
 20
-0.728712
 10
0.09542
 20
-0.730573
 10
0.105696
 20
-0.732671
 10
0.113611
 20
-0.734958
 10
0.118987
 20
-0.737384
 10
0.121706
 20
-0.739894
 10
0.122038
 20
-0.741359
210
0.0000000000000002
220
1.0
230
-0.0000000000000002
  0
LINE
  5
2FA2
100
AcDbEntity
  8
0
  6
CONTINUOUS
100
AcDbLine
 10
-0.135827
 20
0.649606
 30
-0.75827
 11
0.145669
 21
0.649606
 31
-0.75827
210
0.0000000000000002
220
1.0
230
-0.0000000000000002
  0
LINE
  5
2FA3
100
AcDbEntity
  8
0
  6
CONTINUOUS
100
AcDbLine
 10
-0.135827
 20
0.649606
 30
-0.750394
 11
0.135827
 21
0.649606
 31
-0.750394
210
0.0000000000000002
220
1.0
230
-0.0000000000000002
  0
LINE
  5
2FA4
100
AcDbEntity
  8
0
  6
CONTINUOUS
100
AcDbLine
 10
-0.066929
 20
0.649606
 30
-0.714494
 11
0.066929
 21
0.649606
 31
-0.714494
210
0.0000000000000002
220
1.0
230
-0.0000000000000002
  0
LWPOLYLINE
  5
2FA5
100
AcDbEntity
  8
0
  6
CONTINUOUS
100
AcDbPolyline
 90
       12
 70
     0
 43
0.0
 38
0.649606
 10
0.0
 20
-0.724178
 10
-0.01819
 20
-0.724367
 10
-0.035974
 20
-0.724932
 10
-0.052954
 20
-0.72586
 10
-0.068752
 20
-0.727129
 10
-0.083013
 20
-0.728712
 10
-0.09542
 20
-0.730573
 10
-0.105696
 20
-0.732671
 10
-0.113611
 20
-0.734958
 10
-0.118987
 20
-0.737384
 10
-0.121706
 20
-0.739894
 10
-0.122038
 20
-0.741359
210
0.0000000000000002
220
1.0
230
-0.0000000000000002
  0
LINE
  5
2FA6
100
AcDbEntity
  8
0
  6
CONTINUOUS
100
AcDbLine
 10
-0.135827
 20
0.649606
 30
-0.695542
 11
-0.066929
 21
0.649606
 31
-0.714494
210
0.0000000000000002
220
1.0
230
-0.0000000000000002
  0
LINE
  5
2FA7
100
AcDbEntity
  8
0
  6
CONTINUOUS
100
AcDbLine
 10
0.127606
 20
0.649606
 30
-0.637374
 11
0.066929
 21
0.649606
 31
-0.654064
210
0.0000000000000002
220
1.0
230
-0.0000000000000002
  0
LWPOLYLINE
  5
2FA8
100
AcDbEntity
  8
0
  6
CONTINUOUS
100
AcDbPolyline
 90
        3
 70
     0
 43
0.0
 38
0.649606
 10
0.06428
 20
-0.649063
 10
0.072015
 20
-0.650961
 10
0.074431
 20
-0.652001
210
0.0000000000000002
220
1.0
230
-0.0000000000000002
  0
LINE
  5
2FA9
100
AcDbEntity
  8
0
  6
CONTINUOUS
100
AcDbLine
 10
-0.013638
 20
0.649606
 30
-0.637374
 11
0.0
 21
0.649606
 31
-0.636278
210
0.0000000000000002
220
1.0
230
-0.0000000000000002
  0
LWPOLYLINE
  5
2FAA
100
AcDbEntity
  8
0
  6
CONTINUOUS
100
AcDbPolyline
 90
        8
 70
     0
 43
0.0
 38
0.649606
 10
0.0
 20
-0.644434
 10
0.007483
 20
-0.644483
 10
0.015776
 20
-0.644656
 10
0.024855
 20
-0.644994
 10
0.034599
 20
-0.645548
 10
0.044743
 20
-0.646375
 10
0.054853
 20
-0.64753
 10
0.06428
 20
-0.649063
210
0.0000000000000002
220
1.0
230
-0.0000000000000002
  0
LINE
  5
2FAB
100
AcDbEntity
  8
0
  6
CONTINUOUS
100
AcDbLine
 10
0.066929
 20
0.649606
 30
-0.654064
 11
-0.066929
 21
0.649606
 31
-0.654064
210
0.0000000000000002
220
1.0
230
-0.0000000000000002
  0
LINE
  5
2FAC
100
AcDbEntity
  8
0
  6
CONTINUOUS
100
AcDbLine
 10
-0.07874
 20
0.649606
 30
-0.648817
 11
-0.086005
 21
0.649606
 31
-0.648817
210
0.0000000000000002
220
1.0
230
-0.0000000000000002
  0
LINE
  5
2FAD
100
AcDbEntity
  8
0
  6
CONTINUOUS
100
AcDbLine
 10
0.086005
 20
0.649606
 30
-0.648817
 11
0.07874
 21
0.649606
 31
-0.648817
210
0.0000000000000002
220
1.0
230
-0.0000000000000002
  0
LINE
  5
2FAE
100
AcDbEntity
  8
0
  6
CONTINUOUS
100
AcDbLine
 10
-0.07874
 20
0.649606
 30
-0.646625
 11
-0.093973
 21
0.649606
 31
-0.646625
210
0.0000000000000002
220
1.0
230
-0.0000000000000002
  0
LINE
  5
2FAF
100
AcDbEntity
  8
0
  6
CONTINUOUS
100
AcDbLine
 10
0.093973
 20
0.649606
 30
-0.646625
 11
0.07874
 21
0.649606
 31
-0.646625
210
0.0000000000000002
220
1.0
230
-0.0000000000000002
  0
LINE
  5
2FB0
100
AcDbEntity
  8
0
  6
CONTINUOUS
100
AcDbLine
 10
-0.07874
 20
0.649606
 30
-0.644434
 11
-0.101941
 21
0.649606
 31
-0.644434
210
0.0000000000000002
220
1.0
230
-0.0000000000000002
  0
LINE
  5
2FB1
100
AcDbEntity
  8
0
  6
CONTINUOUS
100
AcDbLine
 10
0.101941
 20
0.649606
 30
-0.644434
 11
0.07874
 21
0.649606
 31
-0.644434
210
0.0000000000000002
220
1.0
230
-0.0000000000000002
  0
LINE
  5
2FB2
100
AcDbEntity
  8
0
  6
CONTINUOUS
100
AcDbLine
 10
-0.07874
 20
0.649606
 30
-0.642242
 11
-0.109908
 21
0.649606
 31
-0.642242
210
0.0000000000000002
220
1.0
230
-0.0000000000000002
  0
LINE
  5
2FB3
100
AcDbEntity
  8
0
  6
CONTINUOUS
100
AcDbLine
 10
0.109908
 20
0.649606
 30
-0.642242
 11
0.07874
 21
0.649606
 31
-0.642242
210
0.0000000000000002
220
1.0
230
-0.0000000000000002
  0
LINE
  5
2FB4
100
AcDbEntity
  8
0
  6
CONTINUOUS
100
AcDbLine
 10
-0.07874
 20
0.649606
 30
-0.64005
 11
-0.117876
 21
0.649606
 31
-0.64005
210
0.0000000000000002
220
1.0
230
-0.0000000000000002
  0
LINE
  5
2FB5
100
AcDbEntity
  8
0
  6
CONTINUOUS
100
AcDbLine
 10
0.117876
 20
0.649606
 30
-0.64005
 11
0.07874
 21
0.649606
 31
-0.64005
210
0.0000000000000002
220
1.0
230
-0.0000000000000002
  0
LINE
  5
2FB6
100
AcDbEntity
  8
0
  6
CONTINUOUS
100
AcDbLine
 10
-0.135827
 20
0.649606
 30
-0.637374
 11
-0.013638
 21
0.649606
 31
-0.637374
210
0.0000000000000002
220
1.0
230
-0.0000000000000002
  0
LINE
  5
2FB7
100
AcDbEntity
  8
0
  6
CONTINUOUS
100
AcDbLine
 10
0.135827
 20
0.649606
 30
-0.637374
 11
0.013638
 21
0.649606
 31
-0.637374
210
0.0000000000000002
220
1.0
230
-0.0000000000000002
  0
LINE
  5
2FB8
100
AcDbEntity
  8
0
  6
CONTINUOUS
100
AcDbLine
 10
-0.135827
 20
0.649606
 30
-0.633863
 11
0.135827
 21
0.649606
 31
-0.633863
210
0.0000000000000002
220
1.0
230
-0.0000000000000002
  0
LINE
  5
2FB9
100
AcDbEntity
  8
0
  6
CONTINUOUS
100
AcDbLine
 10
0.0
 20
0.649606
 30
-0.636278
 11
0.013638
 21
0.649606
 31
-0.637374
210
0.0000000000000002
220
1.0
230
-0.0000000000000002
  0
LWPOLYLINE
  5
2FBA
100
AcDbEntity
  8
0
  6
CONTINUOUS
100
AcDbPolyline
 90
        9
 70
     0
 43
0.0
 38
0.649606
 10
-0.066421
 20
-0.649507
 10
-0.058186
 20
-0.648009
 10
-0.049138
 20
-0.646829
 10
-0.039873
 20
-0.645943
 10
-0.030784
 20
-0.645306
 10
-0.02214
 20
-0.644876
 10
-0.014094
 20
-0.644611
 10
-0.006712
 20
-0.644474
 10
0.0
 20
-0.644434
210
0.0000000000000002
220
1.0
230
-0.0000000000000002
  0
LINE
  5
2FBB
100
AcDbEntity
  8
0
  6
CONTINUOUS
100
AcDbLine
 10
0.073045
 20
0.649606
 30
-0.6513
 11
0.066421
 21
0.649606
 31
-0.649507
210
0.0000000000000002
220
1.0
230
-0.0000000000000002
  0
LINE
  5
2FBC
100
AcDbEntity
  8
0
  6
CONTINUOUS
100
AcDbLine
 10
-0.066929
 20
0.649606
 30
-0.654064
 11
-0.127606
 21
0.649606
 31
-0.637374
210
0.0000000000000002
220
1.0
230
-0.0000000000000002
  0
LINE
  5
2FBD
100
AcDbEntity
  8
0
  6
CONTINUOUS
100
AcDbLine
 10
0.145669
 20
0.649606
 30
-0.603403
 11
-0.135827
 21
0.649606
 31
-0.603403
210
0.0000000000000002
220
1.0
230
-0.0000000000000002
  0
3DSOLID
  5
2FBE
100
AcDbEntity
  8
0
100
AcDbModelerGeometry
 70
     1
  1
noi nlhk n o        
  1
=0;& {n {m {rn {rn |
  1
-:9@)+r3(;r>++-6= {rn {rn {rn {o {l {k |
  1
3*2/ {j {rn {i {o |
  1
-:961:2:1+ {rn o o o o oqoonoooooookhkfhkjnl lo o k n o o |
  1
):-+:'@+:2/3>+: {rn l o n g |
  1
-:9@)+r3(;r>++-6= {rn {rn {rn {m {l {k |
  1
,7:33 {h {rn {rn {g {m |
  1
-:9@)+r3(;r>++-6= {rn {rn {rn {i {l {k |
  1
9><: {f {no {nn {i {rn {nm 90-(>-; ,6183: |
  1
92:,7r3(;r>++-6= {rn {nl {rn {g |
  1
9><: {nk {nj {ni {i {rn {nh -:):-,:; ,6183: |
  1
300/ {rn {ng {nf {g |
  1
/3>1:r,*-9><: {rn roqnfmfnllgjgkfffgoi roqnfmimgknnkkfffgjk roqnihlmmglkiffffkfl lqkkjojmkolohmifol:roni mqkkfmnmhohikkhjkj:roni n n o rlqkkjojmkolohmifol:roni o V V V V |
  1
-:9@)+r3(;r>++-6= {rn {rn {f {g {l {k |
  1
92:,7r3(;r>++-6= {rn {mo {rn {no |
  1
9><: {mn {mm {ml {i {rn {mk 90-(>-; ,6183: |
  1
300/ {rn {rn {mj {no |
  1
/3>1:r,*-9><: {rn roqnfmfnllgjgkfffgoi roqonjimmmljonhijjjgk roqgggmjjhgooghfomhk n o rlqkkjojmkolohmifol:roni rlqkkjojmkolohmifol:roni rmqkkfmnmhohikkhjkj:roni rn o V V V V |
  1
300/ {rn {mi {mh {g |
  1
<0:;8: {rn {mg {mf {lo {ln n {nn {rn |
  1
-:9@)+r3(;r>++-6= {rn {rn {nk {no {l {k |
  1
92:,7r3(;r>++-6= {rn {lm {rn {nj |
  1
9><: {ll {lk {lj {i {rn {li 90-(>-; ,6183: |
  1
300/ {rn {rn {lh {nj |
  1
/3>1:r,*-9><: {rn roqnfmfnllgjgkfffgoi roqjgklmjlnmnmigfnmn oqoomnofofmhmikmkihhl nqkjjfkmoilggfjmkm:roni oqfoilohhgimijkgkli oqkmmingmillfkkifjn n o rlqkkjojmkolohmifol:roni o V V V V |
  1
<0:;8: {rn {lg {lf {ko {kn n {ni {rn |
  1
300/ {rn {rn {km {g |
  1
<0:;8: {rn {kl {kk {kj {ki n {ng {rn |
  1
<0:;8: {rn {kh {nf {kg {kf n {nn {rn |
  1
<0:;8: {rn {nf {kh {jo {jn o {nn {rn |
  1
<0:;8: {rn {jm {jl {nf {ln o {jk {rn |
  1
:;8: {jj {ji {jh {lo {jg o |
  1
-:9@)+r3(;r>++-6= {rn {rn {mn {nj {l {k |
  1
92:,7r3(;r>++-6= {rn {jf {rn {mm |
  1
9><: {io {in {im {i {rn {il 90-(>-; ,6183: |
  1
300/ {rn {rn {ik {mm |
  1
/3>1:r,*-9><: {rn roqnfmfnllgjgkfffgoi roqjikoijlmgmkfffhmm roqoknllgjgmiffffiljn rgqklhiiinmknohhlmn:rolm n rmqkkfmnmhohikkhjkj:roni n o rlqkkjojmkolohmifol:roni o V V V V |
  1
<0:;8: {rn {ij {ii {ih {ig o {ml {rn |
  1
<0:;8: {rn {if {mj {ho {hn n {ni {rn |
  1
<0:;8: {rn {mj {hm {hl {hk n {ni {rn |
  1
<0:;8: {rn {hj {hi {mj {kn o {mi {rn |
  1
:;8: {hh {hg {hf {mj {go o |
  1
<0:;8: {rn {hi {hj {gn {gm o {mi {rn |
  1
<0:;8: {rn {gl {mh {gk {gj n {ng {rn |
  1
<0:;8: {rn {mh {gl {gi {gh o {ng {rn |
  1
<0:;8: {rn {gg {gf {mh {ki o {fo {rn |
  1
:;8: {fn {fm {fl {kj {fk o |
  1
<0:;8: {rn {mf {mg {fj {fi o {nn {rn |
  1
<0:;8: {rn {fh {fg {mg {kf o {ff {rn |
  1
:;8: {noo {non {ji {kg {nom o |
  1
<0:;8: {rn {nol {nok {mf {jn n {noj {rn |
  1
:;8: {noi {noh {jh {jo {nog o |
  1
<0:;8: {rn {nof {lo {nok {nno o {jk {rn |
  1
<0:;8: {rn {lo {nof {fh {nnn n {jk {rn |
  1
300/ {rn {rn {jm {nnm |
  1
/+36,+r3(;r>++-6= {rn {rn {rn {ln |
  1
):-+:' {rn {kf {nnl |
  1
):-+:' {rn {ln {nnk |
  1
,+->687+r<*-): {rn roqnkjikffffffffffgk roqoggjgmihhnjooooihh roqnihlmmglkiooooomj n o rlqkkjojmkolohmifol:roni V V |
  1
-:9@)+r3(;r>++-6= {rn {rn {ll {mm {l {k |
  1
92:,7r3(;r>++-6= {rn {nnj {rn {lk |
  1
9><: {nni {nnh {nng {i {rn {nnf 90-(>-; ,6183: |
  1
300/ {rn {rn {nmo {lk |
  1
/3>1:r,*-9><: {rn roqnfmfnllgjgkfffgoi roqjikoijlmgmkfffhmm roqojnngnnomlffffhjnl rlqlmhiijoghgkknfnj:roni roqmjggnfokikojihnfk roqfijfmjgmjflfgfooh rn o lqkkjojmkolohmifol:roni o V V V V |
  1
<0:;8: {rn {nmn {nmm {nml {nmk o {lj {rn |
  1
<0:;8: {rn {nmj {lh {nmm {nmi n {ml {rn |
  1
<0:;8: {rn {lh {nmj {nmh {nmg o {ml {rn |
  1
<0:;8: {rn {nmf {nml {lh {ig n {nlo {rn |
  1
:;8: {nln {nlm {nll {lh {nlk o |
  1
<0:;8: {rn {nlj {lg {nli {nlh n {ni {rn |
  1
<0:;8: {rn {nlg {nlf {lg {hn o {nko {rn |
  1
:;8: {nkn {nkm {hg {lg {nkl o |
  1
<0:;8: {rn {lf {nkk {nkj {nki n {ni {rn |
  1
<0:;8: {rn {nkh {nkg {lf {hk o {nkf {rn |
  1
:;8: {njo {hf {njn {lf {njm o |
  1
<0:;8: {rn {km {ko {nkg {njl o {mi {rn |
  1
<0:;8: {rn {ko {km {nlg {njk n {mi {rn |
  1
/+36,+r3(;r>++-6= {rn {rn {rn {kn |
  1
):-+:' {rn {hn {njj |
  1
):-+:' {rn {kn {nji |
  1
,+->687+r<*-): {rn roqnfmfnllgjgkfffgoi oqnfmimgknnjjooomn roqnihlmmglkiffffkfl gqklhiiinmknohhlmn:rolm rn mqkkfmnmhohikkhjkj:roni V V |
  1
<0:;8: {rn {njh {njg {km {gm n {nlo {rn |
  1
:;8: {njf {nio {nin {km {nim o |
  1
<0:;8: {rn {kk {kl {nil {nik o {ng {rn |
  1
<0:;8: {rn {nij {nii {kl {gj o {nih {rn |
  1
:;8: {nig {nif {fm {gk {nho o |
  1
<0:;8: {rn {nhn {nhm {kk {gh n {nhl {rn |
  1
:;8: {nhk {nhj {fl {gi {nhi o |
  1
<0:;8: {rn {nhh {kj {nhm {nhg o {fo {rn |
  1
<0:;8: {rn {kj {nhh {nij {nhf n {fo {rn |
  1
300/ {rn {rn {gg {ngo |
  1
/+36,+r3(;r>++-6= {rn {rn {rn {ki |
  1
):-+:' {rn {gj {ngn |
  1
):-+:' {rn {ki {ngm |
  1
,+->687+r<*-): {rn oqogmijhghlffnolljmi roqoggjgmihhnjooooihh roqnihlmmglkiooooomj n o rlqkkjojmkolohmifol:roni V V |
  1
<0:;8: {rn {ngl {ngk {kh {fi n {ngj {rn |
  1
:;8: {ngi {non {noh {fj {ngh o |
  1
<0:;8: {rn {ngg {kg {jl {nnn o {ff {rn |
  1
<0:;8: {rn {kg {ngf {ngl {nfo o {ff {rn |
  1
300/ {rn {rn {nfn {nfm |
  1
/+36,+r3(;r>++-6= {rn {rn {rn {kf |
  1
):-+:' {rn {nfo {nfl |
  1
,+->687+r<*-): {rn roqnkjikffffffffffgk oqoggjgmihhnkfffgfon roqnihlmmglkiooooomj o rn o V V |
  1
<0:;8: {rn {nfk {jo {ngk {nfj n {noj {rn |
  1
<0:;8: {rn {jo {nfi {jm {nno n {noj {rn |
  1
300/ {rn {rn {nfk {nfh |
  1
/+36,+r3(;r>++-6= {rn {rn {rn {jn |
  1
):-+:' {rn {fi {nfg |
  1
,+->687+r<*-): {rn roqogmijhghlffnolljmi oqoggjgmihhnkfffgfon roqnihlmmglkiooooomj o rn o V V |
  1
<0:;8: {rn {jl {jm {nff {moo n {jk {rn |
  1
:;8: {mon {jh {mom {jm {mol o |
  1
:;8: {mok {ji {moj {fh {moi o |
  1
9><: {moh {mog {jk {i {rn {mof 90-(>-; ,6183: |
  1
/061+ {rn roqnkjikffffffffffgk roqoggjgmihhnjooooihh roqnihlmmglkiooooomj |
  1
/061+ {rn roqogmijhghlffnolljmi roqoggjgmihhnjooooihh roqnihlmmglkiooooomj |
  1
-:9@)+r3(;r>++-6= {rn {rn {io {lk {l {k |
  1
92:,7r3(;r>++-6= {rn {mno {rn {in |
  1
9><: {mnn {mnm {mnl {i {rn {mnk 90-(>-; ,6183: |
  1
300/ {rn {rn {mnj {in |
  1
/3>1:r,*-9><: {rn roqnfmfnllgjgkfffgoi roqjfkkggnggfkfffhnn roqoklomflmnlffffjmig rlqhhmfnnnngkimilhi:rolo n rnqofjnihffohfihjnn:ronk n o rlqkkjojmkolohmifol:roni o V V V V |
  1
<0:;8: {rn {mni {mnh {mng {mnf o {im {rn |
  1
<0:;8: {rn {mmo {ik {mnh {mmn n {lj {rn |
  1
<0:;8: {rn {ik {mmo {ij {nmi o {lj {rn |
  1
<0:;8: {rn {ih {mng {ik {nmk n {nlo {rn |
  1
:;8: {mmm {nll {mml {ik {mmk o |
  1
<0:;8: {rn {ii {ij {mmj {mmi o {ml {rn |
  1
:;8: {mmh {mmg {nll {nmm {mmf o |
  1
<0:;8: {rn {mlo {mln {ii {nmg n {mlm {rn |
  1
:;8: {mll {mlk {nlm {ii {mlj o |
  1
<0:;8: {rn {mli {ih {mln {mlh n {nlo {rn |
  1
300/ {rn {rn {gn {mlg |
  1
/+36,+r3(;r>++-6= {rn {rn {rn {ig |
  1
):-+:' {rn {nmg {mlf |
  1
):-+:' {rn {nmi {mko |
  1
,+->687+r<*-): {rn oqnfmfnllgjgkfffgoi roqjikoijlmgmkfffhmm roqoknllgjgmiffffikoh rlqnmmmhhgniffhlfhn:roni oqkmmingmillfkkifjn roqfoilohhgimijkgkli V V |
  1
<0:;8: {rn {mkn {if {mkm {mkl n {ni {rn |
  1
<0:;8: {rn {mkk {mkj {if {nlh o {mki {rn |
  1
:;8: {mkh {mkg {nkm {if {mkf o |
  1
<0:;8: {rn {mjo {ho {hi {njk o {nko {rn |
  1
<0:;8: {rn {ho {mjo {mkk {mjn n {nko {rn |
  1
300/ {rn {rn {mjo {mjm |
  1
/+36,+r3(;r>++-6= {rn {rn {rn {hn |
  1
):-+:' {rn {nlh {mjl |
  1
,+->687+r<*-): {rn roqnfmfnllgjgkfffgoi oqnfmimgknnjjooomn roqmmkifkkmlnffffjj lqkkjojmkolohmifol:roni mqkkfmnmhohikkhjkj:roni n V V |
  1
<0:;8: {rn {hm {mjk {mjj {mji n {ni {rn |
  1
<0:;8: {rn {mjh {mjg {hm {nki o {mjf {rn |
  1
:;8: {mio {njn {min {hm {mim o |
  1
<0:;8: {rn {mil {hl {mjg {mik o {nkf {rn |
  1
<0:;8: {rn {hl {mil {hj {njl n {nkf {rn |
  1
300/ {rn {rn {mil {mij |
  1
/+36,+r3(;r>++-6= {rn {rn {rn {hk |
  1
):-+:' {rn {hk {mii |
  1
,+->687+r<*-): {rn roqnfmfnllgjgkfffgoi roqnfmimgknnkkfffgjk roqnihlmmglkiffffkfl rlqkkjojmkolohmifol:roni rmqkkfmnmhohikkhjkj:roni rn V V |
  1
:;8: {mih {hf {nio {hj {mig o |
  1
:;8: {mif {hg {nin {nlg {mho o |
  1
/061+ {rn roqnfmfnllgjgkfffgoi oqnfmimgknnjjooomn roqnihlmmglkiffffkfl |
  1
/061+ {rn roqnfmfnllgjgkfffgoi roqnfmimgknnkkfffgjk roqnihlmmglkiffffkfl |
  1
<0:;8: {rn {mhn {gn {mil {mhm n {nlo {rn |
  1
<0:;8: {rn {gn {mhl {mjo {mhk n {nlo {rn |
  1
/+36,+r3(;r>++-6= {rn {rn {rn {gm |
  1
):-+:' {rn {njl {mhj |
  1
):-+:' {rn {njk {mhi |
  1
,+->687+r<*-): {rn oqnfmfnllgjgkfffgoi oqnfmimgknnjjooomn roqnihlmmglkiffffkfl rgqklhiiinmknohhlmn:rolm n rmqkkfmnmhohikkhjkj:roni V V |
  1
<0:;8: {rn {mhh {mhg {gl {nik n {mhf {rn |
  1
:;8: {mgo {nif {nhj {nil {mgn o |
  1
<0:;8: {rn {mgm {gk {gf {nhf o {nih {rn |
  1
<0:;8: {rn {gk {mgl {mhh {mgk o {nih {rn |
  1
300/ {rn {rn {mgj {mgi |
  1
/+36,+r3(;r>++-6= {rn {rn {rn {gj |
  1
):-+:' {rn {mgk {mgh |
  1
,+->687+r<*-): {rn oqogmijhghlffnolljmi oqoggjgmihhnkfffgfon roqnihlmmglkiooooomj o rn o V V |
  1
<0:;8: {rn {mgg {gi {mhg {mgf n {nhl {rn |
  1
<0:;8: {rn {gi {mfo {gg {nhg n {nhl {rn |
  1
300/ {rn {rn {mgg {mfn |
  1
/+36,+r3(;r>++-6= {rn {rn {rn {gh |
  1
):-+:' {rn {nik {mfm |
  1
,+->687+r<*-): {rn oqnkjikffffffffffgk oqoggjgmihhnkfffgfon roqnihlmmglkiooooomj o rn o V V |
  1
<0:;8: {rn {gf {gg {mfl {mfk n {fo {rn |
  1
:;8: {mfj {fl {mfi {gg {mfh o |
  1
:;8: {mfg {fm {mff {nij {loo o |
  1
9><: {lon {lom {fo {i {rn {lol 90-(>-; ,6183: |
  1
/061+ {rn oqogmijhghlffnolljmi roqoggjgmihhnjooooihh roqnihlmmglkiooooomj |
  1
/061+ {rn oqnkjikffffffffffgk roqoggjgmihhnjooooihh roqnihlmmglkiooooomj |
  1
<0:;8: {rn {lok {fj {fg {nfo n {ngj {rn |
  1
<0:;8: {rn {fj {lok {nol {nfj o {ngj {rn |
  1
300/ {rn {rn {ngk {loj |
  1
/+36,+r3(;r>++-6= {rn {rn {rn {fi |
  1
,+->687+r<*-): {rn roqnkjikffffffffffgk oqoggjgmihhnkfffgfon roqnihlmmglkiooooomj n o rlqkkjojmkolohmifol:roni V V |
  1
<0:;8: {rn {nfn {fh {loi {loh o {ff {rn |
  1
<0:;8: {rn {fg {nfn {log {lof o {ff {rn |
  1
:;8: {lno {lnn {non {fg {lnm o |
  1
<0:;8: {rn {ngf {ngg {lnl {lnk o {ff {rn |
  1
9><: {lnj {rn {ff {i {rn {lni -:):-,:; ,6183: |
  1
/061+ {rn roqnkjikffffffffffgk oqoggjgmihhnkfffgfon roqnihlmmglkiooooomj |
  1
<0:;8: {rn {lnh {nol {lng {lnf n {noj {rn |
  1
:;8: {lmo {lmn {noh {ngk {lmm o |
  1
<0:;8: {rn {nok {lnh {lml {lmk n {noj {rn |
  1
9><: {lmj {nfm {noj {i {rn {lmi 90-(>-; ,6183: |
  1
/061+ {rn roqogmijhghlffnolljmi oqoggjgmihhnkfffgfon roqnihlmmglkiooooomj |
  1
<0:;8: {rn {lml {loi {nof {moo o {lmh {rn |
  1
:;8: {lmg {moj {mom {nff {lmf o |
  1
/+36,+r3(;r>++-6= {rn {rn {rn {nno |
  1
):-+:' {rn {moo {llo |
  1
,+->687+r<*-): {rn roqogmijhghlffnolljmi roqoggjgmihhnjooooihh roqnihlmmglkiooooomj lqkkjojmkolohmifol:roni o n V V |
  1
/+36,+r3(;r>++-6= {rn {rn {rn {nnn |
  1
):-+:' {rn {nnn {lln |
  1
,+->687+r<*-): {rn roqnkjikffffffffffgk roqoggjgmihhnjooooihh roqnihlmmglkiooooomj lqkkjojmkolohmifol:roni o n V V |
  1
92:,7r3(;r>++-6= {rn {llm {rn {nnm |
  1
9><: {lll {llk {lmh {i {rn {llj 90-(>-; ,6183: |
  1
/3>1:r,*-9><: {rn roqnkjikffffffffffgk roqoggjgmihhnjooooihh roqnihlmmglkiooooomj o rn o rn o lqkkjojmkolohmifol:roni o V V V V |
  1
-:9@)+r3(;r>++-6= {rn {rn {nni {in {l {k |
  1
92:,7r3(;r>++-6= {rn {lli {rn {nnh |
  1
9><: {llh {llg {llf {i {rn {lko 90-(>-; ,6183: |
  1
300/ {rn {rn {lkn {nnh |
  1
<01:r,*-9><: {rn roqnfmfnllgjgkfffgoi roqjjjnngnnomkfffhg roqnmjfgkmjnfffffjom n o rlqkkjojmkolohmifol:roni rfqjfoimfjhfgohoonj:rong roqomhglggkfimkinghgl roqomhglggkfimkingnkg n V V o rn o V V V V |
  1
<0:;8: {rn {lkm {lkl {lkk {lkj o {nng {rn |
  1
<0:;8: {rn {lki {nmo {lkl {lkh n {im {rn |
  1
<0:;8: {rn {nmo {lki {nmn {mmn o {im {rn |
  1
<0:;8: {rn {nml {lkk {nmo {mnf n {nlo {rn |
  1
:;8: {lkg {mml {lkf {nmo {ljo o |
  1
<0:;8: {rn {nmm {nmn {ljn {ljm o {lj {rn |
  1
:;8: {ljl {ljk {mml {mnh {ljj o |
  1
/+36,+r3(;r>++-6= {rn {rn {rn {nmk |
  1
):-+:' {rn {mmn {lji |
  1
,+->687+r<*-): {rn oqnfmfnllgjgkfffgoi roqjikoijlmgmkfffhmm roqojnngnnomlffffhjif rlqkkjojmkolohmifol:roni rmqkkfmnmhohikkhjkj:roni rn V V |
  1
<0:;8: {rn {ljn {ljh {nmj {mmi n {ni {rn |
  1
:;8: {ljg {mmg {mlk {mmj {ljf o |
  1
/+36,+r3(;r>++-6= {rn {rn {rn {nmi |
  1
):-+:' {rn {ljm {lio |
  1
,+->687+r<*-): {rn roqnfmfnllgjgkfffgoi roqjikoijlmgmkfffhmm roqoknllgjgmiffffiljn n o rlqkkjojmkolohmifol:roni V V |
  1
<0:;8: {rn {lin {nmh {ljh {lim o {mlm {rn |
  1
<0:;8: {rn {nmh {lin {nmf {mlh o {mlm {rn |
  1
300/ {rn {rn {mln {lil |
  1
/+36,+r3(;r>++-6= {rn {rn {rn {nmg |
  1
):-+:' {rn {lim {lik |
  1
,+->687+r<*-): {rn roqnfmfnllgjgkfffgoi roqjgklmjlnmnmigfnmn oqoomnofofmhmikmkihhl n o rlqkkjojmkolohmifol:roni V V |
  1
<0:;8: {rn {lij {nmf {lii {lih n {nlo {rn |
  1
:;8: {lig {lif {nlm {mln {lho o |
  1
9><: {lhn {lhm {nlo {i {rn {lhl 90-(>-; ,6183: |
  1
/061+ {rn oqnfmfnllgjgkfffgoi roqjgklmjlnmnmigfnmn oqoomnofofmhmikmkimng |
  1
/061+ {rn oqnfmfnllgjgkfffgoi roqjikoijlmgmkfffhmm roqoknllgjgmiffffikoh |
  1
<0:;8: {rn {lhk {nlj {lhj {lhi n {ni {rn |
  1
<0:;8: {rn {lhh {lhg {nlj {mkl o {lhf {rn |
  1
:;8: {lgo {lgn {mkg {nlj {lgm o |
  1
<0:;8: {rn {lgl {nli {nlf {mjn o {mki {rn |
  1
<0:;8: {rn {nli {lgl {lhh {lgk n {mki {rn |
  1
300/ {rn {rn {lgl {lgj |
  1
/+36,+r3(;r>++-6= {rn {rn {rn {nlh |
  1
):-+:' {rn {mkl {lgi |
  1
,+->687+r<*-): {rn roqnfmfnllgjgkfffgoi oqmjkmmnfgmmjooolli roqmmkifkkmlnffffjj gqklhiiinmknohhlmn:rolm rn mqkkfmnmhohikkhjkj:roni V V |
  1
<0:;8: {rn {nlf {nlg {njg {mhk o {nko {rn |
  1
:;8: {lgh {nkm {lgg {mkk {lgf o |
  1
9><: {lfo {lgj {nko {i {rn {lfn 90-(>-; ,6183: |
  1
/061+ {rn roqnfmfnllgjgkfffgoi oqnfmimgknnjjooomn roqmmkifkkmlnffffjj |
  1
<0:;8: {rn {nkk {lfm {lfl {lfk n {ni {rn |
  1
<0:;8: {rn {lfj {lfi {nkk {mji o {lfh {rn |
  1
:;8: {lfg {min {lff {nkk {koo o |
  1
<0:;8: {rn {kon {nkj {lfi {kom o {mjf {rn |
  1
<0:;8: {rn {nkj {kon {nkh {mik n {mjf {rn |
  1
300/ {rn {rn {kon {kol |
  1
/+36,+r3(;r>++-6= {rn {rn {rn {nki |
  1
):-+:' {rn {nki {kok |
  1
,+->687+r<*-): {rn roqnfmfnllgjgkfffgoi roqnfmimgknnkkfffgjk roqmmkifkkmlnffffjj gqklhiiinmknohhlmn:rolm rn mqkkfmnmhohikkhjkj:roni V V |
  1
<0:;8: {rn {nkg {nkh {njh {mhm o {nkf {rn |
  1
:;8: {koj {njn {koi {nkh {koh o |
  1
9><: {kog {mjm {nkf {i {rn {kof 90-(>-; ,6183: |
  1
/061+ {rn roqnfmfnllgjgkfffgoi roqnfmimgknnkkfffgjk roqmmkifkkmlnffffjj |
  1
/+36,+r3(;r>++-6= {rn {rn {rn {njl |
  1
,+->687+r<*-): {rn roqnfmfnllgjgkfffgoi roqnfmimgknnkkfffgjk roqnihlmmglkiffffkfl n o rlqkkjojmkolohmifol:roni V V |
  1
/+36,+r3(;r>++-6= {rn {rn {rn {njk |
  1
,+->687+r<*-): {rn roqnfmfnllgjgkfffgoi oqnfmimgknnjjooomn roqnihlmmglkiffffkfl n o rlqkkjojmkolohmifol:roni V V |
  1
<0:;8: {rn {kno {njh {kon {knn n {nlo {rn |
  1
:;8: {knm {koi {nio {mil {knl o |
  1
<0:;8: {rn {njg {knk {lgl {knj n {nlo {rn |
  1
:;8: {kni {nin {lgg {mjo {knh o |
  1
/061+ {rn oqnfmfnllgjgkfffgoi roqnfmimgknnkkfffgjk roqnihlmmglkiffffkfl |
  1
/061+ {rn oqnfmfnllgjgkfffgoi oqnfmimgknnjjooomn roqnihlmmglkiffffkfl |
  1
<0:;8: {rn {kng {nil {nii {mgk n {mhf {rn |
  1
<0:;8: {rn {nil {kng {nhn {mgf o {mhf {rn |
  1
300/ {rn {rn {mhg {knf |
  1
/+36,+r3(;r>++-6= {rn {rn {rn {nik |
  1
,+->687+r<*-): {rn oqogmijhghlffnolljmi oqoggjgmihhnkfffgfon roqnihlmmglkiooooomj n o rlqkkjojmkolohmifol:roni V V |
  1
<0:;8: {rn {mgj {nij {kmo {kmn o {nih {rn |
  1
<0:;8: {rn {nii {mgj {kmm {kml o {nih {rn |
  1
:;8: {kmk {kmj {nif {nii {kmi o |
  1
<0:;8: {rn {mgl {mgm {kmh {kmg o {nih {rn |
  1
9><: {kmf {klo {nih {i {rn {kln -:):-,:; ,6183: |
  1
/061+ {rn oqogmijhghlffnolljmi oqoggjgmihhnkfffgfon roqnihlmmglkiooooomj |
  1
<0:;8: {rn {klm {nhn {kll {klk n {nhl {rn |
  1
:;8: {klj {kli {nhj {mhg {klh o |
  1
<0:;8: {rn {nhm {klm {klg {klf n {nhl {rn |
  1
9><: {kko {mgi {nhl {i {rn {kkn 90-(>-; ,6183: |
  1
/061+ {rn oqnkjikffffffffffgk oqoggjgmihhnkfffgfon roqnihlmmglkiooooomj |
  1
<0:;8: {rn {klg {kmo {nhh {mfk o {kkm {rn |
  1
:;8: {kkl {mff {mfi {mfl {kkk o |
  1
/+36,+r3(;r>++-6= {rn {rn {rn {nhg |
  1
):-+:' {rn {mfk {kkj |
  1
,+->687+r<*-): {rn oqnkjikffffffffffgk roqoggjgmihhnjooooihh roqnihlmmglkiooooomj lqkkjojmkolohmifol:roni o n V V |
  1
/+36,+r3(;r>++-6= {rn {rn {rn {nhf |
  1
):-+:' {rn {nhf {kki |
  1
,+->687+r<*-): {rn oqogmijhghlffnolljmi roqoggjgmihhnjooooihh roqnihlmmglkiooooomj lqkkjojmkolohmifol:roni o n V V |
  1
92:,7r3(;r>++-6= {rn {kkh {rn {ngo |
  1
9><: {kkg {kkf {kkm {i {rn {kjo 90-(>-; ,6183: |
  1
/3>1:r,*-9><: {rn oqogmijhghlffnolljmi roqoggjgmihhnjooooihh roqnihlmmglkiooooomj o rn o rn o lqkkjojmkolohmifol:roni o V V V V |
  1
<0:;8: {rn {ngk {ngl {kjn {kjm o {ngj {rn |
  1
9><: {kjl {nnm {ngj {i {rn {kjk 90-(>-; ,6183: |
  1
<0:;8: {rn {nff {kjj {ngg {loh n {lmh {rn |
  1
:;8: {kji {moj {kjh {ngg {kjg o |
  1
<0:;8: {rn {kjf {kjn {ngf {lof n {kio {rn |
  1
:;8: {kin {kim {lnn {ngf {kil o |
  1
/+36,+r3(;r>++-6= {rn {rn {rn {nfo |
  1
):-+:' {rn {lof {kik |
  1
,+->687+r<*-): {rn roqnkjikffffffffffgk oqoggjgmihhnkfffgfon roqnngnnomlinfffffhh rlqkkjojmkolohmifol:roni o rn V V |
  1
<0:;8: {rn {kij {kii {nfn {lnk n {kih {rn |
  1
:;8: {kig {kjh {kim {nfn {kif o |
  1
92:,7r3(;r>++-6= {rn {kho {rn {nfm |
  1
/3>1:r,*-9><: {rn roqnkjikffffffffffgk rnqhhiljiglfkoomjoj:ronj roqofilinkkmifmfgingg n o rlqkkjojmkolohmifol:roni rlqkkjojmkolohmifol:roni o rn o V V V V |
  1
<0:;8: {rn {nfi {nfk {khn {khm n {noj {rn |
  1
<0:;8: {rn {kjn {kjf {nfk {lnf o {kio {rn |
  1
:;8: {khl {khk {lmn {lng {khj o |
  1
/+36,+r3(;r>++-6= {rn {rn {rn {nfj |
  1
):-+:' {rn {kjm {khi |
  1
,+->687+r<*-): {rn roqogmijhghlffnolljmi oqoggjgmihhnkfffgfon roqnngnnomlinfffffhh rlqkkjojmkolohmifol:roni o rn V V |
  1
<0:;8: {rn {kjj {nff {nfi {lmk o {lmh {rn |
  1
:;8: {khh {mom {khg {lml {khf o |
  1
92:,7r3(;r>++-6= {rn {kgo {rn {nfh |
  1
/3>1:r,*-9><: {rn roqogmijhghlffnolljmi rnqhhiljiglfkoomjoj:ronj roqofilinkkmifmfgingg n o rlqkkjojmkolohmifol:roni rlqkkjojmkolohmifol:roni o rn o V V V V |
  1
300/ {rn {rn {lml {mog |
  1
/+36,+r3(;r>++-6= {rn {rn {rn {moo |
  1
,+->687+r<*-): {rn roqnkjikffffffffffgk roqoggjgmihhnjooooihh roqnngnnomlinfffffhh n o rlqkkjojmkolohmifol:roni V V |
  1
/061+ {rn roqogmijhghlffnolljmi roqoggjgmihhnjooooihh roqnngnnomlinfffffhh |
  1
/061+ {rn roqnkjikffffffffffgk roqoggjgmihhnjooooihh roqnngnnomlinfffffhh |
  1
-:9@)+r3(;r>++-6= {rn {rn {moh {nnm {l {k |
  1
92:,7r3(;r>++-6= {rn {kgn {rn {mog |
  1
9><: {kgm {nfh {kih {i {rn {kgl 90-(>-; ,6183: |
  1
/3>1:r,*-9><: {rn roqnkjikffffffffffgk roqoggjgmihhnjooooihh roqnngnnomlinfffffhh nqlmjomonjkikjinmf:roni roqfmlohifmlnmlniili oqlgkinjlgkjokkoogi rn o lqkkjojmkolohmifol:roni o V V V V |
  1
-:9@)+r3(;r>++-6= {rn {rn {mnn {nnh {l {k |
  1
92:,7r3(;r>++-6= {rn {kgk {rn {mnm |
  1
9><: {kgj {kgi {kgh {i {rn {kgg 90-(>-; ,6183: |
  1
300/ {rn {rn {kgf {mnm |
  1
/3>1:r,*-9><: {rn roqnfmfnllgjgkfffgoi roqjjjnngnnomkfffhg roqnijljklloiffffhgf lqkkjojmkolohmifol:roni mqkkfmnmhohikkhjkj:roni n n o rlqkkjojmkolohmifol:roni o V V V V |
  1
<0:;8: {rn {kfo {kfn {kfm {kfl o {mnl {rn |
  1
<0:;8: {rn {kfk {mnj {kfn {kfj n {nng {rn |
  1
<0:;8: {rn {mnj {kfk {mni {lkh o {nng {rn |
  1
<0:;8: {rn {mng {kfm {mnj {lkj n {nlo {rn |
  1
:;8: {kfi {lkf {kfh {mnj {kfg o |
  1
<0:;8: {rn {mnh {mni {kff {joo o {im {rn |
  1
:;8: {jon {jom {lkf {lkl {jol o |
  1
/+36,+r3(;r>++-6= {rn {rn {rn {mnf |
  1
):-+:' {rn {lkh {jok |
  1
,+->687+r<*-): {rn oqnfmfnllgjgkfffgoi roqjfkkggnggfkfffhnn roqoklomflmnlffffjlmk gqfnikjnhhhgogkmog:ronh roqfijfmjgmjflfggffi oqmjggnfokikojihngg V V |
  1
<0:;8: {rn {kff {mmj {mmo {ljm n {ni {rn |
  1
:;8: {joj {ljk {mmg {ljn {joi o |
  1
/+36,+r3(;r>++-6= {rn {rn {rn {mmn |
  1
):-+:' {rn {joo {joh |
  1
,+->687+r<*-): {rn roqnfmfnllgjgkfffgoi roqjikoijlmgmkfffhmm roqojnngnnomlffffhjnl n o rlqkkjojmkolohmifol:roni V V |
  1
/061+ {rn oqnfmfnllgjgkfffgoi roqjikoijlmgmkfffhmm roqojnngnnomlffffhjif |
  1
<0:;8: {rn {mmj {jog {mlo {lim n {ni {rn |
  1
/+36,+r3(;r>++-6= {rn {rn {rn {mmi |
  1
,+->687+r<*-): {rn roqnfmfnllgjgkfffgoi roqjikoijlmgmkfffhmm roqoknllgjgmiffffiljn lqnmmmhhgniffhlfhn:roni roqkmmingmillfkkifjn oqfoilohhgimijkgkli V V |
  1
/061+ {rn roqnfmfnllgjgkfffgoi roqjikoijlmgmkfffhmm roqoknllgjgmiffffiljn |
  1
<0:;8: {rn {mln {mlo {jof {jno o {mlm {rn |
  1
:;8: {jnn {mlk {jnm {ljh {jnl o |
  1
9><: {jnk {mlg {mlm {i {rn {jnj 90-(>-; ,6183: |
  1
/061+ {rn roqnfmfnllgjgkfffgoi roqjgklmjlnmnmigfnmn oqoomnofofmhmikmkihhl |
  1
<0:;8: {rn {jni {mli {jnh {jng n {nlo {rn |
  1
<0:;8: {rn {jof {jnf {mli {lih o {jmo {rn |
  1
:;8: {jmn {jmm {lif {lii {jml o |
  1
/+36,+r3(;r>++-6= {rn {rn {rn {mlh |
  1
):-+:' {rn {jno {jmk |
  1
:336/,:r<*-): {rn oqnfmfnllgjgkfffgoi roqiojhlknjhjmkimof roqoohghkonjhfjkfokill rn o lqkkjojmkolohmifol:roni hqmngkmmlighffgkkm:rong oqonofohkkhjfglnhnhk oqomofjlonngnonoogij n V V |
  1
92:,7r3(;r>++-6= {rn {jmj {rn {mlg |
  1
9><: {jmi {knf {jmh {i {rn {jmg 90-(>-; ,6183: |
  1
/3>1:r,*-9><: {rn oqnfmfnllgjgkfffgoi roqonjimmmljonhijjjgk roqgggmjjhgooghfomhk n o rlqkkjojmkolohmifol:roni rlqkkjojmkolohmifol:roni rmqkkfmnmhohikkhjkj:roni rn o V V V V |
  1
<0:;8: {rn {jmf {mkn {jlo {jln n {ni {rn |
  1
<0:;8: {rn {jlm {jll {mkn {lhi o {jlk {rn |
  1
:;8: {jlj {jli {lgn {mkn {jlh o |
  1
<0:;8: {rn {jlg {mkm {mkj {lgk o {lhf {rn |
  1
<0:;8: {rn {mkm {jlg {jlm {jlf n {lhf {rn |
  1
300/ {rn {rn {jlg {jko |
  1
/+36,+r3(;r>++-6= {rn {rn {rn {mkl |
  1
):-+:' {rn {lhi {jkn |
  1
,+->687+r<*-): {rn roqnfmfnllgjgkfffgoi oqmjkmmnfgmmjooolli roqnkhilhhfjmffffini rlqkkjojmkolohmifol:roni rmqkkfmnmhohikkhjkj:roni rn V V |
  1
<0:;8: {rn {mkj {mkk {mhl {knj o {mki {rn |
  1
:;8: {jkm {mkg {jkl {lhh {jkk o |
  1
9><: {jkj {jko {mki {i {rn {jki 90-(>-; ,6183: |
  1
/061+ {rn roqnfmfnllgjgkfffgoi oqmjkmmnfgmmjooolli roqmmkifkkmlnffffjj |
  1
/+36,+r3(;r>++-6= {rn {rn {rn {mjn |
  1
):-+:' {rn {mjn {jkh |
  1
,+->687+r<*-): {rn roqnfmfnllgjgkfffgoi oqnfmimgknnjjooomn roqmmkifkkmlnffffjj n o rlqkkjojmkolohmifol:roni V V |
  1
92:,7r3(;r>++-6= {rn {jkg {rn {mjm |
  1
/3>1:r,*-9><: {rn roqnfmfnllgjgkfffgoi oqnfmimgknnjjooomn roqnihlmmglkiffffkfl rgqklhiiinmknohhlmn:rolm n rmqkkfmnmhohikkhjkj:roni n o rlqkkjojmkolohmifol:roni o V V V V |
  1
<0:;8: {rn {mjk {jkf {jjo {jjn n {ni {rn |
  1
<0:;8: {rn {jjm {jjl {mjk {lfk o {jjk {rn |
  1
:;8: {jjj {lff {jji {mjk {jjh o |
  1
<0:;8: {rn {jjg {mjj {jjl {jjf o {lfh {rn |
  1
<0:;8: {rn {mjj {jjg {mjh {kom n {lfh {rn |
  1
300/ {rn {rn {jjg {jio |
  1
/+36,+r3(;r>++-6= {rn {rn {rn {mji |
  1
):-+:' {rn {mji {jin |
  1
,+->687+r<*-): {rn roqnfmfnllgjgkfffgoi roqlikkjgmomikfffhng roqmmkifkkmlnffffjj lqkkjojmkolohmifol:roni rnqmfifmkjmhoglhgji:ronk n V V |
  1
<0:;8: {rn {mjg {mjh {mhn {knn o {mjf {rn |
  1
:;8: {jim {min {jil {mjh {jik o |
  1
9><: {jij {mij {mjf {i {rn {jii 90-(>-; ,6183: |
  1
/061+ {rn roqnfmfnllgjgkfffgoi roqlikkjgmomikfffhng roqmmkifkkmlnffffjj |
  1
/+36,+r3(;r>++-6= {rn {rn {rn {mik |
  1
):-+:' {rn {mik {jih |
  1
,+->687+r<*-): {rn roqnfmfnllgjgkfffgoi roqnfmimgknnkkfffgjk roqmmkifkkmlnffffjj n o rlqkkjojmkolohmifol:roni V V |
  1
92:,7r3(;r>++-6= {rn {jig {rn {mij |
  1
/3>1:r,*-9><: {rn roqnfmfnllgjgkfffgoi roqnfmimgknnkkfffgjk roqmmkifkkmlnffffjj gqklhiiinmknohhlmn:rolm rn mqkkfmnmhohikkhjkj:roni rn o lqkkjojmkolohmifol:roni o V V V V |
  1
<0:;8: {rn {jif {mhn {jjg {jho n {nlo {rn |
  1
:;8: {jhn {jil {koi {kon {jhm o |
  1
/+36,+r3(;r>++-6= {rn {rn {rn {mhm |
  1
,+->687+r<*-): {rn oqnfmfnllgjgkfffgoi roqnfmimgknnkkfffgjk roqnihlmmglkiffffkfl lqkkjojmkolohmifol:roni mqkkfmnmhohikkhjkj:roni n V V |
  1
<0:;8: {rn {mhl {jhl {jlg {jhk n {nlo {rn |
  1
:;8: {jhj {lgg {jkl {lgl {jhi o |
  1
/+36,+r3(;r>++-6= {rn {rn {rn {mhk |
  1
,+->687+r<*-): {rn oqnfmfnllgjgkfffgoi oqnfmimgknnjjooomn roqmmkifkkmlnffffjj rlqkkjojmkolohmifol:roni rmqkkfmnmhohikkhjkj:roni rn V V |
  1
<0:;8: {rn {mhg {mhh {jhh {jhg o {mhf {rn |
  1
9><: {jhf {ngo {mhf {i {rn {jgo 90-(>-; ,6183: |
  1
<0:;8: {rn {mfl {jgn {mgm {kmn n {kkm {rn |
  1
:;8: {jgm {mff {jgl {mgm {jgk o |
  1
<0:;8: {rn {jgj {jhh {mgl {kml n {jmh {rn |
  1
:;8: {jgi {jgh {kmj {mgl {jgg o |
  1
/+36,+r3(;r>++-6= {rn {rn {rn {mgk |
  1
):-+:' {rn {kml {jgf |
  1
,+->687+r<*-): {rn oqogmijhghlffnolljmi oqoggjgmihhnkfffgfon roqnngnnomlinfffffhh rlqkkjojmkolohmifol:roni o rn V V |
  1
<0:;8: {rn {jfo {jfn {mgj {kmg n {jfm {rn |
  1
:;8: {jfl {jgl {jgh {mgj {jfk o |
  1
92:,7r3(;r>++-6= {rn {jfj {rn {mgi |
  1
9><: {jfi {loj {kio {i {rn {jfh 90-(>-; ,6183: |
  1
/3>1:r,*-9><: {rn oqogmijhghlffnolljmi rnqhhiljiglfkoomjoj:ronj roqofilinkkmifmfgingg n o rlqkkjojmkolohmifol:roni rlqkkjojmkolohmifol:roni o rn o V V V V |
  1
<0:;8: {rn {mfo {mgg {jfg {jff n {nhl {rn |
  1
<0:;8: {rn {jhh {jgj {mgg {klk o {jmh {rn |
  1
:;8: {ioo {ion {kli {kll {iom o |
  1
/+36,+r3(;r>++-6= {rn {rn {rn {mgf |
  1
):-+:' {rn {jhg {iol |
  1
,+->687+r<*-): {rn oqnkjikffffffffffgk oqoggjgmihhnkfffgfon roqnngnnomlinfffffhh rlqkkjojmkolohmifol:roni o rn V V |
  1
<0:;8: {rn {jgn {mfl {mfo {klf o {kkm {rn |
  1
:;8: {iok {mfi {ioj {klg {ioi o |
  1
92:,7r3(;r>++-6= {rn {ioh {rn {mfn |
  1
/3>1:r,*-9><: {rn oqnkjikffffffffffgk rnqhhiljiglfkoomjoj:ronj roqofilinkkmifmfgimkl n o rlqkkjojmkolohmifol:roni rlqkkjojmkolohmifol:roni o rn o V V V V |
  1
300/ {rn {rn {klg {lom |
  1
/+36,+r3(;r>++-6= {rn {rn {rn {mfk |
  1
,+->687+r<*-): {rn oqogmijhghlffnolljmi roqoggjgmihhnjooooihh roqnngnnomlinfffffhh n o rlqkkjojmkolohmifol:roni V V |
  1
/061+ {rn oqnkjikffffffffffgk roqoggjgmihhnjooooihh roqnngnnomlinfffffhh |
  1
/061+ {rn oqogmijhghlffnolljmi roqoggjgmihhnjooooihh roqnngnnomlinfffffhh |
  1
-:9@)+r3(;r>++-6= {rn {rn {lon {ngo {l {k |
  1
92:,7r3(;r>++-6= {rn {iog {rn {lom |
  1
9><: {iof {mfn {jfm {i {rn {ino 90-(>-; ,6183: |
  1
/3>1:r,*-9><: {rn oqogmijhghlffnolljmi roqoggjgmihhnjooooihh roqnngnnomlinfffffhh nqlmjomonjkikjinmf:roni roqfmlohifmlnmlniili oqlgkinjlgkjokkoogi rn o lqkkjojmkolohmifol:roni o V V V V |
  1
<0:;8: {rn {log {lng {lok {kjm n {kio {rn |
  1
:;8: {inn {lnn {lmn {lok {inm o |
  1
92:,7r3(;r>++-6= {rn {inl {rn {loj |
  1
/3>1:r,*-9><: {rn roqnkjikffffffffffgk oqoggjgmihhnkfffgfon roqnngnnomlinfffffhh o n o n o rlqkkjojmkolohmifol:roni o V V V V |
  1
<0:;8: {rn {loi {lml {kij {ink n {lmh {rn |
  1
/+36,+r3(;r>++-6= {rn {rn {rn {loh |
  1
):-+:' {rn {lnk {inj |
  1
,+->687+r<*-): {rn roqnkjikffffffffffgk roqoggjgmihhnjooooihh roqnngnnomlinfffffhh lqngookglhmmmikof:roni oqlgkinjlgkjokkoog oqfmlohifmlnmlniimj V V |
  1
<0:;8: {rn {lng {log {kii {ini o {kio {rn |
  1
300/ {rn {rn {lng {klo |
  1
/+36,+r3(;r>++-6= {rn {rn {rn {lof |
  1
):-+:' {rn {lnk {inh |
  1
,+->687+r<*-): {rn roqnkjikffffffffffgk oqolflhoohghjoooomok o rlqngookglhmmmikmjg:roni oqlgkinjlgkjoklgfok roqfmlohifmlnmlnhnmk V V |
  1
/061+ {rn roqnkjikffffffffffgk oqoggjgmihhnkfffgfon roqnngnnomlinfffffhh |
  1
<0:;8: {rn {khn {lnl {kjj {ink o {kih {rn |
  1
<0:;8: {rn {lnl {khn {kjf {ini n {kih {rn |
  1
300/ {rn {rn {khn {llk |
  1
/+36,+r3(;r>++-6= {rn {rn {rn {lnk |
  1
,+->687+r<*-): {rn roqnkjikffffffffffgk roqolflhoohghjoooomok o o n o V V |
  1
-:9@)+r3(;r>++-6= {rn {rn {lnj {nfm {l {k |
  1
<0:;8: {rn {kii {kij {lnh {khm o {kih {rn |
  1
:;8: {ing {khg {khk {khn {inf o |
  1
/+36,+r3(;r>++-6= {rn {rn {rn {lnf |
  1
):-+:' {rn {ini {imo |
  1
,+->687+r<*-): {rn roqogmijhghlffnolljmi oqolflhoohghjoooomok o rlqngookglhmmmikmjg:roni oqlgkinjlgkjoklgfok roqfmlohifmlnmlnhnmk V V |
  1
/061+ {rn roqogmijhghlffnolljmi oqoggjgmihhnkfffgfon roqnngnnomlinfffffhh |
  1
/+36,+r3(;r>++-6= {rn {rn {rn {lmk |
  1
):-+:' {rn {ink {imn |
  1
,+->687+r<*-): {rn roqogmijhghlffnolljmi roqoggjgmihhnjooooihh roqnngnnomlinfffffhh lqngookglhmmmikof:roni oqlgkinjlgkjokkoog oqfmlohifmlnmlniimj V V |
  1
-:9@)+r3(;r>++-6= {rn {rn {lmj {nfh {l {k |
  1
-:9@)+r3(;r>++-6= {rn {rn {lll {mog {l {k |
  1
92:,7r3(;r>++-6= {rn {imm {rn {llk |
  1
/3>1:r,*-9><: {rn roqnkjikffffffffffgk roqolflhoohghjoooomok o lqkkjojmkolohmifol:roni o n n o rlqkkjojmkolohmifol:roni o V V V V |
  1
-:9@)+r3(;r>++-6= {rn {rn {llh {mnm {l {k |
  1
92:,7r3(;r>++-6= {rn {iml {rn {llg |
  1
9><: {imk {imj {imi {i {rn {imh 90-(>-; ,6183: |
  1
300/ {rn {rn {img {llg |
  1
<01:r,*-9><: {rn roqnfmfnllgjgkfffgoi roqjnjhkgolnkjoonkkh roqmjlflhoohfoonnlnk n o rlqkkjojmkolohmifol:roni lqonjnhmgiomngfnjn:ronh oqonliigmnfnlllffnnm oqoghjmngmgimlgkkkjg n V V o n o V V V V |
  1
<0:;8: {rn {imf {ilo {iln {ilm o {llf {rn |
  1
<0:;8: {rn {ill {lkn {ilo {ilk n {mnl {rn |
  1
<0:;8: {rn {lkn {ill {lkm {kfj o {mnl {rn |
  1
<0:;8: {rn {lkk {iln {lkn {kfl n {nlo {rn |
  1
:;8: {ilj {kfh {ili {lkn {ilh o |
  1
<0:;8: {rn {lkl {lkm {ilg {ilf o {nng {rn |
  1
:;8: {iko {ikn {kfh {kfn {ikm o |
  1
/+36,+r3(;r>++-6= {rn {rn {rn {lkj |
  1
):-+:' {rn {kfj {ikl |
  1
,+->687+r<*-): {rn oqnfmfnllgjgkfffgoi roqjfkkggnggfkfffggf roqnmjfgkmjnfffffjom rlqkkjojmkolohmifol:roni rnqofjnihffohfihjnn:ronk rn V V |
  1
<0:;8: {rn {ilg {ljn {lki {joo n {ni {rn |
  1
:;8: {ikk {jom {ljk {kff {ikj o |
  1
/+36,+r3(;r>++-6= {rn {rn {rn {lkh |
  1
):-+:' {rn {ilf {iki |
  1
,+->687+r<*-): {rn roqnfmfnllgjgkfffgoi roqjfkkggnggfkfffhnn roqoklomflmnlffffjmig n o rlqkkjojmkolohmifol:roni V V |
  1
/061+ {rn oqnfmfnllgjgkfffgoi roqjfkkggnggfkfffhnn roqoklomflmnlffffjlmk |
  1
/+36,+r3(;r>++-6= {rn {rn {rn {ljm |
  1
,+->687+r<*-): {rn roqnfmfnllgjgkfffgoi roqjikoijlmgmkfffhmm roqojnngnnomlffffhjnl lqkkjojmkolohmifol:roni mqkkfmnmhohikkhjkj:roni n V V |
  1
/061+ {rn roqnfmfnllgjgkfffgoi roqjikoijlmgmkfffhmm roqojnngnnomlffffhjnl |
  1
<0:;8: {rn {ljh {ikh {ikg {ikf n {ni {rn |
  1
<0:;8: {rn {ikg {lii {lin {jno n {jmo {rn |
  1
:;8: {ijo {jnm {lif {lin {ijn o |
  1
/+36,+r3(;r>++-6= {rn {rn {rn {lim |
  1
):-+:' {rn {lim {ijm |
  1
:336/,:r<*-): {rn roqnfmfnllgjgkfffgoi roqiojhlknjhjmkimof roqoohghkonjhfjkfokohg n o rlqkkjojmkolohmifol:roni hqmngkmmlighffgkkm:rong oqonofohkkhjfglnhnhk oqomofjlonngnonoogij n V V |
  1
92:,7r3(;r>++-6= {rn {ijl {rn {lil |
  1
<01:r,*-9><: {rn roqnfmfnllgjgkfffgoi roqiojhlknjhjmkimof roqoohghkonjhfjkfokohg n o rlqkkjojmkolohmifol:roni hqmngkmmlighffgkkm:rong oqonofohkkhjfglnhnhk oqomofjlonngnonoogij n V V o n o V V V V |
  1
<0:;8: {rn {ijk {lij {ijj {iji n {nlo {rn |
  1
<0:;8: {rn {ijh {ijg {lij {jng o {ijf {rn |
  1
:;8: {iio {iin {jmm {jnh {iim o |
  1
<0:;8: {rn {lii {ikg {ijh {iil o {jmo {rn |
  1
300/ {rn {rn {lii {iik |
  1
/+36,+r3(;r>++-6= {rn {rn {rn {lih |
  1
):-+:' {rn {iil {iij |
  1
,+->687+r<*-): {rn oqnfmfnllgjgkfffgoi roqiofgliogmfkfffgkh oqonjlgfnjfjoooolmkh jqfgmmhohkgjlmmkgg:ronh oqfgkgohhjmgjlfmnfh oqnhlikgnhgjikinjih V V |
  1
/061+ {rn oqnfmfnllgjgkfffgoi roqiofgliogmfkfffgkh oqonjlgfnjfjoooolmkh |
  1
-:9@)+r3(;r>++-6= {rn {rn {lhn {mlg {l {k |
  1
92:,7r3(;r>++-6= {rn {iii {rn {lhm |
  1
300/ {rn {rn {kll {lhm |
  1
/3>1:r,*-9><: {rn oqogmijhghlffnolljmi oqolflhoohghjoooomok o nqlmjomonjkikjjhmm:roni oqfmlohifmlnmlnhnmk oqlgkinjlgkjoklgfok n o rlqkkjojmkolohmifol:roni o V V V V |
  1
<0:;8: {rn {iih {lhk {iig {iif n {ni {rn |
  1
<0:;8: {rn {iho {ihn {lhk {jln o {ihm {rn |
  1
:;8: {ihl {ihk {jli {lhk {ihj o |
  1
<0:;8: {rn {ihi {lhj {lhg {jlf o {jlk {rn |
  1
<0:;8: {rn {lhj {ihi {iho {ihh n {jlk {rn |
  1
300/ {rn {rn {ihi {ihg |
  1
/+36,+r3(;r>++-6= {rn {rn {rn {lhi |
  1
):-+:' {rn {jln {ihf |
  1
,+->687+r<*-): {rn roqnfmfnllgjgkfffgoi oqkjmhjjfojjjooomhg roqnkhilhhfjmffffini gqklhiiinmknohhlmn:rolm rn mqkkfmnmhohikkhjkj:roni V V |
  1
<0:;8: {rn {lhg {lhh {knk {jhk o {lhf {rn |
  1
:;8: {igo {lgn {ign {jlm {igm o |
  1
9><: {igl {ihg {lhf {i {rn {igk 90-(>-; ,6183: |
  1
/061+ {rn roqnfmfnllgjgkfffgoi oqmjkmmnfgmmjooolli roqnkhilhhfjmffffini |
  1
/+36,+r3(;r>++-6= {rn {rn {rn {lgk |
  1
):-+:' {rn {lgk {igj |
  1
,+->687+r<*-): {rn roqnfmfnllgjgkfffgoi oqmjkmmnfgmmjooolli roqmmkifkkmlnffffjj n o rlqkkjojmkolohmifol:roni V V |
  1
92:,7r3(;r>++-6= {rn {igi {rn {lgj |
  1
/3>1:r,*-9><: {rn roqnfmfnllgjgkfffgoi oqnfmimgknnjjooomn roqmmkifkkmlnffffjj lqkkjojmkolohmifol:roni mqkkfmnmhohikkhjkj:roni n n o rlqkkjojmkolohmifol:roni o V V V V |
  1
/061+ {rn oqnfmfnllgjgkfffgoi oqnfmimgknnjjooomn roqmmkifkkmlnffffjj |
  1
-:9@)+r3(;r>++-6= {rn {rn {lfo {mjm {l {k |
  1
<0:;8: {rn {lfm {igh {igg {igf n {ni {rn |
  1
<0:;8: {rn {ifo {ifn {lfm {jjn o {ifm {rn |
  1
:;8: {ifl {jji {ifk {lfm {ifj o |
  1
<0:;8: {rn {ifi {lfl {ifn {ifh o {jjk {rn |
  1
<0:;8: {rn {lfl {ifi {lfj {jjf n {jjk {rn |
  1
300/ {rn {rn {ifi {ifg |
  1
/+36,+r3(;r>++-6= {rn {rn {rn {lfk |
  1
):-+:' {rn {lfk {iff |
  1
,+->687+r<*-): {rn roqnfmfnllgjgkfffgoi roqlikkjgmomikfffgfj roqnjhkgolnkffffflhi mqkljfhljlkhihkhkk:roni roqhohnmomkkoomnlonk oqhohofllngnnkilhi V V |
  1
<0:;8: {rn {lfi {lfj {kno {jho o {lfh {rn |
  1
:;8: {hoo {lff {hon {lfj {hom o |
  1
9><: {hol {kol {lfh {i {rn {hok 90-(>-; ,6183: |
  1
/061+ {rn roqnfmfnllgjgkfffgoi roqlikkjgmomikfffgfj roqnjhkgolnkffffflhi |
  1
/+36,+r3(;r>++-6= {rn {rn {rn {kom |
  1
):-+:' {rn {kom {hoj |
  1
,+->687+r<*-): {rn roqnfmfnllgjgkfffgoi roqlikkjgmomikfffhng roqmmkifkkmlnffffjj n o rlqkkjojmkolohmifol:roni V V |
  1
92:,7r3(;r>++-6= {rn {hoi {rn {kol |
  1
/3>1:r,*-9><: {rn roqnfmfnllgjgkfffgoi roqlikkjgmomikfffhng roqmmkifkkmlnffffjj lqkkjojmkolohmifol:roni mqkkfmnmhohikkhjkj:roni n n o rlqkkjojmkolohmifol:roni o V V V V |
  1
/061+ {rn oqnfmfnllgjgkfffgoi roqnfmimgknnkkfffgjk roqmmkifkkmlnffffjj |
  1
-:9@)+r3(;r>++-6= {rn {rn {kog {mij {l {k |
  1
<0:;8: {rn {hoh {kno {ifi {hog n {nlo {rn |
  1
:;8: {hof {hon {jil {jjg {hno o |
  1
/+36,+r3(;r>++-6= {rn {rn {rn {knn |
  1
,+->687+r<*-): {rn oqnfmfnllgjgkfffgoi roqnfmimgknnkkfffgjk roqmmkifkkmlnffffjj rgqklhiiinmknohhlmn:rolm n rmqkkfmnmhohikkhjkj:roni V V |
  1
<0:;8: {rn {knk {hnn {ihi {hnm n {nlo {rn |
  1
:;8: {hnl {jkl {ign {jlg {hnk o |
  1
/+36,+r3(;r>++-6= {rn {rn {rn {knj |
  1
,+->687+r<*-): {rn oqnfmfnllgjgkfffgoi oqmjkmmnfgmmjooolli roqmmkifkkmlnffffjj rgqklhiiinmknohhlmn:rolm n rmqkkfmnmhohikkhjkj:roni V V |
  1
<0:;8: {rn {kmm {kll {kng {jhg n {jmh {rn |
  1
:;8: {hnj {kmj {kli {kng {hni o |
  1
92:,7r3(;r>++-6= {rn {hnh {rn {knf |
  1
/3>1:r,*-9><: {rn oqogmijhghlffnolljmi oqoggjgmihhnkfffgfon roqnngnnomlinfffffhh o n o n o rlqkkjojmkolohmifol:roni o V V V V |
  1
<0:;8: {rn {kmo {klg {jfo {hng n {kkm {rn |
  1
/+36,+r3(;r>++-6= {rn {rn {rn {kmn |
  1
):-+:' {rn {kmg {hnf |
  1
,+->687+r<*-): {rn oqogmijhghlffnolljmi roqoggjgmihhnjooooihh roqnngnnomlinfffffhh lqngookglhmmmikof:roni oqlgkinjlgkjokkoog oqfmlohifmlnmlniimj V V |
  1
<0:;8: {rn {kll {kmm {jfn {hmo o {jmh {rn |
  1
/+36,+r3(;r>++-6= {rn {rn {rn {kml |
  1
):-+:' {rn {kmg {hmn |
  1
,+->687+r<*-): {rn oqogmijhghlffnolljmi oqolflhoohghjoooomok o rlqngookglhmmmikmjg:roni oqlgkinjlgkjoklgfok roqfmlohifmlnmlnhnmk V V |
  1
/061+ {rn oqogmijhghlffnolljmi oqoggjgmihhnkfffgfon roqnngnnomlinfffffhh |
  1
<0:;8: {rn {jfg {kmh {jgn {hng o {jfm {rn |
  1
<0:;8: {rn {kmh {jfg {jgj {hmo n {jfm {rn |
  1
300/ {rn {rn {jfg {kkf |
  1
/+36,+r3(;r>++-6= {rn {rn {rn {kmg |
  1
,+->687+r<*-): {rn oqogmijhghlffnolljmi roqolflhoohghjoooomok o o n o V V |
  1
-:9@)+r3(;r>++-6= {rn {rn {kmf {mgi {l {k |
  1
92:,7r3(;r>++-6= {rn {hmm {rn {klo |
  1
/3>1:r,*-9><: {rn roqnkjikffffffffffgk oqolflhoohghjoooomok o nqlmjomonjkikjjhmm:roni oqfmlohifmlnmlnhnmk oqlgkinjlgkjoklgfok n o rlqkkjojmkolohmifol:roni o V V V V |
  1
<0:;8: {rn {jfn {jfo {klm {jff o {jfm {rn |
  1
:;8: {hml {ioj {ion {jfg {hmk o |
  1
/+36,+r3(;r>++-6= {rn {rn {rn {klk |
  1
):-+:' {rn {hmo {hmj |
  1
,+->687+r<*-): {rn oqnkjikffffffffffgk oqolflhoohghjoooomok rjqjjnnnjnmlnmjhgmh:ronh rlqngookglhmmmikmjg:roni oqlgkinjlgkjoklgfok roqfmlohifmlnmlnhnmk V V |
  1
/061+ {rn oqnkjikffffffffffgk oqoggjgmihhnkfffgfon roqnngnnomlinfffffhh |
  1
/+36,+r3(;r>++-6= {rn {rn {rn {klf |
  1
):-+:' {rn {hng {hmi |
  1
,+->687+r<*-): {rn oqnkjikffffffffffgk roqoggjgmihhnjooooihh roqnngnnomlinfffffhh lqngookglhmmmikof:roni oqlgkinjlgkjokkoog oqfmlohifmlnmlniimj V V |
  1
-:9@)+r3(;r>++-6= {rn {rn {kko {mfn {l {k |
  1
-:9@)+r3(;r>++-6= {rn {rn {kkg {lom {l {k |
  1
92:,7r3(;r>++-6= {rn {hmh {rn {kkf |
  1
/3>1:r,*-9><: {rn oqogmijhghlffnolljmi roqolflhoohghjoooomok o lqkkjojmkolohmifol:roni o n n o rlqkkjojmkolohmifol:roni o V V V V |
  1
/+36,+r3(;r>++-6= {rn {rn {rn {kjm |
  1
,+->687+r<*-): {rn roqnkjikffffffffffgk oqoggjgmihhnkfffgfon roqnngnnomlinfffffhh n o rlqkkjojmkolohmifol:roni V V |
  1
-:9@)+r3(;r>++-6= {rn {rn {kjl {loj {l {k |
  1
:;8: {hmg {kjh {khg {kij {hmf o |
  1
/061+ {rn roqnkjikffffffffffgk roqolflhoohghjoooomok o |
  1
:;8: {hlo {kim {khk {kjf {hln o |
  1
/061+ {rn roqnkjikffffffffffgk oqolflhoohghjoooomok o |
  1
/+36,+r3(;r>++-6= {rn {rn {rn {khm |
  1
,+->687+r<*-): {rn roqogmijhghlffnolljmi roqolflhoohghjoooomok o o n o V V |
  1
/061+ {rn roqogmijhghlffnolljmi oqolflhoohghjoooomok o |
  1
/061+ {rn roqogmijhghlffnolljmi roqolflhoohghjoooomok o |
  1
-:9@)+r3(;r>++-6= {rn {rn {kgm {llk {l {k |
  1
-:9@)+r3(;r>++-6= {rn {rn {kgj {llg {l {k |
  1
92:,7r3(;r>++-6= {rn {hlm {rn {kgi |
  1
9><: {hll {hlk {hlj {i {rn {hli 90-(>-; ,6183: |
  1
300/ {rn {rn {hlh {kgi |
  1
/3>1:r,*-9><: {rn roqnfmfnllgjgkfffgoi roqkgghlgfigfkhnnhhh roqnifjhmlnjfgohnjfl mqilfoilmjoofiknhn:roni roqikmhghiofjmkllnih oqhiiokkkklmjjogikh n o rlqkkjojmkolohmifol:roni o V V V V |
  1
<0:;8: {rn {hlg {hlf {hko {hkn o {kgh {rn |
  1
<0:;8: {rn {hkm {kgf {hlf {hkl n {llf {rn |
  1
<0:;8: {rn {kgf {hkm {kfo {ilk o {llf {rn |
  1
<0:;8: {rn {kfm {hko {kgf {ilm n {nlo {rn |
  1
:;8: {hkk {ili {hkj {kgf {hki o |
  1
<0:;8: {rn {kfn {kfo {hkh {hkg o {mnl {rn |
  1
:;8: {hkf {hjo {ili {ilo {hjn o |
  1
/+36,+r3(;r>++-6= {rn {rn {rn {kfl |
  1
):-+:' {rn {ilk {hjm |
  1
:336/,:r<*-): {rn oqnfmfnllgjgkfffgoi roqjjjnngnnomkfffhg roqnmjfgkmjnfffffjom n o rlqkkjojmkolohmifol:roni rfqjfoimfjhfgohoonj:rong roqomhglggkfimkinghgl roqomhglggkfimkingnkg n V V |
  1
<0:;8: {rn {hkh {kff {kfk {ilf n {ni {rn |
  1
:;8: {hjl {ikn {jom {ilg {hjk o |
  1
/+36,+r3(;r>++-6= {rn {rn {rn {kfj |
  1
):-+:' {rn {hkg {hjj |
  1
,+->687+r<*-): {rn roqnfmfnllgjgkfffgoi roqjfkkggnggfkfffggf roqnmjfgkmjnfffffjom n o rlqkkjojmkolohmifol:roni V V |
  1
/061+ {rn oqnfmfnllgjgkfffgoi roqjfkkggnggfkfffggf roqnmjfgkmjnfffffjom |
  1
/+36,+r3(;r>++-6= {rn {rn {rn {joo |
  1
,+->687+r<*-): {rn roqnfmfnllgjgkfffgoi roqjfkkggnggfkfffhnn roqoklomflmnlffffjmig rgqfnikjnhhhgogkmog:ronh oqfijfmjgmjflfggffi roqmjggnfokikojihngg V V |
  1
/061+ {rn roqnfmfnllgjgkfffgoi roqjfkkggnggfkfffhnn roqoklomflmnlffffjmig |
  1
<0:;8: {rn {jog {hji {hjh {hjg n {ni {rn |
  1
<0:;8: {rn {jnf {jof {jog {ikf o {jmo {rn |
  1
:;8: {hjf {jnm {hio {jog {hin o |
  1
/+36,+r3(;r>++-6= {rn {rn {rn {jno |
  1
,+->687+r<*-): {rn roqnfmfnllgjgkfffgoi roqiofgliogmfkfffgkh oqonjlgfnjfjoooollom n o rlqkkjojmkolohmifol:roni V V |
  1
/061+ {rn roqnfmfnllgjgkfffgoi roqiofgliogmfkfffgkh oqonjlgfnjfjoooollom |
  1
-:9@)+r3(;r>++-6= {rn {rn {jnk {lil {l {k |
  1
<0:;8: {rn {him {jni {hil {hik n {nlo {rn |
  1
<0:;8: {rn {hij {hii {jni {iji o {hih {rn |
  1
:;8: {hig {hif {iin {ijj {hho o |
  1
<0:;8: {rn {hjh {jnh {jnf {iil n {ijf {rn |
  1
<0:;8: {rn {jnh {hjh {hij {hhn o {ijf {rn |
  1
300/ {rn {rn {jnh {hhm |
  1
/+36,+r3(;r>++-6= {rn {rn {rn {jng |
  1
):-+:' {rn {hhn {hhl |
  1
:336/,:r<*-): {rn oqnfmfnllgjgkfffgoi roqijooggomnkloilnhn roqojnihkkgnhgjgjfkgl rn o lqkkjojmkolohmifol:roni nqkhgmnonognnifkkk:ronh roqokojhjhighgnkhgmkn oqokmfogmolgjhhjjhgm n V V |
  1
:;8: {hhk {hio {jmm {jnf {hhj o |
  1
9><: {hhi {lil {jmo {i {rn {hhh 90-(>-; ,6183: |
  1
/061+ {rn oqnfmfnllgjgkfffgoi roqiiolkmglkfgffhokg oqooikglkjiljfflkomji |
  1
-:9@)+r3(;r>++-6= {rn {rn {jmi {lhm {l {k |
  1
<0:;8: {rn {hhg {jmf {hhf {hgo n {ni {rn |
  1
<0:;8: {rn {hgn {hgm {jmf {iif o {hgl {rn |
  1
:;8: {hgk {hgj {ihk {jmf {hgi o |
  1
<0:;8: {rn {hgh {jlo {jll {ihh o {ihm {rn |
  1
<0:;8: {rn {jlo {hgh {hgn {hgg n {ihm {rn |
  1
300/ {rn {rn {hgh {hgf |
  1
/+36,+r3(;r>++-6= {rn {rn {rn {jln |
  1
):-+:' {rn {iif {hfo |
  1
,+->687+r<*-): {rn roqnfmfnllgjgkfffgoi oqkjmhjjfojjjooomhg roqnlhhfjmhjjffffkff rlqkkjojmkolohmifol:roni rmqkkfmnmhohikkhjkj:roni rn V V |
  1
<0:;8: {rn {jll {jlm {jhl {hnm o {jlk {rn |
  1
:;8: {hfn {jli {hfm {iho {hfl o |
  1
9><: {hfk {hgf {jlk {i {rn {hfj 90-(>-; ,6183: |
  1
/061+ {rn roqnfmfnllgjgkfffgoi oqkjmhjjfojjjooomhg roqnkhilhhfjmffffini |
  1
/+36,+r3(;r>++-6= {rn {rn {rn {jlf |
  1
):-+:' {rn {jlf {hfi |
  1
,+->687+r<*-): {rn roqnfmfnllgjgkfffgoi oqmjkmmnfgmmjooolli roqnkhilhhfjmffffini n o rlqkkjojmkolohmifol:roni V V |
  1
92:,7r3(;r>++-6= {rn {hfh {rn {jko |
  1
/3>1:r,*-9><: {rn roqnfmfnllgjgkfffgoi oqmjkmmnfgmmjooolli roqmmkifkkmlnffffjj gqklhiiinmknohhlmn:rolm rn mqkkfmnmhohikkhjkj:roni rn o lqkkjojmkolohmifol:roni o V V V V |
  1
/061+ {rn oqnfmfnllgjgkfffgoi oqmjkmmnfgmmjooolli roqmmkifkkmlnffffjj |
  1
-:9@)+r3(;r>++-6= {rn {rn {jkj {lgj {l {k |
  1
<0:;8: {rn {jkf {hfg {hff {goo n {ni {rn |
  1
<0:;8: {rn {gon {gom {jkf {igf o {hlj {rn |
  1
:;8: {gol {ifk {gok {jkf {goj o |
  1
<0:;8: {rn {goi {jjo {gom {goh o {ifm {rn |
  1
<0:;8: {rn {jjo {goi {jjm {ifh n {ifm {rn |
  1
300/ {rn {rn {goi {hlk |
  1
/+36,+r3(;r>++-6= {rn {rn {rn {jjn |
  1
):-+:' {rn {jjn {gog |
  1
,+->687+r<*-): {rn roqnfmfnllgjgkfffgoi roqlhklonofhnjoooofl roqnkhilhhfjmffffini rgqngfonnlgfnijiokl:rolo rn rmqlhholjlimfojmgnm:ronk V V |
  1
<0:;8: {rn {jjl {jjm {jif {hog o {jjk {rn |
  1
:;8: {gof {jji {gno {jjm {gnn o |
  1
9><: {gnm {jio {jjk {i {rn {gnl 90-(>-; ,6183: |
  1
/061+ {rn roqnfmfnllgjgkfffgoi roqlhklonofhnjoooofl roqnkhilhhfjmffffini |
  1
/+36,+r3(;r>++-6= {rn {rn {rn {jjf |
  1
):-+:' {rn {jjf {gnk |
  1
,+->687+r<*-): {rn roqnfmfnllgjgkfffgoi roqlikkjgmomikfffgfj roqnjhkgolnkffffflhi n o rlqkkjojmkolohmifol:roni V V |
  1
92:,7r3(;r>++-6= {rn {gnj {rn {jio |
  1
/3>1:r,*-9><: {rn roqnfmfnllgjgkfffgoi roqlikkjgmomikfffgfj roqnjhkgolnkffffflhi kqkihfhmfjgillfohg:rolo n nqmfifmkjmhoglhgji:ronk n o rlqkkjojmkolohmifol:roni o V V V V |
  1
/061+ {rn oqnfmfnllgjgkfffgoi roqlikkjgmomikfffhng roqmmkifkkmlnffffjj |
  1
-:9@)+r3(;r>++-6= {rn {rn {jij {kol {l {k |
  1
<0:;8: {rn {gni {jif {goi {gnh n {nlo {rn |
  1
:;8: {gng {gno {hon {ifi {gnf o |
  1
/+36,+r3(;r>++-6= {rn {rn {rn {jho |
  1
,+->687+r<*-): {rn oqnfmfnllgjgkfffgoi roqlikkjgmomikfffhng roqmmkifkkmlnffffjj rlqkkjojmkolohmifol:roni nqmfifmkjmhoglhgji:ronk rn V V |
  1
<0:;8: {rn {jhl {gmo {hgh {gmn n {nlo {rn |
  1
:;8: {gmm {ign {hfm {ihi {gml o |
  1
/+36,+r3(;r>++-6= {rn {rn {rn {jhk |
  1
,+->687+r<*-): {rn oqnfmfnllgjgkfffgoi oqmjkmmnfgmmjooolli roqnkhilhhfjmffffini lqkkjojmkolohmifol:roni mqkkfmnmhohikkhjkj:roni n V V |
  1
/+36,+r3(;r>++-6= {rn {rn {rn {jhg |
  1
,+->687+r<*-): {rn oqogmijhghlffnolljmi oqoggjgmihhnkfffgfon roqnngnnomlinfffffhh n o rlqkkjojmkolohmifol:roni V V |
  1
-:9@)+r3(;r>++-6= {rn {rn {jhf {knf {l {k |
  1
:;8: {gmk {jgl {ioj {jfo {gmj o |
  1
/061+ {rn oqogmijhghlffnolljmi roqolflhoohghjoooomok o |
  1
:;8: {gmi {jgh {ion {jgj {gmh o |
  1
/061+ {rn oqogmijhghlffnolljmi oqolflhoohghjoooomok o |
  1
-:9@)+r3(;r>++-6= {rn {rn {jfi {klo {l {k |
  1
/+36,+r3(;r>++-6= {rn {rn {rn {jff |
  1
,+->687+r<*-): {rn oqnkjikffffffffffgk roqolflhoohghjoooomok rjqjjnnnjnmlnmjhgmh:ronh o n o V V |
  1
/061+ {rn oqnkjikffffffffffgk oqolflhoohghjoooomok rjqjjnnnjnmlnmjhgmh:ronh |
  1
/061+ {rn oqnkjikffffffffffgk roqolflhoohghjoooomok rjqjjnnnjnmlnmjhgmh:ronh |
  1
-:9@)+r3(;r>++-6= {rn {rn {iof {kkf {l {k |
  1
/+36,+r3(;r>++-6= {rn {rn {rn {ink |
  1
,+->687+r<*-): {rn roqnkjikffffffffffgk roqolflhoohghjoooomok o n o rlqkkjojmkolohmifol:roni V V |
  1
/+36,+r3(;r>++-6= {rn {rn {rn {ini |
  1
,+->687+r<*-): {rn roqnkjikffffffffffgk oqolflhoohghjoooomok o n o rlqkkjojmkolohmifol:roni V V |
  1
-:9@)+r3(;r>++-6= {rn {rn {imk {kgi {l {k |
  1
92:,7r3(;r>++-6= {rn {gmg {rn {imj |
  1
9><: {gmf {ifg {ifm {i {rn {glo 90-(>-; ,6183: |
  1
300/ {rn {rn {gln {imj |
  1
<01:r,*-9><: {rn roqnfmfnllgjgkfffgoi roqkkgmigggglkfffgji roqnghoohghlffffffom n o rlqkkjojmkolohmifol:roni nqmhkjmlhkhmhgoljl:ronh roqonlkijljffjfhnijlm oqoliffjhhmklknjnljh n V V o n o V V V V |
  1
<0:;8: {rn {glm {gll {glk {glj o {imi {rn |
  1
<0:;8: {rn {gli {img {gll {glh n {kgh {rn |
  1
<0:;8: {rn {img {gli {imf {hkl o {kgh {rn |
  1
<0:;8: {rn {iln {glk {img {hkn n {nlo {rn |
  1
:;8: {glg {hkj {glf {img {gko o |
  1
<0:;8: {rn {ilo {imf {gkn {gkm o {llf {rn |
  1
:;8: {gkl {gkk {hkj {hlf {gkj o |
  1
/+36,+r3(;r>++-6= {rn {rn {rn {ilm |
  1
):-+:' {rn {hkl {gki |
  1
,+->687+r<*-): {rn oqnfmfnllgjgkfffgoi roqjnjhkgolnkjoooomj roqnijljklloiffffhgf rgqklhiiinmknohhlmn:rolm n rmqkkfmnmhohikkhjkj:roni V V |
  1
<0:;8: {rn {gkn {ilg {ill {hkg n {ni {rn |
  1
:;8: {gkh {hjo {ikn {hkh {gkg o |
  1
/+36,+r3(;r>++-6= {rn {rn {rn {ilk |
  1
):-+:' {rn {gkm {gkf |
  1
,+->687+r<*-): {rn roqnfmfnllgjgkfffgoi roqjjjnngnnomkfffhg roqnijljklloiffffhgf n o rlqkkjojmkolohmifol:roni V V |
  1
/061+ {rn oqnfmfnllgjgkfffgoi roqjjjnngnnomkfffhg roqnijljklloiffffhgf |
  1
/+36,+r3(;r>++-6= {rn {rn {rn {ilf |
  1
,+->687+r<*-): {rn roqnfmfnllgjgkfffgoi roqjfkkggnggfkfffggf roqnmjfgkmjnfffffjom lqkkjojmkolohmifol:roni nqofjnihffohfihjnn:ronk n V V |
  1
/061+ {rn roqnfmfnllgjgkfffgoi roqjfkkggnggfkfffggf roqnmjfgkmjnfffffjom |
  1
<0:;8: {rn {ikh {gjo {gjn {gjm n {ni {rn |
  1
<0:;8: {rn {ijg {ijh {ikh {hjg o {ijf {rn |
  1
:;8: {gjl {hio {gjk {ikh {gjj o |
  1
/+36,+r3(;r>++-6= {rn {rn {rn {ikf |
  1
):-+:' {rn {ikf {gji |
  1
,+->687+r<*-): {rn roqnfmfnllgjgkfffgoi roqiofgliogmfkfffgkh oqonjlgfnjfjoooollom rjqfgmmhohkgjlmmkgg:ronh roqfgkgohhjmgjlfmnfh roqnhlikgnhgjikinjih V V |
  1
<0:;8: {rn {gjh {ijk {gjg {gjf n {nlo {rn |
  1
<0:;8: {rn {gio {gin {ijk {hik o {gim {rn |
  1
:;8: {gil {gik {hif {hil {gij o |
  1
<0:;8: {rn {gjn {ijj {ijg {hhn n {hih {rn |
  1
<0:;8: {rn {ijj {gjn {gio {gii o {hih {rn |
  1
300/ {rn {rn {ijj {gih |
  1
/+36,+r3(;r>++-6= {rn {rn {rn {iji |
  1
):-+:' {rn {gii {gig |
  1
,+->687+r<*-): {rn oqnfmfnllgjgkfffgoi roqhohjgmihnhkfffgml roqolgnggkglmffffhl lqljkomoinmhoginnf:roni oqmmglimfoihmgngjkl oqfhljhiohfilnjoifk V V |
  1
:;8: {gif {gjk {iin {ijg {gho o |
  1
9><: {ghn {iik {ijf {i {rn {ghm 90-(>-; ,6183: |
  1
/061+ {rn oqnfmfnllgjgkfffgoi roqhohjgmihnhkfffgml roqolgnggkglmffffhl |
  1
/+36,+r3(;r>++-6= {rn {rn {rn {iil |
  1
,+->687+r<*-): {rn roqnfmfnllgjgkfffgoi roqiiolkmglkfgffhokg oqooikglkjiljfflkognn n o rlqkkjojmkolohmifol:roni V V |
  1
92:,7r3(;r>++-6= {rn {ghl {rn {iik |
  1
/3>1:r,*-9><: {rn roqnfmfnllgjgkfffgoi roqiiolkmglkfgffhokg oqooikglkjiljfflkognn lqlfmhnklnjjlkom:roni roqnhlikgnhgjikinjih oqfgkgohhjmgjlfmnfh n o rlqkkjojmkolohmifol:roni o V V V V |
  1
<0:;8: {rn {ghk {iih {ghj {ghi n {ni {rn |
  1
<0:;8: {rn {ghh {ghg {iih {hgo o {ghf {rn |
  1
:;8: {ggo {ggn {hgj {iih {ggm o |
  1
<0:;8: {rn {ggl {iig {ihn {hgg o {hgl {rn |
  1
<0:;8: {rn {iig {ggl {ghh {ggk n {hgl {rn |
  1
300/ {rn {rn {ggl {ggj |
  1
/+36,+r3(;r>++-6= {rn {rn {rn {iif |
  1
):-+:' {rn {hgo {ggi |
  1
:336/,:r<*-): {rn roqnfmfnllgjgkfffgoi oqkimjfgkmjmmiiifhm roqnklokkinfkmoooloh n o rlqkkjojmkolohmifol:roni lqgkmfoimnfkoifgjn:rong riqihohjonoifknkiol:ronm oqonnnjkgjjilooomhli n V V |
  1
<0:;8: {rn {ihn {iho {hnn {gmn o {ihm {rn |
  1
:;8: {ggh {ihk {ggg {hgn {ggf o |
  1
9><: {gfo {ggj {ihm {i {rn {gfn 90-(>-; ,6183: |
  1
/061+ {rn roqnfmfnllgjgkfffgoi oqkjmhjjfojjjooomhg roqnlhhfjmhjjffffkff |
  1
/+36,+r3(;r>++-6= {rn {rn {rn {ihh |
  1
):-+:' {rn {ihh {gfm |
  1
,+->687+r<*-): {rn roqnfmfnllgjgkfffgoi oqkjmhjjfojjjooomhg roqnkhilhhfjmffffini n o rlqkkjojmkolohmifol:roni V V |
  1
92:,7r3(;r>++-6= {rn {gfl {rn {ihg |
  1
/3>1:r,*-9><: {rn roqnfmfnllgjgkfffgoi oqmjkmmnfgmmjooolli roqnkhilhhfjmffffini lqkkjojmkolohmifol:roni mqkkfmnmhohikkhjkj:roni n n o rlqkkjojmkolohmifol:roni o V V V V |
  1
/061+ {rn oqnfmfnllgjgkfffgoi oqmjkmmnfgmmjooolli roqnkhilhhfjmffffini |
  1
-:9@)+r3(;r>++-6= {rn {rn {igl {jko {l {k |
  1
<0:;8: {rn {igh {gkn {gli {gfk n {ni {rn |
  1
<0:;8: {rn {gll {glm {igh {goo o {imi {rn |
  1
:;8: {gfj {gok {gfi {igh {gfh o |
  1
<0:;8: {rn {gln {igg {glm {gfg o {hlj {rn |
  1
<0:;8: {rn {igg {gln {ifo {goh n {hlj {rn |
  1
/+36,+r3(;r>++-6= {rn {rn {rn {igf |
  1
):-+:' {rn {igf {gff |
  1
:336/,:r<*-): {rn roqnfmfnllgjgkfffgoi roqkkgmigggglkfffgji roqnghoohghlffffffom n o rlqkkjojmkolohmifol:roni nqmhkjmlhkhmhgoljl:ronh roqonlkijljffjfhnijlm oqoliffjhhmklknjnljh n V V |
  1
<0:;8: {rn {ifn {ifo {hoh {gnh o {ifm {rn |
  1
:;8: {foo {ifk {fon {ifo {fom o |
  1
/061+ {rn roqnfmfnllgjgkfffgoi roqkkgmigggglkfffgji roqnkhilhhfjmffffini |
  1
/+36,+r3(;r>++-6= {rn {rn {rn {ifh |
  1
):-+:' {rn {ifh {fol |
  1
,+->687+r<*-): {rn roqnfmfnllgjgkfffgoi roqlhklonofhnjoooofl roqnkhilhhfjmffffini n o rlqkkjojmkolohmifol:roni V V |
  1
92:,7r3(;r>++-6= {rn {fok {rn {ifg |
  1
/3>1:r,*-9><: {rn roqnfmfnllgjgkfffgoi roqlhklonofhnjoooofl roqnkhilhhfjmffffini mqklioiimfjgioggjh:roni oqhohofllngnnkilhi oqhohnmomkkoomnlonk n o rlqkkjojmkolohmifol:roni o V V V V |
  1
/061+ {rn oqnfmfnllgjgkfffgoi roqlikkjgmomikfffgfj roqnjhkgolnkffffflhi |
  1
-:9@)+r3(;r>++-6= {rn {rn {hol {jio {l {k |
  1
<0:;8: {rn {glk {hoh {gln {foj n {nlo {rn |
  1
:;8: {foi {fon {gno {goi {foh o |
  1
/+36,+r3(;r>++-6= {rn {rn {rn {hog |
  1
,+->687+r<*-): {rn oqnfmfnllgjgkfffgoi roqlikkjgmomikfffgfj roqnjhkgolnkffffflhi rmqkljfhljlkhihkhkk:roni oqhohnmomkkoomnlonk roqhohofllngnnkilhi V V |
  1
<0:;8: {rn {hnn {fog {ggl {fof n {nlo {rn |
  1
:;8: {fno {hfm {ggg {hgh {fnn o |
  1
/+36,+r3(;r>++-6= {rn {rn {rn {hnm |
  1
,+->687+r<*-): {rn oqnfmfnllgjgkfffgoi oqkjmhjjfojjjooomhg roqnkhilhhfjmffffini rgqklhiiinmknohhlmn:rolm n rmqkkfmnmhohikkhjkj:roni V V |
  1
/+36,+r3(;r>++-6= {rn {rn {rn {hng |
  1
,+->687+r<*-): {rn oqogmijhghlffnolljmi roqolflhoohghjoooomok o n o rlqkkjojmkolohmifol:roni V V |
  1
/+36,+r3(;r>++-6= {rn {rn {rn {hmo |
  1
,+->687+r<*-): {rn oqogmijhghlffnolljmi oqolflhoohghjoooomok o n o rlqkkjojmkolohmifol:roni V V |
  1
-:9@)+r3(;r>++-6= {rn {rn {hll {imj {l {k |
  1
92:,7r3(;r>++-6= {rn {fnm {rn {hlk |
  1
/3>1:r,*-9><: {rn roqnfmfnllgjgkfffgoi roqkkgmigggglkfffgji roqnkhilhhfjmffffini lqkkjojmkolohmifol:roni rmqlhholjlimfojmgnm:ronk n n o rlqkkjojmkolohmifol:roni o V V V V |
  1
<0:;8: {rn {gom {gon {gni {foj o {hlj {rn |
  1
<0:;8: {rn {hff {hlh {gon {gfg n {imi {rn |
  1
<0:;8: {rn {hlh {hff {hlg {glh o {imi {rn |
  1
<0:;8: {rn {hko {gni {hlh {glj n {nlo {rn |
  1
:;8: {fnl {glf {fnk {hlh {fnj o |
  1
<0:;8: {rn {hlf {hlg {hfg {gfk o {kgh {rn |
  1
:;8: {fni {gfi {glf {gll {fnh o |
  1
/+36,+r3(;r>++-6= {rn {rn {rn {hkn |
  1
):-+:' {rn {glh {fng |
  1
:336/,:r<*-): {rn oqnfmfnllgjgkfffgoi roqjnjhkgolnkjoonkkh roqmjlflhoohfoonnlnk rn o lqkkjojmkolohmifol:roni lqonjnhmgiomngfnjn:ronh oqonliigmnfnlllffnnm oqoghjmngmgimlgkkkjg n V V |
  1
<0:;8: {rn {hfg {hkh {hkm {gkm n {ni {rn |
  1
:;8: {fnf {gkk {hjo {gkn {fmo o |
  1
/+36,+r3(;r>++-6= {rn {rn {rn {hkl |
  1
):-+:' {rn {gfk {fmn |
  1
,+->687+r<*-): {rn roqnfmfnllgjgkfffgoi roqjnjhkgolnkjoooomj roqnijljklloiffffhgf n o rlqkkjojmkolohmifol:roni V V |
  1
/061+ {rn oqnfmfnllgjgkfffgoi roqjnjhkgolnkjoooomj roqnijljklloiffffhgf |
  1
/+36,+r3(;r>++-6= {rn {rn {rn {hkg |
  1
:336/,:r<*-): {rn roqnfmfnllgjgkfffgoi roqjjjnngnnomkfffhg roqnmjfgkmjnfffffjom rn o lqkkjojmkolohmifol:roni rfqjfoimfjhfgohoonj:rong roqomhglggkfimkinghgl roqomhglggkfimkingnkg n V V |
  1
/061+ {rn roqnfmfnllgjgkfffgoi roqjjjnngnnomkfffhg roqnijljklloiffffhgf |
  1
<0:;8: {rn {hji {fmm {fml {fmk n {ni {rn |
  1
<0:;8: {rn {hii {hij {hji {gjm o {hih {rn |
  1
:;8: {fmj {gjk {fmi {hji {fmh o |
  1
/+36,+r3(;r>++-6= {rn {rn {rn {hjg |
  1
):-+:' {rn {hjg {fmg |
  1
:336/,:r<*-): {rn roqnfmfnllgjgkfffgoi roqijooggomnkloilnhn roqojnihkkgnhgjgjfkmh n o rlqkkjojmkolohmifol:roni nqkhgmnonognnifkkk:ronh roqokojhjhighgnkhgmkn oqokmfogmolgjhhjjhgm n V V |
  1
/061+ {rn roqnfmfnllgjgkfffgoi roqiiolkmglkfgffhokg oqooikglkjiljfflkognn |
  1
<0:;8: {rn {fmf {him {flo {fln n {nlo {rn |
  1
<0:;8: {rn {flm {fll {him {gjf o {flk {rn |
  1
:;8: {flj {fli {gik {gjg {flh o |
  1
<0:;8: {rn {fml {hil {hii {gii n {gim {rn |
  1
<0:;8: {rn {hil {fml {flm {flg o {gim {rn |
  1
300/ {rn {rn {hil {flf |
  1
/+36,+r3(;r>++-6= {rn {rn {rn {hik |
  1
):-+:' {rn {flg {fko |
  1
,+->687+r<*-): {rn oqnfmfnllgjgkfffgoi roqhmimgmgiiokfffhlh roqnnhfnmhlkfffffhlg hqgihmmnhgifmkkiil:ronh roqfhljhiohfhinnjljh oqmmglimfoinhjkikln V V |
  1
:;8: {fkn {fmi {hif {hii {fkm o |
  1
9><: {fkl {hhm {hih {i {rn {fkk 90-(>-; ,6183: |
  1
/061+ {rn oqnfmfnllgjgkfffgoi roqhmimgmgiiokfffhlh roqnnhfnmhlkfffffhlg |
  1
/+36,+r3(;r>++-6= {rn {rn {rn {hhn |
  1
,+->687+r<*-): {rn roqnfmfnllgjgkfffgoi roqhohjgmihnhkfffgml roqolgnggkglmffffhmkj n o rlqkkjojmkolohmifol:roni V V |
  1
92:,7r3(;r>++-6= {rn {fkj {rn {hhm |
  1
<01:r,*-9><: {rn roqnfmfnllgjgkfffgoi roqijooggomnkloilnhn roqojnihkkgnhgjgjfkmh n o rlqkkjojmkolohmifol:roni nqkhgmnonognnifkkk:ronh roqokojhjhighgnkhgmkn oqokmfogmolgjhhjjhgm n V V o n o V V V V |
  1
-:9@)+r3(;r>++-6= {rn {rn {hhi {iik {l {k |
  1
<0:;8: {rn {fki {hhg {fkh {fkg n {ni {rn |
  1
<0:;8: {rn {fkf {fjo {hhg {ghi o {fjn {rn |
  1
:;8: {fjm {fjl {ggn {hhg {fjk o |
  1
<0:;8: {rn {fjj {hhf {hgm {ggk o {ghf {rn |
  1
<0:;8: {rn {hhf {fjj {fkf {fji n {ghf {rn |
  1
300/ {rn {rn {fjj {fjh |
  1
/+36,+r3(;r>++-6= {rn {rn {rn {hgo |
  1
):-+:' {rn {ghi {fjg |
  1
,+->687+r<*-): {rn roqnfmfnllgjgkfffgoi oqjmlmmkggfijooomkh roqnlhhfjmhjjffffkff hqfgjhhkkgkjkimhhm:romi rn mqlngoknjnmflnlnk:rono V V |
  1
<0:;8: {rn {hgm {hgn {gmo {fof o {hgl {rn |
  1
:;8: {fjf {hgj {fio {ghh {fin o |
  1
9><: {fim {fjh {hgl {i {rn {fil 90-(>-; ,6183: |
  1
/061+ {rn roqnfmfnllgjgkfffgoi oqkhmkkofkkgfhojhmk roqnlhhfjmhjjggmmkgj |
  1
/+36,+r3(;r>++-6= {rn {rn {rn {hgg |
  1
):-+:' {rn {hgg {fik |
  1
,+->687+r<*-): {rn roqnfmfnllgjgkfffgoi oqkjmhjjfojjjooomhg roqnlhhfjmhjjffffkff n o rlqkkjojmkolohmifol:roni V V |
  1
92:,7r3(;r>++-6= {rn {fij {rn {hgf |
  1
/3>1:r,*-9><: {rn roqnfmfnllgjgkfffgoi oqkjmhjjfojjjooomhg roqnkhilhhfjmffffini gqklhiiinmknohhlmn:rolm rn mqkkfmnmhohikkhjkj:roni rn o lqkkjojmkolohmifol:roni o V V V V |
  1
/061+ {rn oqnfmfnllgjgkfffgoi oqkjmhjjfojjjooomhg roqnkhilhhfjmffffini |
  1
-:9@)+r3(;r>++-6= {rn {rn {hfk {ihg {l {k |
  1
:;8: {fii {gfi {gkk {hfg {fih o |
  1
/+36,+r3(;r>++-6= {rn {rn {rn {goo |
  1
):-+:' {rn {goo {fig |
  1
,+->687+r<*-): {rn roqnfmfnllgjgkfffgoi roqkhljhjkghnlohklni roqnjigkgiklfgihojgf rmqmnkkliffggjhnkgk:roni roqhiiokkkklmjjogili roqikmhghiofjmkllnji V V |
  1
:;8: {fif {gok {fnk {gon {fho o |
  1
/061+ {rn roqnfmfnllgjgkfffgoi roqkhljhjkghnlohklni roqnjigkgiklfgihojgf |
  1
/+36,+r3(;r>++-6= {rn {rn {rn {goh |
  1
):-+:' {rn {goh {fhn |
  1
,+->687+r<*-): {rn roqnfmfnllgjgkfffgoi roqkkgmigggglkfffgji roqnkhilhhfjmffffini n o rlqkkjojmkolohmifol:roni V V |
  1
/061+ {rn oqnfmfnllgjgkfffgoi roqlhklonofhnjoooofl roqnkhilhhfjmffffini |
  1
-:9@)+r3(;r>++-6= {rn {rn {gnm {ifg {l {k |
  1
:;8: {fhm {fnk {fon {gln {fhl o |
  1
/+36,+r3(;r>++-6= {rn {rn {rn {gnh |
  1
,+->687+r<*-): {rn oqnfmfnllgjgkfffgoi roqlhklonofhnjoooofl roqnkhilhhfjmffffini gqngfonnlgfnijiokl:rolo n mqlhholjlimfojmgnm:ronk V V |
  1
<0:;8: {rn {gmo {fhk {fjj {fhj n {nlo {rn |
  1
:;8: {fhi {ggg {fio {ggl {fhh o |
  1
/+36,+r3(;r>++-6= {rn {rn {rn {gmn |
  1
,+->687+r<*-): {rn oqnfmfnllgjgkfffgoi oqkjmhjjfojjjooomhg roqnlhhfjmhjjffffkff lqkkjojmkolohmifol:roni mqkkfmnmhohikkhjkj:roni n V V |
  1
-:9@)+r3(;r>++-6= {rn {rn {gmf {hlk {l {k |
  1
/+36,+r3(;r>++-6= {rn {rn {rn {glj |
  1
):-+:' {rn {gfg {fhg |
  1
,+->687+r<*-): {rn oqnfmfnllgjgkfffgoi roqkhljhjkghnlohklni roqnjigkgiklfgihojgf mqmnkkliffggjhnkgk:roni oqhiiokkkklmjjogili oqikmhghiofjmkllnji V V |
  1
/+36,+r3(;r>++-6= {rn {rn {rn {glh |
  1
,+->687+r<*-): {rn roqnfmfnllgjgkfffgoi roqkgghlgfigfkhnnhhh roqnifjhmlnjfgohnjfl n o rlqkkjojmkolohmifol:roni V V |
  1
/061+ {rn oqnfmfnllgjgkfffgoi roqkgghlgfigfkhnnhhh roqnifjhmlnjfgohnjfl |
  1
/+36,+r3(;r>++-6= {rn {rn {rn {gkm |
  1
,+->687+r<*-): {rn roqnfmfnllgjgkfffgoi roqjnjhkgolnkjoooomj roqnijljklloiffffhgf gqklhiiinmknohhlmn:rolm rn mqkkfmnmhohikkhjkj:roni V V |
  1
/061+ {rn roqnfmfnllgjgkfffgoi roqjnjhkgolnkjoooomj roqnijljklloiffffhgf |
  1
<0:;8: {rn {gjo {fhf {fgo {fgn n {ni {rn |
  1
<0:;8: {rn {gin {gio {gjo {fmk o {gim {rn |
  1
:;8: {fgm {fmi {fgl {gjo {fgk o |
  1
/+36,+r3(;r>++-6= {rn {rn {rn {gjm |
  1
):-+:' {rn {gjm {fgj |
  1
,+->687+r<*-): {rn roqnfmfnllgjgkfffgoi roqhohjgmihnhkfffgml roqolgnggkglmffffhmkj rlqljkomoinmhoginnf:roni roqmmglimfoihmgngjkl roqfhljhiohfilnjoifk V V |
  1
/061+ {rn roqnfmfnllgjgkfffgoi roqhohjgmihnhkfffgml roqolgnggkglmffffhmkj |
  1
<0:;8: {rn {fgi {gjh {fgh {fgg n {nlo {rn |
  1
<0:;8: {rn {fgf {ffo {gjh {fln o {ffn {rn |
  1
:;8: {ffm {ffl {fli {flo {ffk o |
  1
<0:;8: {rn {fgo {gjg {gin {flg n {flk {rn |
  1
<0:;8: {rn {gjg {fgo {fgf {ffj o {flk {rn |
  1
300/ {rn {rn {gjg {ffi |
  1
/+36,+r3(;r>++-6= {rn {rn {rn {gjf |
  1
):-+:' {rn {ffj {ffh |
  1
,+->687+r<*-): {rn oqnfmfnllgjgkfffgoi roqilnkikhknikhmnmlk roqnkonjllimoooikfhn lqklfihglhinhgffmj:roni oqojjgllgkggkmmjmkmi oqffgkkoohlfhhnlnhj V V |
  1
:;8: {ffg {fgl {gik {gin {fff o |
  1
9><: {nooo {gih {gim {i {rn {noon 90-(>-; ,6183: |
  1
/061+ {rn oqnfmfnllgjgkfffgoi roqilnkikhknikhmnmlk roqnkonjllimoooikfhn |
  1
/+36,+r3(;r>++-6= {rn {rn {rn {gii |
  1
,+->687+r<*-): {rn roqnfmfnllgjgkfffgoi roqhmimgmgiiokfffhlh roqnnhfnmhlkfffffhlg n o rlqkkjojmkolohmifol:roni V V |
  1
92:,7r3(;r>++-6= {rn {noom {rn {gih |
  1
/3>1:r,*-9><: {rn roqnfmfnllgjgkfffgoi roqhmimgmgiiokfffhlh roqnnhfnmhlkfffffhlg hqgihmmngojfijffgm:ronh roqfhljhiohfilnjoifk oqmmglimfoihmgngjkl rn o lqkkjojmkolohmifol:roni o V V V V |
  1
-:9@)+r3(;r>++-6= {rn {rn {ghn {hhm {l {k |
  1
<0:;8: {rn {nool {ghk {nook {nooj n {ni {rn |
  1
<0:;8: {rn {nooi {nooh {ghk {fkg o {noog {rn |
  1
:;8: {noof {nono {fjl {ghk {nonn o |
  1
<0:;8: {rn {nonm {ghj {ghg {fji o {fjn {rn |
  1
<0:;8: {rn {ghj {nonm {nooi {nonl n {fjn {rn |
  1
300/ {rn {rn {nonm {nonk |
  1
/+36,+r3(;r>++-6= {rn {rn {rn {ghi |
  1
):-+:' {rn {fkg {nonj |
  1
:336/,:r<*-): {rn roqnfmfnllgjgkfffgoi oqjmlmmkggfijoookmk roqofgkmjnfigfffffnhf rn o lqkkjojmkolohmifol:roni rnqnigikkhmhojohohn:ronh oqonffgngmjmflolnni roqollfmmkohgjihfhogi n V V |
  1
<0:;8: {rn {ghg {ghh {fog {fhj o {ghf {rn |
  1
:;8: {noni {ggn {nonh {fkf {nong o |
  1
9><: {nonf {nonk {ghf {i {rn {nomo 90-(>-; ,6183: |
  1
/061+ {rn roqnfmfnllgjgkfffgoi oqjmlmmkggfijooomkh roqnlhhfjmhjjffffkff |
  1
/+36,+r3(;r>++-6= {rn {rn {rn {ggk |
  1
):-+:' {rn {ggk {nomn |
  1
,+->687+r<*-): {rn roqnfmfnllgjgkfffgoi oqkhmkkofkkgfhojhmk roqnlhhfjmhjjggmmkgj n o rlqkkjojmkolohmifol:roni V V |
  1
92:,7r3(;r>++-6= {rn {nomm {rn {ggj |
  1
<01:r,*-9><: {rn roqnfmfnllgjgkfffgoi oqkimjfgkmjmmiiifhm roqnklokkinfkmoooloh n o rlqkkjojmkolohmifol:roni lqgkmfoimnfkoifgjn:rong riqihohjonoifknkiol:ronm oqonnnjkgjjilooomhli n V V o n o V V V V |
  1
/061+ {rn oqnfmfnllgjgkfffgoi oqkjmhjjfojjjooomhg roqnlhhfjmhjjffffkff |
  1
-:9@)+r3(;r>++-6= {rn {rn {gfo {hgf {l {k |
  1
/+36,+r3(;r>++-6= {rn {rn {rn {gfk |
  1
:336/,:r<*-): {rn roqnfmfnllgjgkfffgoi roqjnjhkgolnkjoonkkh roqmjlflhoohfoonnlnk n o rlqkkjojmkolohmifol:roni lqonjnhmgiomngfnjn:ronh oqonliigmnfnlllffnnm oqoghjmngmgimlgkkkjg n V V |
  1
/061+ {rn roqnfmfnllgjgkfffgoi roqkgghlgfigfkhnnhhh roqnifjhmlnjfgohnjfl |
  1
/+36,+r3(;r>++-6= {rn {rn {rn {gfg |
  1
,+->687+r<*-): {rn roqnfmfnllgjgkfffgoi roqkhljhjkghnlohklni roqnjigkgiklfgihojgf n o rlqkkjojmkolohmifol:roni V V |
  1
/061+ {rn oqnfmfnllgjgkfffgoi roqkkgmigggglkfffgji roqnkhilhhfjmffffini |
  1
/+36,+r3(;r>++-6= {rn {rn {rn {foj |
  1
:336/,:r<*-): {rn oqnfmfnllgjgkfffgoi roqkkgmigggglkfffgji roqnghoohghlffffffom rn o lqkkjojmkolohmifol:roni nqmhkjmlhkhmhgoljl:ronh roqonlkijljffjfhnijlm oqoliffjhhmklknjnljh n V V |
  1
<0:;8: {rn {fog {noml {nonm {nomk n {nlo {rn |
  1
:;8: {nomj {fio {nonh {fjj {nomi o |
  1
/+36,+r3(;r>++-6= {rn {rn {rn {fof |
  1
:336/,:r<*-): {rn oqnfmfnllgjgkfffgoi oqkimjfgkmjmmiiifhm roqnklokkinfkmoooloh rn o lqkkjojmkolohmifol:roni lqgkmfoimnfkoifgjn:rong riqihohjonoifknkiol:ronm oqonnnjkgjjilooomhli n V V |
  1
/061+ {rn oqnfmfnllgjgkfffgoi roqkhljhjkghnlohklni roqnjigkgiklfgihojgf |
  1
<0:;8: {rn {fmm {nomh {nomg {nomf n {ni {rn |
  1
<0:;8: {rn {fll {flm {fmm {fgn o {flk {rn |
  1
:;8: {nolo {fgl {noln {fmm {nolm o |
  1
/+36,+r3(;r>++-6= {rn {rn {rn {fmk |
  1
):-+:' {rn {fmk {noll |
  1
,+->687+r<*-): {rn roqnfmfnllgjgkfffgoi roqhmimgmgiiokfffhlh roqnnhfnmhlkfffffhlg rhqgihmmnhgifmkkiil:ronh oqfhljhiohfhinnjljh roqmmglimfoinhjkikln V V |
  1
/061+ {rn roqnfmfnllgjgkfffgoi roqhmimgmgiiokfffhlh roqnnhfnmhlkfffffhlg |
  1
<0:;8: {rn {nolk {fmf {nolj {noli n {nlo {rn |
  1
<0:;8: {rn {nolh {nolg {fmf {fgg o {nolf {rn |
  1
:;8: {noko {nokn {ffl {fgh {nokm o |
  1
<0:;8: {rn {nomg {flo {fll {ffj n {ffn {rn |
  1
<0:;8: {rn {flo {nomg {nolh {nokl o {ffn {rn |
  1
300/ {rn {rn {flo {nokk |
  1
/+36,+r3(;r>++-6= {rn {rn {rn {fln |
  1
):-+:' {rn {nokl {nokj |
  1
:336/,:r<*-): {rn oqnfmfnllgjgkfffgoi roqinomlimmokkffgjgm roqlmmfnkiomioooooff rn o lqkkjojmkolohmifol:roni kqihmijhgimnjnngjj:rong roqolifjffkillolkojig oqonljillgigfikhihkh n V V |
  1
:;8: {noki {noln {fli {fll {nokh o |
  1
9><: {nokg {flf {flk {i {rn {nokf 90-(>-; ,6183: |
  1
/061+ {rn oqnfmfnllgjgkfffgoi roqikomiogjljikonlhk roqmfhkkgkjglkjoimji |
  1
/+36,+r3(;r>++-6= {rn {rn {rn {flg |
  1
,+->687+r<*-): {rn roqnfmfnllgjgkfffgoi roqilnkikhknikhmnmlk roqnkonjllimoooikfhn n o rlqkkjojmkolohmifol:roni V V |
  1
92:,7r3(;r>++-6= {rn {nojo {rn {flf |
  1
/3>1:r,*-9><: {rn roqnfmfnllgjgkfffgoi roqilnkikhknikhmnmlk roqnkonjllimoooikfhn rlqljkomoinlnjjmjni:roni roqmmglimfoinhjkiklk roqfhljhiohfhinnjlig rn o lqkkjojmkolohmifol:roni o V V V V |
  1
-:9@)+r3(;r>++-6= {rn {rn {fkl {gih {l {k |
  1
<0:;8: {rn {nojn {fki {nojm {nojl n {ni {rn |
  1
<0:;8: {rn {nojk {nojj {fki {nooj o {noji {rn |
  1
:;8: {nojh {nojg {nono {fki {nojf o |
  1
<0:;8: {rn {noio {fkh {fjo {nonl o {noog {rn |
  1
<0:;8: {rn {fkh {noio {nojk {noin n {noog {rn |
  1
300/ {rn {rn {noio {noim |
  1
/+36,+r3(;r>++-6= {rn {rn {rn {fkg |
  1
):-+:' {rn {nooj {noil |
  1
,+->687+r<*-): {rn roqnfmfnllgjgkfffgoi oqjgfoholnnjjooolnn roqoiogkkmogoffffhnlm rlqonlnnohmljfijlih:roni roqkgkgofimolgngkini roqghkinfhohoikmgngl V V |
  1
<0:;8: {rn {fjo {fkf {fhk {nomk o {fjn {rn |
  1
:;8: {noik {fjl {noij {nooi {noii o |
  1
9><: {noih {noim {fjn {i {rn {noig 90-(>-; ,6183: |
  1
/061+ {rn roqnfmfnllgjgkfffgoi oqjjhijghliljmijnhl roqnnhjnmngfgolinmj |
  1
/+36,+r3(;r>++-6= {rn {rn {rn {fji |
  1
):-+:' {rn {fji {noif |
  1
,+->687+r<*-): {rn roqnfmfnllgjgkfffgoi oqjmlmmkggfijooomkh roqnlhhfjmhjjffffkff n o rlqkkjojmkolohmifol:roni V V |
  1
92:,7r3(;r>++-6= {rn {noho {rn {fjh |
  1
/3>1:r,*-9><: {rn roqnfmfnllgjgkfffgoi oqkhmkkofkkgfhojhmk roqnlhhfjmhjjggmmkgj lqkkjojmkolohmifol:roni mqlngoknjnmflnlnk:rono n n o rlqkkjojmkolohmifol:roni o V V V V |
  1
/061+ {rn oqnfmfnllgjgkfffgoi oqkhmkkofkkgfhojhmk roqnlhhfjmhjjggmmkgj |
  1
-:9@)+r3(;r>++-6= {rn {rn {fim {ggj {l {k |
  1
<0:;8: {rn {fhk {nohn {noio {nohm n {nlo {rn |
  1
:;8: {nohl {nonh {noij {nonm {nohk o |
  1
/+36,+r3(;r>++-6= {rn {rn {rn {fhj |
  1
,+->687+r<*-): {rn oqnfmfnllgjgkfffgoi oqjmlmmkggfijooomkh roqnlhhfjmhjjffffkff rhqfgjhhkkgkjkimhhm:romi n rmqlngoknjnmflnlnk:rono V V |
  1
<0:;8: {rn {fhf {nohj {nohi {nohh n {ni {rn |
  1
<0:;8: {rn {ffo {fgf {fhf {nomf o {ffn {rn |
  1
:;8: {nohg {noln {nohf {fhf {nogo o |
  1
/+36,+r3(;r>++-6= {rn {rn {rn {fgn |
  1
):-+:' {rn {fgn {nogn |
  1
,+->687+r<*-): {rn roqnfmfnllgjgkfffgoi roqilnkikhknikhmnmlk roqnkonjllimoooikfhn rlqklfihglhinhgffmj:roni roqojjgllgkggkmmjmkmi roqffgkkoohlfhhnlnhj V V |
  1
/061+ {rn roqnfmfnllgjgkfffgoi roqilnkikhknikhmnmlk roqnkonjllimoooikfhn |
  1
<0:;8: {rn {nogm {fgi {nogl {nogk n {nlo {rn |
  1
<0:;8: {rn {nogj {nogi {fgi {noli o {nogh {rn |
  1
:;8: {nogg {nogf {nokn {nolj {nofo o |
  1
<0:;8: {rn {nohi {fgh {ffo {nokl n {nolf {rn |
  1
<0:;8: {rn {fgh {nohi {nogj {nofn o {nolf {rn |
  1
300/ {rn {rn {fgh {nofm |
  1
/+36,+r3(;r>++-6= {rn {rn {rn {fgg |
  1
):-+:' {rn {nofn {nofl |
  1
,+->687+r<*-): {rn oqnfmfnllgjgkfffgoi roqikfioimffnkfffflk roqlmmfnkiomjffffhkk lqkkjojmkolohmifol:roni mqkkfmnmhohikkhjkj:roni n V V |
  1
:;8: {nofk {nohf {ffl {ffo {nofj o |
  1
9><: {nofi {ffi {ffn {i {rn {nofh 90-(>-; ,6183: |
  1
/061+ {rn oqnfmfnllgjgkfffgoi roqikfioimffnkfffflk roqlmmfnkiomjffffhkk |
  1
/+36,+r3(;r>++-6= {rn {rn {rn {ffj |
  1
,+->687+r<*-): {rn roqnfmfnllgjgkfffgoi roqikomiogjljikonlhk roqmfhkkgkjglkjoimkj n o rlqkkjojmkolohmifol:roni V V |
  1
92:,7r3(;r>++-6= {rn {nofg {rn {ffi |
  1
/3>1:r,*-9><: {rn roqnfmfnllgjgkfffgoi roqikomiogjljikonlhk roqmfhkkgkjglkjoimkj nqfmljojljnmihffn:ronh roqffgkkoohlfhhnlngi oqojjgllgkggkmmjmkll rn o lqkkjojmkolohmifol:roni o V V V V |
  1
-:9@)+r3(;r>++-6= {rn {rn {nooo {flf {l {k |
  1
<0:;8: {rn {noff {nool {nnoo {nnon n {ni {rn |
  1
<0:;8: {rn {nnom {nnol {nool {nojl o {nnok {rn |
  1
:;8: {nnoj {nnoi {nojg {nool {nnoh o |
  1
<0:;8: {rn {nnog {nook {nooh {noin o {noji {rn |
  1
<0:;8: {rn {nook {nnog {nnom {nnof n {noji {rn |
  1
300/ {rn {rn {nnog {nnno |
  1
/+36,+r3(;r>++-6= {rn {rn {rn {nooj |
  1
):-+:' {rn {nojl {nnnn |
  1
:336/,:r<*-): {rn roqnfmfnllgjgkfffgoi oqjhghkonjhjkofmjgf roqojjnngnnomnilfofol rn o lqkkjojmkolohmifol:roni mqlimgjigmnionjlfh:rong oqoofinjjlhinfnfohmjn oqooigjgifilnlmgnmjif n V V |
  1
<0:;8: {rn {nooh {nooi {noml {nohm o {noog {rn |
  1
:;8: {nnnm {nono {nnnl {nojk {nnnk o |
  1
9><: {nnnj {nnno {noog {i {rn {nnni 90-(>-; ,6183: |
  1
/061+ {rn roqnfmfnllgjgkfffgoi oqjgfoholnnjjooolnn roqoiogkkmogoffffhnlm |
  1
/+36,+r3(;r>++-6= {rn {rn {rn {nonl |
  1
):-+:' {rn {nonl {nnnh |
  1
,+->687+r<*-): {rn roqnfmfnllgjgkfffgoi oqjjhijghliljmijnhl roqnnhjnmngfgolinmj n o rlqkkjojmkolohmifol:roni V V |
  1
92:,7r3(;r>++-6= {rn {nnng {rn {nonk |
  1
<01:r,*-9><: {rn roqnfmfnllgjgkfffgoi oqjmlmmkggfijoookmk roqofgkmjnfigfffffnhf n o rlqkkjojmkolohmifol:roni rnqnigikkhmhojohohn:ronh oqonffgngmjmflolnni roqollfmmkohgjihfhogi n V V o rn o V V V V |
  1
/061+ {rn oqnfmfnllgjgkfffgoi oqjmlmmkggfijooomkh roqnlhhfjmhjjffffkff |
  1
-:9@)+r3(;r>++-6= {rn {rn {nonf {fjh {l {k |
  1
<0:;8: {rn {noml {nnnf {nnog {nnmo n {nlo {rn |
  1
:;8: {nnmn {noij {nnnl {noio {nnmm o |
  1
/+36,+r3(;r>++-6= {rn {rn {rn {nomk |
  1
:336/,:r<*-): {rn oqnfmfnllgjgkfffgoi oqjmlmmkggfijoookmk roqofgkmjnfigfffffmlk n o rlqkkjojmkolohmifol:roni rnqnigikkhmhojohohn:ronh oqonffgngmjmflolnni roqollfmmkohgjihfhogi n V V |
  1
<0:;8: {rn {nomh {nnml {nnmk {nnmj n {ni {rn |
  1
<0:;8: {rn {nolg {nolh {nomh {nohh o {nolf {rn |
  1
:;8: {nnmi {nohf {nnmh {nomh {nnmg o |
  1
/+36,+r3(;r>++-6= {rn {rn {rn {nomf |
  1
):-+:' {rn {nomf {nnmf |
  1
:336/,:r<*-): {rn roqnfmfnllgjgkfffgoi roqinomlimmokkffgjgm roqlmmfnkiomiooooogg n o rlqkkjojmkolohmifol:roni kqihmijhgimnjnngjj:rong roqolifjffkillolkojig oqonljillgigfikhihkh n V V |
  1
/061+ {rn roqnfmfnllgjgkfffgoi roqikomiogjljikonlhk roqmfhkkgkjglkjoimkj |
  1
<0:;8: {rn {nnlo {nolk {nnln {nnlm n {nlo {rn |
  1
<0:;8: {rn {nnll {nnlk {nolk {nogk o {nnlj {rn |
  1
:;8: {nnli {nnlh {nogf {nogl {nnlg o |
  1
<0:;8: {rn {nnmk {nolj {nolg {nofn n {nogh {rn |
  1
<0:;8: {rn {nolj {nnmk {nnll {nnlf o {nogh {rn |
  1
300/ {rn {rn {nolj {nnko |
  1
/+36,+r3(;r>++-6= {rn {rn {rn {noli |
  1
):-+:' {rn {nnlf {nnkn |
  1
:336/,:r<*-): {rn oqnfmfnllgjgkfffgoi roqjlnkfioimfjoooihl rnqglohogiinkoooomg rn o lqkkjojmkolohmifol:roni rmqghhnggghilhhfjni:ronh roqogljnijkgfkkjiomkj roqogljnijkgfkkjiomng n V V |
  1
:;8: {nnkm {nnmh {nokn {nolg {nnkl o |
  1
9><: {nnkk {nokk {nolf {i {rn {nnkj 90-(>-; ,6183: |
  1
/061+ {rn oqnfmfnllgjgkfffgoi roqikfioimffnjooonnm rnqglohogiinlffffjh |
  1
/+36,+r3(;r>++-6= {rn {rn {rn {nokl |
  1
,+->687+r<*-): {rn roqnfmfnllgjgkfffgoi roqikfioimffnkfffflk roqlmmfnkiomjffffhlm n o rlqkkjojmkolohmifol:roni V V |
  1
92:,7r3(;r>++-6= {rn {nnki {rn {nokk |
  1
<01:r,*-9><: {rn roqnfmfnllgjgkfffgoi roqinomlimmokkffgjgm roqlmmfnkiomiooooogg n o rlqkkjojmkolohmifol:roni kqihmijhgimnjnngjj:rong roqolifjffkillolkojig oqonljillgigfikhihkh n V V o n o V V V V |
  1
-:9@)+r3(;r>++-6= {rn {rn {nokg {ffi {l {k |
  1
<0:;8: {rn {nnkh {nojn {nnkg {nnkf n {ni {rn |
  1
<0:;8: {rn {nnjo {nnjn {nojn {nnon o {nnjm {rn |
  1
:;8: {nnjl {nnjk {nnoi {nojn {nnjj o |
  1
<0:;8: {rn {nnji {nojm {nojj {nnof o {nnok {rn |
  1
<0:;8: {rn {nojm {nnji {nnjo {nnjh n {nnok {rn |
  1
300/ {rn {rn {nnji {nnjg |
  1
/+36,+r3(;r>++-6= {rn {rn {rn {nojl |
  1
):-+:' {rn {nnon {nnjf |
  1
,+->687+r<*-): {rn roqnfmfnllgjgkfffgoi oqjinnoiogogjooomg roqokimlkmkjfffffhlh jqfgmmhoiikhlnkiin:ronh oqfgkgohhjlmgmglijk oqnhlikgnhinlmnnfog V V |
  1
<0:;8: {rn {nojj {nojk {nohn {nnmo o {noji {rn |
  1
:;8: {nnio {nojg {nnin {nnom {nnim o |
  1
9><: {nnil {nnjg {noji {i {rn {nnik 90-(>-; ,6183: |
  1
/061+ {rn roqnfmfnllgjgkfffgoi oqjhiigfnfkgmjiikfk roqoklkgijmmjghihknjf |
  1
/+36,+r3(;r>++-6= {rn {rn {rn {noin |
  1
):-+:' {rn {noin {nnij |
  1
,+->687+r<*-): {rn roqnfmfnllgjgkfffgoi oqjgfoholnnjjooolnn roqoiogkkmogoffffhnlm n o rlqkkjojmkolohmifol:roni V V |
  1
92:,7r3(;r>++-6= {rn {nnii {rn {noim |
  1
/3>1:r,*-9><: {rn roqnfmfnllgjgkfffgoi oqjjhijghliljmijnhl roqnnhjnmngfgolinmj nqihonfkjkhhmfmlgm:roni roqghkinfhohoikmgnfk oqkgkgofimolgngkimm rn o lqkkjojmkolohmifol:roni o V V V V |
  1
/061+ {rn oqnfmfnllgjgkfffgoi oqjjhijghliljmijnhl roqnnhjnmngfgolinmj |
  1
-:9@)+r3(;r>++-6= {rn {rn {noih {nonk {l {k |
  1
<0:;8: {rn {nohn {nnih {nnji {nnig n {nlo {rn |
  1
:;8: {nnif {nnnl {nnin {nnog {nnho o |
  1
/+36,+r3(;r>++-6= {rn {rn {rn {nohm |
  1
,+->687+r<*-): {rn oqnfmfnllgjgkfffgoi oqjgfoholnnjjooolnn roqoiogkkmogoffffhngg lqonlnnohmljfijlih:roni oqkgkgofimolgngkini oqghkinfhohoikmgngl V V |
  1
<0:;8: {rn {nohj {nnhn {nnhm {nnhl n {ni {rn |
  1
<0:;8: {rn {nogi {nogj {nohj {nnmj o {nogh {rn |
  1
:;8: {nnhk {nnmh {nnhj {nohj {nnhi o |
  1
/+36,+r3(;r>++-6= {rn {rn {rn {nohh |
  1
):-+:' {rn {nohh {nnhh |
  1
,+->687+r<*-): {rn roqnfmfnllgjgkfffgoi roqikfioimffnkfffflk roqlmmfnkiomjffffhlm rlqkkjojmkolohmifol:roni rmqkkfmnmhohikkhjkj:roni rn V V |
  1
/061+ {rn roqnfmfnllgjgkfffgoi roqikfioimffnkfffflk roqlmmfnkiomjffffhlm |
  1
<0:;8: {rn {nnhg {nogm {nnhf {nngo n {nlo {rn |
  1
<0:;8: {rn {nngn {nngm {nogm {nnlm o {nngl {rn |
  1
:;8: {nngk {nngj {nnlh {nnln {nngi o |
  1
<0:;8: {rn {nnhm {nogl {nogi {nnlf n {nnlj {rn |
  1
<0:;8: {rn {nogl {nnhm {nngn {nngh o {nnlj {rn |
  1
300/ {rn {rn {nogl {nngg |
  1
/+36,+r3(;r>++-6= {rn {rn {rn {nogk |
  1
):-+:' {rn {nngh {nngf |
  1
,+->687+r<*-): {rn oqnfmfnllgjgkfffgoi roqjlnkfioimfjooonk rnqfkggnggfhjffffgf gqklhiiinmknohhlmn:rolm rn mqkkfmnmhohikkhjkj:roni V V |
  1
:;8: {nnfo {nnhj {nogf {nogi {nnfn o |
  1
9><: {nnfm {nofm {nogh {i {rn {nnfl 90-(>-; ,6183: |
  1
/061+ {rn oqnfmfnllgjgkfffgoi roqjlnkfioimfjooonk rnqfkggnggfhjffffgf |
  1
/+36,+r3(;r>++-6= {rn {rn {rn {nofn |
  1
,+->687+r<*-): {rn roqnfmfnllgjgkfffgoi roqikfioimffnjooonnm rnqglohogiinlffffjh n o rlqkkjojmkolohmifol:roni V V |
  1
92:,7r3(;r>++-6= {rn {nnfk {rn {nofm |
  1
/3>1:r,*-9><: {rn roqnfmfnllgjgkfffgoi roqikfioimffnjooonnm rnqglohogiinlffffjh gqklhiiinmknohhlmn:rolm rn mqkkfmnmhohikkhjkj:roni rn o lqkkjojmkolohmifol:roni o V V V V |
  1
-:9@)+r3(;r>++-6= {rn {rn {nofi {nokk {l {k |
  1
<0:;8: {rn {nnfj {noff {nnfi {nnfh n {ni {rn |
  1
<0:;8: {rn {nnfg {nnff {noff {nnkf o {nmoo {rn |
  1
:;8: {nmon {nmom {nnjk {noff {nmol o |
  1
<0:;8: {rn {nmok {nnoo {nnol {nnjh o {nnjm {rn |
  1
<0:;8: {rn {nnoo {nmok {nnfg {nmoj n {nnjm {rn |
  1
300/ {rn {rn {nmok {nmoi |
  1
/+36,+r3(;r>++-6= {rn {rn {rn {nnon |
  1
):-+:' {rn {nnkf {nmoh |
  1
:336/,:r<*-): {rn roqnfmfnllgjgkfffgoi oqjjfojjnngnlkmhmgf roqolkiomijgkoogihimj n o rlqkkjojmkolohmifol:roni rmqinillfjjiglhhgml:rong roqoofokjiiifniihjmfjj roqoohjfkkgkoimnknjooi n V V |
  1
<0:;8: {rn {nnol {nnom {nnnf {nnig o {nnok {rn |
  1
:;8: {nmog {nnoi {nmof {nnjo {nmno o |
  1
9><: {nmnn {nmoi {nnok {i {rn {nmnm 90-(>-; ,6183: |
  1
/061+ {rn roqnfmfnllgjgkfffgoi oqjinnoiogogjooomg roqokimlkmkjfffffhlh |
  1
/+36,+r3(;r>++-6= {rn {rn {rn {nnof |
  1
):-+:' {rn {nnof {nmnl |
  1
,+->687+r<*-): {rn roqnfmfnllgjgkfffgoi oqjhiigfnfkgmjiikfk roqoklkgijmmjghihknjf n o rlqkkjojmkolohmifol:roni V V |
  1
92:,7r3(;r>++-6= {rn {nmnk {rn {nnno |
  1
<01:r,*-9><: {rn roqnfmfnllgjgkfffgoi oqjhghkonjhjkofmjgf roqojjnngnnomnilfofol n o rlqkkjojmkolohmifol:roni mqlimgjigmnionjlfh:rong oqoofinjjlhinfnfohmjn oqooigjgifilnlmgnmjif n V V o rn o V V V V |
  1
/061+ {rn oqnfmfnllgjgkfffgoi oqjgfoholnnjjooolnn roqoiogkkmogoffffhngg |
  1
-:9@)+r3(;r>++-6= {rn {rn {nnnj {noim {l {k |
  1
<0:;8: {rn {nnnf {nmnj {nmok {nmni n {nlo {rn |
  1
:;8: {nmnh {nnin {nmof {nnji {nmng o |
  1
/+36,+r3(;r>++-6= {rn {rn {rn {nnmo |
  1
:336/,:r<*-): {rn oqnfmfnllgjgkfffgoi oqjhghkonjhjkofmjgf roqojjnngnnomnilfofjf n o rlqkkjojmkolohmifol:roni mqlimgjigmnionjlfh:rong oqoofinjjlhinfnfohmjn oqooigjgifilnlmgnmjif n V V |
  1
<0:;8: {rn {nnml {nmnf {nmmo {nmmn n {ni {rn |
  1
<0:;8: {rn {nnlk {nnll {nnml {nnhl o {nnlj {rn |
  1
:;8: {nmmm {nnhj {nmml {nnml {nmmk o |
  1
/+36,+r3(;r>++-6= {rn {rn {rn {nnmj |
  1
):-+:' {rn {nnmj {nmmj |
  1
:336/,:r<*-): {rn roqnfmfnllgjgkfffgoi roqjlnkfioimfjoooihl rnqglohogiinkoooomg n o rlqkkjojmkolohmifol:roni rmqghhnggghilhhfjni:ronh roqogljnijkgfkkjiomkj roqogljnijkgfkkjiomng n V V |
  1
/061+ {rn roqnfmfnllgjgkfffgoi roqikfioimffnjooonnm rnqglohogiinlffffjh |
  1
<0:;8: {rn {nmmi {nnlo {nmmh {nmmg n {nlo {rn |
  1
<0:;8: {rn {nmmf {nmlo {nnlo {nngo o {nmln {rn |
  1
:;8: {nmlm {nmll {nngj {nnhf {nmlk o |
  1
<0:;8: {rn {nmmo {nnln {nnlk {nngh n {nngl {rn |
  1
<0:;8: {rn {nnln {nmmo {nmmf {nmlj o {nngl {rn |
  1
300/ {rn {rn {nnln {nmli |
  1
/+36,+r3(;r>++-6= {rn {rn {rn {nnlm |
  1
):-+:' {rn {nmlj {nmlh |
  1
:336/,:r<*-): {rn oqnfmfnllgjgkfffgoi oqjlnkfioilokfffhgi rnqglohogiinlffffmn rn o lqkkjojmkolohmifol:roni rmqghhnggghilhgmhhh:ronh oqogljnijkgfkkjihnkl roqogljnijkgfkkjifigm n V V |
  1
:;8: {nmlg {nmml {nnlh {nnlk {nmlf o |
  1
9><: {nmko {nnko {nnlj {i {rn {nmkn 90-(>-; ,6183: |
  1
/061+ {rn oqnfmfnllgjgkfffgoi oqjlnkfioilokffffil rnqfkggnggfhjffffgf |
  1
/+36,+r3(;r>++-6= {rn {rn {rn {nnlf |
  1
,+->687+r<*-): {rn roqnfmfnllgjgkfffgoi roqjlnkfioimfjooonk rnqfkggnggfhjffffgf n o rlqkkjojmkolohmifol:roni V V |
  1
92:,7r3(;r>++-6= {rn {nmkm {rn {nnko |
  1
<01:r,*-9><: {rn roqnfmfnllgjgkfffgoi roqjlnkfioimfjoooihl rnqglohogiinkoooomg n o rlqkkjojmkolohmifol:roni rmqghhnggghilhhfjni:ronh roqogljnijkgfkkjiomkj roqogljnijkgfkkjiomng n V V o n o V V V V |
  1
-:9@)+r3(;r>++-6= {rn {rn {nnkk {nofm {l {k |
  1
<0:;8: {rn {nmkl {nnkh {nmkk {nmkj n {ni {rn |
  1
<0:;8: {rn {nmki {nmkh {nnkh {nnfh o {nmkg {rn |
  1
:;8: {nmkf {nmjo {nmom {nnkh {nmjn o |
  1
<0:;8: {rn {nmjm {nnkg {nnjn {nmoj o {nmoo {rn |
  1
<0:;8: {rn {nnkg {nmjm {nmki {nmjl n {nmoo {rn |
  1
300/ {rn {rn {nmjm {nmjk |
  1
/+36,+r3(;r>++-6= {rn {rn {rn {nnkf |
  1
):-+:' {rn {nnfh {nmjj |
  1
:336/,:r<*-): {rn roqnfmfnllgjgkfffgoi oqjfhmojoflilokffji roqokgkiknfgngggggkhk n o rlqkkjojmkolohmifol:roni nqkhgkgihnnmmfhllh:ronh roqolooihfhgflkfojhkf oqokmfnimlmgjljjifnn n V V |
  1
<0:;8: {rn {nnjn {nnjo {nnih {nmni o {nnjm {rn |
  1
:;8: {nmji {nnjk {nmjh {nnfg {nmjg o |
  1
9><: {nmjf {nmjk {nnjm {i {rn {nmio 90-(>-; ,6183: |
  1
/061+ {rn roqnfmfnllgjgkfffgoi oqjkhfjknjnjmokngmi roqolojifnfioifgjggim |
  1
/+36,+r3(;r>++-6= {rn {rn {rn {nnjh |
  1
):-+:' {rn {nnjh {nmin |
  1
,+->687+r<*-): {rn roqnfmfnllgjgkfffgoi oqjinnoiogogjooomg roqokimlkmkjfffffhlh n o rlqkkjojmkolohmifol:roni V V |
  1
92:,7r3(;r>++-6= {rn {nmim {rn {nnjg |
  1
/3>1:r,*-9><: {rn roqnfmfnllgjgkfffgoi oqjhiigfnfkgmjiikfk roqoklkgijmmjghihknjf rlqlfmhnklnhonnijli:roni oqnhlikgnhinlmnnfnn roqfgkgohhjlmgmgliij rn o lqkkjojmkolohmifol:roni o V V V V |
  1
/061+ {rn oqnfmfnllgjgkfffgoi oqjhiigfnfkgmjiikfk roqoklkgijmmjghihkmnj |
  1
-:9@)+r3(;r>++-6= {rn {rn {nnil {nnno {l {k |
  1
<0:;8: {rn {nnih {nmil {nmjm {nmik n {nlo {rn |
  1
:;8: {nmij {nmof {nmjh {nmok {nmii o |
  1
/+36,+r3(;r>++-6= {rn {rn {rn {nnig |
  1
,+->687+r<*-): {rn oqnfmfnllgjgkfffgoi oqjinnoiogogjooomg roqokimlkmkjfffffhkmj rjqfgmmhoiikhlnkiin:ronh roqfgkgohhjlmgmglijk roqnhlikgnhinlmnnfog V V |
  1
<0:;8: {rn {nnhn {nmih {nmig {nmif n {ni {rn |
  1
<0:;8: {rn {nngm {nngn {nnhn {nmmn o {nngl {rn |
  1
:;8: {nmho {nmml {nmhn {nnhn {nmhm o |
  1
/+36,+r3(;r>++-6= {rn {rn {rn {nnhl |
  1
):-+:' {rn {nnhl {nmhl |
  1
,+->687+r<*-): {rn roqnfmfnllgjgkfffgoi roqjlnkfioimfjooonk rnqfkggnggfhjffffgf rgqklhiiinmknohhlmn:rolm n rmqkkfmnmhohikkhjkj:roni V V |
  1
/061+ {rn roqnfmfnllgjgkfffgoi roqjlnkfioimfjooonk rnqfkggnggfhjffffgf |
  1
<0:;8: {rn {nmhk {nnhg {nmhj {nmhi n {nlo {rn |
  1
<0:;8: {rn {nmhh {nmhg {nnhg {nmmg o {nmhf {rn |
  1
:;8: {nmgo {nmgn {nmll {nmmh {nmgm o |
  1
<0:;8: {rn {nmig {nnhf {nngm {nmlj n {nmln {rn |
  1
<0:;8: {rn {nnhf {nmig {nmhh {nmgl o {nmln {rn |
  1
300/ {rn {rn {nnhf {nmgk |
  1
/+36,+r3(;r>++-6= {rn {rn {rn {nngo |
  1
):-+:' {rn {nmgl {nmgj |
  1
,+->687+r<*-): {rn oqnfmfnllgjgkfffgoi oqikfioimffmjooomfn rnqglohogiinlffffjh rlqkkjojmkolohmifol:roni mqonnojnfnjmgmgihi:ronj rn V V |
  1
:;8: {nmgi {nmhn {nngj {nngm {nmgh o |
  1
9><: {nmgg {nngg {nngl {i {rn {nmgf 90-(>-; ,6183: |
  1
/061+ {rn oqnfmfnllgjgkfffgoi oqikfioimffmjooomfn rnqglohogiinlffffjh |
  1
/+36,+r3(;r>++-6= {rn {rn {rn {nngh |
  1
,+->687+r<*-): {rn roqnfmfnllgjgkfffgoi oqjlnkfioilokffffil rnqfkggnggfhjffffgf n o rlqkkjojmkolohmifol:roni V V |
  1
92:,7r3(;r>++-6= {rn {nmfo {rn {nngg |
  1
/3>1:r,*-9><: {rn roqnfmfnllgjgkfffgoi oqjlnkfioilokffffil rnqfkggnggfhjffffgf rlqkkjojmkolohmifol:roni rmqkkfmnmhohikkhjkj:roni rn rn o lqkkjojmkolohmifol:roni o V V V V |
  1
-:9@)+r3(;r>++-6= {rn {rn {nnfm {nnko {l {k |
  1
<0:;8: {rn {nmih {nnfj {nmfn {nmfm n {ni {rn |
  1
<0:;8: {rn {nmfl {nmfk {nnfj {nmkj o {nmfj {rn |
  1
:;8: {nmfi {nmfh {nmjo {nnfj {nmfg o |
  1
<0:;8: {rn {nmff {nnfi {nnff {nmjl o {nmkg {rn |
  1
<0:;8: {rn {nnfi {nmff {nmfl {nloo n {nmkg {rn |
  1
300/ {rn {rn {nmff {nlon |
  1
/+36,+r3(;r>++-6= {rn {rn {rn {nnfh |
  1
):-+:' {rn {nmkj {nlom |
  1
,+->687+r<*-): {rn roqnfmfnllgjgkfffgoi oqinigfonlmhjooomhn oqoolflhoohfoooomfjlk gqklhiiinmknohhlmn:rolm rn mqkkfmnmhohikkhjkj:roni V V |
  1
<0:;8: {rn {nnff {nnfg {nmnj {nmik o {nmoo {rn |
  1
:;8: {nlol {nmom {nlok {nmki {nloj o |
  1
9><: {nloi {nlon {nmoo {i {rn {nloh 90-(>-; ,6183: |
  1
/061+ {rn roqnfmfnllgjgkfffgoi oqjfhmojoflkjooomnh oqoolflhoohfoooomfjlk |
  1
/+36,+r3(;r>++-6= {rn {rn {rn {nmoj |
  1
):-+:' {rn {nmoj {nlog |
  1
,+->687+r<*-): {rn roqnfmfnllgjgkfffgoi oqjkhfjknjnjmokngmi roqolojifnfioifgjggim n o rlqkkjojmkolohmifol:roni V V |
  1
92:,7r3(;r>++-6= {rn {nlof {rn {nmoi |
  1
<01:r,*-9><: {rn roqnfmfnllgjgkfffgoi oqjjfojjnngnlkmhmgf roqolkiomijgkoogihimj n o rlqkkjojmkolohmifol:roni rmqinillfjjiglhhgml:rong roqoofokjiiifniihjmfjj roqoohjfkkgkoimnknjooi n V V o n o V V V V |
  1
/061+ {rn oqnfmfnllgjgkfffgoi oqjinnoiogogjooomg roqokimlkmkjfffffhkmj |
  1
-:9@)+r3(;r>++-6= {rn {rn {nmnn {nnjg {l {k |
  1
<0:;8: {rn {nmnj {nmhk {nmff {nlno n {nlo {rn |
  1
:;8: {nlnn {nmjh {nlok {nmjm {nlnm o |
  1
/+36,+r3(;r>++-6= {rn {rn {rn {nmni |
  1
:336/,:r<*-): {rn oqnfmfnllgjgkfffgoi oqjjfojjnngnlkmhmgf roqolkiomijgkoogihign rn o lqkkjojmkolohmifol:roni rmqinillfjjiglhhgml:rong roqoofokjiiifniihjmfjj roqoohjfkkgkoimnknjooi n V V |
  1
<0:;8: {rn {nmnf {nmkl {nlnl {nlnk n {ni {rn |
  1
<0:;8: {rn {nmlo {nmmf {nmnf {nmif o {nmln {rn |
  1
:;8: {nlnj {nmhn {nlni {nmnf {nlnh o |
  1
/+36,+r3(;r>++-6= {rn {rn {rn {nmmn |
  1
):-+:' {rn {nmmn {nlng |
  1
:336/,:r<*-): {rn roqnfmfnllgjgkfffgoi oqjlnkfioilokfffhgi rnqglohogiinlffffmn n o rlqkkjojmkolohmifol:roni rmqghhnggghilhgmhhh:ronh oqogljnijkgfkkjihnkl roqogljnijkgfkkjifigm n V V |
  1
/061+ {rn roqnfmfnllgjgkfffgoi oqjlnkfioilokffffil rnqfkggnggfhjffffgf |
  1
<0:;8: {rn {nmil {nmmi {nlnf {nlmo n {nlo {rn |
  1
<0:;8: {rn {nlmn {nlmm {nmmi {nmhi o {nlml {rn |
  1
:;8: {nlmk {nlmj {nmgn {nmhj {nlmi o |
  1
<0:;8: {rn {nlnl {nmmh {nmlo {nmgl n {nmhf {rn |
  1
<0:;8: {rn {nmmh {nlnl {nlmn {nlmh o {nmhf {rn |
  1
300/ {rn {rn {nmmh {nlmg |
  1
/+36,+r3(;r>++-6= {rn {rn {rn {nmmg |
  1
):-+:' {rn {nlmh {nlmf |
  1
,+->687+r<*-): {rn oqnfmfnllgjgkfffgoi oqikfioimffmjooomfn roqmjjfojjnnhffffgmi rmqfgljomgfikijminm:roni roqjoooooooofghjggig roqgiiomjkolmnkmjlfm V V |
  1
:;8: {nllo {nlni {nmll {nmlo {nlln o |
  1
9><: {nllm {nmli {nmln {i {rn {nlll 90-(>-; ,6183: |
  1
/061+ {rn oqnfmfnllgjgkfffgoi oqikfioimffmjooomfn roqmjjfojjnnhffffgmi |
  1
/+36,+r3(;r>++-6= {rn {rn {rn {nmlj |
  1
,+->687+r<*-): {rn roqnfmfnllgjgkfffgoi oqikfioimffmjooomfn rnqglohogiinlffffjh n o rlqkkjojmkolohmifol:roni V V |
  1
92:,7r3(;r>++-6= {rn {nllk {rn {nmli |
  1
<01:r,*-9><: {rn roqnfmfnllgjgkfffgoi oqjlnkfioilokfffhgi rnqglohogiinlffffmn n o rlqkkjojmkolohmifol:roni rmqghhnggghilhgmhhh:ronh oqogljnijkgfkkjihnkl roqogljnijkgfkkjifigm n V V o n o V V V V |
  1
-:9@)+r3(;r>++-6= {rn {rn {nmko {nngg {l {k |
  1
<0:;8: {rn {nlmm {nlmn {nmkl {nmfm o {nlml {rn |
  1
:;8: {nllj {nlli {nmfh {nmkl {nllh o |
  1
<0:;8: {rn {nlnf {nmkk {nmkh {nloo o {nmfj {rn |
  1
<0:;8: {rn {nmkk {nlnf {nlmm {nllg n {nmfj {rn |
  1
300/ {rn {rn {nlnf {nllf |
  1
/+36,+r3(;r>++-6= {rn {rn {rn {nmkj |
  1
):-+:' {rn {nmfm {nlko |
  1
:336/,:r<*-): {rn roqnfmfnllgjgkfffgoi oqinigfonlmimfmfmnj roqokgkiknfgnmohokhfl n o rlqkkjojmkolohmifol:roni nqmhijolgnkhioikmk:ronh oqolhojlmkgnnfjfhihi oqolhojlmkgnnfjfikoi n V V |
  1
<0:;8: {rn {nmkh {nmki {nmil {nlno o {nmkg {rn |
  1
:;8: {nlkn {nmjo {nlkm {nmfl {nlkl o |
  1
9><: {nlkk {nllf {nmkg {i {rn {nlkj 90-(>-; ,6183: |
  1
/061+ {rn roqnfmfnllgjgkfffgoi oqinigfonlmhjooomhn oqoolflhoohfoooomfjlk |
  1
/+36,+r3(;r>++-6= {rn {rn {rn {nmjl |
  1
):-+:' {rn {nmjl {nlki |
  1
,+->687+r<*-): {rn roqnfmfnllgjgkfffgoi oqjfhmojoflkjooomnh oqoolflhoohfoooomfjlk n o rlqkkjojmkolohmifol:roni V V |
  1
92:,7r3(;r>++-6= {rn {nlkh {rn {nmjk |
  1
<01:r,*-9><: {rn roqnfmfnllgjgkfffgoi oqjfhmojoflilokffji roqokgkiknfgngggggkhk n o rlqkkjojmkolohmifol:roni nqkhgkgihnnmmfhllh:ronh roqolooihfhgflkfojhkf oqokmfnimlmgjljjifnn n V V o n o V V V V |
  1
/061+ {rn oqnfmfnllgjgkfffgoi oqjkhfjknjnjmokngmi roqolojifnfioifgjgfnh |
  1
-:9@)+r3(;r>++-6= {rn {rn {nmjf {nmoi {l {k |
  1
:;8: {nlkg {nlok {nlkm {nmff {nlkf o |
  1
/+36,+r3(;r>++-6= {rn {rn {rn {nmik |
  1
:336/,:r<*-): {rn oqnfmfnllgjgkfffgoi oqjfhmojoflilokffji roqokgkiknfgngggggjl rn o lqkkjojmkolohmifol:roni nqkhgkgihnnmmfhllh:ronh roqolooihfhgflkfojhkf oqokmfnimlmgjljjifnn n V V |
  1
<0:;8: {rn {nmhg {nmhh {nmih {nlnk o {nmhf {rn |
  1
:;8: {nljo {nlni {nlli {nmih {nljn o |
  1
/+36,+r3(;r>++-6= {rn {rn {rn {nmif |
  1
):-+:' {rn {nmif {nljm |
  1
,+->687+r<*-): {rn roqnfmfnllgjgkfffgoi oqikfioimffmjooomfn rnqglohogiinlffffjh lqkkjojmkolohmifol:roni rmqonnojnfnjmgmgihi:ronj n V V |
  1
/061+ {rn roqnfmfnllgjgkfffgoi oqikfioimffmjooomfn rnqglohogiinlffffjh |
  1
<0:;8: {rn {nmfk {nmfl {nmhk {nlmo o {nmfj {rn |
  1
:;8: {nljl {nlkm {nlmj {nlnf {nljk o |
  1
<0:;8: {rn {nmfn {nmhj {nmhg {nlmh n {nlml {rn |
  1
<0:;8: {rn {nmhj {nmfn {nmfk {nllg o {nlml {rn |
  1
300/ {rn {rn {nmhj {nljj |
  1
/+36,+r3(;r>++-6= {rn {rn {rn {nmhi |
  1
):-+:' {rn {nllg {nlji |
  1
,+->687+r<*-): {rn oqnfmfnllgjgkfffgoi oqiifmfnllgijooonig roqmmngnoomlkffffgoh rlqkkjojmkolohmifol:roni rmqkkfmnmhohikkhjkj:roni rn V V |
  1
:;8: {nljh {nlli {nmgn {nmhg {nljg o |
  1
9><: {nljf {nmgk {nmhf {i {rn {nlio 90-(>-; ,6183: |
  1
/061+ {rn oqnfmfnllgjgkfffgoi oqiifmfnllgijooonig roqmmngnoomlkffffgoh |
  1
/+36,+r3(;r>++-6= {rn {rn {rn {nmgl |
  1
,+->687+r<*-): {rn roqnfmfnllgjgkfffgoi oqikfioimffmjooomfn roqmjjfojjnnhffffgnj n o rlqkkjojmkolohmifol:roni V V |
  1
92:,7r3(;r>++-6= {rn {nlin {rn {nmgk |
  1
/3>1:r,*-9><: {rn roqnfmfnllgjgkfffgoi oqikfioimffmjooomfn roqmjjfojjnnhffffgnj iqfmgnhfmllkkfnhfh:roln n mqonnojnfnjmgmgihi:ronj n o rlqkkjojmkolohmifol:roni o V V V V |
  1
-:9@)+r3(;r>++-6= {rn {rn {nmgg {nmli {l {k |
  1
/+36,+r3(;r>++-6= {rn {rn {rn {nmfm |
  1
):-+:' {rn {nlnk {nlim |
  1
,+->687+r<*-): {rn roqnfmfnllgjgkfffgoi oqiifmfnllgijooonig roqmmngnoomlkffffgoh lqkkjojmkolohmifol:roni mqkkfmnmhohikkhjkj:roni n V V |
  1
:;8: {nlil {nmfh {nlmj {nlmm {nlik o |
  1
9><: {nlij {nljj {nmfj {i {rn {nlii 90-(>-; ,6183: |
  1
/061+ {rn roqnfmfnllgjgkfffgoi oqiifmfnllgijooonig roqokgkiknfhfffffhhfl |
  1
/+36,+r3(;r>++-6= {rn {rn {rn {nloo |
  1
):-+:' {rn {nloo {nlih |
  1
,+->687+r<*-): {rn roqnfmfnllgjgkfffgoi oqinigfonlmhjooomhn oqoolflhoohfoooomfjlk n o rlqkkjojmkolohmifol:roni V V |
  1
92:,7r3(;r>++-6= {rn {nlig {rn {nlon |
  1
/3>1:r,*-9><: {rn roqnfmfnllgjgkfffgoi oqjfhmojoflkjooomnh oqoolflhoohfoooomfjlk lqkkjojmkolohmifol:roni mqkkfmnmhohikkhjkj:roni n n o rlqkkjojmkolohmifol:roni o V V V V |
  1
/061+ {rn oqnfmfnllgjgkfffgoi oqjfhmojoflkjooomnh oqoolflhoohfoooomgfhf |
  1
-:9@)+r3(;r>++-6= {rn {rn {nloi {nmjk {l {k |
  1
/+36,+r3(;r>++-6= {rn {rn {rn {nlno |
  1
,+->687+r<*-): {rn oqnfmfnllgjgkfffgoi oqinigfonlmhjooomhn oqoolflhoohfoooomgfhf rgqklhiiinmknohhlmn:rolm n rmqkkfmnmhohikkhjkj:roni V V |
  1
/+36,+r3(;r>++-6= {rn {rn {rn {nlnk |
  1
,+->687+r<*-): {rn roqnfmfnllgjgkfffgoi oqikfioimffmjooomfn roqmjjfojjnnhffffgnj mqfgljomgfikijminm:roni oqjoooooooofghjggig oqgiiomjkolmnkmjlfm V V |
  1
/061+ {rn roqnfmfnllgjgkfffgoi oqikfioimffmjooomfn roqmjjfojjnnhffffgnj |
  1
/+36,+r3(;r>++-6= {rn {rn {rn {nlmo |
  1
:336/,:r<*-): {rn oqnfmfnllgjgkfffgoi oqinigfonlmimfmfmnj roqokgkiknfgnmohokgkf rn o lqkkjojmkolohmifol:roni nqmhijolgnkhioikmk:ronh oqolhojlmkgnnfjfhihi oqolhojlmkgnnfjfikoi n V V |
  1
9><: {nlif {nlmg {nlml {i {rn {nlho 90-(>-; ,6183: |
  1
/061+ {rn oqnfmfnllgjgkfffgoi oqiifmfnllgijooonig roqokgkiknfhfffffhgkf |
  1
/+36,+r3(;r>++-6= {rn {rn {rn {nlmh |
  1
,+->687+r<*-): {rn roqnfmfnllgjgkfffgoi oqiifmfnllgijooonig roqmmngnoomlkffffgoh n o rlqkkjojmkolohmifol:roni V V |
  1
92:,7r3(;r>++-6= {rn {nlhn {rn {nlmg |
  1
/3>1:r,*-9><: {rn roqnfmfnllgjgkfffgoi oqiifmfnllgijooonig roqmmngnoomlkffffgoh rnqhmmjmimokflgikon:roni oqgiiomjkolmnkmjkol roqjoooooooofghjgghf rn o lqkkjojmkolohmifol:roni o V V V V |
  1
-:9@)+r3(;r>++-6= {rn {rn {nllm {nmgk {l {k |
  1
/061+ {rn roqnfmfnllgjgkfffgoi oqiifmfnllgijooonig roqmmngnoomlkffffgoh |
  1
/+36,+r3(;r>++-6= {rn {rn {rn {nllg |
  1
,+->687+r<*-): {rn roqnfmfnllgjgkfffgoi oqiifmfnllgijooonig roqokgkiknfhfffffhhfl n o rlqkkjojmkolohmifol:roni V V |
  1
92:,7r3(;r>++-6= {rn {nlhm {rn {nllf |
  1
<01:r,*-9><: {rn roqnfmfnllgjgkfffgoi oqinigfonlmimfmfmnj roqokgkiknfgnmohokhfl n o rlqkkjojmkolohmifol:roni nqmhijolgnkhioikmk:ronh oqolhojlmkgnnfjfhihi oqolhojlmkgnnfjfikoi n V V o n o V V V V |
  1
/061+ {rn oqnfmfnllgjgkfffgoi oqinigfonlmhjooomhn oqoolflhoohfoooomgfhf |
  1
-:9@)+r3(;r>++-6= {rn {rn {nlkk {nlon {l {k |
  1
92:,7r3(;r>++-6= {rn {nlhl {rn {nljj |
  1
/3>1:r,*-9><: {rn roqnfmfnllgjgkfffgoi oqiifmfnllgijooonig roqokgkiknfhfffffhhfl rgqklhiiinmknohhlmn:rolm n rmqkkfmnmhohikkhjkj:roni n o rlqkkjojmkolohmifol:roni o V V V V |
  1
-:9@)+r3(;r>++-6= {rn {rn {nljf {nlmg {l {k |
  1
-:9@)+r3(;r>++-6= {rn {rn {nlij {nllf {l {k |
  1
-:9@)+r3(;r>++-6= {rn {rn {nlif {nljj {l {k |
  0
SPLINE
  5
2FBF
100
AcDbEntity
  8
0
  6
CONTINUOUS
100
AcDbSpline
210
-0.002030800417203
220
0.9999979379227069
230
0.0
 70
    24
 71
     3
 72
     8
 73
     4
 74
     2
 42
0.0000001
 43
0.0000001
 44
0.0000000001
 40
0.0
 40
0.0
 40
0.0
 40
0.0
 40
0.0005041854396698
 40
0.0005041854396698
 40
0.0005041854396698
 40
0.0005041854396698
 10
-0.0005041844500013
 20
-0.2448255246500031
 30
-1.948818897599998
 10
-0.0003361229833345
 20
-0.2448251833500026
 30
-1.948818897599998
 10
-0.0001680615166677
 20
-0.2448248420500022
 30
-1.948818897599998
 10
-0.0000000000500009
 20
-0.2448245007500018
 30
-1.948818897599998
 11
-0.0005041844500013
 21
-0.2448255246500031
 31
-1.948818897599998
 11
-0.0000000000500009
 21
-0.2448245007500018
 31
-1.948818897599998
  0
SPLINE
  5
2FC0
100
AcDbEntity
  8
0
  6
CONTINUOUS
100
AcDbSpline
210
0.0000000000000084
220
-0.0000000000000083
230
-1.0
 70
     8
 71
     3
 72
    15
 73
    11
 74
     9
 42
0.0000001
 43
0.0000001
 44
0.0000000001
 40
0.0
 40
0.0
 40
0.0
 40
0.0
 40
0.013346572042338
 40
0.039984297656884
 40
0.0665680753242677
 40
0.0930725717980034
 40
0.1194862860926857
 40
0.1458133933119583
 40
0.1720727532582451
 40
0.1977932204688062
 40
0.1977932204688062
 40
0.1977932204688062
 40
0.1977932204688062
 10
-0.125983645849999
 20
-0.3717548724500004
 30
-1.948818897599998
 10
-0.1258434248779492
 20
-0.3673050485886762
 30
-1.948818897599998
 10
-0.125423344196079
 20
-0.3539740538412998
 30
-1.948818897599999
 10
-0.1206115587724551
 20
-0.332094459693075
 30
-1.948818897599998
 10
-0.1098109461728618
 20
-0.3076288111314533
 30
-1.948818897599998
 10
-0.0941387179951068
 20
-0.2860125918922603
 30
-1.948818897599999
 10
-0.0743976747602697
 20
-0.2681530434178847
 30
-1.948818897599998
 10
-0.0514420897169216
 20
-0.2549403860704475
 30
-1.948818897599999
 10
-0.0264429786116462
 20
-0.2464812800157262
 30
-1.948818897599998
 10
-0.009090482740731
 20
-0.245373615258147
 30
-1.948818897599998
 10
-0.0005041844500013
 20
-0.2448255246500031
 30
-1.948818897599998
 11
-0.125983645849999
 21
-0.3717548724500004
 31
-1.948818897599998
 11
-0.125287762550002
 21
-0.35842645425
 31
-1.948818897599998
 11
-0.1197652142500019
 21
-0.3323674848500024
 31
-1.948818897599998
 11
-0.1089794257500003
 21
-0.3080700775500018
 31
-1.948818897599998
 11
-0.0934307481499985
 21
-0.2866055263500007
 31
-1.948818897599998
 11
-0.0738276006499987
 21
-0.268902393550003
 31
-1.948818897599998
 11
-0.0510445342500034
 21
-0.2557096508500001
 31
-1.948818897599998
 11
-0.0260774424500028
 21
-0.2475734163499998
 31
-1.948818897599998
 11
-0.0005041844500013
 21
-0.2448255246500031
 31
-1.948818897599998
  0
SPLINE
  5
2FC1
100
AcDbEntity
  8
0
  6
CONTINUOUS
100
AcDbSpline
210
0.0
220
0.0
230
-1.0
 70
     8
 71
     3
 72
    15
 73
    11
 74
     9
 42
0.0000001
 43
0.0000001
 44
0.0000000001
 40
0.0
 40
0.0
 40
0.0
 40
0.0
 40
0.0262219290006109
 40
0.0524812889778813
 40
0.0788083959739683
 40
0.105222110053195
 40
0.1317266063872793
 40
0.1583103839632653
 40
0.1849481096963728
 40
0.1982946819384387
 40
0.1982946819384387
 40
0.1982946819384387
 40
0.1982946819384387
 10
-0.0000000000500009
 20
-0.4986852442500008
 30
-1.948818897599998
 10
-0.0087566368710501
 20
-0.4981520712033908
 30
-1.948818897599999
 10
-0.0262824103360432
 20
-0.4970849640224618
 30
-1.948818897599998
 10
-0.0514422189230063
 20
-0.4885687326592197
 30
-1.948818897599998
 10
-0.0743976402734415
 20
-0.4753568700278617
 30
-1.948818897599999
 10
-0.094138727346138
 20
-0.4574971076794122
 30
-1.948818897599998
 10
-0.1098109435506454
 20
-0.4358809461843622
 30
-1.948818897599998
 10
-0.1206115593682037
 20
-0.4114152820916092
 30
-1.948818897599998
 10
-0.1254233441423449
 20
-0.3895356916074292
 30
-1.948818897599999
 10
-0.1258434248637654
 20
-0.3762046964720172
 30
-1.948818897599998
 10
-0.125983645849999
 20
-0.3717548724500004
 30
-1.948818897599998
 11
-0.0000000000500009
 21
-0.4986852442500008
 31
-1.948818897599998
 11
-0.0260774428500028
 21
-0.495936328550001
 31
-1.948818897599998
 11
-0.0510445346500035
 21
-0.4878000939500025
 31
-1.948818897599998
 11
-0.0738276008500023
 21
-0.4746073513500014
 31
-1.948818897599998
 11
-0.0934307481499985
 21
-0.4569042186500019
 31
-1.948818897599998
 11
-0.1089794256499985
 21
-0.4354396675500026
 31
-1.948818897599998
 11
-0.1197652141500001
 21
-0.4111422603500002
 31
-1.948818897599998
 11
-0.125287762550002
 21
-0.3850832908500008
 31
-1.948818897599998
 11
-0.125983645849999
 21
-0.3717548724500004
 31
-1.948818897599998
  0
SPLINE
  5
2FC2
100
AcDbEntity
  8
0
  6
CONTINUOUS
100
AcDbSpline
210
0.0
220
0.0
230
-1.0
 70
     8
 71
     3
 72
    15
 73
    11
 74
     9
 42
0.0000001
 43
0.0000001
 44
0.0000000001
 40
0.0
 40
0.0
 40
0.0
 40
0.0
 40
0.0085208516305397
 40
0.0351569723294659
 40
0.0617394592114572
 40
0.0882433565686166
 40
0.1146570901763079
 40
0.1409850438181373
 40
0.1672461661009435
 40
0.1934707093847777
 40
0.1934707093847777
 40
0.1934707093847777
 40
0.1934707093847777
 10
-0.1258926520499983
 20
-0.3717616071500016
 30
-1.948818897599998
 10
-0.1257269704228729
 20
-0.3689256329594535
 30
-1.948818897599998
 10
-0.1250433692251389
 20
-0.3572244239175275
 30
-1.948818897599999
 10
-0.1206242811514073
 20
-0.336931599398295
 30
-1.948818897599998
 10
-0.1098099658908712
 20
-0.3124667642164247
 30
-1.948818897599998
 10
-0.0941429600209674
 20
-0.2908504837928622
 30
-1.948818897599998
 10
-0.0744014864809814
 20
-0.2729898431306486
 30
-1.948818897599998
 10
-0.0514460848889023
 20
-0.2597766573032541
 30
-1.948818897599999
 10
-0.0262847402280461
 20
-0.2512591192210585
 30
-1.948818897599998
 10
-0.0087575083398462
 20
-0.2501918175610602
 30
-1.948818897599998
 10
-0.0000000000500009
 20
-0.2496585386500021
 30
-1.948818897599998
 11
-0.1258926520499983
 21
-0.3717616071500016
 31
-1.948818897599998
 11
-0.1252879457500029
 21
-0.3632622399500027
 31
-1.948818897599998
 11
-0.119766253249999
 21
-0.3372047297500016
 31
-1.948818897599998
 11
-0.1089817552499994
 21
-0.3129081618500029
 31
-1.948818897599998
 11
-0.0934342698500004
 21
-0.2914434868500022
 31
-1.948818897599998
 11
-0.0738318455499965
 21
-0.2737395244499998
 31
-1.948818897599998
 11
-0.051048553050002
 21
-0.2605454831500031
 31
-1.948818897599998
 11
-0.0260800138499988
 21
-0.252408002350001
 31
-1.948818897599998
 11
-0.0000000000500009
 21
-0.2496585386500021
 31
-1.948818897599998
  0
SPLINE
  5
2FC3
100
AcDbEntity
  8
0
  6
CONTINUOUS
100
AcDbSpline
210
-0.0000000000000042
220
-0.0000000000000041
230
1.0
 70
     8
 71
     3
 72
    15
 73
    11
 74
     9
 42
0.0000001
 43
0.0000001
 44
0.0000000001
 40
0.0
 40
0.0
 40
0.0
 40
0.0
 40
0.0241161753946011
 40
0.0487354142657024
 40
0.0734122057868252
 40
0.0981633546502918
 40
0.1229945974971533
 40
0.1478994608075759
 40
0.1728600382436933
 40
0.1978496405304776
 40
0.1978496405304776
 40
0.1978496405304776
 40
0.1978496405304776
 10
0.000473050650001
 20
-0.2448254013500017
 30
-1.948818897599998
 10
0.0085223455878695
 20
-0.245306872319378
 30
-1.948818897599999
 10
0.024788843775292
 20
-0.2462798577437049
 30
-1.948818897599999
 10
0.0483503591554689
 20
-0.2537221683190759
 30
-1.948818897599998
 10
0.0702448586556226
 20
-0.2653885923528649
 30
-1.948818897599998
 10
0.0894720958412205
 20
-0.2812437378479863
 30
-1.948818897599998
 10
0.1053135345968834
 20
-0.300580699801204
 30
-1.948818897599998
 10
0.1170215202851909
 20
-0.3226983362560362
 30
-1.948818897599998
 10
0.1245664580688948
 20
-0.346735106950204
 30
-1.948818897599998
 10
0.1255114709481976
 20
-0.3634117205567564
 30
-1.948818897599998
 10
0.1259842519500012
 20
-0.3717548725500022
 30
-1.948818897599998
 11
0.000473050650001
 21
-0.2448254013500017
 31
-1.948818897599998
 11
0.024467905649999
 21
-0.2472413585500019
 31
-1.948818897599998
 11
0.0480212470500021
 21
-0.2544070428500005
 31
-1.948818897599998
 11
0.0697699653499981
 21
-0.2660662577500004
 31
-1.948818897599998
 11
0.0888799427499976
 21
-0.2817961062500016
 31
-1.948818897599998
 11
0.1046044652499987
 21
-0.3010140669500023
 31
-1.948818897599998
 11
0.1163168974499982
 21
-0.3229929465500012
 31
-1.948818897599998
 11
0.1235423042500017
 21
-0.3468848682500001
 31
-1.948818897599998
 11
0.1259842519500012
 21
-0.3717548725500022
 31
-1.948818897599998
  0
SPLINE
  5
2FC4
100
AcDbEntity
  8
0
  6
CONTINUOUS
100
AcDbSpline
210
0.0019038093967431
220
0.9999981877532484
230
0.0
 70
    24
 71
     3
 72
     8
 73
     4
 74
     2
 42
0.0000001
 43
0.0000001
 44
0.0000000001
 40
0.0
 40
0.0
 40
0.0
 40
0.0
 40
0.0004730515572881
 40
0.0004730515572881
 40
0.0004730515572881
 40
0.0004730515572881
 10
-0.0000000000500009
 20
-0.2448245007500018
 30
-1.948818897599998
 10
0.0001576835166664
 20
-0.2448248009500018
 30
-1.948818897599998
 10
0.0003153670833337
 20
-0.2448251011500017
 30
-1.948818897599998
 10
0.000473050650001
 20
-0.2448254013500017
 30
-1.948818897599998
 11
-0.0000000000500009
 21
-0.2448245007500018
 31
-1.948818897599998
 11
0.000473050650001
 21
-0.2448254013500017
 31
-1.948818897599998
  0
SPLINE
  5
2FC5
100
AcDbEntity
  8
0
  6
CONTINUOUS
100
AcDbSpline
210
0.0000000000000043
220
0.0000000000000044
230
-1.0
 70
     8
 71
     3
 72
    15
 73
    11
 74
     9
 42
0.0000001
 43
0.0000001
 44
0.0000000001
 40
0.0
 40
0.0
 40
0.0
 40
0.0
 40
0.0245898179980721
 40
0.04920989286763
 40
0.0738859365841975
 40
0.0986354583799574
 40
0.1234648139656182
 40
0.1483682144710522
 40
0.1733285287127859
 40
0.193535998880725
 40
0.193535998880725
 40
0.193535998880725
 40
0.193535998880725
 10
-0.0000000000500009
 20
-0.2496585386500021
 30
-1.948818897599998
 10
0.0082098060328877
 20
-0.2501269700500888
 30
-1.948818897599998
 10
0.0246395200647135
 20
-0.2510644092379635
 30
-1.948818897599998
 10
0.0483534397846929
 20
-0.2585579811305415
 30
-1.948818897599999
 10
0.0702468874556662
 20
-0.2702240171089661
 30
-1.948818897599998
 10
0.0894733094272873
 20
-0.2860788276135663
 30
-1.948818897599998
 10
0.1053116038140729
 20
-0.3054141802746236
 30
-1.948818897599999
 10
0.1170267666797643
 20
-0.3275317139771539
 30
-1.948818897599998
 10
0.1240635616449219
 20
-0.3500283786453847
 30
-1.948818897599999
 10
0.125328126317762
 20
-0.3650612427872737
 30
-1.948818897599998
 10
0.1258938758499966
 20
-0.3717867476500016
 30
-1.948818897599998
 11
-0.0000000000500009
 21
-0.2496585386500021
 31
-1.948818897599998
 11
0.0244707018499995
 21
-0.2520759541500004
 31
-1.948818897599998
 11
0.0480246559500017
 21
-0.2592424967500007
 31
-1.948818897599998
 11
0.0697724075499977
 21
-0.2709019321500028
 31
-1.948818897599998
 11
0.0888808640499974
 21
-0.2866310681500002
 31
-1.948818897599998
 11
0.1046041372499999
 21
-0.3058476125500027
 31
-1.948818897599998
 11
0.1163161105500023
 21
-0.3278250791500019
 31
-1.948818897599998
 11
0.123541851749998
 21
-0.3517166247499999
 31
-1.948818897599998
 11
0.1258938758499966
 21
-0.3717867476500016
 31
-1.948818897599998
  0
SPLINE
  5
2FC6
100
AcDbEntity
  8
0
  6
CONTINUOUS
100
AcDbSpline
210
0.0000000000000083
220
-0.0000000000000083
230
1.0
 70
     8
 71
     3
 72
    15
 73
    11
 74
     9
 42
0.0000001
 43
0.0000001
 44
0.0000000001
 40
0.0
 40
0.0
 40
0.0
 40
0.0
 40
0.0249896020877379
 40
0.0499501794281384
 40
0.0748550427797844
 40
0.0996862857673655
 40
0.1244374347715873
 40
0.1491142263808522
 40
0.1737334652228412
 40
0.1983204455413456
 40
0.1983204455413456
 40
0.1983204455413456
 40
0.1983204455413456
 10
0.1259842519500012
 20
-0.3717548725500022
 30
-1.948818897599998
 10
0.1255114709036658
 20
-0.3800980247175686
 30
-1.948818897599998
 10
0.1245664579334007
 20
-0.3967746387069803
 30
-1.948818897599999
 10
0.1170215207690035
 20
-0.4208114057026949
 30
-1.948818897599998
 10
0.1053135326545602
 20
-0.4429290558268939
 30
-1.948818897599998
 10
0.089472103542626
 20
-0.4622659674863109
 30
-1.948818897599999
 10
0.0702448299123115
 20
-0.4781213000421961
 30
-1.948818897599998
 10
0.0483504655500909
 20
-0.4897870294062196
 30
-1.948818897599999
 10
0.0246373430945389
 20
-0.4972796526583085
 30
-1.948818897599999
 10
0.0082088576126546
 20
-0.4982169185364554
 30
-1.948818897599998
 10
-0.0000000000500009
 20
-0.4986852442500008
 30
-1.948818897599998
 11
0.1259842519500012
 21
-0.3717548725500022
 31
-1.948818897599998
 11
0.1235423042500017
 21
-0.3966248766500007
 31
-1.948818897599998
 11
0.1163168974499982
 21
-0.4205167982500014
 31
-1.948818897599998
 11
0.1046044653500004
 21
-0.442495677950002
 31
-1.948818897599998
 11
0.0888799427499976
 21
-0.461713638750001
 31
-1.948818897599998
 11
0.0697699652500035
 21
-0.4774434873500005
 31
-1.948818897599998
 11
0.0480212468499985
 21
-0.4891027022500003
 31
-1.948818897599998
 11
0.0244679054500026
 21
-0.4962683864500006
 31
-1.948818897599998
 11
-0.0000000000500009
 21
-0.4986852442500008
 31
-1.948818897599998
  0
SPLINE
  5
2FC7
100
AcDbEntity
  8
0
  6
CONTINUOUS
100
AcDbSpline
210
-0.8284240065122583
220
0.5601014778003876
230
0.0
 70
    24
 71
     3
 72
    10
 73
     6
 74
     4
 42
0.0000001
 43
0.0000001
 44
0.0000000001
 40
0.0
 40
0.0
 40
0.0
 40
0.0
 40
0.0021324520289565
 40
0.0042560885334586
 40
0.0063708996508399
 40
0.0063708996508399
 40
0.0063708996508399
 40
0.0063708996508399
 10
-0.1166502921499983
 20
-0.3918392483500019
 30
-1.948818897599998
 10
-0.1162522243774879
 20
-0.3912503482362655
 30
-1.948818897599998
 10
-0.1154577344386215
 20
-0.3900749825129613
 30
-1.948818897599998
 10
-0.1142682868261201
 20
-0.3883157120843789
 30
-1.948818897599998
 10
-0.1134768408534099
 20
-0.3871453865023971
 30
-1.948818897599998
 10
-0.1130819418499982
 20
-0.3865614421499996
 30
-1.948818897599998
 11
-0.1166502921499983
 21
-0.3918392483500019
 31
-1.948818897599998
 11
-0.1154560581500021
 21
-0.3900725687500026
 31
-1.948818897599998
 11
-0.1142666071500002
 21
-0.3883132966499998
 31
-1.948818897599998
 11
-0.1130819418499982
 21
-0.3865614421499996
 31
-1.948818897599998
  0
SPLINE
  5
2FC8
100
AcDbEntity
  8
0
  6
CONTINUOUS
100
AcDbSpline
210
-0.8284240137955277
220
-0.5601014670279908
230
0.0
 70
    24
 71
     3
 72
    10
 73
     6
 74
     4
 42
0.0000001
 43
0.0000001
 44
0.0000000001
 40
0.0
 40
0.0
 40
0.0
 40
0.0
 40
0.0021147591961939
 40
0.0042383956446849
 40
0.0063708995948248
 40
0.0063708995948248
 40
0.0063708995948248
 40
0.0063708995948248
 10
0.1130819418499982
 20
-0.3865614421499996
 30
-1.948818897599998
 10
0.1134768311598007
 20
-0.387145372164743
 30
-1.948818897599998
 10
0.1142682674300919
 20
-0.3883156833924908
 30
-1.948818897599998
 10
0.1154577149142646
 20
-0.3900749538852964
 30
-1.948818897599998
 10
0.1162522145684594
 20
-0.3912503339090347
 30
-1.948818897599999
 10
0.1166502920499965
 20
-0.3918392483500019
 30
-1.948818897599998
 11
0.1130819418499982
 21
-0.3865614421499996
 31
-1.948818897599998
 11
0.1142665780499996
 21
-0.3883132536499998
 31
-1.948818897599998
 11
0.1154560289499997
 21
-0.3900725257500026
 31
-1.948818897599998
 11
0.1166502920499965
 21
-0.3918392483500019
 31
-1.948818897599998
  0
SPLINE
  5
2FC9
100
AcDbEntity
  8
0
  6
CONTINUOUS
100
AcDbSpline
210
-0.8284041953558112
220
-0.5601307785837976
230
0.0
 70
    24
 71
     3
 72
    10
 73
     6
 74
     4
 42
0.0000001
 43
0.0000001
 44
0.0000000001
 40
0.0
 40
0.0
 40
0.0
 40
0.0
 40
0.0004247840523449
 40
0.0025484205836768
 40
0.0046632317010582
 40
0.0046632317010582
 40
0.0046632317010582
 40
0.0046632317010582
 10
0.115693961449999
 20
-0.4216857789500024
 30
-1.948818897599998
 10
0.115614660646611
 20
-0.4215684740602971
 30
-1.948818897599998
 10
0.1151389087944865
 20
-0.4208647230747299
 30
-1.948818897599998
 10
0.1142682882753656
 20
-0.4195770072154432
 30
-1.948818897599998
 10
0.113476841334153
 20
-0.4184066822774025
 30
-1.948818897599999
 10
0.1130819418499982
 20
-0.4178227382500018
 30
-1.948818897599998
 11
0.115693961449999
 21
-0.4216857789500024
 31
-1.948818897599998
 11
0.1154560580500004
 21
-0.421333864950003
 31
-1.948818897599998
 11
0.1142666071500002
 21
-0.4195745927500019
 31
-1.948818897599998
 11
0.1130819418499982
 21
-0.4178227382500018
 31
-1.948818897599998
  0
SPLINE
  5
2FCA
100
AcDbEntity
  8
0
  6
CONTINUOUS
100
AcDbSpline
210
-0.8283964814545138
220
0.5601421868720314
230
0.0
 70
    24
 71
     3
 72
     9
 73
     5
 74
     3
 42
0.0000001
 43
0.0000001
 44
0.0000000001
 40
0.0
 40
0.0
 40
0.0
 40
0.0
 40
0.0021147591961939
 40
0.0040067619519159
 40
0.0040067619519159
 40
0.0040067619519159
 40
0.0040067619519159
 10
-0.1130819418499982
 20
-0.4178227382500018
 30
-1.948818897599998
 10
-0.1134768336906853
 20
-0.4184066665538301
 30
-1.948818897599998
 10
-0.1142250217610978
 20
-0.4195130155483807
 30
-1.948818897599998
 10
-0.1149730686748094
 20
-0.4206194599892812
 30
-1.948818897599998
 10
-0.1153262982499967
 20
-0.4211419257500025
 30
-1.948818897599998
 11
-0.1130819418499982
 21
-0.4178227382500018
 31
-1.948818897599998
 11
-0.1142665780499996
 21
-0.4195745497500019
 31
-1.948818897599998
 11
-0.1153262982499967
 21
-0.4211419257500025
 31
-1.948818897599998
  0
LINE
  5
2FCB
100
AcDbEntity
  8
0
  6
CONTINUOUS
100
AcDbLine
 10
-0.015748
 20
-0.482299
 30
-1.948819
 11
0.015748
 21
-0.482299
 31
-1.948819
210
-0.0000000000000001
220
0.0
230
-1.0
  0
LINE
  5
2FCC
100
AcDbEntity
  8
0
  6
CONTINUOUS
100
AcDbLine
 10
0.113082
 20
-0.417823
 30
-1.948819
 11
0.015748
 21
-0.417823
 31
-1.948819
210
-0.0000000000000001
220
0.0
230
-1.0
  0
LINE
  5
2FCD
100
AcDbEntity
  8
0
  6
CONTINUOUS
100
AcDbLine
 10
-0.113082
 20
-0.417823
 30
-1.948819
 11
-0.015748
 21
-0.417823
 31
-1.948819
210
-0.0000000000000001
220
0.0
230
-1.0
  0
LINE
  5
2FCE
100
AcDbEntity
  8
0
  6
CONTINUOUS
100
AcDbLine
 10
-0.015748
 20
-0.391839
 30
-1.948819
 11
-0.11665
 21
-0.391839
 31
-1.948819
210
-0.0000000000000001
220
0.0
230
-1.0
  0
LINE
  5
2FCF
100
AcDbEntity
  8
0
  6
CONTINUOUS
100
AcDbLine
 10
0.11665
 20
-0.391839
 30
-1.948819
 11
0.015748
 21
-0.391839
 31
-1.948819
210
-0.0000000000000001
220
0.0
230
-1.0
  0
LINE
  5
2FD0
100
AcDbEntity
  8
0
  6
CONTINUOUS
100
AcDbLine
 10
0.113082
 20
-0.386561
 30
-1.948819
 11
0.015748
 21
-0.386561
 31
-1.948819
210
-0.0000000000000001
220
0.0
230
-1.0
  0
LINE
  5
2FD1
100
AcDbEntity
  8
0
  6
CONTINUOUS
100
AcDbLine
 10
-0.113082
 20
-0.386561
 30
-1.948819
 11
-0.015748
 21
-0.386561
 31
-1.948819
210
-0.0000000000000001
220
0.0
230
-1.0
  0
LWPOLYLINE
  5
2FD2
100
AcDbEntity
  8
0
  6
CONTINUOUS
100
AcDbPolyline
 90
        3
 70
     0
 43
0.0
 38
1.948819
 10
0.109253
 20
-0.434823
 10
0.109675
 20
-0.433687
 10
0.113082
 20
-0.417823
210
-0.0000000000000001
220
0.0
230
-1.0
  0
LINE
  5
2FD3
100
AcDbEntity
  8
0
  6
CONTINUOUS
100
AcDbLine
 10
0.015748
 20
-0.327363
 30
-1.948819
 11
-0.015748
 21
-0.327363
 31
-1.948819
210
-0.0000000000000001
220
0.0
230
-1.0
  0
LINE
  5
2FD4
100
AcDbEntity
  8
0
  6
CONTINUOUS
100
AcDbLine
 10
0.015748
 20
-0.322085
 30
-1.948819
 11
-0.015748
 21
-0.322085
 31
-1.948819
210
-0.0000000000000001
220
0.0
230
-1.0
  0
LWPOLYLINE
  5
2FD5
100
AcDbEntity
  8
0
  6
CONTINUOUS
100
AcDbPolyline
 90
        8
 70
     0
 43
0.0
 38
1.948819
 10
0.0
 20
-0.264672
 10
-0.024578
 20
-0.267075
 10
-0.048212
 20
-0.274191
 10
-0.069993
 20
-0.285746
 10
-0.089084
 20
-0.301297
 10
-0.104752
 20
-0.320246
 10
-0.116394
 20
-0.341865
 10
-0.123563
 20
-0.365322
210
-0.0000000000000001
220
0.0
230
-1.0
  0
LINE
  5
2FD6
100
AcDbEntity
  8
0
  6
CONTINUOUS
100
AcDbLine
 10
0.058152
 20
-0.264672
 30
-1.948819
 11
-0.058174
 21
-0.264672
 31
-1.948819
210
-0.0000000000000001
220
0.0
230
-1.0
  0
LWPOLYLINE
  5
2FD7
100
AcDbEntity
  8
0
  6
CONTINUOUS
100
AcDbPolyline
 90
        7
 70
     0
 43
0.0
 38
1.948819
 10
0.0
 20
-0.26947
 10
0.026191
 20
-0.272202
 10
0.051239
 20
-0.280279
 10
0.074049
 20
-0.293349
 10
0.093622
 20
-0.310841
 10
0.109104
 20
-0.33199
 10
0.119818
 20
-0.355872
210
-0.0000000000000001
220
0.0
230
-1.0
  0
LINE
  5
2FD8
100
AcDbEntity
  8
0
  6
CONTINUOUS
100
AcDbLine
 10
-0.026194
 20
-0.267405
 30
-1.948819
 11
0.0
 21
-0.264672
 31
-1.948819
210
-0.0000000000000001
220
0.0
230
-1.0
  0
LWPOLYLINE
  5
2FD9
100
AcDbEntity
  8
0
  6
CONTINUOUS
100
AcDbPolyline
 90
        3
 70
     0
 43
0.0
 38
1.948819
 10
0.117045
 20
-0.41727
 10
0.117709
 20
-0.40747
 10
0.11665
 20
-0.391839
210
-0.0000000000000001
220
0.0
230
-1.0
  0
LINE
  5
2FDA
100
AcDbEntity
  8
0
  6
CONTINUOUS
100
AcDbLine
 10
0.085285
 20
-0.32685
 30
-1.948819
 11
0.091167
 21
-0.33341
 31
-1.948819
210
-0.0000000000000001
220
0.0
230
-1.0
  0
LWPOLYLINE
  5
2FDB
100
AcDbEntity
  8
0
  6
CONTINUOUS
100
AcDbPolyline
 90
        7
 70
     0
 43
0.0
 38
1.948819
 10
-0.085288
 20
-0.326854
 10
-0.074962
 20
-0.316717
 10
-0.061903
 20
-0.306972
 10
-0.047575
 20
-0.299177
 10
-0.032271
 20
-0.293491
 10
-0.016306
 20
-0.290031
 10
0.0
 20
-0.28887
210
-0.0000000000000001
220
0.0
230
-1.0
  0
LINE
  5
2FDC
100
AcDbEntity
  8
0
  6
CONTINUOUS
100
AcDbLine
 10
-0.125511
 20
-0.380781
 30
-1.948819
 11
-0.125294
 21
-0.376646
 31
-1.948819
210
-0.0000000000000001
220
0.0
230
-1.0
  0
LWPOLYLINE
  5
2FDD
100
AcDbEntity
  8
0
  6
CONTINUOUS
100
AcDbPolyline
 90
        6
 70
     0
 43
0.0
 38
1.948819
 10
0.113082
 20
-0.386561
 10
0.109675
 20
-0.370697
 10
0.104022
 20
-0.35548
 10
0.09624
 20
-0.341221
 10
0.086486
 20
-0.328211
 10
0.085288
 20
-0.326854
210
-0.0000000000000001
220
0.0
230
-1.0
  0
LWPOLYLINE
  5
2FDE
100
AcDbEntity
  8
0
  6
CONTINUOUS
100
AcDbPolyline
 90
        7
 70
     0
 43
0.0
 38
1.948819
 10
0.125294
 20
-0.376646
 10
0.119818
 20
-0.351076
 10
0.109106
 20
-0.327195
 10
0.093625
 20
-0.306046
 10
0.074052
 20
-0.288554
 10
0.051242
 20
-0.275483
 10
0.026194
 20
-0.267405
210
-0.0000000000000001
220
0.0
230
-1.0
  0
LWPOLYLINE
  5
2FDF
100
AcDbEntity
  8
0
  6
CONTINUOUS
100
AcDbPolyline
 90
        3
 70
     0
 43
0.0
 38
1.948819
 10
0.119818
 20
-0.355872
 10
0.125294
 20
-0.381444
 10
0.125386
 20
-0.383193
210
-0.0000000000000001
220
0.0
230
-1.0
  0
LWPOLYLINE
  5
2FE0
100
AcDbEntity
  8
0
  6
CONTINUOUS
100
AcDbPolyline
 90
        6
 70
     0
 43
0.0
 38
1.948819
 10
0.121449
 20
-0.403199
 10
0.118987
 20
-0.386992
 10
0.113611
 20
-0.369691
 10
0.105696
 20
-0.353378
 10
0.09542
 20
-0.338419
 10
0.091169
 20
-0.333414
210
-0.0000000000000001
220
0.0
230
-1.0
  0
LINE
  5
2FE1
100
AcDbEntity
  8
0
  6
CONTINUOUS
100
AcDbLine
 10
-0.066929
 20
-0.310723
 30
-1.948819
 11
-0.066929
 21
-0.28927
 31
-1.948819
210
-0.0000000000000001
220
0.0
230
-1.0
  0
LINE
  5
2FE2
100
AcDbEntity
  8
0
  6
CONTINUOUS
100
AcDbLine
 10
-0.015748
 20
-0.417823
 30
-1.948819
 11
-0.015748
 21
-0.482299
 31
-1.948819
210
-0.0000000000000001
220
0.0
230
-1.0
  0
LINE
  5
2FE3
100
AcDbEntity
  8
0
  6
CONTINUOUS
100
AcDbLine
 10
-0.015748
 20
-0.322085
 30
-1.948819
 11
-0.015748
 21
-0.391839
 31
-1.948819
210
-0.0000000000000001
220
0.0
230
-1.0
  0
LWPOLYLINE
  5
2FE4
100
AcDbEntity
  8
0
  6
CONTINUOUS
100
AcDbPolyline
 90
        6
 70
     0
 43
0.0
 38
1.948819
 10
-0.113082
 20
-0.386561
 10
-0.109675
 20
-0.370697
 10
-0.104022
 20
-0.35548
 10
-0.09624
 20
-0.341221
 10
-0.086486
 20
-0.328211
 10
-0.085288
 20
-0.326854
210
-0.0000000000000001
220
0.0
230
-1.0
  0
LWPOLYLINE
  5
2FE5
100
AcDbEntity
  8
0
  6
CONTINUOUS
100
AcDbPolyline
 90
        8
 70
     0
 43
0.0
 38
1.948819
 10
-0.123564
 20
-0.370122
 10
-0.116395
 20
-0.346665
 10
-0.104753
 20
-0.325045
 10
-0.089084
 20
-0.306095
 10
-0.069992
 20
-0.290543
 10
-0.04821
 20
-0.278988
 10
-0.024576
 20
-0.271872
 10
0.0
 20
-0.26947
210
-0.0000000000000001
220
0.0
230
-1.0
  0
LINE
  5
2FE6
100
AcDbEntity
  8
0
  6
CONTINUOUS
100
AcDbLine
 10
0.015748
 20
-0.322085
 30
-1.948819
 11
0.015748
 21
-0.391839
 31
-1.948819
210
-0.0000000000000001
220
0.0
230
-1.0
  0
LINE
  5
2FE7
100
AcDbEntity
  8
0
  6
CONTINUOUS
100
AcDbLine
 10
0.015748
 20
-0.482299
 30
-1.948819
 11
0.015748
 21
-0.417823
 31
-1.948819
210
-0.0000000000000001
220
0.0
230
-1.0
  0
LWPOLYLINE
  5
2FE8
100
AcDbEntity
  8
0
  6
CONTINUOUS
100
AcDbPolyline
 90
        6
 70
     0
 43
0.0
 38
1.948819
 10
-0.121484
 20
-0.403432
 10
-0.118987
 20
-0.386992
 10
-0.113611
 20
-0.369691
 10
-0.105696
 20
-0.353378
 10
-0.09542
 20
-0.338419
 10
-0.091169
 20
-0.333414
210
-0.0000000000000001
220
0.0
230
-1.0
  0
LWPOLYLINE
  5
2FE9
100
AcDbEntity
  8
0
  6
CONTINUOUS
100
AcDbPolyline
 90
        7
 70
     0
 43
0.0
 38
1.948819
 10
0.085288
 20
-0.326854
 10
0.074962
 20
-0.316717
 10
0.061903
 20
-0.306972
 10
0.047575
 20
-0.299177
 10
0.032271
 20
-0.293491
 10
0.016306
 20
-0.290031
 10
0.0
 20
-0.28887
210
-0.0000000000000001
220
0.0
230
-1.0
  0
LINE
  5
2FEA
100
AcDbEntity
  8
0
  6
CONTINUOUS
100
AcDbLine
 10
-0.085285
 20
-0.32685
 30
-1.948819
 11
-0.091167
 21
-0.33341
 31
-1.948819
210
-0.0000000000000001
220
0.0
230
-1.0
  0
LINE
  5
2FEB
100
AcDbEntity
  8
0
  6
CONTINUOUS
100
AcDbLine
 10
0.066929
 20
-0.310723
 30
-1.948819
 11
0.066929
 21
-0.288918
 31
-1.948819
210
-0.0000000000000001
220
0.0
230
-1.0
  0
LWPOLYLINE
  5
2FEC
100
AcDbEntity
  8
0
  6
CONTINUOUS
100
AcDbPolyline
 90
        3
 70
     0
 43
0.0
 38
1.948819
 10
-0.11665
 20
-0.391839
 10
-0.117709
 20
-0.40747
 10
-0.116972
 20
-0.418351
210
-0.0000000000000001
220
0.0
230
-1.0
  0
LINE
  5
2FED
100
AcDbEntity
  8
0
  6
CONTINUOUS
100
AcDbLine
 10
0.124861
 20
-0.383195
 30
-1.948819
 11
0.123564
 21
-0.370122
 31
-1.948819
210
-0.0000000000000001
220
0.0
230
-1.0
  0
LINE
  5
2FEE
100
AcDbEntity
  8
0
  6
CONTINUOUS
100
AcDbLine
 10
0.123563
 20
-0.365322
 30
-1.948819
 11
0.125098
 21
-0.380784
 31
-1.948819
210
-0.0000000000000001
220
0.0
230
-1.0
  0
LINE
  5
2FEF
100
AcDbEntity
  8
0
  6
CONTINUOUS
100
AcDbLine
 10
0.109929
 20
-0.432503
 30
-1.948819
 11
0.113082
 21
-0.417823
 31
-1.948819
210
-0.0000000000000001
220
0.0
230
-1.0
  0
LINE
  5
2FF0
100
AcDbEntity
  8
0
  6
CONTINUOUS
100
AcDbLine
 10
-0.145669
 20
-0.649606
 30
-0.603401
 11
0.139764
 21
-0.649606
 31
-0.603401
210
0.0
220
-1.0
230
-0.0000000000000003
  0
LINE
  5
2FF1
100
AcDbEntity
  8
0
  6
CONTINUOUS
100
AcDbLine
 10
0.139764
 20
-0.649606
 30
-0.75827
 11
0.139764
 21
-0.649606
 31
-0.603401
210
0.0
220
-1.0
230
-0.0000000000000003
  0
LINE
  5
2FF2
100
AcDbEntity
  8
0
  6
CONTINUOUS
100
AcDbLine
 10
0.137795
 20
-0.649606
 30
-0.736643
 11
0.137795
 21
-0.649606
 31
-0.603401
210
0.0
220
-1.0
230
-0.0000000000000003
  0
LINE
  5
2FF3
100
AcDbEntity
  8
0
  6
CONTINUOUS
100
AcDbLine
 10
0.135827
 20
-0.649606
 30
-0.636004
 11
0.135827
 21
-0.649606
 31
-0.603401
210
0.0
220
-1.0
230
-0.0000000000000003
  0
SPLINE
  5
2FF4
100
AcDbEntity
  8
0
  6
CONTINUOUS
100
AcDbSpline
210
0.0
220
-1.0
230
0.0
 70
     8
 71
     3
 72
    11
 73
     7
 74
     5
 42
0.0000001
 43
0.0000001
 44
0.0000000001
 40
0.0
 40
0.0
 40
0.0
 40
0.0
 40
0.0017421539759577
 40
0.0042702266397837
 40
0.0075825162797739
 40
0.0112735747934283
 40
0.0112735747934283
 40
0.0112735747934283
 40
0.0112735747934283
 10
-0.1358267717499988
 20
-0.6496062991499994
 30
-0.7542914242999999
 10
-0.1360389340418115
 20
-0.6496062991499993
 30
-0.7548525149229083
 10
-0.1365589690576361
 20
-0.6496062991499993
 30
-0.7562278147863772
 10
-0.1390596812928193
 20
-0.6496062991499994
 30
-0.7573079463177609
 10
-0.142080272827368
 20
-0.6496062991499994
 30
-0.7581257537121507
 10
-0.1444305805841368
 20
-0.6496062991499994
 30
-0.7582189447895612
 10
-0.1456692914499982
 20
-0.6496062991499994
 30
-0.758268060399999
 11
-0.1358267717499988
 21
-0.6496062991499994
 31
-0.7542914242999999
 11
-0.1366111093499978
 21
-0.6496062991499994
 31
-0.7558470318999984
 11
-0.1387869400499984
 21
-0.6496062991499994
 31
-0.7571342428999977
 11
-0.1419895151499979
 21
-0.6496062991499994
 31
-0.7579796867999989
 11
-0.1456692914499982
 21
-0.6496062991499994
 31
-0.758268060399999
  0
SPLINE
  5
2FF5
100
AcDbEntity
  8
0
  6
CONTINUOUS
100
AcDbSpline
210
0.0000000000000264
220
1.0
230
0.0000000000000338
 70
     8
 71
     3
 72
    12
 73
     8
 74
     6
 42
0.0000001
 43
0.0000001
 44
0.0000000001
 40
0.0
 40
0.0
 40
0.0
 40
0.0
 40
0.00286652083088
 40
0.0057585591224
 40
0.0085174697188948
 40
0.0111511414407517
 40
0.0137632322264551
 40
0.0137632322264551
 40
0.0137632322264551
 40
0.0137632322264551
 10
-0.1456692914499982
 20
-0.6496062991499994
 30
-0.6034009142999999
 10
-0.1447120301600085
 20
-0.6496062991499993
 30
-0.6034636990948396
 10
-0.142788986142813
 20
-0.6496062991499993
 30
-0.6035898275880209
 10
-0.1400890121013322
 20
-0.6496062991499994
 30
-0.6046151126149524
 10
-0.1378338427255678
 20
-0.6496062991499995
 30
-0.606240490979377
 10
-0.1361728654198664
 20
-0.6496062991499994
 30
-0.6084552965048927
 10
-0.1359418194675257
 20
-0.6496062991499994
 30
-0.6102146671706468
 10
-0.1358267717499988
 20
-0.6496062991499994
 30
-0.6110907334999994
 11
-0.1456692914499982
 21
-0.6496062991499994
 31
-0.6034009142999999
 11
-0.1428216977499979
 21
-0.6496062991499994
 31
-0.6037297787
 11
-0.1401130912499973
 21
-0.6496062991499994
 31
-0.6047433546999983
 11
-0.1378910897499974
 21
-0.6496062991499994
 31
-0.6063786824999973
 11
-0.1363845184499972
 21
-0.6496062991499994
 31
-0.6085388837999979
 11
-0.1358267717499988
 21
-0.6496062991499994
 31
-0.6110907334999994
  0
SPLINE
  5
2FF6
100
AcDbEntity
  8
0
  6
CONTINUOUS
100
AcDbSpline
210
0.0
220
1.0
230
0.0
 70
     8
 71
     3
 72
    15
 73
    11
 74
     9
 42
0.0000001
 43
0.0000001
 44
0.0000000001
 40
0.0
 40
0.0
 40
0.0
 40
0.0
 40
0.0011750321790095
 40
0.0041030807847649
 40
0.0089120386113145
 40
0.0158516037426912
 40
0.0252670665903492
 40
0.0375538140252554
 40
0.0521661843960742
 40
0.0675666743504242
 40
0.0675666743504242
 40
0.0675666743504242
 40
0.0675666743504242
 10
0.0671193518500015
 20
-0.6496062991499994
 30
-0.6506000135999983
 10
0.0667505463576537
 20
-0.6496062991499994
 30
-0.650467754958916
 10
0.0654627188785428
 20
-0.6496062991499993
 30
-0.650005922595055
 10
0.0625725484506786
 20
-0.6496062991499995
 30
-0.6492961753910445
 10
0.057775914509249
 20
-0.6496062991499993
 30
-0.6483368430689616
 10
0.050793309443274
 20
-0.6496062991499994
 30
-0.6473056956466431
 10
0.0413014617756658
 20
-0.6496062991499994
 30
-0.6462656893458413
 10
0.0292272926089171
 20
-0.6496062991499994
 30
-0.6453736447403669
 10
0.0151383492579724
 20
-0.6496062991499994
 30
-0.6447465274939799
 10
0.0051336885021105
 20
-0.6496062991499994
 30
-0.6446663483830007
 10
-0.0000000000499973
 20
-0.6496062991499994
 30
-0.6446252060999989
 11
0.0671193518500015
 21
-0.6496062991499994
 31
-0.6506000135999983
 11
0.0660094252500017
 21
-0.6496062991499994
 31
-0.6502143147999995
 11
0.0631797308500026
 21
-0.6496062991499994
 31
-0.6494617868999982
 11
0.0584661307500021
 21
-0.6496062991499994
 31
-0.6485088705999971
 11
0.0516058503500023
 21
-0.6496062991499994
 31
-0.6474628700999983
 11
0.0422485514500028
 21
-0.6496062991499994
 31
-0.6464179308999985
 11
0.0299972412500012
 21
-0.6496062991499994
 31
-0.6454854283999972
 11
0.0153989259500023
 21
-0.6496062991499994
 31
-0.6448446801999986
 11
-0.0000000000499973
 21
-0.6496062991499994
 31
-0.6446252060999989
  0
SPLINE
  5
2FF7
100
AcDbEntity
  8
0
  6
CONTINUOUS
100
AcDbSpline
210
0.0
220
1.0
230
0.0
 70
     8
 71
     3
 72
    17
 73
    13
 74
    11
 42
0.0000001
 43
0.0000001
 44
0.0000000001
 40
0.0
 40
0.0
 40
0.0
 40
0.0
 40
0.0150224405631833
 40
0.0292687077378026
 40
0.0411305740624805
 40
0.0503655538405461
 40
0.0573234080060807
 40
0.0623183197076961
 40
0.0655934732211019
 40
0.0672990976317323
 40
0.0674982699122297
 40
0.0675503774483547
 40
0.0675503774483547
 40
0.0675503774483547
 40
0.0675503774483547
 10
-0.0000000000499973
 20
-0.6496062991499994
 30
-0.6446252060999989
 10
-0.0050076426151155
 20
-0.6496062991499994
 30
-0.6446644144996263
 10
-0.0147641948928478
 20
-0.6496062991499994
 30
-0.6447408054951327
 10
-0.0284644970103285
 20
-0.6496062991499993
 30
-0.6453341045637402
 10
-0.0402169048549137
 20
-0.6496062991499994
 30
-0.6461758290483584
 10
-0.0495199726045961
 20
-0.6496062991499994
 30
-0.6471478370800767
 10
-0.0565138905284536
 20
-0.6496062991499996
 30
-0.6481389274170566
 10
-0.0615099917754805
 20
-0.649606299149999
 30
-0.6490505435452699
 10
-0.0647421788450878
 20
-0.6496062991499998
 30
-0.649836252646762
 10
-0.0664027498000306
 20
-0.6496062991499989
 30
-0.6503129773888668
 10
-0.0670093470076124
 20
-0.6496062991499996
 30
-0.6505588824977837
 10
-0.0670910985496649
 20
-0.6496062991499994
 30
-0.6505773675758099
 10
-0.0671080512499973
 20
-0.6496062991499994
 30
-0.6505812007999979
 11
-0.0000000000499973
 21
-0.6496062991499994
 31
-0.6446252060999989
 11
-0.0150209905499974
 21
-0.6496062991499994
 31
-0.6448339280999989
 11
-0.0292542959499986
 21
-0.6496062991499994
 31
-0.6454415017999971
 11
-0.0410842787499988
 21
-0.6496062991499994
 31
-0.6463106275999984
 11
-0.0502671144499978
 21
-0.6496062991499994
 31
-0.6472906173999995
 11
-0.0571537251499983
 21
-0.6496062991499994
 31
-0.6482837576999998
 11
-0.062061910049998
 21
-0.6496062991499994
 31
-0.6492105067999994
 11
-0.0652433299499986
 21
-0.6496062991499994
 31
-0.649988451499997
 11
-0.066869496049998
 21
-0.6496062991499994
 31
-0.650502978899997
 11
-0.0670573591499988
 21
-0.6496062991499994
 31
-0.6505691381999981
 11
-0.0671080512499973
 21
-0.6496062991499994
 31
-0.6505812007999979
  0
LWPOLYLINE
  5
2FF8
100
AcDbEntity
  8
0
  6
CONTINUOUS
100
AcDbPolyline
 90
        3
 70
     0
 43
0.0
 38
0.649606
 10
0.06428
 20
-0.649063
 10
0.072015
 20
-0.650961
 10
0.074431
 20
-0.652001
210
0.0
220
-1.0
230
-0.0000000000000003
  0
LWPOLYLINE
  5
2FF9
100
AcDbEntity
  8
0
  6
CONTINUOUS
100
AcDbPolyline
 90
        8
 70
     0
 43
0.0
 38
0.649606
 10
0.0
 20
-0.644434
 10
0.007483
 20
-0.644483
 10
0.015776
 20
-0.644656
 10
0.024855
 20
-0.644994
 10
0.034599
 20
-0.645548
 10
0.044743
 20
-0.646375
 10
0.054853
 20
-0.64753
 10
0.06428
 20
-0.649063
210
0.0
220
-1.0
230
-0.0000000000000003
  0
LINE
  5
2FFA
100
AcDbEntity
  8
0
  6
CONTINUOUS
100
AcDbLine
 10
-0.135827
 20
-0.649606
 30
-0.633861
 11
0.135827
 21
-0.649606
 31
-0.633861
210
0.0
220
-1.0
230
-0.0000000000000003
  0
LINE
  5
2FFB
100
AcDbEntity
  8
0
  6
CONTINUOUS
100
AcDbLine
 10
0.118779
 20
-0.649606
 30
-0.637374
 11
-0.135827
 21
-0.649606
 31
-0.637374
210
0.0
220
-1.0
230
-0.0000000000000003
  0
LINE
  5
2FFC
100
AcDbEntity
  8
0
  6
CONTINUOUS
100
AcDbLine
 10
0.07874
 20
-0.649606
 30
-0.64005
 11
0.117876
 21
-0.649606
 31
-0.64005
210
0.0
220
-1.0
230
-0.0000000000000003
  0
LINE
  5
2FFD
100
AcDbEntity
  8
0
  6
CONTINUOUS
100
AcDbLine
 10
-0.117876
 20
-0.649606
 30
-0.64005
 11
-0.07874
 21
-0.649606
 31
-0.64005
210
0.0
220
-1.0
230
-0.0000000000000003
  0
LINE
  5
2FFE
100
AcDbEntity
  8
0
  6
CONTINUOUS
100
AcDbLine
 10
-0.066929
 20
-0.649606
 30
-0.654064
 11
0.066929
 21
-0.649606
 31
-0.654064
210
0.0
220
-1.0
230
-0.0000000000000003
  0
LINE
  5
2FFF
100
AcDbEntity
  8
0
  6
CONTINUOUS
100
AcDbLine
 10
0.118779
 20
-0.649606
 30
-0.637374
 11
0.135827
 21
-0.649606
 31
-0.636004
210
0.0
220
-1.0
230
-0.0000000000000003
  0
LWPOLYLINE
  5
3000
100
AcDbEntity
  8
0
  6
CONTINUOUS
100
AcDbPolyline
 90
        9
 70
     0
 43
0.0
 38
0.649606
 10
-0.066421
 20
-0.649507
 10
-0.058186
 20
-0.648009
 10
-0.049138
 20
-0.646829
 10
-0.039873
 20
-0.645943
 10
-0.030784
 20
-0.645306
 10
-0.02214
 20
-0.644876
 10
-0.014094
 20
-0.644611
 10
-0.006712
 20
-0.644474
 10
0.0
 20
-0.644434
210
0.0
220
-1.0
230
-0.0000000000000003
  0
LINE
  5
3001
100
AcDbEntity
  8
0
  6
CONTINUOUS
100
AcDbLine
 10
-0.073045
 20
-0.649606
 30
-0.6513
 11
-0.066421
 21
-0.649606
 31
-0.649507
210
0.0
220
-1.0
230
-0.0000000000000003
  0
LINE
  5
3002
100
AcDbEntity
  8
0
  6
CONTINUOUS
100
AcDbLine
 10
-0.127606
 20
-0.649606
 30
-0.637374
 11
-0.066929
 21
-0.649606
 31
-0.654064
210
0.0
220
-1.0
230
-0.0000000000000003
  0
LWPOLYLINE
  5
3003
100
AcDbEntity
  8
0
  6
CONTINUOUS
100
AcDbPolyline
 90
       12
 70
     0
 43
0.0
 38
0.649606
 10
0.0
 20
-0.724178
 10
0.01819
 20
-0.724367
 10
0.035974
 20
-0.724932
 10
0.052954
 20
-0.72586
 10
0.068752
 20
-0.727129
 10
0.083013
 20
-0.728712
 10
0.09542
 20
-0.730573
 10
0.105696
 20
-0.732671
 10
0.113611
 20
-0.734958
 10
0.118987
 20
-0.737384
 10
0.121706
 20
-0.739894
 10
0.122038
 20
-0.741359
210
0.0
220
-1.0
230
-0.0000000000000003
  0
LINE
  5
3004
100
AcDbEntity
  8
0
  6
CONTINUOUS
100
AcDbLine
 10
0.066929
 20
-0.649606
 30
-0.714494
 11
-0.066929
 21
-0.649606
 31
-0.714494
210
0.0
220
-1.0
230
-0.0000000000000003
  0
LWPOLYLINE
  5
3005
100
AcDbEntity
  8
0
  6
CONTINUOUS
100
AcDbPolyline
 90
       12
 70
     0
 43
0.0
 38
0.649606
 10
0.0
 20
-0.724178
 10
-0.01819
 20
-0.724367
 10
-0.035974
 20
-0.724932
 10
-0.052954
 20
-0.72586
 10
-0.068752
 20
-0.727129
 10
-0.083013
 20
-0.728712
 10
-0.09542
 20
-0.730573
 10
-0.105696
 20
-0.732671
 10
-0.113611
 20
-0.734958
 10
-0.118987
 20
-0.737384
 10
-0.121706
 20
-0.739894
 10
-0.122038
 20
-0.741359
210
0.0
220
-1.0
230
-0.0000000000000003
  0
LINE
  5
3006
100
AcDbEntity
  8
0
  6
CONTINUOUS
100
AcDbLine
 10
0.135827
 20
-0.649606
 30
-0.635112
 11
0.137795
 21
-0.649606
 31
-0.634571
210
0.0
220
-1.0
230
-0.0000000000000003
  0
LINE
  5
3007
100
AcDbEntity
  8
0
  6
CONTINUOUS
100
AcDbLine
 10
0.066929
 20
-0.649606
 30
-0.654064
 11
0.131248
 21
-0.649606
 31
-0.636372
210
0.0
220
-1.0
230
-0.0000000000000003
  0
LINE
  5
3008
100
AcDbEntity
  8
0
  6
CONTINUOUS
100
AcDbLine
 10
-0.066929
 20
-0.649606
 30
-0.714494
 11
-0.135827
 21
-0.649606
 31
-0.695542
210
0.0
220
-1.0
230
-0.0000000000000003
  0
LINE
  5
3009
100
AcDbEntity
  8
0
  6
CONTINUOUS
100
AcDbLine
 10
-0.121942
 20
-0.649606
 30
-0.741004
 11
-0.135827
 21
-0.649606
 31
-0.737185
210
0.0
220
-1.0
230
-0.0000000000000003
  0
LINE
  5
300A
100
AcDbEntity
  8
0
  6
CONTINUOUS
100
AcDbLine
 10
-0.135827
 20
-0.649606
 30
-0.750392
 11
0.139764
 21
-0.649606
 31
-0.750394
210
0.0
220
-1.0
230
-0.0000000000000003
  0
LINE
  5
300B
100
AcDbEntity
  8
0
  6
CONTINUOUS
100
AcDbLine
 10
0.139764
 20
-0.649606
 30
-0.75827
 11
-0.145669
 21
-0.649606
 31
-0.758268
210
0.0
220
-1.0
230
-0.0000000000000003
  0
LINE
  5
300C
100
AcDbEntity
  8
0
  6
CONTINUOUS
100
AcDbLine
 10
0.137795
 20
-0.649606
 30
-0.695001
 11
0.066929
 21
-0.649606
 31
-0.714494
210
0.0
220
-1.0
230
-0.0000000000000003
  0
LINE
  5
300D
100
AcDbEntity
  8
0
  6
CONTINUOUS
100
AcDbLine
 10
0.137795
 20
-0.649606
 30
-0.736643
 11
0.12194
 21
-0.649606
 31
-0.741004
210
0.0
220
-1.0
230
-0.0000000000000003
  0
LINE
  5
300E
100
AcDbEntity
  8
0
  6
CONTINUOUS
100
AcDbLine
 10
0.121294
 20
-0.649606
 30
-0.750394
 11
0.122039
 21
-0.649606
 31
-0.741358
210
0.0
220
-1.0
230
-0.0000000000000003
  0
LINE
  5
300F
100
AcDbEntity
  8
0
  6
CONTINUOUS
100
AcDbLine
 10
0.07874
 20
-0.649606
 30
-0.64005
 11
0.07874
 21
-0.649606
 31
-0.650816
210
0.0
220
-1.0
230
-0.0000000000000003
  0
LINE
  5
3010
100
AcDbEntity
  8
0
  6
CONTINUOUS
100
AcDbLine
 10
0.066929
 20
-0.649606
 30
-0.654064
 11
0.066929
 21
-0.649606
 31
-0.6506
210
0.0
220
-1.0
230
-0.0000000000000003
  0
LINE
  5
3011
100
AcDbEntity
  8
0
  6
CONTINUOUS
100
AcDbLine
 10
0.066929
 20
-0.649606
 30
-0.714494
 11
0.066929
 21
-0.649606
 31
-0.726983
210
0.0
220
-1.0
230
-0.0000000000000003
  0
LINE
  5
3012
100
AcDbEntity
  8
0
  6
CONTINUOUS
100
AcDbLine
 10
-0.066929
 20
-0.649606
 30
-0.654064
 11
-0.066929
 21
-0.649606
 31
-0.650595
210
0.0
220
-1.0
230
-0.0000000000000003
  0
LINE
  5
3013
100
AcDbEntity
  8
0
  6
CONTINUOUS
100
AcDbLine
 10
-0.066929
 20
-0.649606
 30
-0.714494
 11
-0.066929
 21
-0.649606
 31
-0.726983
210
0.0
220
-1.0
230
-0.0000000000000003
  0
LINE
  5
3014
100
AcDbEntity
  8
0
  6
CONTINUOUS
100
AcDbLine
 10
-0.07874
 20
-0.649606
 30
-0.64005
 11
-0.07874
 21
-0.649606
 31
-0.650816
210
0.0
220
-1.0
230
-0.0000000000000003
  0
LINE
  5
3015
100
AcDbEntity
  8
0
  6
CONTINUOUS
100
AcDbLine
 10
-0.135827
 20
-0.649606
 30
-0.611091
 11
-0.135827
 21
-0.649606
 31
-0.754291
210
0.0
220
-1.0
230
-0.0000000000000003
  0
LINE
  5
3016
100
AcDbEntity
  8
0
  6
CONTINUOUS
100
AcDbLine
 10
-0.121294
 20
-0.649606
 30
-0.750392
 11
-0.122039
 21
-0.649606
 31
-0.741358
210
0.0
220
-1.0
230
-0.0000000000000003
  0
LINE
  5
3017
100
AcDbEntity
  8
0
  6
CONTINUOUS
100
AcDbLine
 10
-0.145669
 20
-0.649606
 30
-0.603401
 11
-0.145669
 21
-0.649606
 31
-0.758268
210
0.0
220
-1.0
230
-0.0000000000000003
  0
LINE
  5
3018
100
AcDbEntity
  8
0
  6
CONTINUOUS
100
AcDbLine
 10
-0.074495
 20
-0.649606
 30
-0.651983
 11
-0.073045
 21
-0.649606
 31
-0.6513
210
0.0
220
-1.0
230
-0.0000000000000003
  0
LINE
  5
3019
100
AcDbEntity
  8
0
  6
CONTINUOUS
100
AcDbLine
 10
-0.135827
 20
-0.649606
 30
-1.522567
 11
-0.135827
 21
-0.649606
 31
-1.715713
210
0.0
220
1.0
230
0.0000000000000002
  0
LINE
  5
301A
100
AcDbEntity
  8
0
  6
CONTINUOUS
100
AcDbLine
 10
0.135827
 20
-0.649606
 30
-1.522564
 11
0.135827
 21
-0.649606
 31
-1.715706
210
0.0
220
1.0
230
0.0000000000000002
  0
SPLINE
  5
301B
100
AcDbEntity
  8
0
  6
CONTINUOUS
100
AcDbSpline
210
-0.000000000000241
220
-1.0
230
-0.0000000000000035
 70
     8
 71
     3
 72
    10
 73
     6
 74
     4
 42
0.0000001
 43
0.0000001
 44
0.0000000001
 40
0.0
 40
0.0
 40
0.0
 40
0.0
 40
0.0156264877806337
 40
0.0328849646459588
 40
0.0519179692553476
 40
0.0519179692553476
 40
0.0519179692553476
 40
0.0519179692553476
 10
-0.135080991349998
 20
-0.6496062991499998
 30
-1.479224226299995
 10
-0.1350074627749606
 20
-0.6496062991499998
 30
-1.474015077355329
 10
-0.134852726494837
 20
-0.6496062991499999
 30
-1.463052749717432
 10
-0.1354912354722275
 20
-0.6496062991499998
 30
-1.445754393841229
 10
-0.135711338892444
 20
-0.6496062991499999
 30
-1.433659480142944
 10
-0.1358267717499988
 20
-0.6496062991499998
 30
-1.427316323599995
 11
-0.135080991349998
 21
-0.6496062991499998
 31
-1.479224226299995
 11
-0.1349866672499989
 21
-0.6496062991499998
 31
-1.463598023199995
 11
-0.1354182510499982
 21
-0.6496062991499998
 31
-1.446344943499996
 11
-0.1358267717499988
 21
-0.6496062991499998
 31
-1.427316323599995
  0
SPLINE
  5
301C
100
AcDbEntity
  8
0
  6
CONTINUOUS
100
AcDbSpline
210
-0.000000000004077
220
-1.0
230
0.0000000000006324
 70
     8
 71
     3
 72
     9
 73
     5
 74
     3
 42
0.0000001
 43
0.0000001
 44
0.0000000001
 40
0.0
 40
0.0
 40
0.0
 40
0.0
 40
0.0288552188887924
 40
0.0582968320585966
 40
0.0582968320585966
 40
0.0582968320585966
 40
0.0582968320585966
 10
-0.1054806151499985
 20
-0.6496062991499998
 30
-1.479195993199995
 10
-0.1069373774821154
 20
-0.6496062991499999
 30
-1.488703451130382
 10
-0.1098805063958834
 20
-0.6496062991500001
 30
-1.50791157706448
 10
-0.1128945471203086
 20
-0.6496062991499998
 30
-1.527108704075585
 10
-0.1144167262499973
 20
-0.6496062991499998
 30
-1.536803817299995
 11
-0.1054806151499985
 21
-0.6496062991499998
 31
-1.479195993199995
 11
-0.1098682752499975
 21
-0.6496062991499998
 31
-1.507715672299996
 11
-0.1144167262499973
 21
-0.6496062991499998
 31
-1.536803817299995
  0
SPLINE
  5
301D
100
AcDbEntity
  8
0
  6
CONTINUOUS
100
AcDbSpline
210
-0.0000000000006003
220
1.0
230
0.0000000000000103
 70
     8
 71
     3
 72
    10
 73
     6
 74
     4
 42
0.0000001
 43
0.0000001
 44
0.0000000001
 40
0.0
 40
0.0
 40
0.0
 40
0.0
 40
0.0141089537419971
 40
0.0285926436712573
 40
0.0434386382526806
 40
0.0434386382526806
 40
0.0434386382526806
 40
0.0434386382526806
 10
-0.1358267717499988
 20
-0.6496062991499998
 30
-1.522654989899995
 10
-0.1358071256104265
 20
-0.6496062991499998
 30
-1.517951998218476
 10
-0.1357673115265066
 20
-0.6496062991499999
 30
-1.508421102604416
 10
-0.1354982616253974
 20
-0.6496062991499998
 30
-1.493943553996961
 10
-0.1352212221823221
 20
-0.6496062991499998
 30
-1.484170908812238
 10
-0.135080991349998
 20
-0.6496062991499998
 30
-1.479224226299995
 11
-0.1358267717499988
 21
-0.6496062991499998
 31
-1.522654989899995
 11
-0.1357344063499983
 21
-0.6496062991499998
 31
-1.508546338499996
 11
-0.1354772467499981
 21
-0.6496062991499998
 31
-1.494064931699996
 11
-0.135080991349998
 21
-0.6496062991499998
 31
-1.479224226299995
  0
SPLINE
  5
301E
100
AcDbEntity
  8
0
  6
CONTINUOUS
100
AcDbSpline
210
-0.0000000000000001
220
1.0
230
0.0000000000001074
 70
     8
 71
     3
 72
    11
 73
     7
 74
     5
 42
0.0000001
 43
0.0000001
 44
0.0000000001
 40
0.0
 40
0.0
 40
0.0
 40
0.0
 40
0.0039440627553581
 40
0.0107246198429857
 40
0.0196357402074426
 40
0.0297131298140874
 40
0.0297131298140874
 40
0.0297131298140874
 40
0.0297131298140874
 10
-0.135080991349998
 20
-0.6496062991499998
 30
-1.479224226299995
 10
-0.133793710782021
 20
-0.6496062991499998
 30
-1.478945085479335
 10
-0.1302933621366907
 20
-0.6496062991499999
 30
-1.47818605111048
 10
-0.1236882027207448
 20
-0.6496062991499997
 30
-1.47828151070853
 10
-0.1151930337088483
 20
-0.6496062991499998
 30
-1.479671612047225
 10
-0.1088490944252441
 20
-0.6496062991499998
 30
-1.479360894217938
 10
-0.1054823032499978
 20
-0.6496062991499998
 30
-1.479195993199995
 11
-0.135080991349998
 21
-0.6496062991499998
 31
-1.479224226299995
 11
-0.1312046448499977
 21
-0.6496062991499998
 31
-1.478496511499995
 11
-0.1244245781499984
 21
-0.6496062991499998
 31
-1.478414964199997
 11
-0.1155589939499979
 21
-0.6496062991499998
 31
-1.479314676899996
 11
-0.1054823032499978
 21
-0.6496062991499998
 31
-1.479195993199995
  0
SPLINE
  5
301F
100
AcDbEntity
  8
0
  6
CONTINUOUS
100
AcDbSpline
210
0.0000000000005417
220
1.0
230
-0.000000000000088
 70
     8
 71
     3
 72
    16
 73
    12
 74
    10
 42
0.0000001
 43
0.0000001
 44
0.0000000001
 40
0.0
 40
0.0
 40
0.0
 40
0.0
 40
0.0046682326364353
 40
0.009333670962872
 40
0.0139803737321479
 40
0.0185933705022145
 40
0.0231567741218306
 40
0.0276548412825588
 40
0.0320718921443123
 40
0.0363932177540211
 40
0.0405993444842449
 40
0.0405993444842449
 40
0.0405993444842449
 40
0.0405993444842449
 10
-0.1054824086499977
 20
-0.6496062991499998
 30
-1.479195993199995
 10
-0.1052502791647272
 20
-0.6496062991499998
 30
-1.477657327168392
 10
-0.104786159142219
 20
-0.6496062991499998
 30
-1.474580916119671
 10
-0.1040903703933192
 20
-0.6496062991499998
 30
-1.469973026941968
 10
-0.1033910127819524
 20
-0.6496062991500001
 30
-1.465384299765322
 10
-0.1026860941382104
 20
-0.6496062991499998
 30
-1.460830832744081
 10
-0.1019730016620742
 20
-0.6496062991499997
 30
-1.45632879103806
 10
-0.1012496119905216
 20
-0.6496062991499998
 30
-1.451894541804895
 10
-0.1005120175166732
 20
-0.6496062991499998
 30
-1.447544467311848
 10
-0.0997622444439283
 20
-0.6496062991499998
 30
-1.443295183431247
 10
-0.0992340389739054
 20
-0.6496062991499997
 30
-1.440502183565433
 10
-0.0989735040499973
 20
-0.6496062991499998
 30
-1.439124549199997
 11
-0.1054824086499977
 21
-0.6496062991499998
 31
-1.479195993199995
 11
-0.1047859183499984
 21
-0.6496062991499998
 31
-1.474580010399996
 11
-0.1040883774499974
 21
-0.6496062991499998
 31
-1.469967012299996
 11
-0.1033875174499972
 21
-0.6496062991499998
 31
-1.465373468799995
 11
-0.1026808935499979
 21
-0.6496062991499998
 31
-1.460814913999996
 11
-0.1019660965499973
 21
-0.6496062991499998
 31
-1.456307839799995
 11
-0.101240600749998
 21
-0.6496062991499998
 31
-1.451868665999995
 11
-0.1005017766499971
 21
-0.6496062991499998
 31
-1.447513843699995
 11
-0.0997467694499985
 21
-0.6496062991499998
 31
-1.443258985399996
 11
-0.0989735040499973
 21
-0.6496062991499998
 31
-1.439124549199997
  0
SPLINE
  5
3020
100
AcDbEntity
  8
0
  6
CONTINUOUS
100
AcDbSpline
210
0.0
220
-1.0
230
0.0
 70
     8
 71
     3
 72
    12
 73
     8
 74
     6
 42
0.0000001
 43
0.0000001
 44
0.0000000001
 40
0.0
 40
0.0
 40
0.0
 40
0.0
 40
0.0054555254341911
 40
0.0124027116490498
 40
0.0206704370665041
 40
0.0298666446921228
 40
0.0394840876173049
 40
0.0394840876173049
 40
0.0394840876173049
 40
0.0394840876173049
 10
-0.1345667990499972
 20
-0.6496062991499998
 30
-1.424407093899995
 10
-0.1334006889617951
 20
-0.6496062991499998
 30
-1.425818576242573
 10
-0.1307496286103251
 20
-0.6496062991499998
 30
-1.429027471280071
 10
-0.1246572722512999
 20
-0.6496062991499998
 30
-1.432492300724242
 10
-0.1171385818177425
 20
-0.6496062991499998
 30
-1.435569392873856
 10
-0.108378940284145
 20
-0.6496062991500001
 30
-1.437917072613345
 10
-0.1021550997999028
 20
-0.6496062991499998
 30
-1.438716093676982
 10
-0.0989735040499973
 20
-0.6496062991499998
 30
-1.439124549199997
 11
-0.1345667990499972
 21
-0.6496062991499998
 31
-1.424407093899995
 11
-0.1308741191499987
 21
-0.6496062991499998
 31
-1.428422921699995
 11
-0.1250044067499978
 21
-0.6496062991499998
 31
-1.432139085399995
 11
-0.1173640701499981
 21
-0.6496062991499998
 31
-1.435298284699996
 11
-0.1084821123499982
 21
-0.6496062991499998
 31
-1.437681782199996
 11
-0.0989735040499973
 21
-0.6496062991499998
 31
-1.439124549199997
  0
SPLINE
  5
3021
100
AcDbEntity
  8
0
  6
CONTINUOUS
100
AcDbSpline
210
0.9545962398630839
220
0.0
230
0.2979027002886372
 70
    24
 71
     3
 72
     8
 73
     4
 74
     2
 42
0.0000001
 43
0.0000001
 44
0.0000000001
 40
0.0
 40
0.0
 40
0.0
 40
0.0
 40
0.0042294772715412
 40
0.0042294772715412
 40
0.0042294772715412
 40
0.0042294772715412
 10
-0.1358267717499988
 20
-0.6496062991499998
 30
-1.420369650799996
 10
-0.1354067808499983
 20
-0.6496062991499998
 30
-1.421715465166662
 10
-0.1349867899499978
 20
-0.6496062991499999
 30
-1.423061279533329
 10
-0.1345667990499972
 20
-0.6496062991499998
 30
-1.424407093899995
 11
-0.1358267717499988
 21
-0.6496062991499998
 31
-1.420369650799996
 11
-0.1345667990499972
 21
-0.6496062991499998
 31
-1.424407093899995
  0
SPLINE
  5
3022
100
AcDbEntity
  8
0
  6
CONTINUOUS
100
AcDbSpline
210
0.0000000000000414
220
1.0
230
-0.0000000000002354
 70
     8
 71
     3
 72
    17
 73
    13
 74
    11
 42
0.0000001
 43
0.0000001
 44
0.0000000001
 40
0.0
 40
0.0
 40
0.0
 40
0.0
 40
0.0035290267139958
 40
0.0071829554180801
 40
0.0108193846288788
 40
0.0140743013534445
 40
0.0167330795620018
 40
0.0187553402525687
 40
0.0201941125139874
 40
0.0211345091658801
 40
0.0216768176036079
 40
0.0219683925347817
 40
0.0219683925347817
 40
0.0219683925347817
 40
0.0219683925347817
 10
-0.1144167359499981
 20
-0.6496062991499998
 30
-1.536803879799997
 10
-0.1155898716874282
 20
-0.6496062991499997
 30
-1.536891155673989
 10
-0.1179776636720843
 20
-0.6496062991499998
 30
-1.537068796355901
 10
-0.1215672625248657
 20
-0.6496062991499998
 30
-1.537419794900014
 10
-0.1250587060799467
 20
-0.6496062991499998
 30
-1.537831591117886
 10
-0.1282089760482791
 20
-0.6496062991499998
 30
-1.538286520578101
 10
-0.1308172370544245
 20
-0.6496062991499996
 30
-1.538744817747335
 10
-0.1328041361115888
 20
-0.6496062991499999
 30
-1.539184583678275
 10
-0.1342327522658746
 20
-0.6496062991499997
 30
-1.539574191199474
 10
-0.1351140577404903
 20
-0.6496062991500001
 30
-1.53993738912676
 10
-0.135681300961426
 20
-0.6496062991499998
 30
-1.540213801664927
 10
-0.1357890786110655
 20
-0.6496062991499997
 30
-1.540476946578959
 10
-0.1358267640499982
 20
-0.6496062991499998
 30
-1.540568957599996
 11
-0.1144167359499981
 21
-0.6496062991499998
 31
-1.536803879799997
 11
-0.1179350162499979
 21
-0.6496062991499998
 31
-1.537079076599995
 11
-0.1215718158499985
 21
-0.6496062991499998
 31
-1.537432465399996
 11
-0.1251826728499985
 21
-0.6496062991499998
 31
-1.537862964099996
 11
-0.1284034669499974
 21
-0.6496062991499998
 31
-1.538333036699995
 11
-0.131020401149998
 21
-0.6496062991499998
 31
-1.538802884499997
 11
-0.1329934729499982
 21
-0.6496062991499998
 31
-1.539246196999997
 11
-0.1343745765499982
 21
-0.6496062991499998
 31
-1.539649456799995
 11
-0.1352449059499978
 21
-0.6496062991499998
 31
-1.540005648599995
 11
-0.1356942904499974
 21
-0.6496062991499998
 31
-1.540309214099996
 11
-0.1358267640499982
 21
-0.6496062991499998
 31
-1.540568957599996
  0
SPLINE
  5
3023
100
AcDbEntity
  8
0
  6
CONTINUOUS
100
AcDbSpline
210
0.0
220
1.0
230
0.0
 70
     8
 71
     3
 72
    13
 73
     9
 74
     7
 42
0.0000001
 43
0.0000001
 44
0.0000000001
 40
0.0
 40
0.0
 40
0.0
 40
0.0
 40
0.000512559461647
 40
0.0056705515735772
 40
0.0105025224109561
 40
0.0148769602599263
 40
0.0186824381900639
 40
0.0214497914865845
 40
0.0214497914865845
 40
0.0214497914865845
 40
0.0214497914865845
 10
-0.1144167176499984
 20
-0.6496062991499998
 30
-1.546646260699995
 10
-0.1145875707010492
 20
-0.6496062991499998
 30
-1.546646372141786
 10
-0.1164777534212619
 20
-0.6496062991499999
 30
-1.546647605045422
 10
-0.119978602737419
 20
-0.6496062991499998
 30
-1.546691502871905
 10
-0.1247645505164862
 20
-0.6496062991499998
 30
-1.54684926421769
 10
-0.1290952773990747
 20
-0.6496062991499998
 30
-1.547092085016471
 10
-0.1327338979295265
 20
-0.6496062991499997
 30
-1.547378342183473
 10
-0.1349106556002479
 20
-0.6496062991499998
 30
-1.547628328839941
 10
-0.1358271339499986
 20
-0.6496062991499998
 30
-1.547733580499995
 11
-0.1144167176499984
 21
-0.6496062991499998
 31
-1.546646260699995
 11
-0.1149292768499972
 21
-0.6496062991499998
 31
-1.546646778599995
 11
-0.1200868693499988
 21
-0.6496062991499998
 31
-1.546710983199997
 11
-0.1249160975499972
 21
-0.6496062991499998
 31
-1.546873762699997
 11
-0.1292835872499971
 21
-0.6496062991499998
 31
-1.547120217999996
 11
-0.133076298449998
 21
-0.6496062991499998
 31
-1.547431672699996
 11
-0.1358271339499986
 21
-0.6496062991499998
 31
-1.547733580499995
  0
SPLINE
  5
3024
100
AcDbEntity
  8
0
  6
CONTINUOUS
100
AcDbSpline
210
0.9912675858692859
220
0.0
230
0.1318657393141892
 70
    24
 71
     3
 72
     8
 73
     4
 74
     2
 42
0.0000001
 43
0.0000001
 44
0.0000000001
 40
0.0
 40
0.0
 40
0.0
 40
0.0
 40
0.0099688683871714
 40
0.0099688683871714
 40
0.0099688683871714
 40
0.0099688683871714
 10
0.0976643071500014
 20
-0.6496062991499998
 30
-1.429243318499995
 10
0.0981024912166682
 20
-0.6496062991499998
 30
-1.432537257199995
 10
0.0985406752833349
 20
-0.6496062991499998
 30
-1.435831195899995
 10
0.0989788593500016
 20
-0.6496062991499998
 30
-1.439125134599995
 11
0.0976643071500014
 21
-0.6496062991499998
 31
-1.429243318499995
 11
0.0989788593500016
 21
-0.6496062991499998
 31
-1.439125134599995
  0
SPLINE
  5
3025
100
AcDbEntity
  8
0
  6
CONTINUOUS
100
AcDbSpline
210
0.9909751211206392
220
0.0
230
0.1340459224293458
 70
    24
 71
     3
 72
     8
 73
     4
 74
     2
 42
0.0000001
 43
0.0000001
 44
0.0000000001
 40
0.0
 40
0.0
 40
0.0
 40
0.0
 40
0.0005568957163877
 40
0.0005568957163877
 40
0.0005568957163877
 40
0.0005568957163877
 10
0.0975896575500013
 20
-0.6496062991499998
 30
-1.428691448699996
 10
0.0976145407500013
 20
-0.6496062991499998
 30
-1.428875405299996
 10
0.0976394239500014
 20
-0.6496062991499998
 30
-1.429059361899996
 10
0.0976643071500014
 20
-0.6496062991499998
 30
-1.429243318499995
 11
0.0975896575500013
 21
-0.6496062991499998
 31
-1.428691448699996
 11
0.0976643071500014
 21
-0.6496062991499998
 31
-1.429243318499995
  0
SPLINE
  5
3026
100
AcDbEntity
  8
0
  6
CONTINUOUS
100
AcDbSpline
210
0.9903348407778308
220
0.0
230
0.1386971634228634
 70
    24
 71
     3
 72
     8
 73
     4
 74
     2
 42
0.0000001
 43
0.0000001
 44
0.0000000001
 40
0.0
 40
0.0
 40
0.0
 40
0.0
 40
0.0228251308236777
 40
0.0228251308236777
 40
0.0228251308236777
 40
0.0228251308236777
 10
0.0944238766500014
 20
-0.6496062991499998
 30
-1.406086926399996
 10
0.0954791369500014
 20
-0.6496062991499998
 30
-1.413621767166663
 10
0.0965343972500013
 20
-0.6496062991499997
 30
-1.42115660793333
 10
0.0975896575500013
 20
-0.6496062991499998
 30
-1.428691448699996
 11
0.0944238766500014
 21
-0.6496062991499998
 31
-1.406086926399996
 11
0.0975896575500013
 21
-0.6496062991499998
 31
-1.428691448699996
  0
SPLINE
  5
3027
100
AcDbEntity
  8
0
  6
CONTINUOUS
100
AcDbSpline
210
0.9893779231030038
220
0.0
230
0.1453661765211799
 70
    24
 71
     3
 72
     8
 73
     4
 74
     2
 42
0.0000001
 43
0.0000001
 44
0.0000000001
 40
0.0
 40
0.0
 40
0.0
 40
0.0
 40
0.0122533180869631
 40
0.0122533180869631
 40
0.0122533180869631
 40
0.0122533180869631
 10
0.0926426586500018
 20
-0.6496062991499998
 30
-1.393963763999996
 10
0.093236397983335
 20
-0.6496062991499998
 30
-1.39800481813333
 10
0.0938301373166682
 20
-0.6496062991499998
 30
-1.402045872266663
 10
0.0944238766500014
 20
-0.6496062991499998
 30
-1.406086926399996
 11
0.0926426586500018
 21
-0.6496062991499998
 31
-1.393963763999996
 11
0.0944238766500014
 21
-0.6496062991499998
 31
-1.406086926399996
  0
SPLINE
  5
3028
100
AcDbEntity
  8
0
  6
CONTINUOUS
100
AcDbSpline
210
0.0000000000012116
220
-1.0
230
0.0000000000000207
 70
     8
 71
     3
 72
    10
 73
     6
 74
     4
 42
0.0000001
 43
0.0000001
 44
0.0000000001
 40
0.0
 40
0.0
 40
0.0
 40
0.0
 40
0.0147735972005233
 40
0.0291732164204733
 40
0.0431872593570294
 40
0.0431872593570294
 40
0.0431872593570294
 40
0.0431872593570294
 10
0.1350873902500016
 20
-0.6496062991499998
 30
-1.479477087899995
 10
0.1352263630653524
 20
-0.6496062991499998
 30
-1.484399663416925
 10
0.1355007907462863
 20
-0.6496062991499998
 30
-1.494120204660355
 10
0.1357678646789788
 20
-0.6496062991499996
 30
-1.508513975860493
 10
0.1358073143717748
 20
-0.6496062991499999
 30
-1.517985211429936
 10
0.1358267715500023
 20
-0.6496062991499998
 30
-1.522656566399996
 11
0.1350873902500016
 21
-0.6496062991499998
 31
-1.479477087899995
 11
0.1354801977500024
 21
-0.6496062991499998
 31
-1.494245462099996
 11
0.1357352525500026
 21
-0.6496062991499998
 31
-1.508642822299997
 11
0.1358267715500023
 21
-0.6496062991499998
 31
-1.522656566399996
  0
SPLINE
  5
3029
100
AcDbEntity
  8
0
  6
CONTINUOUS
100
AcDbSpline
210
-0.0000000000016195
220
1.0
230
-0.0000000000002511
 70
     8
 71
     3
 72
     9
 73
     5
 74
     3
 42
0.0000001
 43
0.0000001
 44
0.0000000001
 40
0.0
 40
0.0
 40
0.0
 40
0.0
 40
0.0295051960757087
 40
0.0582954779218418
 40
0.0582954779218418
 40
0.0582954779218418
 40
0.0582954779218418
 10
0.1144189956500021
 20
-0.6496062991499998
 30
-1.536801892899996
 10
0.1128895192762773
 20
-0.6496062991499999
 30
-1.527086466651862
 10
0.1098676259139126
 20
-0.6496062991499999
 30
-1.507891020029644
 10
0.1069349907528254
 20
-0.6496062991499998
 30
-1.488681735082492
 10
0.1054866555500027
 20
-0.6496062991499998
 30
-1.479194880399996
 11
0.1144189956500021
 21
-0.6496062991499998
 31
-1.536801892899996
 11
0.1098534317500022
 21
-0.6496062991499998
 31
-1.507652069199997
 11
0.1054866555500027
 21
-0.6496062991499998
 31
-1.479194880399996
  0
SPLINE
  5
302A
100
AcDbEntity
  8
0
  6
CONTINUOUS
100
AcDbSpline
210
0.0000000000000207
220
1.0
230
0.0000000000001177
 70
     8
 71
     3
 72
    17
 73
    13
 74
    11
 42
0.0000001
 43
0.0000001
 44
0.0000000001
 40
0.0
 40
0.0
 40
0.0
 40
0.0
 40
0.0002968031866219
 40
0.0008339476458358
 40
0.0017581404793955
 40
0.0031752029810625
 40
0.0051706137869497
 40
0.0078106222216346
 40
0.0110596855791615
 40
0.0147164865575858
 40
0.0184642982332291
 40
0.0219657922287054
 40
0.0219657922287054
 40
0.0219657922287054
 40
0.0219657922287054
 10
0.1358267712500023
 20
-0.6496062991499998
 30
-1.540566679799995
 10
0.1357879346883276
 20
-0.6496062991499998
 30
-1.540473198364272
 10
0.1356788130190167
 20
-0.6496062991499998
 30
-1.540210537359386
 10
0.1351175704714008
 20
-0.6496062991499999
 30
-1.539937148354082
 10
0.1342491208295375
 20
-0.6496062991499997
 30
-1.539578069478619
 10
0.1328423355733593
 20
-0.6496062991500001
 30
-1.5391923430892
 10
0.130877699420444
 20
-0.6496062991499995
 30
-1.538754977545753
 10
0.1282868305024946
 20
-0.6496062991499999
 30
-1.538297165383222
 10
0.1251382776876065
 20
-0.6496062991499999
 30
-1.537840119417918
 10
0.1216111464889495
 20
-0.6496062991499996
 30
-1.537422357564233
 10
0.1179928122216316
 20
-0.6496062991500001
 30
-1.537068017044031
 10
0.1155829737241713
 20
-0.6496062991499998
 30
-1.536888630004024
 10
0.1144189953500021
 20
-0.6496062991499998
 30
-1.536801984099996
 11
0.1358267712500023
 21
-0.6496062991499998
 31
-1.540566679799995
 11
0.1356903629500028
 21
-0.6496062991499998
 31
-1.540303079899995
 11
0.1352445836500014
 21
-0.6496062991499998
 31
-1.540003405099996
 11
0.1343895515500026
 21
-0.6496062991499998
 31
-1.539652616699996
 11
0.1330298261500022
 21
-0.6496062991499998
 31
-1.539253601699996
 11
0.1310834970500014
 21
-0.6496062991499998
 31
-1.538813752499995
 11
0.1284855119500019
 21
-0.6496062991499998
 31
-1.538344585199997
 11
0.1252708712500024
 21
-0.6496062991499998
 31
-1.537872888399997
 11
0.1216400140500013
 21
-0.6496062991499998
 31
-1.537438067299996
 11
0.1179098278500028
 21
-0.6496062991499998
 31
-1.537075020099996
 11
0.1144189953500021
 21
-0.6496062991499998
 31
-1.536801984099996
  0
SPLINE
  5
302B
100
AcDbEntity
  8
0
  6
CONTINUOUS
100
AcDbSpline
210
0.0
220
1.0
230
0.0
 70
     8
 71
     3
 72
    10
 73
     6
 74
     4
 42
0.0000001
 43
0.0000001
 44
0.0000000001
 40
0.0
 40
0.0
 40
0.0
 40
0.0
 40
0.015539844902726
 40
0.0328656929783296
 40
0.0521613810198181
 40
0.0521613810198181
 40
0.0521613810198181
 40
0.0521613810198181
 10
0.1350873902500016
 20
-0.6496062991499998
 30
-1.479477087899995
 10
0.1350109380228353
 20
-0.6496062991499998
 30
-1.474296867458784
 10
0.1348492468707493
 20
-0.6496062991499998
 30
-1.463341060908164
 10
0.1354830764352147
 20
-0.6496062991499998
 30
-1.445961283148864
 10
0.1357081706391717
 20
-0.6496062991499998
 30
-1.433756461037238
 10
0.1358267715500023
 20
-0.6496062991499998
 30
-1.427325806699997
 11
0.1350873902500016
 21
-0.6496062991499998
 31
-1.479477087899995
 11
0.1349834664500022
 21
-0.6496062991499998
 31
-1.463937590499996
 11
0.1354099190500015
 21
-0.6496062991499998
 31
-1.446616991499995
 11
0.1358267715500023
 21
-0.6496062991499998
 31
-1.427325806699997
  0
SPLINE
  5
302C
100
AcDbEntity
  8
0
  6
CONTINUOUS
100
AcDbSpline
210
-0.0000000000000122
220
-1.0
230
0.0000000000000312
 70
     8
 71
     3
 72
    12
 73
     8
 74
     6
 42
0.0000001
 43
0.0000001
 44
0.0000000001
 40
0.0
 40
0.0
 40
0.0
 40
0.0
 40
0.0041842219325676
 40
0.0111304338008551
 40
0.0193967478732075
 40
0.0285913695185446
 40
0.0382072944680617
 40
0.0382072944680617
 40
0.0382072944680617
 40
0.0382072944680617
 10
0.1338415159500013
 20
-0.6496062991499998
 30
-1.425477250999996
 10
0.1328863402855942
 20
-0.6496062991499998
 30
-1.426500224260573
 10
0.1303454809162286
 20
-0.6496062991499999
 30
-1.429221431773079
 10
0.1246709622613787
 20
-0.6496062991499997
 30
-1.432506317000566
 10
0.1171376388419909
 20
-0.6496062991499999
 30
-1.435570136895535
 10
0.1083840273378727
 20
-0.6496062991499998
 30
-1.437920287307835
 10
0.1021603794119552
 20
-0.6496062991499998
 30
-1.438717566565427
 10
0.0989788593500016
 20
-0.6496062991499998
 30
-1.439125134599995
 11
0.1338415159500013
 21
-0.6496062991499998
 31
-1.425477250999996
 11
0.1308748954500025
 21
-0.6496062991499998
 31
-1.428427992599996
 11
0.1250060860500017
 21
-0.6496062991499998
 31
-1.432143761099997
 11
0.1173668895500022
 21
-0.6496062991499998
 31
-1.435302024099996
 11
0.1084861984500023
 21
-0.6496062991499998
 31
-1.437684122499996
 11
0.0989788593500016
 21
-0.6496062991499998
 31
-1.439125134599995
  0
SPLINE
  5
302D
100
AcDbEntity
  8
0
  6
CONTINUOUS
100
AcDbSpline
210
0.8265318956347066
220
0.0
230
-0.5628898875432907
 70
    24
 71
     3
 72
     8
 73
     4
 74
     2
 42
0.0000001
 43
0.0000001
 44
0.0000000001
 40
0.0
 40
0.0
 40
0.0
 40
0.0
 40
0.0012888492333162
 40
0.0012888492333162
 40
0.0012888492333162
 40
0.0012888492333162
 10
0.1345669961500029
 20
-0.6496062991499998
 30
-1.424411975999996
 10
0.134325169416669
 20
-0.6496062991499998
 30
-1.424767067666663
 10
0.1340833426833352
 20
-0.6496062991499999
 30
-1.42512215933333
 10
0.1338415159500013
 20
-0.6496062991499998
 30
-1.425477250999996
 11
0.1345669961500029
 21
-0.6496062991499998
 31
-1.424411975999996
 11
0.1338415159500013
 21
-0.6496062991499998
 31
-1.425477250999996
  0
SPLINE
  5
302E
100
AcDbEntity
  8
0
  6
CONTINUOUS
100
AcDbSpline
210
0.9546259640647333
220
0.0
230
-0.297807435658478
 70
    24
 71
     3
 72
     8
 73
     4
 74
     2
 42
0.0000001
 43
0.0000001
 44
0.0000000001
 40
0.0
 40
0.0
 40
0.0
 40
0.0
 40
0.0042301589858351
 40
0.0042301589858351
 40
0.0042301589858351
 40
0.0042301589858351
 10
0.1358267689500021
 20
-0.6496062991499998
 30
-1.420373756399996
 10
0.1354068446833357
 20
-0.6496062991499998
 30
-1.421719829599996
 10
0.1349869204166693
 20
-0.6496062991499998
 30
-1.423065902799996
 10
0.1345669961500029
 20
-0.6496062991499998
 30
-1.424411975999996
 11
0.1358267689500021
 21
-0.6496062991499998
 31
-1.420373756399996
 11
0.1345669961500029
 21
-0.6496062991499998
 31
-1.424411975999996
  0
SPLINE
  5
302F
100
AcDbEntity
  8
0
  6
CONTINUOUS
100
AcDbSpline
210
0.0
220
-1.0
230
0.0
 70
     8
 71
     3
 72
    17
 73
    13
 74
    11
 42
0.0000001
 43
0.0000001
 44
0.0000000001
 40
0.0
 40
0.0
 40
0.0
 40
0.0
 40
0.0037777596683236
 40
0.0076487650468178
 40
0.0116015185607605
 40
0.0156244463332295
 40
0.0197061543642923
 40
0.0238352119971597
 40
0.0280002030385197
 40
0.0321896326202183
 40
0.0363920857930221
 40
0.0405971413614268
 40
0.0405971413614268
 40
0.0405971413614268
 40
0.0405971413614268
 10
0.0989788593500016
 20
-0.6496062991499998
 30
-1.439125134599995
 10
0.0992128812629664
 20
-0.6496062991499997
 30
-1.440362459711485
 10
0.0996867014064454
 20
-0.6496062991499998
 30
-1.442867650590533
 10
0.1003634761892131
 20
-0.6496062991499998
 30
-1.446675210630885
 10
0.1010302427919963
 20
-0.6496062991499998
 30
-1.450567422309332
 10
0.1016852505828314
 20
-0.6496062991499998
 30
-1.454532841286791
 10
0.1023313026569659
 20
-0.6496062991499999
 30
-1.458559247889826
 10
0.1029698944094557
 20
-0.6496062991499996
 30
-1.462634780617217
 10
0.1036028018244048
 20
-0.6496062991499998
 30
-1.466747529624302
 10
0.1042317032802034
 20
-0.6496062991499997
 30
-1.470885638941236
 10
0.1048580690520065
 20
-0.6496062991500001
 30
-1.475037637967023
 10
0.1052757088263359
 20
-0.6496062991499998
 30
-1.477808846996094
 10
0.1054845933500026
 20
-0.6496062991499998
 30
-1.479194880399996
 11
0.0989788593500016
 21
-0.6496062991499998
 31
-1.439125134599995
 11
0.0996741851500023
 21
-0.6496062991499998
 31
-1.442838352899997
 11
0.1003547771500024
 21
-0.6496062991499998
 31
-1.446649058499996
 11
0.1010224559500017
 21
-0.6496062991499998
 31
-1.450545013499995
 11
0.1016790322500025
 21
-0.6496062991499998
 31
-1.454514000199996
 11
0.1023263489500028
 21
-0.6496062991499998
 31
-1.458544052499997
 11
0.1029661889500026
 21
-0.6496062991499998
 31
-1.462623233999996
 11
0.1036002850500015
 21
-0.6496062991499998
 31
-1.466739673299995
 11
0.1042302968500017
 21
-0.6496062991499998
 31
-1.470881460999995
 11
0.1048578366500017
 21
-0.6496062991499998
 31
-1.475036795699995
 11
0.1054845933500026
 21
-0.6496062991499998
 31
-1.479194880399996
  0
SPLINE
  5
3030
100
AcDbEntity
  8
0
  6
CONTINUOUS
100
AcDbSpline
210
0.0000000000000013
220
1.0
230
0.0000000000001335
 70
     8
 71
     3
 72
    12
 73
     8
 74
     6
 42
0.0000001
 43
0.0000001
 44
0.0000000001
 40
0.0
 40
0.0
 40
0.0
 40
0.0
 40
0.0081425716261905
 40
0.0156409728121272
 40
0.0220012274534299
 40
0.0267854082714523
 40
0.0296901833026314
 40
0.0296901833026314
 40
0.0296901833026314
 40
0.0296901833026314
 10
0.1054845776500013
 20
-0.6496062991499998
 30
-1.479194880399996
 10
0.1081983353449207
 20
-0.6496062991499998
 30
-1.479245454585782
 10
0.1134111614978291
 20
-0.6496062991499998
 30
-1.479342601961474
 10
0.1207486564137212
 20
-0.6496062991499999
 30
-1.479083746906081
 10
0.1269313489767326
 20
-0.6496062991499997
 30
-1.478585677323338
 10
0.131654728724468
 20
-0.6496062991499999
 30
-1.478612677382831
 10
0.1341461628767137
 20
-0.6496062991499997
 30
-1.479240068655756
 10
0.1350873902500016
 20
-0.6496062991499998
 30
-1.479477087899995
 11
0.1054845776500013
 21
-0.6496062991499998
 31
-1.479194880399996
 11
0.1136267990500013
 21
-0.6496062991499998
 31
-1.479270400999997
 11
0.1211206668500022
 21
-0.6496062991499998
 31
-1.479009698599996
 11
0.1274706013500015
 21
-0.6496062991499998
 31
-1.478647523299995
 11
0.1322503476500021
 21
-0.6496062991499998
 31
-1.478853463599996
 11
0.1350873902500016
 21
-0.6496062991499998
 31
-1.479477087899995
  0
SPLINE
  5
3031
100
AcDbEntity
  8
0
  6
CONTINUOUS
100
AcDbSpline
210
0.0000000000000179
220
1.0
230
0.0000000000003525
 70
     8
 71
     3
 72
    14
 73
    10
 74
     8
 42
0.0000001
 43
0.0000001
 44
0.0000000001
 40
0.0
 40
0.0
 40
0.0
 40
0.0
 40
0.0018730220839525
 40
0.0048733470736339
 40
0.0082964599324943
 40
0.0120931030141006
 40
0.0162009999414404
 40
0.0205488789537097
 40
0.0214477146282341
 40
0.0214477146282341
 40
0.0214477146282341
 40
0.0214477146282341
 10
0.1358274360500022
 20
-0.6496062991499998
 30
-1.547729129599996
 10
0.1352072394952742
 20
-0.6496062991499998
 30
-1.547657197546691
 10
0.1335935729555378
 20
-0.6496062991499998
 30
-1.547470040190417
 10
0.1308388876409224
 20
-0.6496062991499997
 30
-1.547221569517216
 10
0.1274399380299839
 20
-0.6496062991499999
 30
-1.546989108399471
 10
0.1236681805024629
 20
-0.6496062991499997
 30
-1.546807240840298
 10
0.1195856527032774
 20
-0.6496062991499999
 30
-1.546685872005536
 10
0.1164674967807751
 20
-0.6496062991499996
 30
-1.54664667161788
 10
0.1147185932992589
 20
-0.6496062991499999
 30
-1.546644643453028
 10
0.1144189816500027
 20
-0.6496062991499998
 30
-1.546644295999996
 11
0.1358274360500022
 21
-0.6496062991499998
 31
-1.547729129599996
 11
0.1339661908500016
 21
-0.6496062991499998
 31
-1.547519420199996
 11
0.1309785038500024
 21
-0.6496062991499998
 31
-1.547244326699996
 11
0.1275635265500021
 21
-0.6496062991499998
 31
-1.547008462999995
 11
0.1237713939500011
 21
-0.6496062991499998
 31
-1.546823452099996
 11
0.1196653628500019
 21
-0.6496062991499998
 31
-1.546699654799995
 11
0.1153178158500019
 21
-0.6496062991499998
 31
-1.546645924099996
 11
0.1144189816500027
 21
-0.6496062991499998
 31
-1.546644295999996
  0
SPLINE
  5
3032
100
AcDbEntity
  8
0
  6
CONTINUOUS
100
AcDbSpline
210
0.996573779789232
220
0.0
230
-0.0827085330338024
 70
    24
 71
     3
 72
     8
 73
     4
 74
     2
 42
0.0000001
 43
0.0000001
 44
0.0000000001
 40
0.0
 40
0.0
 40
0.0
 40
0.0
 40
0.002094521491867
 40
0.002094521491867
 40
0.002094521491867
 40
0.002094521491867
 10
0.1186187959500025
 20
-0.6496062991499998
 30
-1.659862572199996
 10
0.1185610510166691
 20
-0.6496062991499998
 30
-1.660558353933329
 10
0.1185033060833357
 20
-0.6496062991499999
 30
-1.661254135666662
 10
0.1184455611500024
 20
-0.6496062991499998
 30
-1.661949917399995
 11
0.1186187959500025
 21
-0.6496062991499998
 31
-1.659862572199996
 11
0.1184455611500024
 21
-0.6496062991499998
 31
-1.661949917399995
  0
SPLINE
  5
3033
100
AcDbEntity
  8
0
  6
CONTINUOUS
100
AcDbSpline
210
0.9965737758539567
220
0.0
230
0.0827085804508081
 70
    24
 71
     3
 72
     8
 73
     4
 74
     2
 42
0.0000001
 43
0.0000001
 44
0.0000000001
 40
0.0
 40
0.0
 40
0.0
 40
0.0
 40
0.0020945215001378
 40
0.0020945215001378
 40
0.0020945215001378
 40
0.0020945215001378
 10
-0.1145085533499976
 20
-0.6496062991499998
 30
-1.661949917399995
 10
-0.1145662983166643
 20
-0.6496062991499998
 30
-1.661254135666662
 10
-0.114624043283331
 20
-0.6496062991499999
 30
-1.660558353933329
 10
-0.1146817882499977
 20
-0.6496062991499998
 30
-1.659862572199996
 11
-0.1145085533499976
 21
-0.6496062991499998
 31
-1.661949917399995
 11
-0.1146817882499977
 21
-0.6496062991499998
 31
-1.659862572199996
  0
LINE
  5
3034
100
AcDbEntity
  8
0
  6
CONTINUOUS
100
AcDbLine
 10
0.135827
 20
-0.649606
 30
-1.715706
 11
-0.135827
 21
-0.649606
 31
-1.715713
210
0.0
220
1.0
230
0.0000000000000002
  0
LINE
  5
3035
100
AcDbEntity
  8
0
  6
CONTINUOUS
100
AcDbLine
 10
-0.135827
 20
-0.649606
 30
-1.66195
 11
0.135827
 21
-0.649606
 31
-1.66195
210
0.0
220
1.0
230
0.0000000000000002
  0
LINE
  5
3036
100
AcDbEntity
  8
0
  6
CONTINUOUS
100
AcDbLine
 10
0.068898
 20
-0.649606
 30
-1.617561
 11
0.135827
 21
-0.649606
 31
-1.599108
210
0.0
220
1.0
230
0.0000000000000002
  0
LWPOLYLINE
  5
3037
100
AcDbEntity
  8
0
  6
CONTINUOUS
100
AcDbPolyline
 90
        9
 70
     0
 43
0.0
 38
-0.649606
 10
-0.054923
 20
-1.618591
 10
-0.07072
 20
-1.617479
 10
-0.084982
 20
-1.616093
 10
-0.097389
 20
-1.614464
 10
-0.107665
 20
-1.612627
 10
-0.115579
 20
-1.610624
 10
-0.120956
 20
-1.6085
 10
-0.123674
 20
-1.606301
 10
-0.124008
 20
-1.605339
210
0.0
220
1.0
230
0.0000000000000002
  0
LWPOLYLINE
  5
3038
100
AcDbEntity
  8
0
  6
CONTINUOUS
100
AcDbPolyline
 90
        4
 70
     0
 43
0.0
 38
-0.649606
 10
-0.001969
 20
-1.620064
 10
-0.020159
 20
-1.619898
 10
-0.037943
 20
-1.619403
 10
-0.054923
 20
-1.618591
210
0.0
220
1.0
230
0.0000000000000002
  0
LINE
  5
3039
100
AcDbEntity
  8
0
  6
CONTINUOUS
100
AcDbLine
 10
-0.064961
 20
-0.649606
 30
-1.617561
 11
0.068898
 21
-0.649606
 31
-1.617561
210
0.0
220
1.0
230
0.0000000000000002
  0
LWPOLYLINE
  5
303A
100
AcDbEntity
  8
0
  6
CONTINUOUS
100
AcDbPolyline
 90
        4
 70
     0
 43
0.0
 38
-0.649606
 10
-0.001969
 20
-1.620064
 10
0.016222
 20
-1.619898
 10
0.034006
 20
-1.619403
 10
0.050986
 20
-1.618591
210
0.0
220
1.0
230
0.0000000000000002
  0
LWPOLYLINE
  5
303B
100
AcDbEntity
  8
0
  6
CONTINUOUS
100
AcDbPolyline
 90
        9
 70
     0
 43
0.0
 38
-0.649606
 10
0.050986
 20
-1.618591
 10
0.066783
 20
-1.617479
 10
0.081045
 20
-1.616093
 10
0.093452
 20
-1.614464
 10
0.103728
 20
-1.612627
 10
0.111642
 20
-1.610624
 10
0.117019
 20
-1.6085
 10
0.119737
 20
-1.606301
 10
0.120071
 20
-1.605339
210
0.0
220
1.0
230
0.0000000000000002
  0
LINE
  5
303C
100
AcDbEntity
  8
0
  6
CONTINUOUS
100
AcDbLine
 10
-0.135827
 20
-0.649606
 30
-1.598023
 11
-0.064961
 21
-0.649606
 31
-1.617561
210
0.0
220
1.0
230
0.0000000000000002
  0
LINE
  5
303D
100
AcDbEntity
  8
0
  6
CONTINUOUS
100
AcDbLine
 10
0.106429
 20
-0.649606
 30
-1.546644
 11
0.068898
 21
-0.649606
 31
-1.556992
210
0.0
220
1.0
230
0.0000000000000002
  0
LWPOLYLINE
  5
303E
100
AcDbEntity
  8
0
  6
CONTINUOUS
100
AcDbPolyline
 90
        3
 70
     0
 43
0.0
 38
-0.649606
 10
-0.018124
 20
-1.546644
 10
-0.013591
 20
-1.546792
 10
-0.001969
 20
-1.546916
210
0.0
220
1.0
230
0.0000000000000002
  0
LINE
  5
303F
100
AcDbEntity
  8
0
  6
CONTINUOUS
100
AcDbLine
 10
0.068898
 20
-0.649606
 30
-1.556992
 11
-0.064961
 21
-0.649606
 31
-1.556992
210
0.0
220
1.0
230
0.0000000000000002
  0
LINE
  5
3040
100
AcDbEntity
  8
0
  6
CONTINUOUS
100
AcDbLine
 10
0.114419
 20
-0.649606
 30
-1.546644
 11
-0.114417
 21
-0.649606
 31
-1.546646
210
0.0
220
1.0
230
0.0000000000000002
  0
LINE
  5
3041
100
AcDbEntity
  8
0
  6
CONTINUOUS
100
AcDbLine
 10
0.114419
 20
-0.649606
 30
-1.536802
 11
-0.114417
 21
-0.649606
 31
-1.536804
210
0.0
220
1.0
230
0.0000000000000002
  0
LWPOLYLINE
  5
3042
100
AcDbEntity
  8
0
  6
CONTINUOUS
100
AcDbPolyline
 90
        3
 70
     0
 43
0.0
 38
-0.649606
 10
-0.001969
 20
-1.546916
 10
0.009654
 20
-1.546792
 10
0.014127
 20
-1.546646
210
0.0
220
1.0
230
0.0000000000000002
  0
LINE
  5
3043
100
AcDbEntity
  8
0
  6
CONTINUOUS
100
AcDbLine
 10
-0.064961
 20
-0.649606
 30
-1.556992
 11
-0.102485
 21
-0.649606
 31
-1.546646
210
0.0
220
1.0
230
0.0000000000000002
  0
LINE
  5
3044
100
AcDbEntity
  8
0
  6
CONTINUOUS
100
AcDbLine
 10
0.119671
 20
-0.649606
 30
-1.658087
 11
0.118619
 21
-0.649606
 31
-1.659863
210
0.0
220
1.0
230
0.0000000000000002
  0
LINE
  5
3045
100
AcDbEntity
  8
0
  6
CONTINUOUS
100
AcDbLine
 10
0.105487
 20
-0.649606
 30
-1.479195
 11
-0.105481
 21
-0.649606
 31
-1.479196
210
0.0
220
1.0
230
0.0000000000000002
  0
LINE
  5
3046
100
AcDbEntity
  8
0
  6
CONTINUOUS
100
AcDbLine
 10
0.098979
 20
-0.649606
 30
-1.439125
 11
-0.098974
 21
-0.649606
 31
-1.439125
210
0.0
220
1.0
230
0.0000000000000002
  0
LINE
  5
3047
100
AcDbEntity
  8
0
  6
CONTINUOUS
100
AcDbLine
 10
0.119671
 20
-0.649606
 30
-1.658087
 11
0.12401
 21
-0.649606
 31
-1.605339
210
0.0
220
1.0
230
0.0000000000000002
  0
LINE
  5
3048
100
AcDbEntity
  8
0
  6
CONTINUOUS
100
AcDbLine
 10
0.129921
 20
-0.649606
 30
-1.66195
 11
0.129921
 21
-0.649606
 31
-1.600736
210
0.0
220
1.0
230
0.0000000000000002
  0
LINE
  5
3049
100
AcDbEntity
  8
0
  6
CONTINUOUS
100
AcDbLine
 10
0.123102
 20
-0.649606
 30
-1.603616
 11
0.123102
 21
-0.649606
 31
-1.602616
210
0.0
220
1.0
230
0.0000000000000002
  0
LINE
  5
304A
100
AcDbEntity
  8
0
  6
CONTINUOUS
100
AcDbLine
 10
0.123102
 20
-0.649606
 30
-1.66195
 11
0.123102
 21
-0.649606
 31
-1.616372
210
0.0
220
1.0
230
0.0000000000000002
  0
LINE
  5
304B
100
AcDbEntity
  8
0
  6
CONTINUOUS
100
AcDbLine
 10
0.114419
 20
-0.649606
 30
-1.536802
 11
0.114419
 21
-0.649606
 31
-1.546644
210
0.0
220
1.0
230
0.0000000000000002
  0
LWPOLYLINE
  5
304C
100
AcDbEntity
  8
0
  6
CONTINUOUS
100
AcDbPolyline
 90
        3
 70
     0
 43
0.0
 38
-0.649606
 10
0.120071
 20
-1.605339
 10
0.119737
 20
-1.604078
 10
0.118243
 20
-1.60287
210
0.0
220
1.0
230
0.0000000000000002
  0
LINE
  5
304D
100
AcDbEntity
  8
0
  6
CONTINUOUS
100
AcDbLine
 10
0.068898
 20
-0.649606
 30
-1.556992
 11
0.068898
 21
-0.649606
 31
-1.546644
210
0.0
220
1.0
230
0.0000000000000002
  0
LWPOLYLINE
  5
304E
100
AcDbEntity
  8
0
  6
CONTINUOUS
100
AcDbPolyline
 90
        3
 70
     0
 43
0.0
 38
-0.649606
 10
-0.124008
 20
-1.605339
 10
-0.123674
 20
-1.604078
 10
-0.12218
 20
-1.60287
210
0.0
220
1.0
230
0.0000000000000002
  0
LINE
  5
304F
100
AcDbEntity
  8
0
  6
CONTINUOUS
100
AcDbLine
 10
-0.064961
 20
-0.649606
 30
-1.556992
 11
-0.064961
 21
-0.649606
 31
-1.546646
210
0.0
220
1.0
230
0.0000000000000002
  0
LINE
  5
3050
100
AcDbEntity
  8
0
  6
CONTINUOUS
100
AcDbLine
 10
-0.114417
 20
-0.649606
 30
-1.536804
 11
-0.114417
 21
-0.649606
 31
-1.546646
210
0.0
220
1.0
230
0.0000000000000002
  0
LINE
  5
3051
100
AcDbEntity
  8
0
  6
CONTINUOUS
100
AcDbLine
 10
-0.115734
 20
-0.649606
 30
-1.658087
 11
-0.120073
 21
-0.649606
 31
-1.605339
210
0.0
220
1.0
230
0.0000000000000002
  0
LINE
  5
3052
100
AcDbEntity
  8
0
  6
CONTINUOUS
100
AcDbLine
 10
-0.114682
 20
-0.649606
 30
-1.659863
 11
-0.115734
 21
-0.649606
 31
-1.658087
210
0.0
220
1.0
230
0.0000000000000002
  0
SPLINE
  5
3053
100
AcDbEntity
  8
0
  6
CONTINUOUS
100
AcDbSpline
210
0.0000000000001703
220
1.0
230
-0.0000000000000287
 70
     8
 71
     3
 72
    13
 73
     9
 74
     7
 42
0.0000001
 43
0.0000001
 44
0.0000000001
 40
0.0
 40
0.0
 40
0.0
 40
0.0
 40
0.0591158660049746
 40
0.1256261522154844
 40
0.1998553979600778
 40
0.2829440083573631
 40
0.3722700680932774
 40
0.4577400436736411
 40
0.4577400436736411
 40
0.4577400436736411
 40
0.4577400436736411
 10
-0.0989735040499973
 20
-0.6496062991499998
 30
-1.439124549199997
 10
-0.0962689355518049
 20
-0.6496062991499998
 30
-1.419604947546812
 10
-0.0905215016259865
 20
-0.6496062991499999
 30
-1.378124163889472
 10
-0.0795400090869618
 20
-0.6496062991499995
 30
-1.312409427712397
 10
-0.0661106809763829
 20
-0.6496062991500012
 30
-1.239017566905286
 10
-0.0503855692428659
 20
-0.6496062991500006
 30
-1.158319809316327
 10
-0.0336092235355722
 20
-0.6496062991500007
 30
-1.074010315913297
 10
-0.0229437476451416
 20
-0.6496062991500008
 30
-1.016728827290922
 10
-0.017728652449998
 20
-0.6496062991500007
 30
-0.9887199114999969
 11
-0.0989735040499973
 21
-0.6496062991499998
 31
-1.439124549199997
 11
-0.0906039581499982
 21
-0.6496062991499998
 31
-1.380604156899996
 11
-0.0798053787499988
 21
-0.6496062991499998
 31
-1.314976351399996
 11
-0.0665106084499971
 21
-0.6496062991500007
 31
-1.241947384499995
 11
-0.0507312985499979
 21
-0.6496062991500007
 31
-1.160370852599996
 11
-0.0335426528499987
 21
-0.6496062991500007
 31
-1.072714161999996
 11
-0.017728652449998
 21
-0.6496062991500007
 31
-0.9887199114999969
  0
LINE
  5
3054
100
AcDbEntity
  8
0
  6
CONTINUOUS
100
AcDbLine
 10
-0.135827
 20
-0.649606
 30
-1.427316
 11
-0.135827
 21
-0.649606
 31
-0.946438
210
0.0
220
1.0
230
0.0000000000000002
  0
SPLINE
  5
3055
100
AcDbEntity
  8
0
  6
CONTINUOUS
100
AcDbSpline
210
-0.0000000000003665
220
-1.0
230
-0.0000000000000699
 70
     8
 71
     3
 72
    13
 73
     9
 74
     7
 42
0.0000001
 43
0.0000001
 44
0.0000000001
 40
0.0
 40
0.0
 40
0.0
 40
0.0
 40
0.0835776145869979
 40
0.1720395715759645
 40
0.2569039154225281
 40
0.3322678324344357
 40
0.39868427522765
 40
0.4121392565566947
 40
0.4121392565566947
 40
0.4121392565566947
 40
0.4121392565566947
 10
0.0177259810500026
 20
-0.6496062991500007
 30
-0.9887199114999969
 10
0.0228117420174709
 20
-0.6496062991500007
 30
-1.016111283682994
 10
0.0332804798763418
 20
-0.6496062991500007
 30
-1.072494801668369
 10
0.0499936046237134
 20
-0.6496062991500006
 30
-1.15648378130576
 10
0.0658771041931021
 20
-0.649606299150001
 30
-1.237845137943956
 10
0.0795223225921454
 20
-0.6496062991499996
 30
-1.312153034316497
 10
0.0880038130999515
 20
-0.6496062991499998
 30
-1.363202731100001
 10
0.091973870647695
 20
-0.6496062991499998
 30
-1.389528908491203
 10
0.0926426586500018
 20
-0.6496062991499998
 30
-1.393963763999996
 11
0.0177259810500026
 21
-0.6496062991500007
 31
-0.9887199114999969
 11
0.0331540043500027
 21
-0.6496062991500007
 31
-1.070861215099997
 11
0.0501740442500012
 21
-0.6496062991500007
 31
-1.157670408599996
 11
0.0663192254500018
 21
-0.6496062991500007
 31
-1.240984812999997
 11
0.0798379145500015
 21
-0.6496062991499998
 31
-1.315126333299996
 11
0.0906251186500029
 21
-0.6496062991499998
 31
-1.380660905099995
 11
0.0926426586500018
 21
-0.6496062991499998
 31
-1.393963763999996
  0
LINE
  5
3056
100
AcDbEntity
  8
0
  6
CONTINUOUS
100
AcDbLine
 10
0.135827
 20
-0.649606
 30
-0.94644
 11
0.135827
 21
-0.649606
 31
-1.427326
210
0.0
220
1.0
230
0.0000000000000002
  0
SPLINE
  5
3057
100
AcDbEntity
  8
0
  6
CONTINUOUS
100
AcDbSpline
210
0.0
220
-1.0
230
0.0
 70
     8
 71
     3
 72
    15
 73
    11
 74
     9
 42
0.0000001
 43
0.0000001
 44
0.0000000001
 40
0.0
 40
0.0
 40
0.0
 40
0.0
 40
0.0222819223000258
 40
0.0443211904100647
 40
0.0647716719903848
 40
0.0830999352897354
 40
0.0983613994517697
 40
0.1097963061239055
 40
0.1173234971883595
 40
0.1212445288899116
 40
0.1212445288899116
 40
0.1212445288899116
 40
0.1212445288899116
 10
-0.0177179972499975
 20
-0.6496062991500007
 30
-0.9887199114999969
 10
-0.0251458893268719
 20
-0.6496062991500006
 30
-0.9886612621208435
 10
-0.0399207823837507
 20
-0.6496062991500004
 30
-0.9885446020649521
 10
-0.061490437681641
 20
-0.649606299150001
 30
-0.9875996923538588
 10
-0.0817293744042875
 20
-0.6496062991500007
 30
-0.9861323939388386
 10
-0.0995828319797445
 20
-0.6496062991500007
 30
-0.9840837450130088
 10
-0.1145541248581596
 20
-0.6496062991500007
 30
-0.9817770002220685
 10
-0.1252836327156994
 20
-0.6496062991500007
 30
-0.9787765271188078
 10
-0.1331689913530816
 20
-0.6496062991500008
 30
-0.976551229839414
 10
-0.1351487140592973
 20
-0.6496062991500007
 30
-0.9731780331164342
 10
-0.1358267717499988
 20
-0.6496062991500007
 30
-0.9720227086999972
 11
-0.0177179972499975
 21
-0.6496062991500007
 31
-0.9887199114999969
 11
-0.0399977646499981
 21
-0.6496062991500007
 31
-0.9884100308999972
 11
-0.062016868649998
 21
-0.6496062991500007
 31
-0.987467482299996
 11
-0.0824096650499975
 21
-0.6496062991500007
 31
-0.9859325386999966
 11
-0.1006174210499982
 21
-0.6496062991500007
 31
-0.9838342400999966
 11
-0.1156607317499976
 21
-0.6496062991500007
 31
-0.981263035799996
 11
-0.126723070749998
 21
-0.6496062991500007
 31
-0.9783679111999958
 11
-0.1335620606499983
 21
-0.6496062991500007
 31
-0.9752235793999961
 11
-0.1358267717499988
 21
-0.6496062991500007
 31
-0.9720227086999972
  0
SPLINE
  5
3058
100
AcDbEntity
  8
0
  6
CONTINUOUS
100
AcDbSpline
210
-0.0000000000000063
220
1.0
230
0.000000000000018
 70
     8
 71
     3
 72
    15
 73
    11
 74
     9
 42
0.0000001
 43
0.0000001
 44
0.0000000001
 40
0.0
 40
0.0
 40
0.0
 40
0.0
 40
0.004631762231811
 40
0.0131164615788661
 40
0.0257511730890703
 40
0.0419897838050596
 40
0.0610723963469568
 40
0.0822089930622662
 40
0.1046574484433817
 40
0.1277406036523098
 40
0.1277406036523098
 40
0.1277406036523098
 40
0.1277406036523098
 10
-0.1240157480499988
 20
-0.6496062991500007
 30
-0.9670170183999964
 10
-0.1232385958500437
 20
-0.6496062991500007
 30
-0.965636666429124
 10
-0.1210378164357565
 20
-0.6496062991500006
 30
-0.9617277150008943
 10
-0.1122051559028974
 20
-0.6496062991500007
 30
-0.959094309529269
 10
-0.1005054112374593
 20
-0.649606299150001
 30
-0.9557584526756166
 10
-0.0845751659496089
 20
-0.6496062991500007
 30
-0.9532253623360844
 10
-0.0659258784291149
 20
-0.6496062991500006
 30
-0.9510386186288
 10
-0.0450743138417572
 20
-0.649606299150001
 30
-0.9494941266413761
 10
-0.0228734007286209
 20
-0.6496062991500001
 30
-0.9485054826264779
 10
-0.0076949947333222
 20
-0.6496062991500002
 30
-0.9483843696375812
 10
-0.0000000000499973
 20
-0.6496062991500003
 30
-0.9483229689999959
 11
-0.1240157480499988
 21
-0.6496062991500007
 31
-0.9670170183999964
 11
-0.1213977143499978
 21
-0.6496062991500007
 31
-0.9631961387999972
 11
-0.1137302641499982
 21
-0.6496062991500007
 31
-0.9595629128999956
 11
-0.101528994549998
 21
-0.6496062991500007
 31
-0.9562819137999962
 11
-0.0855338060499982
 21
-0.6496062991500007
 31
-0.9534807670999967
 11
-0.0665825358499976
 21
-0.6496062991500007
 31
-0.951245714699997
 11
-0.0455080076499979
 21
-0.6496062991500007
 31
-0.9496270788999972
 11
-0.0230808444499982
 21
-0.6496062991500003
 31
-0.9486495821999962
 11
-0.0000000000499973
 21
-0.6496062991500003
 31
-0.9483229689999959
  0
SPLINE
  5
3059
100
AcDbEntity
  8
0
  6
CONTINUOUS
100
AcDbSpline
210
-0.0000000000000023
220
-1.0
230
0.0000000000000162
 70
     8
 71
     3
 72
    16
 73
    12
 74
    10
 42
0.0000001
 43
0.0000001
 44
0.0000000001
 40
0.0
 40
0.0
 40
0.0
 40
0.0
 40
0.0033636150511688
 40
0.0094707702090035
 40
0.0186860360758134
 40
0.0309593243278772
 40
0.0460154572743706
 40
0.0630786073290621
 40
0.0817417420984398
 40
0.1014690194783967
 40
0.1212821156505213
 40
0.1212821156505213
 40
0.1212821156505213
 40
0.1212821156505213
 10
0.1358267715500023
 20
-0.6496062991500007
 30
-0.9720211057999961
 10
0.1353030113096564
 20
-0.6496062991500007
 30
-0.9730455884820374
 10
0.1338282846226044
 20
-0.6496062991500007
 30
-0.9759301754270699
 10
0.1274978179411166
 20
-0.6496062991500007
 30
-0.9780917700717672
 10
0.1189197991919158
 20
-0.6496062991500007
 30
-0.9807728340600043
 10
0.1068275429619144
 20
-0.6496062991500008
 30
-0.9829923440827876
 10
0.0922048702445258
 20
-0.6496062991500007
 30
-0.9850230099939343
 10
0.0753378384876851
 20
-0.6496062991500007
 30
-0.9866403954879515
 10
0.0568936957339178
 20
-0.6496062991500008
 30
-0.9878300807197092
 10
0.0375025589009139
 20
-0.6496062991500007
 30
-0.9885798378745342
 10
0.0243222748703938
 20
-0.6496062991500007
 30
-0.9886731527809978
 10
0.0177178295500014
 20
-0.6496062991500007
 30
-0.9887199114999969
 11
0.1358267715500023
 21
-0.6496062991500007
 31
-0.9720211057999961
 11
0.1340367964500029
 21
-0.6496062991500007
 31
-0.9748688935999965
 11
0.1286187828500012
 21
-0.6496062991500007
 31
-0.9776871328999963
 11
0.1197911632500013
 21
-0.6496062991500007
 31
-0.9803317986999964
 11
0.1077565973500025
 21
-0.6496062991500007
 31
-0.9827407046999958
 11
0.0928465724500019
 21
-0.6496062991500007
 31
-0.9848331426999958
 11
0.0758654969500015
 21
-0.6496062991500007
 31
-0.9865047181999972
 11
0.0572425926500024
 21
-0.6496062991500007
 31
-0.9877294772999967
 11
0.0375294141500025
 21
-0.6496062991500007
 31
-0.9884751757999961
 11
0.0177178295500014
 21
-0.6496062991500007
 31
-0.9887199114999969
  0
SPLINE
  5
305A
100
AcDbEntity
  8
0
  6
CONTINUOUS
100
AcDbSpline
210
0.0000000000000042
220
1.0
230
0.0000000000000038
 70
     8
 71
     3
 72
    15
 73
    11
 74
     9
 42
0.0000001
 43
0.0000001
 44
0.0000000001
 40
0.0
 40
0.0
 40
0.0
 40
0.0
 40
0.0046308737459566
 40
0.0131147362905007
 40
0.0257490943798724
 40
0.041988271620969
 40
0.0610719055027368
 40
0.0822092924006628
 40
0.1046578974553996
 40
0.127740581772324
 40
0.127740581772324
 40
0.127740581772324
 40
0.127740581772324
 10
0.1240157479500024
 20
-0.6496062991500007
 30
-0.9670194769999955
 10
0.1232388268778384
 20
-0.6496062991500007
 30
-0.9656393431443085
 10
0.1210385693154596
 20
-0.6496062991500007
 30
-0.961730773713166
 10
0.1122066287153041
 20
-0.6496062991500006
 30
-0.9590972957106
 10
0.1005071587933547
 20
-0.6496062991500008
 30
-0.9557613654390054
 10
0.0845764904109413
 20
-0.6496062991500006
 30
-0.9532281335121401
 10
0.0659264272706003
 20
-0.6496062991500007
 30
-0.9510412823316677
 10
0.0450742060888701
 20
-0.649606299150001
 30
-0.9494967573698454
 10
0.022873136643343
 20
-0.6496062991500001
 30
-0.9485081287585597
 10
0.0076948376812572
 20
-0.6496062991500002
 30
-0.9483870201151736
 10
-0.0000000000499973
 20
-0.6496062991500003
 30
-0.9483256224999969
 11
0.1240157479500024
 21
-0.6496062991500007
 31
-0.9670194769999955
 11
0.1213984513500019
 21
-0.6496062991500007
 31
-0.9631991693999957
 11
0.1137318936500016
 21
-0.6496062991500007
 31
-0.9595660141999964
 11
0.1015310159500018
 21
-0.6496062991500007
 31
-0.9562849186999962
 11
0.0855352860500016
 21
-0.6496062991500007
 31
-0.9534835792999967
 11
0.0665830044500027
 21
-0.6496062991500007
 31
-0.9512483825999957
 11
0.0455076873500016
 21
-0.6496062991500007
 31
-0.9496296997999955
 11
0.0230803736500018
 21
-0.6496062991500003
 31
-0.9486522187999959
 11
-0.0000000000499973
 21
-0.6496062991500003
 31
-0.9483256224999969
  0
LINE
  5
305B
100
AcDbEntity
  8
0
  6
CONTINUOUS
100
AcDbLine
 10
0.125984
 20
-0.649606
 30
-0.971188
 11
0.124016
 21
-0.649606
 31
-0.968099
210
0.0
220
1.0
230
0.0000000000000002
  0
LINE
  5
305C
100
AcDbEntity
  8
0
  6
CONTINUOUS
100
AcDbLine
 10
0.124016
 20
-0.649606
 30
-0.968099
 11
0.124016
 21
-0.649606
 31
-0.967019
210
0.0
220
1.0
230
0.0000000000000002
  0
LWPOLYLINE
  5
305D
100
AcDbEntity
  8
0
  6
CONTINUOUS
100
AcDbPolyline
 90
        9
 70
     0
 43
0.0
 38
-0.649606
 10
0.0
 20
-0.98872
 10
-0.024313
 20
-0.98839
 10
-0.047712
 20
-0.987414
 10
-0.069317
 20
-0.985827
 10
-0.088316
 20
-0.98369
 10
-0.103995
 20
-0.981083
 10
-0.115763
 20
-0.978104
 10
-0.12318
 20
-0.974865
 10
-0.125984
 20
-0.971188
210
0.0
220
1.0
230
0.0000000000000002
  0
LINE
  5
305E
100
AcDbEntity
  8
0
  6
CONTINUOUS
100
AcDbLine
 10
-0.017729
 20
-0.649606
 30
-0.98872
 11
0.017718
 21
-0.649606
 31
-0.98872
210
0.0
220
1.0
230
0.0000000000000002
  0
LINE
  5
305F
100
AcDbEntity
  8
0
  6
CONTINUOUS
100
AcDbLine
 10
-0.135827
 20
-0.649606
 30
-0.946438
 11
0.135827
 21
-0.649606
 31
-0.94644
210
0.0
220
1.0
230
0.0000000000000002
  0
LINE
  5
3060
100
AcDbEntity
  8
0
  6
CONTINUOUS
100
AcDbLine
 10
-0.124016
 20
-0.649606
 30
-0.968097
 11
-0.125984
 21
-0.649606
 31
-0.971186
210
0.0
220
1.0
230
0.0000000000000002
  0
LWPOLYLINE
  5
3061
100
AcDbEntity
  8
0
  6
CONTINUOUS
100
AcDbPolyline
 90
        9
 70
     0
 43
0.0
 38
-0.649606
 10
0.125984
 20
-0.971186
 10
0.123182
 20
-0.974862
 10
0.115769
 20
-0.9781
 10
0.104005
 20
-0.981079
 10
0.088331
 20
-0.983686
 10
0.069336
 20
-0.985824
 10
0.047731
 20
-0.987411
 10
0.024322
 20
-0.988388
 10
-0.00015
 20
-0.98872
210
0.0
220
1.0
230
0.0000000000000002
  0
LINE
  5
3062
100
AcDbEntity
  8
0
  6
CONTINUOUS
100
AcDbLine
 10
-0.124016
 20
-0.649606
 30
-0.968097
 11
-0.124016
 21
-0.649606
 31
-0.967017
210
0.0
220
1.0
230
0.0000000000000002
  0
LINE
  5
30DA
100
AcDbEntity
  8
0
100
AcDbLine
 10
-0.155512
 20
-0.102346
 30
-1.948819
 11
-0.080709
 21
-0.102346
 31
-1.948819
210
-0.0000000000000001
220
0.0
230
-1.0
  0
LINE
  5
30DB
100
AcDbEntity
  8
0
100
AcDbLine
 10
-0.080709
 20
-0.098409
 30
-1.948819
 11
-0.151575
 21
-0.098409
 31
-1.948819
210
-0.0000000000000001
220
0.0
230
-1.0
  0
LINE
  5
30DC
100
AcDbEntity
  8
0
100
AcDbLine
 10
-0.094488
 20
-0.097825
 30
-1.948819
 11
-0.098425
 21
-0.097825
 31
-1.948819
210
-0.0000000000000001
220
0.0
230
-1.0
  0
LINE
  5
30DD
100
AcDbEntity
  8
0
100
AcDbLine
 10
-0.155512
 20
-0.068882
 30
-1.948819
 11
-0.151575
 21
-0.068882
 31
-1.948819
210
-0.0000000000000001
220
0.0
230
-1.0
  0
LINE
  5
30DE
100
AcDbEntity
  8
0
100
AcDbLine
 10
-0.094488
 20
-0.068882
 30
-1.948819
 11
-0.098425
 21
-0.068882
 31
-1.948819
210
-0.0000000000000001
220
0.0
230
-1.0
  0
LINE
  5
30DF
100
AcDbEntity
  8
0
100
AcDbLine
 10
-0.094488
 20
-0.064945
 30
-1.948819
 11
-0.127953
 21
-0.064945
 31
-1.948819
210
-0.0000000000000001
220
0.0
230
-1.0
  0
LINE
  5
30E0
100
AcDbEntity
  8
0
100
AcDbLine
 10
-0.098425
 20
-0.057071
 30
-1.948819
 11
-0.094488
 21
-0.057071
 31
-1.948819
210
-0.0000000000000001
220
0.0
230
-1.0
  0
LINE
  5
30E1
100
AcDbEntity
  8
0
100
AcDbLine
 10
-0.098425
 20
-0.019669
 30
-1.948819
 11
-0.11811
 21
-0.019669
 31
-1.948819
210
-0.0000000000000001
220
0.0
230
-1.0
  0
LINE
  5
30E2
100
AcDbEntity
  8
0
100
AcDbLine
 10
-0.112205
 20
-0.013764
 30
-1.948819
 11
-0.094488
 21
-0.013764
 31
-1.948819
210
-0.0000000000000001
220
0.0
230
-1.0
  0
LINE
  5
30E3
100
AcDbEntity
  8
0
100
AcDbLine
 10
-0.111621
 20
-0.01318
 30
-1.948819
 11
-0.093904
 21
-0.01318
 31
-1.948819
210
-0.0000000000000001
220
0.0
230
-1.0
  0
LINE
  5
30E4
100
AcDbEntity
  8
0
100
AcDbLine
 10
-0.093904
 20
0.013211
 30
-1.948819
 11
-0.094488
 21
0.013795
 31
-1.948819
210
-0.0000000000000001
220
0.0
230
-1.0
  0
LINE
  5
30E5
100
AcDbEntity
  8
0
100
AcDbLine
 10
-0.111621
 20
0.013211
 30
-1.948819
 11
-0.112205
 21
0.013795
 31
-1.948819
210
-0.0000000000000001
220
0.0
230
-1.0
  0
LINE
  5
30E6
100
AcDbEntity
  8
0
100
AcDbLine
 10
-0.093904
 20
0.013211
 30
-1.948819
 11
-0.111621
 21
0.013211
 31
-1.948819
210
-0.0000000000000001
220
0.0
230
-1.0
  0
LINE
  5
30E7
100
AcDbEntity
  8
0
100
AcDbLine
 10
-0.094488
 20
0.013795
 30
-1.948819
 11
-0.112205
 21
0.013795
 31
-1.948819
210
-0.0000000000000001
220
0.0
230
-1.0
  0
LINE
  5
30E8
100
AcDbEntity
  8
0
100
AcDbLine
 10
-0.098425
 20
0.019701
 30
-1.948819
 11
-0.11811
 21
0.019701
 31
-1.948819
210
-0.0000000000000001
220
0.0
230
-1.0
  0
LINE
  5
30E9
100
AcDbEntity
  8
0
100
AcDbLine
 10
-0.094488
 20
0.057103
 30
-1.948819
 11
-0.098425
 21
0.057103
 31
-1.948819
210
-0.0000000000000001
220
0.0
230
-1.0
  0
LINE
  5
30EA
100
AcDbEntity
  8
0
100
AcDbLine
 10
-0.094488
 20
0.064977
 30
-1.948819
 11
-0.127953
 21
0.064977
 31
-1.948819
210
-0.0000000000000001
220
0.0
230
-1.0
  0
LINE
  5
30EB
100
AcDbEntity
  8
0
100
AcDbLine
 10
-0.155512
 20
0.068914
 30
-1.948819
 11
-0.151575
 21
0.068914
 31
-1.948819
210
-0.0000000000000001
220
0.0
230
-1.0
  0
LINE
  5
30EC
100
AcDbEntity
  8
0
100
AcDbLine
 10
-0.094488
 20
0.068914
 30
-1.948819
 11
-0.098425
 21
0.068914
 31
-1.948819
210
-0.0000000000000001
220
0.0
230
-1.0
  0
LINE
  5
30ED
100
AcDbEntity
  8
0
100
AcDbLine
 10
-0.093904
 20
-0.01318
 30
-1.948819
 11
-0.094488
 21
-0.013764
 31
-1.948819
210
-0.0000000000000001
220
0.0
230
-1.0
  0
LINE
  5
30EE
100
AcDbEntity
  8
0
100
AcDbLine
 10
-0.111621
 20
-0.01318
 30
-1.948819
 11
-0.112205
 21
-0.013764
 31
-1.948819
210
-0.0000000000000001
220
0.0
230
-1.0
  0
LINE
  5
30EF
100
AcDbEntity
  8
0
100
AcDbLine
 10
-0.080709
 20
0.102378
 30
-1.948819
 11
-0.080709
 21
-0.102346
 31
-1.948819
210
-0.0000000000000001
220
0.0
230
-1.0
  0
LINE
  5
30F0
100
AcDbEntity
  8
0
100
AcDbLine
 10
-0.093904
 20
0.098441
 30
-1.948819
 11
-0.093904
 21
0.013211
 31
-1.948819
210
-0.0000000000000001
220
0.0
230
-1.0
  0
LINE
  5
30F1
100
AcDbEntity
  8
0
100
AcDbLine
 10
-0.093904
 20
-0.01318
 30
-1.948819
 11
-0.093904
 21
-0.098409
 31
-1.948819
210
-0.0000000000000001
220
0.0
230
-1.0
  0
LINE
  5
30F2
100
AcDbEntity
  8
0
100
AcDbLine
 10
-0.094488
 20
0.097857
 30
-1.948819
 11
-0.094488
 21
0.013795
 31
-1.948819
210
-0.0000000000000001
220
0.0
230
-1.0
  0
LINE
  5
30F3
100
AcDbEntity
  8
0
100
AcDbLine
 10
-0.094488
 20
-0.013764
 30
-1.948819
 11
-0.094488
 21
-0.097825
 31
-1.948819
210
-0.0000000000000001
220
0.0
230
-1.0
  0
LINE
  5
30F4
100
AcDbEntity
  8
0
100
AcDbLine
 10
-0.098425
 20
0.098441
 30
-1.948819
 11
-0.098425
 21
0.013795
 31
-1.948819
210
-0.0000000000000001
220
0.0
230
-1.0
  0
LINE
  5
30F5
100
AcDbEntity
  8
0
100
AcDbLine
 10
-0.098425
 20
-0.098409
 30
-1.948819
 11
-0.098425
 21
-0.013764
 31
-1.948819
210
-0.0000000000000001
220
0.0
230
-1.0
  0
LINE
  5
30F6
100
AcDbEntity
  8
0
100
AcDbLine
 10
-0.108268
 20
0.064977
 30
-1.948819
 11
-0.108268
 21
0.019701
 31
-1.948819
210
-0.0000000000000001
220
0.0
230
-1.0
  0
LINE
  5
30F7
100
AcDbEntity
  8
0
100
AcDbLine
 10
-0.108268
 20
-0.019669
 30
-1.948819
 11
-0.108268
 21
-0.064945
 31
-1.948819
210
-0.0000000000000001
220
0.0
230
-1.0
  0
LINE
  5
30F8
100
AcDbEntity
  8
0
100
AcDbLine
 10
-0.111621
 20
0.013211
 30
-1.948819
 11
-0.111621
 21
-0.01318
 31
-1.948819
210
-0.0000000000000001
220
0.0
230
-1.0
  0
LINE
  5
30F9
100
AcDbEntity
  8
0
100
AcDbLine
 10
-0.112205
 20
0.013795
 30
-1.948819
 11
-0.112205
 21
-0.013764
 31
-1.948819
210
-0.0000000000000001
220
0.0
230
-1.0
  0
LINE
  5
30FA
100
AcDbEntity
  8
0
100
AcDbLine
 10
-0.11811
 20
-0.019669
 30
-1.948819
 11
-0.11811
 21
0.019701
 31
-1.948819
210
-0.0000000000000001
220
0.0
230
-1.0
  0
LINE
  5
30FB
100
AcDbEntity
  8
0
100
AcDbLine
 10
-0.122047
 20
0.102378
 30
-1.948819
 11
-0.122047
 21
0.098441
 31
-1.948819
210
-0.0000000000000001
220
0.0
230
-1.0
  0
LINE
  5
30FC
100
AcDbEntity
  8
0
100
AcDbLine
 10
-0.122047
 20
-0.102346
 30
-1.948819
 11
-0.122047
 21
-0.098409
 31
-1.948819
210
-0.0000000000000001
220
0.0
230
-1.0
  0
LINE
  5
30FD
100
AcDbEntity
  8
0
100
AcDbLine
 10
-0.125984
 20
-0.102346
 30
-1.948819
 11
-0.125984
 21
-0.098409
 31
-1.948819
210
-0.0000000000000001
220
0.0
230
-1.0
  0
LINE
  5
30FE
100
AcDbEntity
  8
0
100
AcDbLine
 10
-0.125984
 20
0.098441
 30
-1.948819
 11
-0.125984
 21
0.102378
 31
-1.948819
210
-0.0000000000000001
220
0.0
230
-1.0
  0
LINE
  5
30FF
100
AcDbEntity
  8
0
100
AcDbLine
 10
-0.127953
 20
0.098441
 30
-1.948819
 11
-0.127953
 21
0.064977
 31
-1.948819
210
-0.0000000000000001
220
0.0
230
-1.0
  0
LINE
  5
3100
100
AcDbEntity
  8
0
100
AcDbLine
 10
-0.127953
 20
-0.098409
 30
-1.948819
 11
-0.127953
 21
-0.064945
 31
-1.948819
210
-0.0000000000000001
220
0.0
230
-1.0
  0
LINE
  5
3101
100
AcDbEntity
  8
0
100
AcDbLine
 10
-0.093904
 20
-0.098409
 30
-1.948819
 11
-0.094488
 21
-0.097825
 31
-1.948819
210
-0.0000000000000001
220
0.0
230
-1.0
  0
LINE
  5
3102
100
AcDbEntity
  8
0
100
AcDbLine
 10
-0.094488
 20
0.097857
 30
-1.948819
 11
-0.098425
 21
0.097857
 31
-1.948819
210
-0.0000000000000001
220
0.0
230
-1.0
  0
LINE
  5
3103
100
AcDbEntity
  8
0
100
AcDbLine
 10
-0.080709
 20
0.098441
 30
-1.948819
 11
-0.151575
 21
0.098441
 31
-1.948819
210
-0.0000000000000001
220
0.0
230
-1.0
  0
LINE
  5
3104
100
AcDbEntity
  8
0
100
AcDbLine
 10
-0.080709
 20
0.102378
 30
-1.948819
 11
-0.155512
 21
0.102378
 31
-1.948819
210
-0.0000000000000001
220
0.0
230
-1.0
  0
LINE
  5
3105
100
AcDbEntity
  8
0
100
AcDbLine
 10
-0.093904
 20
0.098441
 30
-1.948819
 11
-0.094488
 21
0.097857
 31
-1.948819
210
-0.0000000000000001
220
0.0
230
-1.0
  0
LINE
  5
3106
100
AcDbEntity
  8
0
100
AcDbLine
 10
-0.151575
 20
-0.098409
 30
-1.948819
 11
-0.151575
 21
0.098441
 31
-1.948819
210
-0.0000000000000001
220
0.0
230
-1.0
  0
LINE
  5
3107
100
AcDbEntity
  8
0
100
AcDbLine
 10
-0.155512
 20
-0.102346
 30
-1.948819
 11
-0.155512
 21
0.102378
 31
-1.948819
210
-0.0000000000000001
220
0.0
230
-1.0
  0
ARC
  5
3108
100
AcDbEntity
  8
0
100
AcDbCircle
 10
0.001969
 20
0.000016
 30
1.948819
 40
0.080709
210
-0.0000000000000001
220
0.0
230
-1.0
100
AcDbArc
 50
347.949338
 51
12.050662
  0
LINE
  5
3109
100
AcDbEntity
  8
0
100
AcDbLine
 10
0.151575
 20
-0.102346
 30
-1.948819
 11
0.151575
 21
0.102378
 31
-1.948819
210
-0.0000000000000001
220
0.0
230
-1.0
  0
LINE
  5
310A
100
AcDbEntity
  8
0
100
AcDbLine
 10
0.147638
 20
0.098441
 30
-1.948819
 11
0.147638
 21
-0.098409
 31
-1.948819
210
-0.0000000000000001
220
0.0
230
-1.0
  0
LINE
  5
310B
100
AcDbEntity
  8
0
100
AcDbLine
 10
0.089967
 20
0.098441
 30
-1.948819
 11
0.090551
 21
0.097857
 31
-1.948819
210
-0.0000000000000001
220
0.0
230
-1.0
  0
LINE
  5
310C
100
AcDbEntity
  8
0
100
AcDbLine
 10
0.089967
 20
-0.098409
 30
-1.948819
 11
0.090551
 21
-0.097825
 31
-1.948819
210
-0.0000000000000001
220
0.0
230
-1.0
  0
LINE
  5
310D
100
AcDbEntity
  8
0
100
AcDbLine
 10
0.124016
 20
0.098441
 30
-1.948819
 11
0.124016
 21
0.064977
 31
-1.948819
210
-0.0000000000000001
220
0.0
230
-1.0
  0
LINE
  5
310E
100
AcDbEntity
  8
0
100
AcDbLine
 10
0.124016
 20
-0.098409
 30
-1.948819
 11
0.124016
 21
-0.064945
 31
-1.948819
210
-0.0000000000000001
220
0.0
230
-1.0
  0
LINE
  5
310F
100
AcDbEntity
  8
0
100
AcDbLine
 10
0.122047
 20
0.102378
 30
-1.948819
 11
0.122047
 21
0.098441
 31
-1.948819
210
-0.0000000000000001
220
0.0
230
-1.0
  0
LINE
  5
3110
100
AcDbEntity
  8
0
100
AcDbLine
 10
0.122047
 20
-0.098409
 30
-1.948819
 11
0.122047
 21
-0.102346
 31
-1.948819
210
-0.0000000000000001
220
0.0
230
-1.0
  0
LINE
  5
3111
100
AcDbEntity
  8
0
100
AcDbLine
 10
0.11811
 20
0.102378
 30
-1.948819
 11
0.11811
 21
0.098441
 31
-1.948819
210
-0.0000000000000001
220
0.0
230
-1.0
  0
LINE
  5
3112
100
AcDbEntity
  8
0
100
AcDbLine
 10
0.11811
 20
-0.102346
 30
-1.948819
 11
0.11811
 21
-0.098409
 31
-1.948819
210
-0.0000000000000001
220
0.0
230
-1.0
  0
LINE
  5
3113
100
AcDbEntity
  8
0
100
AcDbLine
 10
0.114173
 20
0.019701
 30
-1.948819
 11
0.114173
 21
-0.019669
 31
-1.948819
210
-0.0000000000000001
220
0.0
230
-1.0
  0
LINE
  5
3114
100
AcDbEntity
  8
0
100
AcDbLine
 10
0.108268
 20
-0.013764
 30
-1.948819
 11
0.108268
 21
0.013795
 31
-1.948819
210
-0.0000000000000001
220
0.0
230
-1.0
  0
LINE
  5
3115
100
AcDbEntity
  8
0
100
AcDbLine
 10
0.107684
 20
-0.01318
 30
-1.948819
 11
0.107684
 21
0.013211
 31
-1.948819
210
-0.0000000000000001
220
0.0
230
-1.0
  0
LINE
  5
3116
100
AcDbEntity
  8
0
100
AcDbLine
 10
0.104331
 20
-0.064945
 30
-1.948819
 11
0.104331
 21
-0.019669
 31
-1.948819
210
-0.0000000000000001
220
0.0
230
-1.0
  0
LINE
  5
3117
100
AcDbEntity
  8
0
100
AcDbLine
 10
0.104331
 20
0.019701
 30
-1.948819
 11
0.104331
 21
0.064977
 31
-1.948819
210
-0.0000000000000001
220
0.0
230
-1.0
  0
LINE
  5
3118
100
AcDbEntity
  8
0
100
AcDbLine
 10
0.094488
 20
-0.098409
 30
-1.948819
 11
0.094488
 21
-0.013764
 31
-1.948819
210
-0.0000000000000001
220
0.0
230
-1.0
  0
LINE
  5
3119
100
AcDbEntity
  8
0
100
AcDbLine
 10
0.094488
 20
0.013795
 30
-1.948819
 11
0.094488
 21
0.098441
 31
-1.948819
210
-0.0000000000000001
220
0.0
230
-1.0
  0
LINE
  5
311A
100
AcDbEntity
  8
0
100
AcDbLine
 10
0.090551
 20
-0.097825
 30
-1.948819
 11
0.090551
 21
-0.013764
 31
-1.948819
210
-0.0000000000000001
220
0.0
230
-1.0
  0
LINE
  5
311B
100
AcDbEntity
  8
0
100
AcDbLine
 10
0.090551
 20
0.013795
 30
-1.948819
 11
0.090551
 21
0.097857
 31
-1.948819
210
-0.0000000000000001
220
0.0
230
-1.0
  0
LINE
  5
311C
100
AcDbEntity
  8
0
100
AcDbLine
 10
0.089967
 20
-0.098409
 30
-1.948819
 11
0.089967
 21
-0.01318
 31
-1.948819
210
-0.0000000000000001
220
0.0
230
-1.0
  0
LINE
  5
311D
100
AcDbEntity
  8
0
100
AcDbLine
 10
0.089967
 20
0.013211
 30
-1.948819
 11
0.089967
 21
0.098441
 31
-1.948819
210
-0.0000000000000001
220
0.0
230
-1.0
  0
LINE
  5
311E
100
AcDbEntity
  8
0
100
AcDbLine
 10
0.076772
 20
-0.102346
 30
-1.948819
 11
0.076772
 21
0.102378
 31
-1.948819
210
-0.0000000000000001
220
0.0
230
-1.0
  0
LINE
  5
311F
100
AcDbEntity
  8
0
100
AcDbLine
 10
0.107684
 20
-0.01318
 30
-1.948819
 11
0.108268
 21
-0.013764
 31
-1.948819
210
-0.0000000000000001
220
0.0
230
-1.0
  0
LINE
  5
3120
100
AcDbEntity
  8
0
100
AcDbLine
 10
0.151575
 20
-0.102346
 30
-1.948819
 11
0.076772
 21
-0.102346
 31
-1.948819
210
-0.0000000000000001
220
0.0
230
-1.0
  0
LINE
  5
3121
100
AcDbEntity
  8
0
100
AcDbLine
 10
0.147638
 20
-0.098409
 30
-1.948819
 11
0.076772
 21
-0.098409
 31
-1.948819
210
-0.0000000000000001
220
0.0
230
-1.0
  0
LINE
  5
3122
100
AcDbEntity
  8
0
100
AcDbLine
 10
0.090551
 20
-0.097825
 30
-1.948819
 11
0.094488
 21
-0.097825
 31
-1.948819
210
-0.0000000000000001
220
0.0
230
-1.0
  0
LINE
  5
3123
100
AcDbEntity
  8
0
100
AcDbLine
 10
0.090551
 20
-0.068882
 30
-1.948819
 11
0.094488
 21
-0.068882
 31
-1.948819
210
-0.0000000000000001
220
0.0
230
-1.0
  0
LINE
  5
3124
100
AcDbEntity
  8
0
100
AcDbLine
 10
0.151575
 20
-0.068882
 30
-1.948819
 11
0.147638
 21
-0.068882
 31
-1.948819
210
-0.0000000000000001
220
0.0
230
-1.0
  0
LINE
  5
3125
100
AcDbEntity
  8
0
100
AcDbLine
 10
0.124016
 20
-0.064945
 30
-1.948819
 11
0.090551
 21
-0.064945
 31
-1.948819
210
-0.0000000000000001
220
0.0
230
-1.0
  0
LINE
  5
3126
100
AcDbEntity
  8
0
100
AcDbLine
 10
0.107684
 20
0.013211
 30
-1.948819
 11
0.108268
 21
0.013795
 31
-1.948819
210
-0.0000000000000001
220
0.0
230
-1.0
  0
LINE
  5
3127
100
AcDbEntity
  8
0
100
AcDbLine
 10
0.089967
 20
-0.01318
 30
-1.948819
 11
0.090551
 21
-0.013764
 31
-1.948819
210
-0.0000000000000001
220
0.0
230
-1.0
  0
LINE
  5
3128
100
AcDbEntity
  8
0
100
AcDbLine
 10
0.090551
 20
-0.057071
 30
-1.948819
 11
0.094488
 21
-0.057071
 31
-1.948819
210
-0.0000000000000001
220
0.0
230
-1.0
  0
LINE
  5
3129
100
AcDbEntity
  8
0
100
AcDbLine
 10
0.114173
 20
-0.019669
 30
-1.948819
 11
0.094488
 21
-0.019669
 31
-1.948819
210
-0.0000000000000001
220
0.0
230
-1.0
  0
LINE
  5
312A
100
AcDbEntity
  8
0
100
AcDbLine
 10
0.090551
 20
-0.013764
 30
-1.948819
 11
0.108268
 21
-0.013764
 31
-1.948819
210
-0.0000000000000001
220
0.0
230
-1.0
  0
LINE
  5
312B
100
AcDbEntity
  8
0
100
AcDbLine
 10
0.089967
 20
-0.01318
 30
-1.948819
 11
0.107684
 21
-0.01318
 31
-1.948819
210
-0.0000000000000001
220
0.0
230
-1.0
  0
LINE
  5
312C
100
AcDbEntity
  8
0
100
AcDbLine
 10
0.089967
 20
0.013211
 30
-1.948819
 11
0.090551
 21
0.013795
 31
-1.948819
210
-0.0000000000000001
220
0.0
230
-1.0
  0
LINE
  5
312D
100
AcDbEntity
  8
0
100
AcDbLine
 10
0.107684
 20
0.013211
 30
-1.948819
 11
0.089967
 21
0.013211
 31
-1.948819
210
-0.0000000000000001
220
0.0
230
-1.0
  0
LINE
  5
312E
100
AcDbEntity
  8
0
100
AcDbLine
 10
0.108268
 20
0.013795
 30
-1.948819
 11
0.090551
 21
0.013795
 31
-1.948819
210
-0.0000000000000001
220
0.0
230
-1.0
  0
LINE
  5
312F
100
AcDbEntity
  8
0
100
AcDbLine
 10
0.094488
 20
0.019701
 30
-1.948819
 11
0.114173
 21
0.019701
 31
-1.948819
210
-0.0000000000000001
220
0.0
230
-1.0
  0
LINE
  5
3130
100
AcDbEntity
  8
0
100
AcDbLine
 10
0.094488
 20
0.057103
 30
-1.948819
 11
0.090551
 21
0.057103
 31
-1.948819
210
-0.0000000000000001
220
0.0
230
-1.0
  0
LINE
  5
3131
100
AcDbEntity
  8
0
100
AcDbLine
 10
0.124016
 20
0.064977
 30
-1.948819
 11
0.090551
 21
0.064977
 31
-1.948819
210
-0.0000000000000001
220
0.0
230
-1.0
  0
LINE
  5
3132
100
AcDbEntity
  8
0
100
AcDbLine
 10
0.090551
 20
0.068914
 30
-1.948819
 11
0.094488
 21
0.068914
 31
-1.948819
210
-0.0000000000000001
220
0.0
230
-1.0
  0
LINE
  5
3133
100
AcDbEntity
  8
0
100
AcDbLine
 10
0.151575
 20
0.068914
 30
-1.948819
 11
0.147638
 21
0.068914
 31
-1.948819
210
-0.0000000000000001
220
0.0
230
-1.0
  0
LINE
  5
3134
100
AcDbEntity
  8
0
100
AcDbLine
 10
0.090551
 20
0.097857
 30
-1.948819
 11
0.094488
 21
0.097857
 31
-1.948819
210
-0.0000000000000001
220
0.0
230
-1.0
  0
LINE
  5
3135
100
AcDbEntity
  8
0
100
AcDbLine
 10
0.147638
 20
0.098441
 30
-1.948819
 11
0.076772
 21
0.098441
 31
-1.948819
210
-0.0000000000000001
220
0.0
230
-1.0
  0
LINE
  5
3136
100
AcDbEntity
  8
0
100
AcDbLine
 10
0.151575
 20
0.102378
 30
-1.948819
 11
0.076772
 21
0.102378
 31
-1.948819
210
-0.0000000000000001
220
0.0
230
-1.0
  0
ARC
  5
3137
100
AcDbEntity
  8
0
100
AcDbCircle
 10
0.001969
 20
0.000016
 30
1.948819
 40
0.080709
210
-0.0000000000000001
220
0.0
230
-1.0
100
AcDbArc
 50
167.949338
 51
192.050662
  0
VIEWPORT
  5
2C
102
{ACAD_XDICTIONARY
360
3151
102
}
100
AcDbEntity
 67
     1
  8
0
100
AcDbViewport
 10
5.000031
 20
3.750029
 30
0.0
 40
14.378992
 41
7.583441
 68
     1
 69
     1
1001
ACAD
1000
MVIEW
1002
{
1070
    16
1010
0.0
1020
0.0
1030
0.0
1010
0.0
1020
0.0
1030
1.0
1040
0.0
1040
7.583441
1040
5.000031
1040
3.750029
1040
50.0
1040
0.0
1040
0.0
1070
     0
1070
   100
1070
     1
1070
     1
1070
     0
1070
     0
1070
     0
1070
     0
1040
0.0
1040
0.0
1040
0.0
1040
1.0
1040
1.0
1040
0.0
1040
0.0
1070
     0
1002
{
1002
}
1002
}
  0
VIEWPORT
  5
2D
102
{ACAD_XDICTIONARY
360
3153
102
}
100
AcDbEntity
 67
     1
  8
0
100
AcDbViewport
 10
2.5
 20
5.812939
 30
0.0
 40
5.0
 41
3.374123
 68
     2
 69
     2
1001
ACAD
1000
MVIEW
1002
{
1070
    16
1010
3.057541
1020
-10.430292
1030
16.925
1010
0.0
1020
0.0
1030
1.0
1040
4.712389
1040
3.374123
1040
10.685289
1040
3.071237
1040
50.0
1040
-16.925
1040
-16.925
1070
     0
1070
 20000
1070
     1
1070
     0
1070
     0
1070
     0
1070
     0
1070
     0
1040
0.0
1040
0.0
1040
0.0
1040
1.0
1040
1.0
1040
0.0
1040
0.0
1070
     0
1002
{
1003
AREA2
1002
}
1002
}
  0
VIEWPORT
  5
2E
102
{ACAD_XDICTIONARY
360
3155
102
}
100
AcDbEntity
 67
     1
  8
0
100
AcDbViewport
 10
2.5
 20
2.062939
 30
0.0
 40
5.0
 41
4.125877
 68
     4
 69
     3
1001
ACAD
1000
MVIEW
1002
{
1070
    16
1010
0.0
1020
0.0
1030
0.0
1010
1.0
1020
0.0
1030
0.0
1040
0.0
1040
4.125877
1040
0.254997
1040
-0.386744
1040
50.0
1040
0.0
1040
0.0
1070
     0
1070
 20000
1070
     1
1070
     0
1070
     0
1070
     0
1070
     0
1070
     0
1040
0.0
1040
0.0
1040
0.0
1040
1.0
1040
1.0
1040
0.0
1040
0.0
1070
     0
1002
{
1003
AREA1
1003
SCALE
1002
}
1002
}
  0
VIEWPORT
  5
2F
102
{ACAD_XDICTIONARY
360
3157
102
}
100
AcDbEntity
 67
     1
  8
0
100
AcDbViewport
 10
7.5
 20
3.75
 30
0.0
 40
5.0
 41
7.5
 68
     3
 69
     4
1001
ACAD
1000
MVIEW
1002
{
1070
    16
1010
0.0
1020
0.0
1030
0.0
1010
1.0
1020
1.0
1030
1.0
1040
0.0
1040
3.719653
1040
0.003295
1040
-0.207681
1040
50.0
1040
0.0
1040
0.0
1070
     0
1070
 20000
1070
     1
1070
     0
1070
     0
1070
     0
1070
     0
1070
     0
1040
0.0
1040
0.0
1040
0.0
1040
1.0
1040
1.0
1040
0.0
1040
0.0
1070
     1
1002
{
1003
AREA1
1003
AREA2
1003
SCALE
1002
}
1002
}
  0
TEXT
  5
42D
100
AcDbEntity
 67
     1
  8
0
100
AcDbText
 10
5.136054
 20
7.092701
 30
0.0
 40
0.2
  1
800F-X11D
100
AcDbText
  0
TEXT
  5
431
100
AcDbEntity
 67
     1
  8
0
100
AcDbText
 10
5.136054
 20
6.759368
 30
0.0
 40
0.2
  1
DUAL CIRCUIT 1 N.O./1 N.C. 
100
AcDbText
1001
ACAD
1000
R13OBJECT
1002
{
1005
42D
1002
}
  0
TEXT
  5
2688
100
AcDbEntity
 67
     1
  8
0
100
AcDbText
 10
5.136054
 20
6.425568
 30
0.0
 40
0.2
  1
CONTACT BLOCK
100
AcDbText
1001
ACAD
1000
R13OBJECT
1002
{
1005
42D
1002
}
  0
ENDSEC
  0
SECTION
  2
OBJECTS
  0
DICTIONARY
  5
46D
100
AcDbDictionary
  3
ACAD_COLOR
350
2073
  3
ACAD_GROUP
350
46E
  3
ACAD_LAYOUT
350
49E
  3
ACAD_MATERIAL
350
2072
  3
ACAD_MLINESTYLE
350
47B
  3
ACAD_PLOTSETTINGS
350
49F
  3
ACAD_PLOTSTYLENAME
350
49C
  3
ACDBHEADERROUNDTRIPXREC
350
3162
  3
ACDBVARIABLEDICTIONARY
350
48D
  3
DWGPROPS
350
314D
  0
DICTIONARY
  5
3160
100
AcDbDictionary
280
     1
  3
ACAD_XREC_ROUNDTRIP
360
3161
  0
DICTIONARY
  5
3185
100
AcDbDictionary
280
     1
  3
ACAD_XREC_ROUNDTRIP
360
3186
  0
DICTIONARY
  5
3189
100
AcDbDictionary
280
     1
  3
ACAD_XREC_ROUNDTRIP
360
318A
  0
DICTIONARY
  5
4D7
100
AcDbDictionary
280
     1
  3
ACAD_LAYOUTSELFREF
360
3184
  0
DICTIONARY
  5
4D5
100
AcDbDictionary
280
     1
  3
ACAD_LAYOUTSELFREF
360
3183
  0
DICTIONARY
  5
3151
100
AcDbDictionary
280
     1
  3
ACAD_XREC_ROUNDTRIP
360
3152
  0
DICTIONARY
  5
3153
100
AcDbDictionary
280
     1
  3
ACAD_XREC_ROUNDTRIP
360
3154
  0
DICTIONARY
  5
3155
100
AcDbDictionary
280
     1
  3
ACAD_XREC_ROUNDTRIP
360
3156
  0
DICTIONARY
  5
3157
100
AcDbDictionary
280
     1
  3
ACAD_XREC_ROUNDTRIP
360
3158
  0
DICTIONARY
  5
2073
102
{ACAD_REACTORS
330
46D
102
}
100
AcDbDictionary
  0
DICTIONARY
  5
46E
102
{ACAD_REACTORS
330
46D
102
}
100
AcDbDictionary
  0
DICTIONARY
  5
49E
102
{ACAD_XDICTIONARY
360
3187
102
}
102
{ACAD_REACTORS
330
46D
102
}
100
AcDbDictionary
  3
LAYOUT1
350
4A1
  3
MODEL
350
4A0
  0
DICTIONARY
  5
2072
102
{ACAD_REACTORS
330
46D
102
}
100
AcDbDictionary
  0
DICTIONARY
  5
47B
102
{ACAD_REACTORS
330
46D
102
}
100
AcDbDictionary
  3
STANDARD
350
47C
  0
DICTIONARY
  5
49F
102
{ACAD_REACTORS
330
46D
102
}
100
AcDbDictionary
  0
ACAD_PROXY_OBJECT
  5
49C
102
{ACAD_REACTORS
330
46D
102
}
100
AcDbProxyObject
 90
      499
 91
      501
 93
       86
310
405010041939BDC9B585B0
350
49D
340
49D
 94
        0
  0
DICTIONARY
  5
3162
102
{ACAD_REACTORS
330
46D
102
}
100
AcDbDictionary
  3
CEPSNTYPE
350
316C
  3
DIMSTYLEDATA
350
3170
  3
FINGERPRINTGUID
350
316D
  3
HYPERLINKBASE
350
3165
  3
INSUNITS
350
316B
  3
LAYOUTDICT
350
3167
  3
LWETCUNION
350
316A
  3
PLOTSETDICT
350
3168
  3
PLOTSTYLNAMDICT
350
3169
  3
PSVPSCALE
350
316F
  3
PUCSBASE
350
3173
  3
PUCSORGBACK
350
3179
  3
PUCSORGBOTTOM
350
3175
  3
PUCSORGFRONT
350
3178
  3
PUCSORGLEFT
350
3176
  3
PUCSORGRIGHT
350
3177
  3
PUCSORGTOP
350
3174
  3
PUCSORTHOREF
350
3171
  3
PUCSORTHOVIEW
350
3172
  3
STYLESHEET
350
3166
  3
TSTACKALIGN
350
3163
  3
TSTACKSIZE
350
3164
  3
UCSBASE
350
317C
  3
UCSORGBACK
350
3182
  3
UCSORGBOTTOM
350
317E
  3
UCSORGFRONT
350
3181
  3
UCSORGLEFT
350
317F
  3
UCSORGRIGHT
350
3180
  3
UCSORGTOP
350
317D
  3
UCSORTHOREF
350
317A
  3
UCSORTHOVIEW
350
317B
  3
VERSIONGUID
350
316E
  0
DICTIONARY
  5
48D
102
{ACAD_REACTORS
330
46D
102
}
100
AcDbDictionary
  3
DIMADEC
350
48E
  3
DIMASSOC
350
1E22
  3
PROJECTNAME
350
2120
  0
XRECORD
  5
314D
102
{ACAD_REACTORS
330
46D
102
}
100
AcDbXrecord
  1
DWGPROPS COOKIE
  2

  3

  4

  6

  7

  8
colin
  9

300
=
301
=
302
=
303
=
304
=
305
=
306
=
307
=
308
=
309
=
 40
0.509002
 41
2451670.449415
 42
2452759.539666
  1

 90
        0
  0
XRECORD
  5
3161
102
{ACAD_REACTORS
330
3160
102
}
100
AcDbXrecord
102
EXTNAMES
  1
*ACTIVE
  2
*Active
102
UCS
 74
     0
 71
     1
 10
0.0
 20
0.0
 30
0.0
 10
1.0
 20
0.0
 30
0.0
 10
0.0
 20
1.0
 30
0.0
146
0.0
 79
     1
102
VIEW
281
     0
  0
XRECORD
  5
3186
102
{ACAD_REACTORS
330
3185
102
}
100
AcDbXrecord
102
PLOTBIT
280
     0
  0
XRECORD
  5
318A
102
{ACAD_REACTORS
330
3189
102
}
100
AcDbXrecord
102
ACADR14ROUNDTRIP
1000
DSTYLE
1002
{
1070
   276
 70
     2
1070
   277
 70
     5
1070
   279
 70
     2
1070
   289
 70
     2
1002
}
  0
XRECORD
  5
3184
102
{ACAD_REACTORS
330
4D7
102
}
100
AcDbXrecord
340
478
  0
XRECORD
  5
3183
102
{ACAD_REACTORS
330
4D5
102
}
100
AcDbXrecord
340
475
  0
XRECORD
  5
3152
102
{ACAD_REACTORS
330
3151
102
}
100
AcDbXrecord
102
SHADEPLOT
 70
     0
102
UCS
 74
     0
 71
     1
 10
0.0
 20
0.0
 30
0.0
 10
1.0
 20
0.0
 30
0.0
 10
0.0
 20
1.0
 30
0.0
146
0.0
 79
     0
102
VIEW
281
     0
102
NEWVIEWCONTROL
280
     4
  0
XRECORD
  5
3154
102
{ACAD_REACTORS
330
3153
102
}
100
AcDbXrecord
102
SHADEPLOT
 70
     0
102
UCS
 74
     0
 71
     1
 10
0.0
 20
0.0
 30
0.0
 10
1.0
 20
0.0
 30
0.0
 10
0.0
 20
1.0
 30
0.0
146
0.0
 79
     0
102
VIEW
281
     0
102
NEWVIEWCONTROL
280
     4
  0
XRECORD
  5
3156
102
{ACAD_REACTORS
330
3155
102
}
100
AcDbXrecord
102
SHADEPLOT
 70
     0
102
UCS
 74
     0
 71
     1
 10
0.0
 20
0.0
 30
0.0
 10
0.0
 20
1.0
 30
0.0
 10
0.0
 20
0.0
 30
1.0
146
0.0
 79
     0
102
VIEW
281
     0
102
NEWVIEWCONTROL
280
     4
  0
XRECORD
  5
3158
102
{ACAD_REACTORS
330
3157
102
}
100
AcDbXrecord
102
SHADEPLOT
 70
     2
102
UCS
 74
     0
 71
     1
 10
0.0
 20
0.0
 30
0.0
 10
1.0
 20
0.0
 30
0.0
 10
0.0
 20
1.0
 30
0.0
146
0.0
 79
     0
102
VIEW
281
     0
102
NEWVIEWCONTROL
280
     4
  0
DICTIONARY
  5
3187
100
AcDbDictionary
280
     1
  3
ACAD_XREC_ROUNDTRIP
360
3188
  0
ACAD_PROXY_OBJECT
  5
4A1
102
{ACAD_XDICTIONARY
360
315B
102
}
102
{ACAD_REACTORS
330
49E
102
}
100
AcDbProxyObject
 90
      499
 91
      503
 93
     1940
310
91B5C5C4254535F5345525645525C4850204C617365724A65742034562F0080000002033931C40000000102D38469000000000030931C40000000002E06C5100000000C0CCFC6A4000000018199D9C501064C65747465722A3192CDE250780FE901406AA437CE369AC35EEE3F4314D51053911054910B98DD18A08B1EE10F4
310
36FC0FC33139578FE8D6E3F0CFCD94886C516CFD074C61796F75743140501AA3BE18B77403F22FF5B1EC1ED71374AFFFC8BA4BB9E0091034CC347F3647C7D02A6A6A182B89533726CD6FC00EE1284F8FDF9BE303D8CB087AFD8AF85C6FBA58330024400C5CA41C854007900E0423E2032E0753E0
330
475
330
2C
340
0
340
0
 94
        0
  0
ACAD_PROXY_OBJECT
  5
4A0
102
{ACAD_XDICTIONARY
360
3159
102
}
102
{ACAD_REACTORS
330
49E
102
}
100
AcDbProxyObject
 90
      499
 91
      503
 93
      924
310
91D4850204C617365724A65742035303030205365726965732050434C20362C01AAAAAAAAA547D11959985D5B1D08148C4D081C195B88185CDCDA59DB9B595B9D1CCB98DD18A69054D6F64656C901A800000000000000000000000000000000000000000000A1000000000000008902A6A6AAAA0
330
478
330
0
340
0
340
0
 94
        0
  0
MLINESTYLE
  5
47C
102
{ACAD_REACTORS
330
47B
102
}
100
AcDbMlineStyle
  2
STANDARD
 70
     0
  3

 62
   256
 51
90.0
 52
90.0
 71
     2
 49
0.5
 62
   256
  6
BYLAYER
 49
-0.5
 62
   256
  6
BYLAYER
  0
ACAD_PROXY_OBJECT
  5
49D
102
{ACAD_REACTORS
330
49C
102
}
100
AcDbProxyObject
 90
      499
 91
      502
 93
        0
 94
        0
  0
XRECORD
  5
316C
102
{ACAD_REACTORS
330
3162
102
}
100
AcDbXrecord
 90
        0
  0
XRECORD
  5
3170
102
{ACAD_REACTORS
330
3162
102
}
100
AcDbXrecord
1000
DSTYLE
1002
{
1070
   276
 70
     2
1070
   277
 70
     5
1070
   279
 70
     2
1070
   289
 70
     2
1002
}
  0
XRECORD
  5
316D
102
{ACAD_REACTORS
330
3162
102
}
100
AcDbXrecord
  1
{6E0CF4B5-225E-11D4-A150-00A0CC3303EC}
  0
XRECORD
  5
3165
102
{ACAD_REACTORS
330
3162
102
}
100
AcDbXrecord
  1

  0
XRECORD
  5
316B
102
{ACAD_REACTORS
330
3162
102
}
100
AcDbXrecord
 90
        0
  0
XRECORD
  5
3167
102
{ACAD_REACTORS
330
3162
102
}
100
AcDbXrecord
340
49E
  0
XRECORD
  5
316A
102
{ACAD_REACTORS
330
3162
102
}
100
AcDbXrecord
 90
    10781
  0
XRECORD
  5
3168
102
{ACAD_REACTORS
330
3162
102
}
100
AcDbXrecord
340
49F
  0
XRECORD
  5
3169
102
{ACAD_REACTORS
330
3162
102
}
100
AcDbXrecord
340
49C
  0
XRECORD
  5
316F
102
{ACAD_REACTORS
330
3162
102
}
100
AcDbXrecord
 40
0.0
  0
XRECORD
  5
3173
102
{ACAD_REACTORS
330
3162
102
}
100
AcDbXrecord
340
0
  0
XRECORD
  5
3179
102
{ACAD_REACTORS
330
3162
102
}
100
AcDbXrecord
 10
0.0
 20
0.0
 30
0.0
  0
XRECORD
  5
3175
102
{ACAD_REACTORS
330
3162
102
}
100
AcDbXrecord
 10
0.0
 20
0.0
 30
0.0
  0
XRECORD
  5
3178
102
{ACAD_REACTORS
330
3162
102
}
100
AcDbXrecord
 10
0.0
 20
0.0
 30
0.0
  0
XRECORD
  5
3176
102
{ACAD_REACTORS
330
3162
102
}
100
AcDbXrecord
 10
0.0
 20
0.0
 30
0.0
  0
XRECORD
  5
3177
102
{ACAD_REACTORS
330
3162
102
}
100
AcDbXrecord
 10
0.0
 20
0.0
 30
0.0
  0
XRECORD
  5
3174
102
{ACAD_REACTORS
330
3162
102
}
100
AcDbXrecord
 10
0.0
 20
0.0
 30
0.0
  0
XRECORD
  5
3171
102
{ACAD_REACTORS
330
3162
102
}
100
AcDbXrecord
340
0
  0
XRECORD
  5
3172
102
{ACAD_REACTORS
330
3162
102
}
100
AcDbXrecord
 70
     0
  0
XRECORD
  5
3166
102
{ACAD_REACTORS
330
3162
102
}
100
AcDbXrecord
  1

  0
XRECORD
  5
3163
102
{ACAD_REACTORS
330
3162
102
}
100
AcDbXrecord
 90
        1
  0
XRECORD
  5
3164
102
{ACAD_REACTORS
330
3162
102
}
100
AcDbXrecord
 90
       70
  0
XRECORD
  5
317C
102
{ACAD_REACTORS
330
3162
102
}
100
AcDbXrecord
340
0
  0
XRECORD
  5
3182
102
{ACAD_REACTORS
330
3162
102
}
100
AcDbXrecord
 10
0.0
 20
0.0
 30
0.0
  0
XRECORD
  5
317E
102
{ACAD_REACTORS
330
3162
102
}
100
AcDbXrecord
 10
0.0
 20
0.0
 30
0.0
  0
XRECORD
  5
3181
102
{ACAD_REACTORS
330
3162
102
}
100
AcDbXrecord
 10
0.0
 20
0.0
 30
0.0
  0
XRECORD
  5
317F
102
{ACAD_REACTORS
330
3162
102
}
100
AcDbXrecord
 10
0.0
 20
0.0
 30
0.0
  0
XRECORD
  5
3180
102
{ACAD_REACTORS
330
3162
102
}
100
AcDbXrecord
 10
0.0
 20
0.0
 30
0.0
  0
XRECORD
  5
317D
102
{ACAD_REACTORS
330
3162
102
}
100
AcDbXrecord
 10
0.0
 20
0.0
 30
0.0
  0
XRECORD
  5
317A
102
{ACAD_REACTORS
330
3162
102
}
100
AcDbXrecord
340
0
  0
XRECORD
  5
317B
102
{ACAD_REACTORS
330
3162
102
}
100
AcDbXrecord
 70
     0
  0
XRECORD
  5
316E
102
{ACAD_REACTORS
330
3162
102
}
100
AcDbXrecord
  1
{DAF47BB5-5A5F-4D8E-9076-9D072EC3EF69}
  0
DICTIONARYVAR
  5
48E
102
{ACAD_REACTORS
330
48D
102
}
100
DictionaryVariables
280
     0
  1
0
  0
DICTIONARYVAR
  5
1E22
102
{ACAD_REACTORS
330
48D
102
}
100
DictionaryVariables
280
     0
  1
1
  0
DICTIONARYVAR
  5
2120
102
{ACAD_REACTORS
330
48D
102
}
100
DictionaryVariables
280
     0
  1

  0
XRECORD
  5
3188
102
{ACAD_REACTORS
330
3187
102
}
100
AcDbXrecord
102
EXTNAMES
  1
LAYOUT1
  2
Layout1
  1
MODEL
  2
Model
  0
DICTIONARY
  5
315B
100
AcDbDictionary
280
     1
  3
ACAD_XREC_ROUNDTRIP
360
315C
  0
DICTIONARY
  5
3159
100
AcDbDictionary
280
     1
  3
ACAD_XREC_ROUNDTRIP
360
315A
  0
XRECORD
  5
315C
102
{ACAD_REACTORS
330
315B
102
}
100
AcDbXrecord
102
SHADEPLOT
 70
     2
102
SHADEPLOTRESLEVEL
 70
     2
102
SHADEPLOTCUSTOMDPI
 70
   300
  0
XRECORD
  5
315A
102
{ACAD_REACTORS
330
3159
102
}
100
AcDbXrecord
102
SHADEPLOT
 70
     0
102
SHADEPLOTRESLEVEL
 70
     2
102
SHADEPLOTCUSTOMDPI
 70
   300
  0
ENDSEC
  0
EOF
