  0
SECTION
  2
HEADER
  9
$ACADVER
  1
AC1014
  9
$ACADMAINTVER
 70
     8
  9
$DWGCODEPAGE
  3
ANSI_1252
  9
$INSBASE
 10
0.0
 20
0.0
 30
0.0
  9
$EXTMIN
 10
-1.455827
 20
-0.892
 30
-1.04
  9
$EXTMAX
 10
1.371716
 20
1.245201
 30
0.0
  9
$LIMMIN
 10
0.0
 20
0.0
  9
$LIMMAX
 10
12.0
 20
9.0
  9
$ORTHOMODE
 70
     0
  9
$REGENMODE
 70
     1
  9
$FILLMODE
 70
     1
  9
$QTEXTMODE
 70
     0
  9
$MIRRTEXT
 70
     1
  9
$DRAGMODE
 70
     2
  9
$LTSCALE
 40
1.0
  9
$OSMODE
 70
    37
  9
$ATTMODE
 70
     1
  9
$TEXTSIZE
 40
0.12
  9
$TRACEWID
 40
0.05
  9
$TEXTSTYLE
  7
STANDARD
  9
$CLAYER
  8
0
  9
$CELTYPE
  6
BYLAYER
  9
$CECOLOR
 62
   256
  9
$CELTSCALE
 40
1.0
  9
$DELOBJ
 70
     1
  9
$DISPSILH
 70
     0
  9
$DIMSCALE
 40
1.0
  9
$DIMASZ
 40
0.1
  9
$DIMEXO
 40
0.1
  9
$DIMDLI
 40
0.375
  9
$DIMRND
 40
0.0
  9
$DIMDLE
 40
0.0
  9
$DIMEXE
 40
0.1
  9
$DIMTP
 40
0.0
  9
$DIMTM
 40
0.0
  9
$DIMTXT
 40
0.1
  9
$DIMCEN
 40
0.09
  9
$DIMTSZ
 40
0.0
  9
$DIMTOL
 70
     0
  9
$DIMLIM
 70
     0
  9
$DIMTIH
 70
     0
  9
$DIMTOH
 70
     1
  9
$DIMSE1
 70
     0
  9
$DIMSE2
 70
     0
  9
$DIMTAD
 70
     0
  9
$DIMZIN
 70
     4
  9
$DIMBLK
  1

  9
$DIMASO
 70
     1
  9
$DIMSHO
 70
     1
  9
$DIMPOST
  1

  9
$DIMAPOST
  1

  9
$DIMALT
 70
     1
  9
$DIMALTD
 70
     2
  9
$DIMALTF
 40
25.4
  9
$DIMLFAC
 40
1.0
  9
$DIMTOFL
 70
     0
  9
$DIMTVP
 40
0.0
  9
$DIMTIX
 70
     0
  9
$DIMSOXD
 70
     0
  9
$DIMSAH
 70
     0
  9
$DIMBLK1
  1

  9
$DIMBLK2
  1

  9
$DIMSTYLE
  2
ABECAD_3D
  9
$DIMCLRD
 70
     0
  9
$DIMCLRE
 70
     0
  9
$DIMCLRT
 70
     0
  9
$DIMTFAC
 40
1.5
  9
$DIMGAP
 40
0.09
  9
$DIMJUST
 70
     0
  9
$DIMSD1
 70
     0
  9
$DIMSD2
 70
     0
  9
$DIMTOLJ
 70
     1
  9
$DIMTZIN
 70
     4
  9
$DIMALTZ
 70
     4
  9
$DIMALTTZ
 70
     4
  9
$DIMFIT
 70
     5
  9
$DIMUPT
 70
     1
  9
$DIMUNIT
 70
     7
  9
$DIMDEC
 70
     6
  9
$DIMTDEC
 70
     6
  9
$DIMALTU
 70
     2
  9
$DIMALTTD
 70
     2
  9
$DIMTXSTY
  7
STANDARD
  9
$DIMAUNIT
 70
     0
  9
$LUNITS
 70
     2
  9
$LUPREC
 70
     4
  9
$SKETCHINC
 40
0.1
  9
$FILLETRAD
 40
0.0
  9
$AUNITS
 70
     0
  9
$AUPREC
 70
     0
  9
$MENU
  1
ACAD
  9
$ELEVATION
 40
0.0
  9
$PELEVATION
 40
0.0
  9
$THICKNESS
 40
0.0
  9
$LIMCHECK
 70
     0
  9
$BLIPMODE
 70
     0
  9
$CHAMFERA
 40
0.0
  9
$CHAMFERB
 40
0.0
  9
$CHAMFERC
 40
0.0
  9
$CHAMFERD
 40
0.0
  9
$SKPOLY
 70
     0
  9
$TDCREATE
 40
2451726.438389120
  9
$TDUPDATE
 40
2452100.671971412
  9
$TDINDWG
 40
1.4272531250
  9
$TDUSRTIMER
 40
1.4272531250
  9
$USRTIMER
 70
     1
  9
$ANGBASE
 50
0.0
  9
$ANGDIR
 70
     0
  9
$PDMODE
 70
     3
  9
$PDSIZE
 40
0.09
  9
$PLINEWID
 40
0.0
  9
$COORDS
 70
     1
  9
$SPLFRAME
 70
     1
  9
$SPLINETYPE
 70
     6
  9
$SPLINESEGS
 70
     8
  9
$ATTDIA
 70
     0
  9
$ATTREQ
 70
     1
  9
$HANDLING
 70
     1
  9
$HANDSEED
  5
AB0E4
  9
$SURFTAB1
 70
     6
  9
$SURFTAB2
 70
     6
  9
$SURFTYPE
 70
     6
  9
$SURFU
 70
     6
  9
$SURFV
 70
     6
  9
$UCSNAME
  2

  9
$UCSORG
 10
0.0
 20
0.0
 30
0.0
  9
$UCSXDIR
 10
1.0
 20
0.0
 30
0.0
  9
$UCSYDIR
 10
0.0
 20
1.0
 30
0.0
  9
$PUCSNAME
  2

  9
$PUCSORG
 10
0.0
 20
0.0
 30
0.0
  9
$PUCSXDIR
 10
1.0
 20
0.0
 30
0.0
  9
$PUCSYDIR
 10
0.0
 20
1.0
 30
0.0
  9
$USERI1
 70
     0
  9
$USERI2
 70
     0
  9
$USERI3
 70
     0
  9
$USERI4
 70
     0
  9
$USERI5
 70
     0
  9
$USERR1
 40
0.0
  9
$USERR2
 40
0.0
  9
$USERR3
 40
0.0
  9
$USERR4
 40
0.0
  9
$USERR5
 40
0.0
  9
$WORLDVIEW
 70
     1
  9
$SHADEDGE
 70
     3
  9
$SHADEDIF
 70
    70
  9
$TILEMODE
 70
     1
  9
$MAXACTVP
 70
    16
  9
$PINSBASE
 10
0.0
 20
0.0
 30
0.0
  9
$PLIMCHECK
 70
     0
  9
$PEXTMIN
 10
1.05
 20
0.8
 30
0.0
  9
$PEXTMAX
 10
9.45
 20
7.2
 30
0.0
  9
$PLIMMIN
 10
-0.25
 20
-0.25
  9
$PLIMMAX
 10
10.75
 20
8.25
  9
$UNITMODE
 70
     0
  9
$VISRETAIN
 70
     0
  9
$PLINEGEN
 70
     0
  9
$PSLTSCALE
 70
     1
  9
$TREEDEPTH
 70
  3020
  9
$PICKSTYLE
 70
     1
  9
$CMLSTYLE
  2
STANDARD
  9
$CMLJUST
 70
     0
  9
$CMLSCALE
 40
1.0
  9
$PROXYGRAPHICS
 70
     1
  9
$MEASUREMENT
 70
     0
  0
ENDSEC
  0
SECTION
  2
CLASSES
  0
CLASS
  1
DICTIONARYVAR
  2
AcDbDictionaryVar
  3
"AutoCAD"
 90
        0
280
     0
281
     0
  0
CLASS
  1
ACDBDICTIONARYWDFLT
  2
AcDbDictionaryWithDefault
  3
AutoCAD 2000
 90
        0
280
     0
281
     0
  0
CLASS
  1
ACDBPLACEHOLDER
  2
AcDbPlaceHolder
  3
AutoCAD 2000
 90
        0
280
     0
281
     0
  0
CLASS
  1
LAYOUT
  2
AcDbLayout
  3
AutoCAD 2000
 90
        0
280
     0
281
     0
  0
CLASS
  1
LONG_TRANSACTION
  2
AcDbLongTransaction
  3
AutoCAD 2000
 90
        0
280
     0
281
     0
  0
CLASS
  1
LWPOLYLINE
  2
AcDbPolyline
  3
"AutoCAD"
 90
        0
280
     0
281
     1
  0
CLASS
  1
HATCH
  2
AcDbHatch
  3
"ACAD_SEDONA"
 90
        0
280
     0
281
     1
  0
CLASS
  1
XRECORD
  2
AcDbXrecord
  3
"<Built In>"
 90
        0
280
     0
281
     0
  0
CLASS
  1
LONG_TRANSACTION
  2
AcDbLongTransaction
  3
AutoCAD 2000
 90
        0
280
     0
281
     0
  0
CLASS
  1
LWPOLYLINE
  2
AcDbPolyline
  3
"AutoCAD"
 90
        0
280
     0
281
     1
  0
CLASS
  1
HATCH
  2
AcDbHatch
  3
"ACAD_SEDONA"
 90
        0
280
     0
281
     1
  0
CLASS
  1
XRECORD
  2
AcDbXrecord
  3
"<Built In>"
 90
        0
280
     0
281
     0
  0
CLASS
  1
LONG_TRANSACTION
  2
AcDbLongTransaction
  3
AutoCAD 2000
 90
        0
280
     0
281
     0
  0
CLASS
  1
LWPOLYLINE
  2
AcDbPolyline
  3
"AutoCAD"
 90
        0
280
     0
281
     1
  0
CLASS
  1
HATCH
  2
AcDbHatch
  3
"ACAD_SEDONA"
 90
        0
280
     0
281
     1
  0
CLASS
  1
XRECORD
  2
AcDbXrecord
  3
"<Built In>"
 90
        0
280
     0
281
     0
  0
CLASS
  1
LONG_TRANSACTION
  2
AcDbLongTransaction
  3
AutoCAD 2000
 90
        0
280
     0
281
     0
  0
CLASS
  1
LWPOLYLINE
  2
AcDbPolyline
  3
"AutoCAD"
 90
        0
280
     0
281
     1
  0
CLASS
  1
HATCH
  2
AcDbHatch
  3
"ACAD_SEDONA"
 90
        0
280
     0
281
     1
  0
CLASS
  1
XRECORD
  2
AcDbXrecord
  3
"<Built In>"
 90
        0
280
     0
281
     0
  0
CLASS
  1
LONG_TRANSACTION
  2
AcDbLongTransaction
  3
AutoCAD 2000
 90
        0
280
     0
281
     0
  0
CLASS
  1
LWPOLYLINE
  2
AcDbPolyline
  3
"AutoCAD"
 90
        0
280
     0
281
     1
  0
CLASS
  1
HATCH
  2
AcDbHatch
  3
"ACAD_SEDONA"
 90
        0
280
     0
281
     1
  0
CLASS
  1
XRECORD
  2
AcDbXrecord
  3
"<Built In>"
 90
        0
280
     0
281
     0
  0
CLASS
  1
LONG_TRANSACTION
  2
AcDbLongTransaction
  3
AutoCAD 2000
 90
        0
280
     0
281
     0
  0
CLASS
  1
LWPOLYLINE
  2
AcDbPolyline
  3
"AutoCAD"
 90
        0
280
     0
281
     1
  0
CLASS
  1
HATCH
  2
AcDbHatch
  3
"ACAD_SEDONA"
 90
        0
280
     0
281
     1
  0
CLASS
  1
XRECORD
  2
AcDbXrecord
  3
"<Built In>"
 90
        0
280
     0
281
     0
  0
CLASS
  1
LONG_TRANSACTION
  2
AcDbLongTransaction
  3
AutoCAD 2000
 90
        0
280
     0
281
     0
  0
CLASS
  1
LWPOLYLINE
  2
AcDbPolyline
  3
"AutoCAD"
 90
        0
280
     0
281
     1
  0
CLASS
  1
HATCH
  2
AcDbHatch
  3
"ACAD_SEDONA"
 90
        0
280
     0
281
     1
  0
CLASS
  1
XRECORD
  2
AcDbXrecord
  3
"<Built In>"
 90
        0
280
     0
281
     0
  0
CLASS
  1
LONG_TRANSACTION
  2
AcDbLongTransaction
  3
AutoCAD 2000
 90
        0
280
     0
281
     0
  0
CLASS
  1
LWPOLYLINE
  2
AcDbPolyline
  3
"AutoCAD"
 90
        0
280
     0
281
     1
  0
CLASS
  1
HATCH
  2
AcDbHatch
  3
"ACAD_SEDONA"
 90
        0
280
     0
281
     1
  0
CLASS
  1
XRECORD
  2
AcDbXrecord
  3
"<Built In>"
 90
        0
280
     0
281
     0
  0
CLASS
  1
LONG_TRANSACTION
  2
AcDbLongTransaction
  3
AutoCAD 2000
 90
        0
280
     0
281
     0
  0
CLASS
  1
LWPOLYLINE
  2
AcDbPolyline
  3
"AutoCAD"
 90
        0
280
     0
281
     1
  0
CLASS
  1
HATCH
  2
AcDbHatch
  3
"ACAD_SEDONA"
 90
        0
280
     0
281
     1
  0
CLASS
  1
XRECORD
  2
AcDbXrecord
  3
"<Built In>"
 90
        0
280
     0
281
     0
  0
CLASS
  1
LONG_TRANSACTION
  2
AcDbLongTransaction
  3
AutoCAD 2000
 90
        0
280
     0
281
     0
  0
CLASS
  1
LWPOLYLINE
  2
AcDbPolyline
  3
"AutoCAD"
 90
        0
280
     0
281
     1
  0
CLASS
  1
HATCH
  2
AcDbHatch
  3
"ACAD_SEDONA"
 90
        0
280
     0
281
     1
  0
CLASS
  1
XRECORD
  2
AcDbXrecord
  3
"<Built In>"
 90
        0
280
     0
281
     0
  0
CLASS
  1
LONG_TRANSACTION
  2
AcDbLongTransaction
  3
AutoCAD 2000
 90
        0
280
     0
281
     0
  0
CLASS
  1
LWPOLYLINE
  2
AcDbPolyline
  3
"AutoCAD"
 90
        0
280
     0
281
     1
  0
CLASS
  1
HATCH
  2
AcDbHatch
  3
"ACAD_SEDONA"
 90
        0
280
     0
281
     1
  0
CLASS
  1
XRECORD
  2
AcDbXrecord
  3
"<Built In>"
 90
        0
280
     0
281
     0
  0
CLASS
  1
LONG_TRANSACTION
  2
AcDbLongTransaction
  3
AutoCAD 2000
 90
        0
280
     0
281
     0
  0
CLASS
  1
LWPOLYLINE
  2
AcDbPolyline
  3
"AutoCAD"
 90
        0
280
     0
281
     1
  0
CLASS
  1
HATCH
  2
AcDbHatch
  3
"ACAD_SEDONA"
 90
        0
280
     0
281
     1
  0
CLASS
  1
XRECORD
  2
AcDbXrecord
  3
"<Built In>"
 90
        0
280
     0
281
     0
  0
CLASS
  1
LONG_TRANSACTION
  2
AcDbLongTransaction
  3
AutoCAD 2000
 90
        0
280
     0
281
     0
  0
CLASS
  1
LWPOLYLINE
  2
AcDbPolyline
  3
"AutoCAD"
 90
        0
280
     0
281
     1
  0
CLASS
  1
HATCH
  2
AcDbHatch
  3
"ACAD_SEDONA"
 90
        0
280
     0
281
     1
  0
CLASS
  1
XRECORD
  2
AcDbXrecord
  3
"<Built In>"
 90
        0
280
     0
281
     0
  0
CLASS
  1
LONG_TRANSACTION
  2
AcDbLongTransaction
  3
AutoCAD 2000
 90
        0
280
     0
281
     0
  0
CLASS
  1
LWPOLYLINE
  2
AcDbPolyline
  3
"AutoCAD"
 90
        0
280
     0
281
     1
  0
CLASS
  1
HATCH
  2
AcDbHatch
  3
"ACAD_SEDONA"
 90
        0
280
     0
281
     1
  0
CLASS
  1
XRECORD
  2
AcDbXrecord
  3
"<Built In>"
 90
        0
280
     0
281
     0
  0
CLASS
  1
LONG_TRANSACTION
  2
AcDbLongTransaction
  3
AutoCAD 2000
 90
        0
280
     0
281
     0
  0
CLASS
  1
LWPOLYLINE
  2
AcDbPolyline
  3
"AutoCAD"
 90
        0
280
     0
281
     1
  0
CLASS
  1
HATCH
  2
AcDbHatch
  3
"ACAD_SEDONA"
 90
        0
280
     0
281
     1
  0
CLASS
  1
XRECORD
  2
AcDbXrecord
  3
"<Built In>"
 90
        0
280
     0
281
     0
  0
CLASS
  1
LONG_TRANSACTION
  2
AcDbLongTransaction
  3
AutoCAD 2000
 90
        0
280
     0
281
     0
  0
CLASS
  1
LWPOLYLINE
  2
AcDbPolyline
  3
"AutoCAD"
 90
        0
280
     0
281
     1
  0
CLASS
  1
HATCH
  2
AcDbHatch
  3
"ACAD_SEDONA"
 90
        0
280
     0
281
     1
  0
CLASS
  1
XRECORD
  2
AcDbXrecord
  3
"<Built In>"
 90
        0
280
     0
281
     0
  0
CLASS
  1
LONG_TRANSACTION
  2
AcDbLongTransaction
  3
AutoCAD 2000
 90
        0
280
     0
281
     0
  0
CLASS
  1
LWPOLYLINE
  2
AcDbPolyline
  3
"AutoCAD"
 90
        0
280
     0
281
     1
  0
CLASS
  1
HATCH
  2
AcDbHatch
  3
"ACAD_SEDONA"
 90
        0
280
     0
281
     1
  0
CLASS
  1
XRECORD
  2
AcDbXrecord
  3
"<Built In>"
 90
        0
280
     0
281
     0
  0
CLASS
  1
LONG_TRANSACTION
  2
AcDbLongTransaction
  3
AutoCAD 2000
 90
        0
280
     0
281
     0
  0
CLASS
  1
LWPOLYLINE
  2
AcDbPolyline
  3
"AutoCAD"
 90
        0
280
     0
281
     1
  0
CLASS
  1
HATCH
  2
AcDbHatch
  3
"ACAD_SEDONA"
 90
        0
280
     0
281
     1
  0
CLASS
  1
XRECORD
  2
AcDbXrecord
  3
"<Built In>"
 90
        0
280
     0
281
     0
  0
CLASS
  1
LONG_TRANSACTION
  2
AcDbLongTransaction
  3
AutoCAD 2000
 90
        0
280
     0
281
     0
  0
CLASS
  1
LWPOLYLINE
  2
AcDbPolyline
  3
"AutoCAD"
 90
        0
280
     0
281
     1
  0
CLASS
  1
HATCH
  2
AcDbHatch
  3
"ACAD_SEDONA"
 90
        0
280
     0
281
     1
  0
CLASS
  1
XRECORD
  2
AcDbXrecord
  3
"<Built In>"
 90
        0
280
     0
281
     0
  0
CLASS
  1
LONG_TRANSACTION
  2
AcDbLongTransaction
  3
AutoCAD 2000
 90
        0
280
     0
281
     0
  0
CLASS
  1
LWPOLYLINE
  2
AcDbPolyline
  3
"AutoCAD"
 90
        0
280
     0
281
     1
  0
CLASS
  1
HATCH
  2
AcDbHatch
  3
"ACAD_SEDONA"
 90
        0
280
     0
281
     1
  0
CLASS
  1
XRECORD
  2
AcDbXrecord
  3
"<Built In>"
 90
        0
280
     0
281
     0
  0
CLASS
  1
LONG_TRANSACTION
  2
AcDbLongTransaction
  3
AutoCAD 2000
 90
        0
280
     0
281
     0
  0
CLASS
  1
LWPOLYLINE
  2
AcDbPolyline
  3
"AutoCAD"
 90
        0
280
     0
281
     1
  0
CLASS
  1
HATCH
  2
AcDbHatch
  3
"ACAD_SEDONA"
 90
        0
280
     0
281
     1
  0
CLASS
  1
XRECORD
  2
AcDbXrecord
  3
"<Built In>"
 90
        0
280
     0
281
     0
  0
CLASS
  1
LONG_TRANSACTION
  2
AcDbLongTransaction
  3
AutoCAD 2000
 90
        0
280
     0
281
     0
  0
CLASS
  1
LWPOLYLINE
  2
AcDbPolyline
  3
"AutoCAD"
 90
        0
280
     0
281
     1
  0
CLASS
  1
HATCH
  2
AcDbHatch
  3
"ACAD_SEDONA"
 90
        0
280
     0
281
     1
  0
CLASS
  1
XRECORD
  2
AcDbXrecord
  3
"<Built In>"
 90
        0
280
     0
281
     0
  0
CLASS
  1
LONG_TRANSACTION
  2
AcDbLongTransaction
  3
AutoCAD 2000
 90
        0
280
     0
281
     0
  0
CLASS
  1
LWPOLYLINE
  2
AcDbPolyline
  3
"AutoCAD"
 90
        0
280
     0
281
     1
  0
CLASS
  1
HATCH
  2
AcDbHatch
  3
"ACAD_SEDONA"
 90
        0
280
     0
281
     1
  0
CLASS
  1
XRECORD
  2
AcDbXrecord
  3
"<Built In>"
 90
        0
280
     0
281
     0
  0
CLASS
  1
LONG_TRANSACTION
  2
AcDbLongTransaction
  3
AutoCAD 2000
 90
        0
280
     0
281
     0
  0
CLASS
  1
LWPOLYLINE
  2
AcDbPolyline
  3
"AutoCAD"
 90
        0
280
     0
281
     1
  0
CLASS
  1
HATCH
  2
AcDbHatch
  3
"ACAD_SEDONA"
 90
        0
280
     0
281
     1
  0
CLASS
  1
XRECORD
  2
AcDbXrecord
  3
"<Built In>"
 90
        0
280
     0
281
     0
  0
CLASS
  1
LONG_TRANSACTION
  2
AcDbLongTransaction
  3
AutoCAD 2000
 90
        0
280
     0
281
     0
  0
CLASS
  1
LWPOLYLINE
  2
AcDbPolyline
  3
"AutoCAD"
 90
        0
280
     0
281
     1
  0
CLASS
  1
HATCH
  2
AcDbHatch
  3
"ACAD_SEDONA"
 90
        0
280
     0
281
     1
  0
CLASS
  1
XRECORD
  2
AcDbXrecord
  3
"<Built In>"
 90
        0
280
     0
281
     0
  0
CLASS
  1
LONG_TRANSACTION
  2
AcDbLongTransaction
  3
AutoCAD 2000
 90
        0
280
     0
281
     0
  0
CLASS
  1
LWPOLYLINE
  2
AcDbPolyline
  3
"AutoCAD"
 90
        0
280
     0
281
     1
  0
CLASS
  1
HATCH
  2
AcDbHatch
  3
"ACAD_SEDONA"
 90
        0
280
     0
281
     1
  0
CLASS
  1
XRECORD
  2
AcDbXrecord
  3
"<Built In>"
 90
        0
280
     0
281
     0
  0
CLASS
  1
LONG_TRANSACTION
  2
AcDbLongTransaction
  3
AutoCAD 2000
 90
        0
280
     0
281
     0
  0
CLASS
  1
LWPOLYLINE
  2
AcDbPolyline
  3
"AutoCAD"
 90
        0
280
     0
281
     1
  0
CLASS
  1
HATCH
  2
AcDbHatch
  3
"ACAD_SEDONA"
 90
        0
280
     0
281
     1
  0
CLASS
  1
XRECORD
  2
AcDbXrecord
  3
"<Built In>"
 90
        0
280
     0
281
     0
  0
CLASS
  1
LONG_TRANSACTION
  2
AcDbLongTransaction
  3
AutoCAD 2000
 90
        0
280
     0
281
     0
  0
CLASS
  1
LWPOLYLINE
  2
AcDbPolyline
  3
"AutoCAD"
 90
        0
280
     0
281
     1
  0
CLASS
  1
HATCH
  2
AcDbHatch
  3
"ACAD_SEDONA"
 90
        0
280
     0
281
     1
  0
CLASS
  1
XRECORD
  2
AcDbXrecord
  3
"<Built In>"
 90
        0
280
     0
281
     0
  0
CLASS
  1
LONG_TRANSACTION
  2
AcDbLongTransaction
  3
AutoCAD 2000
 90
        0
280
     0
281
     0
  0
CLASS
  1
LWPOLYLINE
  2
AcDbPolyline
  3
"AutoCAD"
 90
        0
280
     0
281
     1
  0
CLASS
  1
HATCH
  2
AcDbHatch
  3
"ACAD_SEDONA"
 90
        0
280
     0
281
     1
  0
CLASS
  1
XRECORD
  2
AcDbXrecord
  3
"<Built In>"
 90
        0
280
     0
281
     0
  0
CLASS
  1
LONG_TRANSACTION
  2
AcDbLongTransaction
  3
AutoCAD 2000
 90
        0
280
     0
281
     0
  0
CLASS
  1
LWPOLYLINE
  2
AcDbPolyline
  3
"AutoCAD"
 90
        0
280
     0
281
     1
  0
CLASS
  1
HATCH
  2
AcDbHatch
  3
"ACAD_SEDONA"
 90
        0
280
     0
281
     1
  0
CLASS
  1
XRECORD
  2
AcDbXrecord
  3
"<Built In>"
 90
        0
280
     0
281
     0
  0
CLASS
  1
LONG_TRANSACTION
  2
AcDbLongTransaction
  3
AutoCAD 2000
 90
        0
280
     0
281
     0
  0
CLASS
  1
LWPOLYLINE
  2
AcDbPolyline
  3
"AutoCAD"
 90
        0
280
     0
281
     1
  0
CLASS
  1
HATCH
  2
AcDbHatch
  3
"ACAD_SEDONA"
 90
        0
280
     0
281
     1
  0
CLASS
  1
XRECORD
  2
AcDbXrecord
  3
"<Built In>"
 90
        0
280
     0
281
     0
  0
CLASS
  1
LONG_TRANSACTION
  2
AcDbLongTransaction
  3
AutoCAD 2000
 90
        0
280
     0
281
     0
  0
CLASS
  1
LWPOLYLINE
  2
AcDbPolyline
  3
"AutoCAD"
 90
        0
280
     0
281
     1
  0
CLASS
  1
HATCH
  2
AcDbHatch
  3
"ACAD_SEDONA"
 90
        0
280
     0
281
     1
  0
CLASS
  1
XRECORD
  2
AcDbXrecord
  3
"<Built In>"
 90
        0
280
     0
281
     0
  0
CLASS
  1
LONG_TRANSACTION
  2
AcDbLongTransaction
  3
AutoCAD 2000
 90
        0
280
     0
281
     0
  0
CLASS
  1
LWPOLYLINE
  2
AcDbPolyline
  3
"AutoCAD"
 90
        0
280
     0
281
     1
  0
CLASS
  1
HATCH
  2
AcDbHatch
  3
"ACAD_SEDONA"
 90
        0
280
     0
281
     1
  0
CLASS
  1
XRECORD
  2
AcDbXrecord
  3
"<Built In>"
 90
        0
280
     0
281
     0
  0
CLASS
  1
LONG_TRANSACTION
  2
AcDbLongTransaction
  3
AutoCAD 2000
 90
        0
280
     0
281
     0
  0
CLASS
  1
LWPOLYLINE
  2
AcDbPolyline
  3
"AutoCAD"
 90
        0
280
     0
281
     1
  0
CLASS
  1
HATCH
  2
AcDbHatch
  3
"ACAD_SEDONA"
 90
        0
280
     0
281
     1
  0
CLASS
  1
XRECORD
  2
AcDbXrecord
  3
"<Built In>"
 90
        0
280
     0
281
     0
  0
CLASS
  1
LONG_TRANSACTION
  2
AcDbLongTransaction
  3
AutoCAD 2000
 90
        0
280
     0
281
     0
  0
CLASS
  1
LWPOLYLINE
  2
AcDbPolyline
  3
"AutoCAD"
 90
        0
280
     0
281
     1
  0
CLASS
  1
HATCH
  2
AcDbHatch
  3
"ACAD_SEDONA"
 90
        0
280
     0
281
     1
  0
CLASS
  1
XRECORD
  2
AcDbXrecord
  3
"<Built In>"
 90
        0
280
     0
281
     0
  0
CLASS
  1
LONG_TRANSACTION
  2
AcDbLongTransaction
  3
AutoCAD 2000
 90
        0
280
     0
281
     0
  0
CLASS
  1
LWPOLYLINE
  2
AcDbPolyline
  3
"AutoCAD"
 90
        0
280
     0
281
     1
  0
CLASS
  1
HATCH
  2
AcDbHatch
  3
"ACAD_SEDONA"
 90
        0
280
     0
281
     1
  0
CLASS
  1
XRECORD
  2
AcDbXrecord
  3
"<Built In>"
 90
        0
280
     0
281
     0
  0
CLASS
  1
LONG_TRANSACTION
  2
AcDbLongTransaction
  3
AutoCAD 2000
 90
        0
280
     0
281
     0
  0
CLASS
  1
LWPOLYLINE
  2
AcDbPolyline
  3
"AutoCAD"
 90
        0
280
     0
281
     1
  0
CLASS
  1
HATCH
  2
AcDbHatch
  3
"ACAD_SEDONA"
 90
        0
280
     0
281
     1
  0
CLASS
  1
XRECORD
  2
AcDbXrecord
  3
"<Built In>"
 90
        0
280
     0
281
     0
  0
CLASS
  1
LONG_TRANSACTION
  2
AcDbLongTransaction
  3
AutoCAD 2000
 90
        0
280
     0
281
     0
  0
CLASS
  1
LWPOLYLINE
  2
AcDbPolyline
  3
"AutoCAD"
 90
        0
280
     0
281
     1
  0
CLASS
  1
HATCH
  2
AcDbHatch
  3
"ACAD_SEDONA"
 90
        0
280
     0
281
     1
  0
CLASS
  1
XRECORD
  2
AcDbXrecord
  3
"<Built In>"
 90
        0
280
     0
281
     0
  0
CLASS
  1
LONG_TRANSACTION
  2
AcDbLongTransaction
  3
AutoCAD 2000
 90
        0
280
     0
281
     0
  0
CLASS
  1
LWPOLYLINE
  2
AcDbPolyline
  3
"AutoCAD"
 90
        0
280
     0
281
     1
  0
CLASS
  1
HATCH
  2
AcDbHatch
  3
"ACAD_SEDONA"
 90
        0
280
     0
281
     1
  0
CLASS
  1
XRECORD
  2
AcDbXrecord
  3
"<Built In>"
 90
        0
280
     0
281
     0
  0
CLASS
  1
LONG_TRANSACTION
  2
AcDbLongTransaction
  3
AutoCAD 2000
 90
        0
280
     0
281
     0
  0
CLASS
  1
LWPOLYLINE
  2
AcDbPolyline
  3
"AutoCAD"
 90
        0
280
     0
281
     1
  0
CLASS
  1
HATCH
  2
AcDbHatch
  3
"ACAD_SEDONA"
 90
        0
280
     0
281
     1
  0
CLASS
  1
XRECORD
  2
AcDbXrecord
  3
"<Built In>"
 90
        0
280
     0
281
     0
  0
CLASS
  1
LONG_TRANSACTION
  2
AcDbLongTransaction
  3
AutoCAD 2000
 90
        0
280
     0
281
     0
  0
CLASS
  1
LWPOLYLINE
  2
AcDbPolyline
  3
"AutoCAD"
 90
        0
280
     0
281
     1
  0
CLASS
  1
HATCH
  2
AcDbHatch
  3
"ACAD_SEDONA"
 90
        0
280
     0
281
     1
  0
CLASS
  1
XRECORD
  2
AcDbXrecord
  3
"<Built In>"
 90
        0
280
     0
281
     0
  0
CLASS
  1
LONG_TRANSACTION
  2
AcDbLongTransaction
  3
AutoCAD 2000
 90
        0
280
     0
281
     0
  0
CLASS
  1
LWPOLYLINE
  2
AcDbPolyline
  3
"AutoCAD"
 90
        0
280
     0
281
     1
  0
CLASS
  1
HATCH
  2
AcDbHatch
  3
"ACAD_SEDONA"
 90
        0
280
     0
281
     1
  0
CLASS
  1
XRECORD
  2
AcDbXrecord
  3
"<Built In>"
 90
        0
280
     0
281
     0
  0
CLASS
  1
LONG_TRANSACTION
  2
AcDbLongTransaction
  3
AutoCAD 2000
 90
        0
280
     0
281
     0
  0
CLASS
  1
LWPOLYLINE
  2
AcDbPolyline
  3
"AutoCAD"
 90
        0
280
     0
281
     1
  0
CLASS
  1
HATCH
  2
AcDbHatch
  3
"ACAD_SEDONA"
 90
        0
280
     0
281
     1
  0
CLASS
  1
XRECORD
  2
AcDbXrecord
  3
"<Built In>"
 90
        0
280
     0
281
     0
  0
CLASS
  1
LONG_TRANSACTION
  2
AcDbLongTransaction
  3
AutoCAD 2000
 90
        0
280
     0
281
     0
  0
CLASS
  1
LWPOLYLINE
  2
AcDbPolyline
  3
"AutoCAD"
 90
        0
280
     0
281
     1
  0
CLASS
  1
HATCH
  2
AcDbHatch
  3
"ACAD_SEDONA"
 90
        0
280
     0
281
     1
  0
CLASS
  1
XRECORD
  2
AcDbXrecord
  3
"<Built In>"
 90
        0
280
     0
281
     0
  0
ENDSEC
  0
SECTION
  2
TABLES
  0
TABLE
  2
VPORT
  5
458C7
100
AcDbSymbolTable
 70
     1
  0
VPORT
  5
AB0AF
102
{ACAD_XDICTIONARY
360
AB0B2
102
}
100
AcDbSymbolTableRecord
100
AcDbViewportTableRecord
  2
*ACTIVE
 70
     0
 10
0.0
 20
0.0
 11
1.0
 21
1.0
 12
0.960147
 22
1.085587
 13
0.0
 23
0.0
 14
0.25
 24
0.25
 15
0.25
 25
0.25
 16
0.0
 26
0.0
 36
1.0
 17
-1.002245
 27
-0.908856
 37
0.745855
 40
2.160068
 41
1.829897
 42
50.0
 43
0.0
 44
0.0
 50
0.0
 51
0.0
 71
     0
 72
 20000
 73
     1
 74
     1
 75
     0
 76
     0
 77
     0
 78
     0
  0
ENDTAB
  0
TABLE
  2
LTYPE
  5
458C4
100
AcDbSymbolTable
 70
     1
  0
LTYPE
  5
458D0
100
AcDbSymbolTableRecord
100
AcDbLinetypeTableRecord
  2
BYBLOCK
 70
     0
  3

 72
    65
 73
     0
 40
0.0
  0
LTYPE
  5
458D1
100
AcDbSymbolTableRecord
100
AcDbLinetypeTableRecord
  2
BYLAYER
 70
     0
  3

 72
    65
 73
     0
 40
0.0
  0
LTYPE
  5
458D2
100
AcDbSymbolTableRecord
100
AcDbLinetypeTableRecord
  2
CONTINUOUS
 70
     0
  3
Solid line
 72
    65
 73
     0
 40
0.0
  0
ENDTAB
  0
TABLE
  2
LAYER
  5
458C1
100
AcDbSymbolTable
 70
     7
  0
LAYER
  5
458CD
100
AcDbSymbolTableRecord
100
AcDbLayerTableRecord
  2
0
 70
     0
 62
     7
  6
CONTINUOUS
  0
LAYER
  5
458EA
100
AcDbSymbolTableRecord
100
AcDbLayerTableRecord
  2
DIMS-MTG-HOLES
 70
     0
 62
     1
  6
CONTINUOUS
  0
LAYER
  5
458EB
100
AcDbSymbolTableRecord
100
AcDbLayerTableRecord
  2
ATTRIBUTES
 70
     0
 62
     7
  6
CONTINUOUS
  0
LAYER
  5
4593B
102
{ACAD_XDICTIONARY
360
AB0DB
102
}
100
AcDbSymbolTableRecord
100
AcDbLayerTableRecord
  2
AREA1
 70
     0
 62
    -7
  6
CONTINUOUS
  0
LAYER
  5
45940
102
{ACAD_XDICTIONARY
360
AB0B0
102
}
100
AcDbSymbolTableRecord
100
AcDbLayerTableRecord
  2
DEFPOINTS
 70
     0
 62
    -7
  6
CONTINUOUS
  0
LAYER
  5
45954
100
AcDbSymbolTableRecord
100
AcDbLayerTableRecord
  2
SCALE
 70
     0
 62
    -7
  6
CONTINUOUS
  0
LAYER
  5
4D59A
100
AcDbSymbolTableRecord
100
AcDbLayerTableRecord
  2
SNAP_POINTS
 70
     0
 62
    -1
  6
CONTINUOUS
  0
ENDTAB
  0
TABLE
  2
STYLE
  5
458C2
100
AcDbSymbolTable
 70
     1
  0
STYLE
  5
458CE
100
AcDbSymbolTableRecord
100
AcDbTextStyleTableRecord
  2
STANDARD
 70
     0
 40
0.0
 41
1.0
 50
0.0
 71
     0
 42
0.12
  3
txt
  4

  0
ENDTAB
  0
TABLE
  2
VIEW
  5
458C5
100
AcDbSymbolTable
 70
     0
  0
ENDTAB
  0
TABLE
  2
UCS
  5
458C6
100
AcDbSymbolTable
 70
     0
  0
ENDTAB
  0
TABLE
  2
APPID
  5
458C8
100
AcDbSymbolTable
 70
     2
  0
APPID
  5
458CF
100
AcDbSymbolTableRecord
100
AcDbRegAppTableRecord
  2
ACAD
 70
     0
  0
APPID
  5
5FD5B
100
AcDbSymbolTableRecord
100
AcDbRegAppTableRecord
  2
AVE_RENDER
 70
     0
  0
ENDTAB
  0
TABLE
  2
DIMSTYLE
  5
458C9
100
AcDbSymbolTable
 70
     1
  0
DIMSTYLE
105
458F6
102
{ACAD_XDICTIONARY
360
AB0D7
102
}
102
{ACAD_REACTORS
330
AAFDA
330
AAFE8
102
}
100
AcDbSymbolTableRecord
100
AcDbDimStyleTableRecord
  2
ABECAD_3D
 70
     0
  3

  4

  5

  6

  7

 40
1.0
 41
0.1
 42
0.1
 43
0.375
 44
0.1
 45
0.0
 46
0.0
 47
0.0
 48
0.0
140
0.1
141
0.09
142
0.0
143
25.4
144
1.0
145
0.0
146
1.5
147
0.09
 71
     0
 72
     0
 73
     0
 74
     1
 75
     0
 76
     0
 77
     0
 78
     4
170
     1
171
     2
172
     0
173
     0
174
     0
175
     0
176
     0
177
     0
178
     0
270
     7
271
     6
272
     6
273
     2
274
     2
340
458CE
275
     0
280
     0
281
     0
282
     0
283
     1
284
     4
285
     4
286
     4
287
     5
288
     1
  0
ENDTAB
  0
TABLE
  2
BLOCK_RECORD
  5
458C0
100
AcDbSymbolTable
 70
     2
  0
BLOCK_RECORD
  5
458D6
102
{ACAD_XDICTIONARY
360
4592C
102
}
100
AcDbSymbolTableRecord
100
AcDbBlockTableRecord
  2
*MODEL_SPACE
  0
BLOCK_RECORD
  5
458D3
102
{ACAD_XDICTIONARY
360
4592A
102
}
100
AcDbSymbolTableRecord
100
AcDbBlockTableRecord
  2
*PAPER_SPACE
  0
BLOCK_RECORD
  5
AAFDB
100
AcDbSymbolTableRecord
100
AcDbBlockTableRecord
  2
*D0
  0
BLOCK_RECORD
  5
AAFE9
100
AcDbSymbolTableRecord
100
AcDbBlockTableRecord
  2
*D1
  0
ENDTAB
  0
ENDSEC
  0
SECTION
  2
BLOCKS
  0
BLOCK
  5
458DF
100
AcDbEntity
  8
0
100
AcDbBlockBegin
  2
*MODEL_SPACE
 70
     0
 10
0.0
 20
0.0
 30
0.0
  3
*MODEL_SPACE
  1

  0
ENDBLK
  5
458E0
100
AcDbEntity
  8
0
100
AcDbBlockEnd
  0
BLOCK
  5
458DD
100
AcDbEntity
 67
     1
  8
0
100
AcDbBlockBegin
  2
*PAPER_SPACE
 70
     0
 10
0.0
 20
0.0
 30
0.0
  3
*PAPER_SPACE
  1

  0
ENDBLK
  5
458DE
100
AcDbEntity
 67
     1
  8
0
100
AcDbBlockEnd
  0
BLOCK
  5
AAFE6
100
AcDbEntity
  8
0
100
AcDbBlockBegin
  2
*D0
 70
     1
 10
0.0
 20
0.0
 30
0.0
  3
*D0
  1

  0
LINE
  5
AAFDC
100
AcDbEntity
  8
AREA1
 62
     0
100
AcDbLine
 10
-1.106
 20
-0.892
 30
0.0
 11
-1.455827
 21
-0.892
 31
0.0
1001
ACAD
1000
RTLwPs
1070
   158
  0
LINE
  5
AAFDD
100
AcDbEntity
  8
AREA1
 62
     0
100
AcDbLine
 10
-1.106
 20
0.892
 30
0.0
 11
-1.455827
 21
0.892
 31
0.0
1001
ACAD
1000
RTLwPs
1070
   158
  0
LINE
  5
AAFDE
100
AcDbEntity
  8
AREA1
 62
     0
100
AcDbLine
 10
-1.355827
 20
-0.792
 30
0.0
 11
-1.355827
 21
-0.729779
 31
0.0
1001
ACAD
1000
RTLwPs
1070
   158
  0
LINE
  5
AAFDF
100
AcDbEntity
  8
AREA1
 62
     0
100
AcDbLine
 10
-1.355827
 20
0.792
 30
0.0
 11
-1.355827
 21
0.716888
 31
0.0
1001
ACAD
1000
RTLwPs
1070
   158
  0
MTEXT
  5
AAFE0
100
AcDbEntity
  8
AREA1
 62
     0
100
AcDbMText
 10
-1.355827
 20
-0.006445
 30
0.0
 40
0.1
 41
0.0
 71
     5
 72
     1
  1
\A1;1 25/32 [45.31]
 11
0.0
 21
1.0
 31
0.0
1001
ACAD
1000
MTEXTBEGIN
1070
    73
1070
     1
1070
    44
1040
1.0
1070
    74
1070
     0
1000
MTEXTEND
1000
MTEXTBEGIN
1070
    73
1070
     1
1070
    44
1040
1.0
1070
    74
1070
     0
1000
MTEXTEND
1000
MTEXTBEGIN
1070
    73
1070
     1
1070
    44
1040
1.0
1070
    74
1070
     0
1000
MTEXTEND
1000
MTEXTBEGIN
1070
    73
1070
     1
1070
    44
1040
1.0
1070
    74
1070
     0
1000
MTEXTEND
  0
SOLID
  5
AAFE1
100
AcDbEntity
  8
AREA1
 62
     0
100
AcDbTrace
 10
-1.372493
 20
-0.792
 30
0.0
 11
-1.33916
 21
-0.792
 31
0.0
 12
-1.355827
 22
-0.892
 32
0.0
 13
-1.355827
 23
-0.892
 33
0.0
  0
SOLID
  5
AAFE2
100
AcDbEntity
  8
AREA1
 62
     0
100
AcDbTrace
 10
-1.372493
 20
0.792
 30
0.0
 11
-1.33916
 21
0.792
 31
0.0
 12
-1.355827
 22
0.892
 32
0.0
 13
-1.355827
 23
0.892
 33
0.0
  0
POINT
  5
AAFE3
100
AcDbEntity
  8
DEFPOINTS
 62
     0
100
AcDbPoint
 10
-1.006
 20
-0.892
 30
-0.145
  0
POINT
  5
AAFE4
100
AcDbEntity
  8
DEFPOINTS
 62
     0
100
AcDbPoint
 10
-1.006
 20
0.892
 30
-0.145
  0
POINT
  5
AAFE5
100
AcDbEntity
  8
DEFPOINTS
 62
     0
100
AcDbPoint
 10
-1.355827
 20
0.892
 30
0.0
  0
ENDBLK
  5
AAFE7
100
AcDbEntity
  8
0
100
AcDbBlockEnd
  0
BLOCK
  5
AAFF4
100
AcDbEntity
  8
0
100
AcDbBlockBegin
  2
*D1
 70
     1
 10
0.0
 20
0.0
 30
0.0
  3
*D1
  1

  0
LINE
  5
AAFEA
100
AcDbEntity
  8
AREA1
 62
     0
100
AcDbLine
 10
-1.006
 20
0.992
 30
0.0
 11
-1.006
 21
1.245201
 31
0.0
1001
ACAD
1000
RTLwPs
1070
   158
  0
LINE
  5
AAFEB
100
AcDbEntity
  8
AREA1
 62
     0
100
AcDbLine
 10
0.0
 20
0.9085
 30
0.0
 11
0.0
 21
1.245201
 31
0.0
1001
ACAD
1000
RTLwPs
1070
   158
  0
LINE
  5
AAFEC
100
AcDbEntity
  8
AREA1
 62
     0
100
AcDbLine
 10
-1.106
 20
1.145201
 30
0.0
 11
-1.206
 21
1.145201
 31
0.0
1001
ACAD
1000
RTLwPs
1070
   158
  0
LINE
  5
AAFED
100
AcDbEntity
  8
AREA1
 62
     0
100
AcDbLine
 10
0.1
 20
1.145201
 30
0.0
 11
0.2
 21
1.145201
 31
0.0
1001
ACAD
1000
RTLwPs
1070
   158
  0
MTEXT
  5
AAFEE
100
AcDbEntity
  8
AREA1
 62
     0
100
AcDbMText
 10
-0.515082
 20
1.145201
 30
0.0
 40
0.1
 41
0.0
 71
     5
 72
     1
  1
\A1;1 [25.55]
1001
ACAD
1000
MTEXTBEGIN
1070
    73
1070
     1
1070
    44
1040
1.0
1070
    74
1070
     0
1000
MTEXTEND
1000
MTEXTBEGIN
1070
    73
1070
     1
1070
    44
1040
1.0
1070
    74
1070
     0
1000
MTEXTEND
1000
MTEXTBEGIN
1070
    73
1070
     1
1070
    44
1040
1.0
1070
    74
1070
     0
1000
MTEXTEND
1000
MTEXTBEGIN
1070
    73
1070
     1
1070
    44
1040
1.0
1070
    74
1070
     0
1000
MTEXTEND
  0
SOLID
  5
AAFEF
100
AcDbEntity
  8
AREA1
 62
     0
100
AcDbTrace
 10
-1.106
 20
1.161868
 30
0.0
 11
-1.106
 21
1.128534
 31
0.0
 12
-1.006
 22
1.145201
 32
0.0
 13
-1.006
 23
1.145201
 33
0.0
  0
SOLID
  5
AAFF0
100
AcDbEntity
  8
AREA1
 62
     0
100
AcDbTrace
 10
0.1
 20
1.161868
 30
0.0
 11
0.1
 21
1.128534
 31
0.0
 12
0.0
 22
1.145201
 32
0.0
 13
0.0
 23
1.145201
 33
0.0
  0
POINT
  5
AAFF1
100
AcDbEntity
  8
DEFPOINTS
 62
     0
100
AcDbPoint
 10
-1.006
 20
0.892
 30
-0.145
  0
POINT
  5
AAFF2
100
AcDbEntity
  8
DEFPOINTS
 62
     0
100
AcDbPoint
 10
0.0
 20
0.8085
 30
0.0
  0
POINT
  5
AAFF3
100
AcDbEntity
  8
DEFPOINTS
 62
     0
100
AcDbPoint
 10
0.0
 20
1.145201
 30
0.0
  0
ENDBLK
  5
AAFF5
100
AcDbEntity
  8
0
100
AcDbBlockEnd
  0
ENDSEC
  0
SECTION
  2
ENTITIES
  0
POINT
  5
AAEF2
100
AcDbEntity
  8
SNAP_POINTS
100
AcDbPoint
 10
0.0
 20
0.0
 30
0.0
  0
LINE
  5
AAEF3
100
AcDbEntity
  8
0
100
AcDbLine
 10
0.0
 20
-0.657
 30
0.0
 11
0.0
 21
-0.657
 31
-1.04
210
0.0
220
0.0
230
-1.0
  0
LINE
  5
AAEF4
100
AcDbEntity
  8
0
100
AcDbLine
 10
0.0
 20
-0.515
 30
-1.04
 11
0.0
 21
-0.515
 31
0.0
210
0.0
220
0.0
230
-1.0
  0
POLYLINE
  5
AAEF5
100
AcDbEntity
  8
0
100
AcDbPolygonMesh
 66
     1
 10
0.0
 20
0.0
 30
0.0
 70
    16
 71
     6
 72
     3
  0
VERTEX
  5
AAEF6
100
AcDbEntity
  8
0
100
AcDbVertex
100
AcDbPolygonMeshVertex
 10
0.0
 20
-0.8085
 30
0.0
 70
    64
  0
VERTEX
  5
AAEF7
100
AcDbEntity
  8
0
100
AcDbVertex
100
AcDbPolygonMeshVertex
 10
0.0
 20
-0.8085
 30
-1.04
 70
    64
  0
VERTEX
  5
AAEF8
100
AcDbEntity
  8
0
100
AcDbVertex
100
AcDbPolygonMeshVertex
 10
0.0
 20
-0.8085
 30
-1.04
 70
    64
  0
VERTEX
  5
AAEF9
100
AcDbEntity
  8
0
100
AcDbVertex
100
AcDbPolygonMeshVertex
 10
-0.471
 20
-0.8085
 30
0.0
 70
    64
  0
VERTEX
  5
AAEFA
100
AcDbEntity
  8
0
100
AcDbVertex
100
AcDbPolygonMeshVertex
 10
-0.471
 20
-0.8085
 30
-1.04
 70
    64
  0
VERTEX
  5
AAEFB
100
AcDbEntity
  8
0
100
AcDbVertex
100
AcDbPolygonMeshVertex
 10
-0.471
 20
-0.8085
 30
-1.04
 70
    64
  0
VERTEX
  5
AAEFC
100
AcDbEntity
  8
0
100
AcDbVertex
100
AcDbPolygonMeshVertex
 10
-0.471
 20
0.8085
 30
0.0
 70
    64
  0
VERTEX
  5
AAEFD
100
AcDbEntity
  8
0
100
AcDbVertex
100
AcDbPolygonMeshVertex
 10
-0.471
 20
0.8085
 30
-1.04
 70
    64
  0
VERTEX
  5
AAEFE
100
AcDbEntity
  8
0
100
AcDbVertex
100
AcDbPolygonMeshVertex
 10
-0.471
 20
-0.8085
 30
-1.04
 70
    64
  0
VERTEX
  5
AAEFF
100
AcDbEntity
  8
0
100
AcDbVertex
100
AcDbPolygonMeshVertex
 10
0.0
 20
0.8085
 30
0.0
 70
    64
  0
VERTEX
  5
AAF00
100
AcDbEntity
  8
0
100
AcDbVertex
100
AcDbPolygonMeshVertex
 10
0.0
 20
0.8085
 30
-1.04
 70
    64
  0
VERTEX
  5
AAF01
100
AcDbEntity
  8
0
100
AcDbVertex
100
AcDbPolygonMeshVertex
 10
0.0
 20
-0.8085
 30
-1.04
 70
    64
  0
VERTEX
  5
AAF02
100
AcDbEntity
  8
0
100
AcDbVertex
100
AcDbPolygonMeshVertex
 10
0.0
 20
0.8085
 30
0.0
 70
    64
  0
VERTEX
  5
AAF03
100
AcDbEntity
  8
0
100
AcDbVertex
100
AcDbPolygonMeshVertex
 10
0.0
 20
0.8085
 30
0.0
 70
    64
  0
VERTEX
  5
AAF04
100
AcDbEntity
  8
0
100
AcDbVertex
100
AcDbPolygonMeshVertex
 10
0.0
 20
-0.8085
 30
0.0
 70
    64
  0
VERTEX
  5
AAF05
100
AcDbEntity
  8
0
100
AcDbVertex
100
AcDbPolygonMeshVertex
 10
-0.471
 20
0.8085
 30
0.0
 70
    64
  0
VERTEX
  5
AAF06
100
AcDbEntity
  8
0
100
AcDbVertex
100
AcDbPolygonMeshVertex
 10
-0.471
 20
0.8085
 30
0.0
 70
    64
  0
VERTEX
  5
AAF07
100
AcDbEntity
  8
0
100
AcDbVertex
100
AcDbPolygonMeshVertex
 10
-0.471
 20
-0.8085
 30
0.0
 70
    64
  0
SEQEND
  5
AAF08
100
AcDbEntity
  8
0
  0
POLYLINE
  5
AAF09
100
AcDbEntity
  8
0
100
AcDbPolygonMesh
 66
     1
 10
0.0
 20
0.0
 30
0.0
 70
    16
 71
     6
 72
     3
  0
VERTEX
  5
AAF0A
100
AcDbEntity
  8
0
100
AcDbVertex
100
AcDbPolygonMeshVertex
 10
-0.471
 20
-0.892
 30
0.0
 70
    64
  0
VERTEX
  5
AAF0B
100
AcDbEntity
  8
0
100
AcDbVertex
100
AcDbPolygonMeshVertex
 10
-0.471
 20
-0.892
 30
-1.04
 70
    64
  0
VERTEX
  5
AAF0C
100
AcDbEntity
  8
0
100
AcDbVertex
100
AcDbPolygonMeshVertex
 10
-0.471
 20
-0.892
 30
-1.04
 70
    64
  0
VERTEX
  5
AAF0D
100
AcDbEntity
  8
0
100
AcDbVertex
100
AcDbPolygonMeshVertex
 10
-0.569
 20
-0.892
 30
0.0
 70
    64
  0
VERTEX
  5
AAF0E
100
AcDbEntity
  8
0
100
AcDbVertex
100
AcDbPolygonMeshVertex
 10
-0.569
 20
-0.892
 30
-1.04
 70
    64
  0
VERTEX
  5
AAF0F
100
AcDbEntity
  8
0
100
AcDbVertex
100
AcDbPolygonMeshVertex
 10
-0.569
 20
-0.892
 30
-1.04
 70
    64
  0
VERTEX
  5
AAF10
100
AcDbEntity
  8
0
100
AcDbVertex
100
AcDbPolygonMeshVertex
 10
-0.569
 20
0.892
 30
0.0
 70
    64
  0
VERTEX
  5
AAF11
100
AcDbEntity
  8
0
100
AcDbVertex
100
AcDbPolygonMeshVertex
 10
-0.569
 20
0.892
 30
-1.04
 70
    64
  0
VERTEX
  5
AAF12
100
AcDbEntity
  8
0
100
AcDbVertex
100
AcDbPolygonMeshVertex
 10
-0.569
 20
-0.892
 30
-1.04
 70
    64
  0
VERTEX
  5
AAF13
100
AcDbEntity
  8
0
100
AcDbVertex
100
AcDbPolygonMeshVertex
 10
-0.471
 20
0.892
 30
0.0
 70
    64
  0
VERTEX
  5
AAF14
100
AcDbEntity
  8
0
100
AcDbVertex
100
AcDbPolygonMeshVertex
 10
-0.471
 20
0.892
 30
-1.04
 70
    64
  0
VERTEX
  5
AAF15
100
AcDbEntity
  8
0
100
AcDbVertex
100
AcDbPolygonMeshVertex
 10
-0.471
 20
-0.892
 30
-1.04
 70
    64
  0
VERTEX
  5
AAF16
100
AcDbEntity
  8
0
100
AcDbVertex
100
AcDbPolygonMeshVertex
 10
-0.471
 20
0.892
 30
0.0
 70
    64
  0
VERTEX
  5
AAF17
100
AcDbEntity
  8
0
100
AcDbVertex
100
AcDbPolygonMeshVertex
 10
-0.471
 20
0.892
 30
0.0
 70
    64
  0
VERTEX
  5
AAF18
100
AcDbEntity
  8
0
100
AcDbVertex
100
AcDbPolygonMeshVertex
 10
-0.471
 20
-0.892
 30
0.0
 70
    64
  0
VERTEX
  5
AAF19
100
AcDbEntity
  8
0
100
AcDbVertex
100
AcDbPolygonMeshVertex
 10
-0.569
 20
0.892
 30
0.0
 70
    64
  0
VERTEX
  5
AAF1A
100
AcDbEntity
  8
0
100
AcDbVertex
100
AcDbPolygonMeshVertex
 10
-0.569
 20
0.892
 30
0.0
 70
    64
  0
VERTEX
  5
AAF1B
100
AcDbEntity
  8
0
100
AcDbVertex
100
AcDbPolygonMeshVertex
 10
-0.569
 20
-0.892
 30
0.0
 70
    64
  0
SEQEND
  5
AAF1C
100
AcDbEntity
  8
0
  0
POLYLINE
  5
AAF1D
100
AcDbEntity
  8
0
100
AcDbPolygonMesh
 66
     1
 10
0.0
 20
0.0
 30
0.0
 70
    16
 71
     6
 72
     3
  0
VERTEX
  5
AAF1E
100
AcDbEntity
  8
0
100
AcDbVertex
100
AcDbPolygonMeshVertex
 10
-1.006
 20
-0.892
 30
-0.145
 70
    64
  0
VERTEX
  5
AAF1F
100
AcDbEntity
  8
0
100
AcDbVertex
100
AcDbPolygonMeshVertex
 10
-1.006
 20
-0.892
 30
-0.145
 70
    64
  0
VERTEX
  5
AAF20
100
AcDbEntity
  8
0
100
AcDbVertex
100
AcDbPolygonMeshVertex
 10
-1.006
 20
-0.892
 30
-0.145
 70
    64
  0
VERTEX
  5
AAF21
100
AcDbEntity
  8
0
100
AcDbVertex
100
AcDbPolygonMeshVertex
 10
-0.569
 20
-0.892
 30
0.0
 70
    64
  0
VERTEX
  5
AAF22
100
AcDbEntity
  8
0
100
AcDbVertex
100
AcDbPolygonMeshVertex
 10
-0.569
 20
-0.892
 30
-0.145
 70
    64
  0
VERTEX
  5
AAF23
100
AcDbEntity
  8
0
100
AcDbVertex
100
AcDbPolygonMeshVertex
 10
-0.569
 20
-0.892
 30
-0.145
 70
    64
  0
VERTEX
  5
AAF24
100
AcDbEntity
  8
0
100
AcDbVertex
100
AcDbPolygonMeshVertex
 10
-0.569
 20
-0.8085
 30
0.0
 70
    64
  0
VERTEX
  5
AAF25
100
AcDbEntity
  8
0
100
AcDbVertex
100
AcDbPolygonMeshVertex
 10
-0.569
 20
-0.8085
 30
-0.145
 70
    64
  0
VERTEX
  5
AAF26
100
AcDbEntity
  8
0
100
AcDbVertex
100
AcDbPolygonMeshVertex
 10
-0.569
 20
-0.892
 30
-0.145
 70
    64
  0
VERTEX
  5
AAF27
100
AcDbEntity
  8
0
100
AcDbVertex
100
AcDbPolygonMeshVertex
 10
-1.006
 20
-0.8085
 30
-0.145
 70
    64
  0
VERTEX
  5
AAF28
100
AcDbEntity
  8
0
100
AcDbVertex
100
AcDbPolygonMeshVertex
 10
-1.006
 20
-0.8085
 30
-0.145
 70
    64
  0
VERTEX
  5
AAF29
100
AcDbEntity
  8
0
100
AcDbVertex
100
AcDbPolygonMeshVertex
 10
-1.006
 20
-0.892
 30
-0.145
 70
    64
  0
VERTEX
  5
AAF2A
100
AcDbEntity
  8
0
100
AcDbVertex
100
AcDbPolygonMeshVertex
 10
-1.006
 20
-0.8085
 30
-0.145
 70
    64
  0
VERTEX
  5
AAF2B
100
AcDbEntity
  8
0
100
AcDbVertex
100
AcDbPolygonMeshVertex
 10
-1.006
 20
-0.8085
 30
-0.145
 70
    64
  0
VERTEX
  5
AAF2C
100
AcDbEntity
  8
0
100
AcDbVertex
100
AcDbPolygonMeshVertex
 10
-1.006
 20
-0.892
 30
-0.145
 70
    64
  0
VERTEX
  5
AAF2D
100
AcDbEntity
  8
0
100
AcDbVertex
100
AcDbPolygonMeshVertex
 10
-0.569
 20
-0.8085
 30
0.0
 70
    64
  0
VERTEX
  5
AAF2E
100
AcDbEntity
  8
0
100
AcDbVertex
100
AcDbPolygonMeshVertex
 10
-0.569
 20
-0.8085
 30
0.0
 70
    64
  0
VERTEX
  5
AAF2F
100
AcDbEntity
  8
0
100
AcDbVertex
100
AcDbPolygonMeshVertex
 10
-0.569
 20
-0.892
 30
0.0
 70
    64
  0
SEQEND
  5
AAF30
100
AcDbEntity
  8
0
  0
POLYLINE
  5
AAF31
100
AcDbEntity
  8
0
100
AcDbPolygonMesh
 66
     1
 10
0.0
 20
0.0
 30
0.0
 70
    16
 71
     6
 72
     3
  0
VERTEX
  5
AAF32
100
AcDbEntity
  8
0
100
AcDbVertex
100
AcDbPolygonMeshVertex
 10
-1.006
 20
-0.892
 30
-0.895
 70
    64
  0
VERTEX
  5
AAF33
100
AcDbEntity
  8
0
100
AcDbVertex
100
AcDbPolygonMeshVertex
 10
-1.006
 20
-0.892
 30
-0.895
 70
    64
  0
VERTEX
  5
AAF34
100
AcDbEntity
  8
0
100
AcDbVertex
100
AcDbPolygonMeshVertex
 10
-1.006
 20
-0.892
 30
-0.895
 70
    64
  0
VERTEX
  5
AAF35
100
AcDbEntity
  8
0
100
AcDbVertex
100
AcDbPolygonMeshVertex
 10
-0.569
 20
-0.892
 30
-1.04
 70
    64
  0
VERTEX
  5
AAF36
100
AcDbEntity
  8
0
100
AcDbVertex
100
AcDbPolygonMeshVertex
 10
-0.569
 20
-0.892
 30
-0.895
 70
    64
  0
VERTEX
  5
AAF37
100
AcDbEntity
  8
0
100
AcDbVertex
100
AcDbPolygonMeshVertex
 10
-0.569
 20
-0.892
 30
-0.895
 70
    64
  0
VERTEX
  5
AAF38
100
AcDbEntity
  8
0
100
AcDbVertex
100
AcDbPolygonMeshVertex
 10
-0.569
 20
-0.8085
 30
-1.04
 70
    64
  0
VERTEX
  5
AAF39
100
AcDbEntity
  8
0
100
AcDbVertex
100
AcDbPolygonMeshVertex
 10
-0.569
 20
-0.8085
 30
-0.895
 70
    64
  0
VERTEX
  5
AAF3A
100
AcDbEntity
  8
0
100
AcDbVertex
100
AcDbPolygonMeshVertex
 10
-0.569
 20
-0.892
 30
-0.895
 70
    64
  0
VERTEX
  5
AAF3B
100
AcDbEntity
  8
0
100
AcDbVertex
100
AcDbPolygonMeshVertex
 10
-1.006
 20
-0.8085
 30
-0.895
 70
    64
  0
VERTEX
  5
AAF3C
100
AcDbEntity
  8
0
100
AcDbVertex
100
AcDbPolygonMeshVertex
 10
-1.006
 20
-0.8085
 30
-0.895
 70
    64
  0
VERTEX
  5
AAF3D
100
AcDbEntity
  8
0
100
AcDbVertex
100
AcDbPolygonMeshVertex
 10
-1.006
 20
-0.892
 30
-0.895
 70
    64
  0
VERTEX
  5
AAF3E
100
AcDbEntity
  8
0
100
AcDbVertex
100
AcDbPolygonMeshVertex
 10
-1.006
 20
-0.8085
 30
-0.895
 70
    64
  0
VERTEX
  5
AAF3F
100
AcDbEntity
  8
0
100
AcDbVertex
100
AcDbPolygonMeshVertex
 10
-1.006
 20
-0.8085
 30
-0.895
 70
    64
  0
VERTEX
  5
AAF40
100
AcDbEntity
  8
0
100
AcDbVertex
100
AcDbPolygonMeshVertex
 10
-1.006
 20
-0.892
 30
-0.895
 70
    64
  0
VERTEX
  5
AAF41
100
AcDbEntity
  8
0
100
AcDbVertex
100
AcDbPolygonMeshVertex
 10
-0.569
 20
-0.8085
 30
-1.04
 70
    64
  0
VERTEX
  5
AAF42
100
AcDbEntity
  8
0
100
AcDbVertex
100
AcDbPolygonMeshVertex
 10
-0.569
 20
-0.8085
 30
-1.04
 70
    64
  0
VERTEX
  5
AAF43
100
AcDbEntity
  8
0
100
AcDbVertex
100
AcDbPolygonMeshVertex
 10
-0.569
 20
-0.892
 30
-1.04
 70
    64
  0
SEQEND
  5
AAF44
100
AcDbEntity
  8
0
  0
POLYLINE
  5
AAF45
100
AcDbEntity
  8
0
100
AcDbPolygonMesh
 66
     1
 10
0.0
 20
0.0
 30
0.0
 70
    16
 71
     6
 72
     3
  0
VERTEX
  5
AAF46
100
AcDbEntity
  8
0
100
AcDbVertex
100
AcDbPolygonMeshVertex
 10
-0.569
 20
-0.892
 30
-0.145
 70
    64
  0
VERTEX
  5
AAF47
100
AcDbEntity
  8
0
100
AcDbVertex
100
AcDbPolygonMeshVertex
 10
-0.569
 20
-0.892
 30
-0.895
 70
    64
  0
VERTEX
  5
AAF48
100
AcDbEntity
  8
0
100
AcDbVertex
100
AcDbPolygonMeshVertex
 10
-0.569
 20
-0.892
 30
-0.895
 70
    64
  0
VERTEX
  5
AAF49
100
AcDbEntity
  8
0
100
AcDbVertex
100
AcDbPolygonMeshVertex
 10
-1.006
 20
-0.892
 30
-0.145
 70
    64
  0
VERTEX
  5
AAF4A
100
AcDbEntity
  8
0
100
AcDbVertex
100
AcDbPolygonMeshVertex
 10
-1.006
 20
-0.892
 30
-0.895
 70
    64
  0
VERTEX
  5
AAF4B
100
AcDbEntity
  8
0
100
AcDbVertex
100
AcDbPolygonMeshVertex
 10
-1.006
 20
-0.892
 30
-0.895
 70
    64
  0
VERTEX
  5
AAF4C
100
AcDbEntity
  8
0
100
AcDbVertex
100
AcDbPolygonMeshVertex
 10
-1.006
 20
-0.8085
 30
-0.145
 70
    64
  0
VERTEX
  5
AAF4D
100
AcDbEntity
  8
0
100
AcDbVertex
100
AcDbPolygonMeshVertex
 10
-1.006
 20
-0.8085
 30
-0.895
 70
    64
  0
VERTEX
  5
AAF4E
100
AcDbEntity
  8
0
100
AcDbVertex
100
AcDbPolygonMeshVertex
 10
-1.006
 20
-0.892
 30
-0.895
 70
    64
  0
VERTEX
  5
AAF4F
100
AcDbEntity
  8
0
100
AcDbVertex
100
AcDbPolygonMeshVertex
 10
-0.569
 20
-0.8085
 30
-0.145
 70
    64
  0
VERTEX
  5
AAF50
100
AcDbEntity
  8
0
100
AcDbVertex
100
AcDbPolygonMeshVertex
 10
-0.569
 20
-0.8085
 30
-0.895
 70
    64
  0
VERTEX
  5
AAF51
100
AcDbEntity
  8
0
100
AcDbVertex
100
AcDbPolygonMeshVertex
 10
-0.569
 20
-0.892
 30
-0.895
 70
    64
  0
VERTEX
  5
AAF52
100
AcDbEntity
  8
0
100
AcDbVertex
100
AcDbPolygonMeshVertex
 10
-0.569
 20
-0.8085
 30
-0.145
 70
    64
  0
VERTEX
  5
AAF53
100
AcDbEntity
  8
0
100
AcDbVertex
100
AcDbPolygonMeshVertex
 10
-0.569
 20
-0.8085
 30
-0.145
 70
    64
  0
VERTEX
  5
AAF54
100
AcDbEntity
  8
0
100
AcDbVertex
100
AcDbPolygonMeshVertex
 10
-0.569
 20
-0.892
 30
-0.145
 70
    64
  0
VERTEX
  5
AAF55
100
AcDbEntity
  8
0
100
AcDbVertex
100
AcDbPolygonMeshVertex
 10
-1.006
 20
-0.8085
 30
-0.145
 70
    64
  0
VERTEX
  5
AAF56
100
AcDbEntity
  8
0
100
AcDbVertex
100
AcDbPolygonMeshVertex
 10
-1.006
 20
-0.8085
 30
-0.145
 70
    64
  0
VERTEX
  5
AAF57
100
AcDbEntity
  8
0
100
AcDbVertex
100
AcDbPolygonMeshVertex
 10
-1.006
 20
-0.892
 30
-0.145
 70
    64
  0
SEQEND
  5
AAF58
100
AcDbEntity
  8
0
  0
POLYLINE
  5
AAF59
100
AcDbEntity
  8
0
100
AcDbPolygonMesh
 66
     1
 10
0.0
 20
0.0
 30
0.0
 70
    16
 71
     6
 72
     3
  0
VERTEX
  5
AAF5A
100
AcDbEntity
  8
0
100
AcDbVertex
100
AcDbPolygonMeshVertex
 10
-1.006
 20
0.8085
 30
-0.145
 70
    64
  0
VERTEX
  5
AAF5B
100
AcDbEntity
  8
0
100
AcDbVertex
100
AcDbPolygonMeshVertex
 10
-1.006
 20
0.8085
 30
-0.145
 70
    64
  0
VERTEX
  5
AAF5C
100
AcDbEntity
  8
0
100
AcDbVertex
100
AcDbPolygonMeshVertex
 10
-1.006
 20
0.8085
 30
-0.145
 70
    64
  0
VERTEX
  5
AAF5D
100
AcDbEntity
  8
0
100
AcDbVertex
100
AcDbPolygonMeshVertex
 10
-0.569
 20
0.8085
 30
0.0
 70
    64
  0
VERTEX
  5
AAF5E
100
AcDbEntity
  8
0
100
AcDbVertex
100
AcDbPolygonMeshVertex
 10
-0.569
 20
0.8085
 30
-0.145
 70
    64
  0
VERTEX
  5
AAF5F
100
AcDbEntity
  8
0
100
AcDbVertex
100
AcDbPolygonMeshVertex
 10
-0.569
 20
0.8085
 30
-0.145
 70
    64
  0
VERTEX
  5
AAF60
100
AcDbEntity
  8
0
100
AcDbVertex
100
AcDbPolygonMeshVertex
 10
-0.569
 20
0.892
 30
0.0
 70
    64
  0
VERTEX
  5
AAF61
100
AcDbEntity
  8
0
100
AcDbVertex
100
AcDbPolygonMeshVertex
 10
-0.569
 20
0.892
 30
-0.145
 70
    64
  0
VERTEX
  5
AAF62
100
AcDbEntity
  8
0
100
AcDbVertex
100
AcDbPolygonMeshVertex
 10
-0.569
 20
0.8085
 30
-0.145
 70
    64
  0
VERTEX
  5
AAF63
100
AcDbEntity
  8
0
100
AcDbVertex
100
AcDbPolygonMeshVertex
 10
-1.006
 20
0.892
 30
-0.145
 70
    64
  0
VERTEX
  5
AAF64
100
AcDbEntity
  8
0
100
AcDbVertex
100
AcDbPolygonMeshVertex
 10
-1.006
 20
0.892
 30
-0.145
 70
    64
  0
VERTEX
  5
AAF65
100
AcDbEntity
  8
0
100
AcDbVertex
100
AcDbPolygonMeshVertex
 10
-1.006
 20
0.8085
 30
-0.145
 70
    64
  0
VERTEX
  5
AAF66
100
AcDbEntity
  8
0
100
AcDbVertex
100
AcDbPolygonMeshVertex
 10
-1.006
 20
0.892
 30
-0.145
 70
    64
  0
VERTEX
  5
AAF67
100
AcDbEntity
  8
0
100
AcDbVertex
100
AcDbPolygonMeshVertex
 10
-1.006
 20
0.892
 30
-0.145
 70
    64
  0
VERTEX
  5
AAF68
100
AcDbEntity
  8
0
100
AcDbVertex
100
AcDbPolygonMeshVertex
 10
-1.006
 20
0.8085
 30
-0.145
 70
    64
  0
VERTEX
  5
AAF69
100
AcDbEntity
  8
0
100
AcDbVertex
100
AcDbPolygonMeshVertex
 10
-0.569
 20
0.892
 30
0.0
 70
    64
  0
VERTEX
  5
AAF6A
100
AcDbEntity
  8
0
100
AcDbVertex
100
AcDbPolygonMeshVertex
 10
-0.569
 20
0.892
 30
0.0
 70
    64
  0
VERTEX
  5
AAF6B
100
AcDbEntity
  8
0
100
AcDbVertex
100
AcDbPolygonMeshVertex
 10
-0.569
 20
0.8085
 30
0.0
 70
    64
  0
SEQEND
  5
AAF6C
100
AcDbEntity
  8
0
  0
POLYLINE
  5
AAF6D
100
AcDbEntity
  8
0
100
AcDbPolygonMesh
 66
     1
 10
0.0
 20
0.0
 30
0.0
 70
    16
 71
     6
 72
     3
  0
VERTEX
  5
AAF6E
100
AcDbEntity
  8
0
100
AcDbVertex
100
AcDbPolygonMeshVertex
 10
-0.569
 20
0.8085
 30
-0.145
 70
    64
  0
VERTEX
  5
AAF6F
100
AcDbEntity
  8
0
100
AcDbVertex
100
AcDbPolygonMeshVertex
 10
-0.569
 20
0.8085
 30
-0.895
 70
    64
  0
VERTEX
  5
AAF70
100
AcDbEntity
  8
0
100
AcDbVertex
100
AcDbPolygonMeshVertex
 10
-0.569
 20
0.8085
 30
-0.895
 70
    64
  0
VERTEX
  5
AAF71
100
AcDbEntity
  8
0
100
AcDbVertex
100
AcDbPolygonMeshVertex
 10
-1.006
 20
0.8085
 30
-0.145
 70
    64
  0
VERTEX
  5
AAF72
100
AcDbEntity
  8
0
100
AcDbVertex
100
AcDbPolygonMeshVertex
 10
-1.006
 20
0.8085
 30
-0.895
 70
    64
  0
VERTEX
  5
AAF73
100
AcDbEntity
  8
0
100
AcDbVertex
100
AcDbPolygonMeshVertex
 10
-1.006
 20
0.8085
 30
-0.895
 70
    64
  0
VERTEX
  5
AAF74
100
AcDbEntity
  8
0
100
AcDbVertex
100
AcDbPolygonMeshVertex
 10
-1.006
 20
0.892
 30
-0.145
 70
    64
  0
VERTEX
  5
AAF75
100
AcDbEntity
  8
0
100
AcDbVertex
100
AcDbPolygonMeshVertex
 10
-1.006
 20
0.892
 30
-0.895
 70
    64
  0
VERTEX
  5
AAF76
100
AcDbEntity
  8
0
100
AcDbVertex
100
AcDbPolygonMeshVertex
 10
-1.006
 20
0.8085
 30
-0.895
 70
    64
  0
VERTEX
  5
AAF77
100
AcDbEntity
  8
0
100
AcDbVertex
100
AcDbPolygonMeshVertex
 10
-0.569
 20
0.892
 30
-0.145
 70
    64
  0
VERTEX
  5
AAF78
100
AcDbEntity
  8
0
100
AcDbVertex
100
AcDbPolygonMeshVertex
 10
-0.569
 20
0.892
 30
-0.895
 70
    64
  0
VERTEX
  5
AAF79
100
AcDbEntity
  8
0
100
AcDbVertex
100
AcDbPolygonMeshVertex
 10
-0.569
 20
0.8085
 30
-0.895
 70
    64
  0
VERTEX
  5
AAF7A
100
AcDbEntity
  8
0
100
AcDbVertex
100
AcDbPolygonMeshVertex
 10
-0.569
 20
0.892
 30
-0.145
 70
    64
  0
VERTEX
  5
AAF7B
100
AcDbEntity
  8
0
100
AcDbVertex
100
AcDbPolygonMeshVertex
 10
-0.569
 20
0.892
 30
-0.145
 70
    64
  0
VERTEX
  5
AAF7C
100
AcDbEntity
  8
0
100
AcDbVertex
100
AcDbPolygonMeshVertex
 10
-0.569
 20
0.8085
 30
-0.145
 70
    64
  0
VERTEX
  5
AAF7D
100
AcDbEntity
  8
0
100
AcDbVertex
100
AcDbPolygonMeshVertex
 10
-1.006
 20
0.892
 30
-0.145
 70
    64
  0
VERTEX
  5
AAF7E
100
AcDbEntity
  8
0
100
AcDbVertex
100
AcDbPolygonMeshVertex
 10
-1.006
 20
0.892
 30
-0.145
 70
    64
  0
VERTEX
  5
AAF7F
100
AcDbEntity
  8
0
100
AcDbVertex
100
AcDbPolygonMeshVertex
 10
-1.006
 20
0.8085
 30
-0.145
 70
    64
  0
SEQEND
  5
AAF80
100
AcDbEntity
  8
0
  0
POLYLINE
  5
AAF81
100
AcDbEntity
  8
0
100
AcDbPolygonMesh
 66
     1
 10
0.0
 20
0.0
 30
0.0
 70
    16
 71
     6
 72
     3
  0
VERTEX
  5
AAF82
100
AcDbEntity
  8
0
100
AcDbVertex
100
AcDbPolygonMeshVertex
 10
-1.006
 20
0.8085
 30
-0.895
 70
    64
  0
VERTEX
  5
AAF83
100
AcDbEntity
  8
0
100
AcDbVertex
100
AcDbPolygonMeshVertex
 10
-1.006
 20
0.8085
 30
-0.895
 70
    64
  0
VERTEX
  5
AAF84
100
AcDbEntity
  8
0
100
AcDbVertex
100
AcDbPolygonMeshVertex
 10
-1.006
 20
0.8085
 30
-0.895
 70
    64
  0
VERTEX
  5
AAF85
100
AcDbEntity
  8
0
100
AcDbVertex
100
AcDbPolygonMeshVertex
 10
-0.569
 20
0.8085
 30
-1.04
 70
    64
  0
VERTEX
  5
AAF86
100
AcDbEntity
  8
0
100
AcDbVertex
100
AcDbPolygonMeshVertex
 10
-0.569
 20
0.8085
 30
-0.895
 70
    64
  0
VERTEX
  5
AAF87
100
AcDbEntity
  8
0
100
AcDbVertex
100
AcDbPolygonMeshVertex
 10
-0.569
 20
0.8085
 30
-0.895
 70
    64
  0
VERTEX
  5
AAF88
100
AcDbEntity
  8
0
100
AcDbVertex
100
AcDbPolygonMeshVertex
 10
-0.569
 20
0.892
 30
-1.04
 70
    64
  0
VERTEX
  5
AAF89
100
AcDbEntity
  8
0
100
AcDbVertex
100
AcDbPolygonMeshVertex
 10
-0.569
 20
0.892
 30
-0.895
 70
    64
  0
VERTEX
  5
AAF8A
100
AcDbEntity
  8
0
100
AcDbVertex
100
AcDbPolygonMeshVertex
 10
-0.569
 20
0.8085
 30
-0.895
 70
    64
  0
VERTEX
  5
AAF8B
100
AcDbEntity
  8
0
100
AcDbVertex
100
AcDbPolygonMeshVertex
 10
-1.006
 20
0.892
 30
-0.895
 70
    64
  0
VERTEX
  5
AAF8C
100
AcDbEntity
  8
0
100
AcDbVertex
100
AcDbPolygonMeshVertex
 10
-1.006
 20
0.892
 30
-0.895
 70
    64
  0
VERTEX
  5
AAF8D
100
AcDbEntity
  8
0
100
AcDbVertex
100
AcDbPolygonMeshVertex
 10
-1.006
 20
0.8085
 30
-0.895
 70
    64
  0
VERTEX
  5
AAF8E
100
AcDbEntity
  8
0
100
AcDbVertex
100
AcDbPolygonMeshVertex
 10
-1.006
 20
0.892
 30
-0.895
 70
    64
  0
VERTEX
  5
AAF8F
100
AcDbEntity
  8
0
100
AcDbVertex
100
AcDbPolygonMeshVertex
 10
-1.006
 20
0.892
 30
-0.895
 70
    64
  0
VERTEX
  5
AAF90
100
AcDbEntity
  8
0
100
AcDbVertex
100
AcDbPolygonMeshVertex
 10
-1.006
 20
0.8085
 30
-0.895
 70
    64
  0
VERTEX
  5
AAF91
100
AcDbEntity
  8
0
100
AcDbVertex
100
AcDbPolygonMeshVertex
 10
-0.569
 20
0.892
 30
-1.04
 70
    64
  0
VERTEX
  5
AAF92
100
AcDbEntity
  8
0
100
AcDbVertex
100
AcDbPolygonMeshVertex
 10
-0.569
 20
0.892
 30
-1.04
 70
    64
  0
VERTEX
  5
AAF93
100
AcDbEntity
  8
0
100
AcDbVertex
100
AcDbPolygonMeshVertex
 10
-0.569
 20
0.8085
 30
-1.04
 70
    64
  0
SEQEND
  5
AAF94
100
AcDbEntity
  8
0
  0
ARC
  5
AAF95
100
AcDbEntity
  8
0
100
AcDbCircle
 10
0.0
 20
-0.586
 30
0.0
 40
0.071
210
0.0
220
0.0
230
-1.0
100
AcDbArc
 50
270.0
 51
90.0
  0
LINE
  5
AAF96
100
AcDbEntity
  8
0
100
AcDbLine
 10
0.0
 20
0.515
 30
0.0
 11
0.0
 21
0.515
 31
-1.04
210
0.0
220
0.0
230
-1.0
  0
ARC
  5
AAF97
100
AcDbEntity
  8
0
100
AcDbCircle
 10
0.0
 20
0.586
 30
0.0
 40
0.071
210
0.0
220
0.0
230
-1.0
100
AcDbArc
 50
270.0
 51
90.0
  0
LINE
  5
AAF98
100
AcDbEntity
  8
0
100
AcDbLine
 10
0.0
 20
0.15
 30
0.0
 11
-0.471
 21
0.15
 31
0.0
  0
LINE
  5
AAF99
100
AcDbEntity
  8
0
100
AcDbLine
 10
0.0
 20
-0.15
 30
0.0
 11
-0.471
 21
-0.15
 31
0.0
  0
ARC
  5
AAF9A
100
AcDbEntity
  8
0
100
AcDbCircle
 10
0.0
 20
-0.586
 30
1.04
 40
0.071
210
0.0
220
0.0
230
-1.0
100
AcDbArc
 50
270.0
 51
90.0
  0
ARC
  5
AAF9B
100
AcDbEntity
  8
0
100
AcDbCircle
 10
0.0
 20
0.586
 30
1.04
 40
0.071
210
0.0
220
0.0
230
-1.0
100
AcDbArc
 50
270.0
 51
90.0
  0
LINE
  5
AAF9C
100
AcDbEntity
  8
0
100
AcDbLine
 10
0.0
 20
0.657
 30
-1.04
 11
0.0
 21
0.657
 31
0.0
210
0.0
220
0.0
230
-1.0
  0
POLYLINE
  5
AAF9D
100
AcDbEntity
  8
0
100
AcDbPolygonMesh
 66
     1
 10
0.0
 20
0.0
 30
0.0
 70
    16
 71
     6
 72
     3
  0
VERTEX
  5
AAF9E
100
AcDbEntity
  8
0
100
AcDbVertex
100
AcDbPolygonMeshVertex
 10
-0.569
 20
-0.77725
 30
-0.760222
 70
    64
  0
VERTEX
  5
AAF9F
100
AcDbEntity
  8
0
100
AcDbVertex
100
AcDbPolygonMeshVertex
 10
-0.569
 20
-0.77725
 30
-0.914222
 70
    64
  0
VERTEX
  5
AAFA0
100
AcDbEntity
  8
0
100
AcDbVertex
100
AcDbPolygonMeshVertex
 10
-0.569
 20
-0.77725
 30
-0.914222
 70
    64
  0
VERTEX
  5
AAFA1
100
AcDbEntity
  8
0
100
AcDbVertex
100
AcDbPolygonMeshVertex
 10
-0.885
 20
-0.77725
 30
-0.760222
 70
    64
  0
VERTEX
  5
AAFA2
100
AcDbEntity
  8
0
100
AcDbVertex
100
AcDbPolygonMeshVertex
 10
-0.885
 20
-0.77725
 30
-0.914222
 70
    64
  0
VERTEX
  5
AAFA3
100
AcDbEntity
  8
0
100
AcDbVertex
100
AcDbPolygonMeshVertex
 10
-0.885
 20
-0.77725
 30
-0.914222
 70
    64
  0
VERTEX
  5
AAFA4
100
AcDbEntity
  8
0
100
AcDbVertex
100
AcDbPolygonMeshVertex
 10
-0.885
 20
-0.40425
 30
-0.760222
 70
    64
  0
VERTEX
  5
AAFA5
100
AcDbEntity
  8
0
100
AcDbVertex
100
AcDbPolygonMeshVertex
 10
-0.885
 20
-0.40425
 30
-0.914222
 70
    64
  0
VERTEX
  5
AAFA6
100
AcDbEntity
  8
0
100
AcDbVertex
100
AcDbPolygonMeshVertex
 10
-0.885
 20
-0.77725
 30
-0.914222
 70
    64
  0
VERTEX
  5
AAFA7
100
AcDbEntity
  8
0
100
AcDbVertex
100
AcDbPolygonMeshVertex
 10
-0.569
 20
-0.40425
 30
-0.760222
 70
    64
  0
VERTEX
  5
AAFA8
100
AcDbEntity
  8
0
100
AcDbVertex
100
AcDbPolygonMeshVertex
 10
-0.569
 20
-0.40425
 30
-0.914222
 70
    64
  0
VERTEX
  5
AAFA9
100
AcDbEntity
  8
0
100
AcDbVertex
100
AcDbPolygonMeshVertex
 10
-0.569
 20
-0.77725
 30
-0.914222
 70
    64
  0
VERTEX
  5
AAFAA
100
AcDbEntity
  8
0
100
AcDbVertex
100
AcDbPolygonMeshVertex
 10
-0.569
 20
-0.40425
 30
-0.760222
 70
    64
  0
VERTEX
  5
AAFAB
100
AcDbEntity
  8
0
100
AcDbVertex
100
AcDbPolygonMeshVertex
 10
-0.569
 20
-0.40425
 30
-0.760222
 70
    64
  0
VERTEX
  5
AAFAC
100
AcDbEntity
  8
0
100
AcDbVertex
100
AcDbPolygonMeshVertex
 10
-0.569
 20
-0.77725
 30
-0.760222
 70
    64
  0
VERTEX
  5
AAFAD
100
AcDbEntity
  8
0
100
AcDbVertex
100
AcDbPolygonMeshVertex
 10
-0.885
 20
-0.40425
 30
-0.760222
 70
    64
  0
VERTEX
  5
AAFAE
100
AcDbEntity
  8
0
100
AcDbVertex
100
AcDbPolygonMeshVertex
 10
-0.885
 20
-0.40425
 30
-0.760222
 70
    64
  0
VERTEX
  5
AAFAF
100
AcDbEntity
  8
0
100
AcDbVertex
100
AcDbPolygonMeshVertex
 10
-0.885
 20
-0.77725
 30
-0.760222
 70
    64
  0
SEQEND
  5
AAFB0
100
AcDbEntity
  8
0
  0
CIRCLE
  5
AAFB1
100
AcDbEntity
  8
0
100
AcDbCircle
 39
0.1
 10
-0.727
 20
-0.59075
 30
-1.014222
 40
0.130519
  0
LINE
  5
AAFB2
100
AcDbEntity
  8
0
100
AcDbLine
 10
-0.598023
 20
-0.61075
 30
-1.014222
 11
-0.855977
 21
-0.61075
 31
-1.014222
  0
LINE
  5
AAFB3
100
AcDbEntity
  8
0
100
AcDbLine
 10
-0.598023
 20
-0.57075
 30
-1.014222
 11
-0.855977
 21
-0.57075
 31
-1.014222
  0
TEXT
  5
AAFB4
100
AcDbEntity
  8
0
100
AcDbText
 39
0.0
 10
-0.763172
 20
-0.709513
 30
0.569
 40
0.12
  1
L1(+)
210
-1.0
220
0.0
230
0.0
100
AcDbText
  0
TEXT
  5
AAFB5
100
AcDbEntity
  8
0
100
AcDbText
 39
0.0
 10
0.281355
 20
-0.711126
 30
0.569
 40
0.12
  1
(-)L2
210
-1.0
220
0.0
230
0.0
100
AcDbText
  0
LINE
  5
AAFB6
100
AcDbEntity
  8
0
100
AcDbLine
 10
0.0
 20
0.657
 30
0.0
 11
0.0
 21
0.657
 31
-1.04
210
0.0
220
0.0
230
-1.0
  0
LINE
  5
AAFB7
100
AcDbEntity
  8
0
100
AcDbLine
 10
0.0
 20
0.515
 30
-1.04
 11
0.0
 21
0.515
 31
0.0
210
0.0
220
0.0
230
-1.0
  0
LINE
  5
AAFB8
100
AcDbEntity
  8
0
100
AcDbLine
 10
0.0
 20
-0.515
 30
0.0
 11
0.0
 21
-0.515
 31
-1.04
210
0.0
220
0.0
230
-1.0
  0
LINE
  5
AAFB9
100
AcDbEntity
  8
0
100
AcDbLine
 10
0.0
 20
-0.657
 30
-1.04
 11
0.0
 21
-0.657
 31
0.0
210
0.0
220
0.0
230
-1.0
  0
POLYLINE
  5
AAFBA
100
AcDbEntity
  8
0
100
AcDbPolygonMesh
 66
     1
 10
0.0
 20
0.0
 30
0.0
 70
    16
 71
     6
 72
     3
  0
VERTEX
  5
AAFBB
100
AcDbEntity
  8
0
100
AcDbVertex
100
AcDbPolygonMeshVertex
 10
-0.569
 20
0.77725
 30
-0.760222
 70
    64
  0
VERTEX
  5
AAFBC
100
AcDbEntity
  8
0
100
AcDbVertex
100
AcDbPolygonMeshVertex
 10
-0.569
 20
0.77725
 30
-0.914222
 70
    64
  0
VERTEX
  5
AAFBD
100
AcDbEntity
  8
0
100
AcDbVertex
100
AcDbPolygonMeshVertex
 10
-0.569
 20
0.77725
 30
-0.914222
 70
    64
  0
VERTEX
  5
AAFBE
100
AcDbEntity
  8
0
100
AcDbVertex
100
AcDbPolygonMeshVertex
 10
-0.885
 20
0.77725
 30
-0.760222
 70
    64
  0
VERTEX
  5
AAFBF
100
AcDbEntity
  8
0
100
AcDbVertex
100
AcDbPolygonMeshVertex
 10
-0.885
 20
0.77725
 30
-0.914222
 70
    64
  0
VERTEX
  5
AAFC0
100
AcDbEntity
  8
0
100
AcDbVertex
100
AcDbPolygonMeshVertex
 10
-0.885
 20
0.77725
 30
-0.914222
 70
    64
  0
VERTEX
  5
AAFC1
100
AcDbEntity
  8
0
100
AcDbVertex
100
AcDbPolygonMeshVertex
 10
-0.885
 20
0.40425
 30
-0.760222
 70
    64
  0
VERTEX
  5
AAFC2
100
AcDbEntity
  8
0
100
AcDbVertex
100
AcDbPolygonMeshVertex
 10
-0.885
 20
0.40425
 30
-0.914222
 70
    64
  0
VERTEX
  5
AAFC3
100
AcDbEntity
  8
0
100
AcDbVertex
100
AcDbPolygonMeshVertex
 10
-0.885
 20
0.77725
 30
-0.914222
 70
    64
  0
VERTEX
  5
AAFC4
100
AcDbEntity
  8
0
100
AcDbVertex
100
AcDbPolygonMeshVertex
 10
-0.569
 20
0.40425
 30
-0.760222
 70
    64
  0
VERTEX
  5
AAFC5
100
AcDbEntity
  8
0
100
AcDbVertex
100
AcDbPolygonMeshVertex
 10
-0.569
 20
0.40425
 30
-0.914222
 70
    64
  0
VERTEX
  5
AAFC6
100
AcDbEntity
  8
0
100
AcDbVertex
100
AcDbPolygonMeshVertex
 10
-0.569
 20
0.77725
 30
-0.914222
 70
    64
  0
VERTEX
  5
AAFC7
100
AcDbEntity
  8
0
100
AcDbVertex
100
AcDbPolygonMeshVertex
 10
-0.569
 20
0.40425
 30
-0.760222
 70
    64
  0
VERTEX
  5
AAFC8
100
AcDbEntity
  8
0
100
AcDbVertex
100
AcDbPolygonMeshVertex
 10
-0.569
 20
0.40425
 30
-0.760222
 70
    64
  0
VERTEX
  5
AAFC9
100
AcDbEntity
  8
0
100
AcDbVertex
100
AcDbPolygonMeshVertex
 10
-0.569
 20
0.77725
 30
-0.760222
 70
    64
  0
VERTEX
  5
AAFCA
100
AcDbEntity
  8
0
100
AcDbVertex
100
AcDbPolygonMeshVertex
 10
-0.885
 20
0.40425
 30
-0.760222
 70
    64
  0
VERTEX
  5
AAFCB
100
AcDbEntity
  8
0
100
AcDbVertex
100
AcDbPolygonMeshVertex
 10
-0.885
 20
0.40425
 30
-0.760222
 70
    64
  0
VERTEX
  5
AAFCC
100
AcDbEntity
  8
0
100
AcDbVertex
100
AcDbPolygonMeshVertex
 10
-0.885
 20
0.77725
 30
-0.760222
 70
    64
  0
SEQEND
  5
AAFCD
100
AcDbEntity
  8
0
  0
CIRCLE
  5
AAFCE
100
AcDbEntity
  8
0
100
AcDbCircle
 39
0.1
 10
-0.727
 20
0.59075
 30
-1.014222
 40
0.130519
  0
LINE
  5
AAFCF
100
AcDbEntity
  8
0
100
AcDbLine
 10
-0.598023
 20
0.61075
 30
-1.014222
 11
-0.855977
 21
0.61075
 31
-1.014222
  0
LINE
  5
AAFD0
100
AcDbEntity
  8
0
100
AcDbLine
 10
-0.598023
 20
0.57075
 30
-1.014222
 11
-0.855977
 21
0.57075
 31
-1.014222
  0
ATTDEF
  5
AAFD1
100
AcDbEntity
  8
ATTRIBUTES
100
AcDbText
 10
-0.439883
 20
-0.219974
 30
0.0
 40
0.032969
  1
ALLEN-BRADLEY
100
AcDbAttributeDefinition
  3
MANUFACTURER NAME?
  2
AC_VND_LABEL
 70
     0
  0
ATTDEF
  5
AAFD2
100
AcDbEntity
  8
ATTRIBUTES
100
AcDbText
 10
-0.439883
 20
-0.288659
 30
0.0
 40
0.032969
  1
800T-330/1
100
AcDbAttributeDefinition
  3
CATALOG NUMBER?
  2
AC_PART_NO
 70
     0
  0
ATTDEF
  5
AAFD3
100
AcDbEntity
  8
ATTRIBUTES
100
AcDbText
 10
-0.439883
 20
-0.357343
 30
0.0
 40
0.032969
  1
NEMA FULL VOLTAGE POWER MODULE
100
AcDbAttributeDefinition
  3
PART DESCRIPTION?
  2
AC_DESCRIPTION
 70
     0
  0
ATTDEF
  5
AAFD4
100
AcDbEntity
  8
ATTRIBUTES
100
AcDbText
 10
-0.439883
 20
-0.426027
 30
0.0
 40
0.032969
  1

100
AcDbAttributeDefinition
  3
DEVICE ID?
  2
DEVICE_ID
 70
     0
  0
ATTDEF
  5
AAFD5
100
AcDbEntity
  8
ATTRIBUTES
100
AcDbText
 10
-0.439883
 20
-0.494712
 30
0.0
 40
0.032969
  1

100
AcDbAttributeDefinition
  3
CUSTOMER PART NUMBER?
  2
AC_CPART_NO
 70
     0
  0
ATTDEF
  5
AAFD6
100
AcDbEntity
  8
ATTRIBUTES
100
AcDbText
 10
-0.439883
 20
-0.563396
 30
0.0
 40
0.032969
  1

100
AcDbAttributeDefinition
  3
CUSTOMER NOTE?
  2
AC_NOTE
 70
     0
  0
ATTDEF
  5
AAFD7
100
AcDbEntity
  8
ATTRIBUTES
100
AcDbText
 10
-0.439883
 20
-0.632081
 30
0.0
 40
0.032969
  1

100
AcDbAttributeDefinition
  3
FASTENER DATA?
  2
FASTENER
 70
     0
  0
ATTDEF
  5
AAFD8
100
AcDbEntity
  8
ATTRIBUTES
100
AcDbText
 10
-0.439883
 20
-0.700765
 30
0.0
 40
0.032969
  1

100
AcDbAttributeDefinition
  3
UNIT OF SCALE?
  2
AC_SCALE_UNIT
 70
     0
  0
ATTDEF
  5
AAFD9
100
AcDbEntity
  8
ATTRIBUTES
100
AcDbText
 10
-0.439883
 20
-0.76945
 30
0.0
 40
0.032969
  1

100
AcDbAttributeDefinition
  3
VIEW CODE?
  2
AC_VIEW_CODE
 70
     0
  0
DIMENSION
  5
AAFDA
100
AcDbEntity
  8
AREA1
100
AcDbDimension
  2
*D0
 10
-1.355827
 20
0.892
 30
0.0
 11
-1.355827
 21
-0.006445
 31
0.0
 70
   160
  3
ABECAD_3D
100
AcDbAlignedDimension
 13
-1.006
 23
-0.892
 33
-0.145
 14
-1.006
 24
0.892
 34
-0.145
 50
90.0
100
AcDbRotatedDimension
  0
DIMENSION
  5
AAFE8
100
AcDbEntity
  8
AREA1
100
AcDbDimension
  2
*D1
 10
0.0
 20
1.145201
 30
0.0
 11
-0.515082
 21
1.145201
 31
0.0
 70
   160
  3
ABECAD_3D
100
AcDbAlignedDimension
 13
-1.006
 23
0.892
 33
-0.145
 14
0.0
 24
0.8085
 34
0.0
100
AcDbRotatedDimension
  0
LWPOLYLINE
  5
AB005
100
AcDbEntity
  8
SCALE
100
AcDbPolyline
 90
        4
 70
     1
 43
0.0
 10
0.236087
 20
0.002898
 10
1.371716
 20
0.002898
 10
1.371716
 20
-0.838712
 10
0.236087
 20
-0.838712
  0
LINE
  5
AB006
100
AcDbEntity
  8
SCALE
100
AcDbLine
 10
0.294086
 20
-0.377181
 30
0.0
 11
1.294086
 21
-0.377181
 31
0.0
  0
LINE
  5
AB007
100
AcDbEntity
  8
SCALE
100
AcDbLine
 10
0.294086
 20
-0.677181
 30
0.0
 11
0.687786
 21
-0.677181
 31
0.0
  0
LINE
  5
AB008
100
AcDbEntity
  8
SCALE
100
AcDbLine
 10
0.294086
 20
-0.477181
 30
0.0
 11
0.294086
 21
-0.277181
 31
0.0
  0
TEXT
  5
AB009
100
AcDbEntity
  8
SCALE
100
AcDbText
 10
0.350062
 20
-0.629496
 30
0.0
 40
0.0625
  1
[10mm]
100
AcDbText
  0
LINE
  5
AB00A
100
AcDbEntity
  8
SCALE
100
AcDbLine
 10
0.294086
 20
-0.777181
 30
0.0
 11
0.294086
 21
-0.577181
 31
0.0
  0
TEXT
  5
AB00B
100
AcDbEntity
  8
SCALE
100
AcDbText
 10
0.295616
 20
-0.102304
 30
0.0
 40
0.0625
  1
SCALE:
100
AcDbText
  0
LINE
  5
AB00C
100
AcDbEntity
  8
SCALE
100
AcDbLine
 10
0.687786
 20
-0.777181
 30
0.0
 11
0.687786
 21
-0.577181
 31
0.0
  0
TEXT
  5
AB00D
100
AcDbEntity
  8
SCALE
100
AcDbText
 10
0.657369
 20
-0.308132
 30
0.0
 40
0.0625
  1
1 Inch
100
AcDbText
  0
LINE
  5
AB00E
100
AcDbEntity
  8
SCALE
100
AcDbLine
 10
1.294086
 20
-0.377181
 30
0.0
 11
1.294086
 21
-0.477181
 31
0.0
  0
LINE
  5
AB00F
100
AcDbEntity
  8
SCALE
100
AcDbLine
 10
1.294086
 20
-0.477181
 30
0.0
 11
1.294086
 21
-0.277181
 31
0.0
  0
VIEWPORT
  5
5677D
102
{ACAD_XDICTIONARY
360
AB0DD
102
}
100
AcDbEntity
 67
     1
  8
0
100
AcDbViewport
 10
5.25
 20
4.0
 30
0.0
 40
16.386862
 41
8.993
 68
    -1
 69
     1
1001
ACAD
1000
MVIEW
1002
{
1070
    16
1010
0.0
1020
0.0
1030
0.0
1010
0.0
1020
0.0
1030
1.0
1040
0.0
1040
8.993
1040
5.25
1040
4.0
1040
50.0
1040
0.0
1040
0.0
1070
     0
1070
 20000
1070
     1
1070
     1
1070
     0
1070
     0
1070
     0
1070
     0
1040
0.0
1040
0.0
1040
0.0
1040
0.5
1040
0.5
1040
0.5
1040
0.5
1070
     0
1002
{
1002
}
1002
}
  0
VIEWPORT
  5
5677F
102
{ACAD_XDICTIONARY
360
AB0DF
102
}
100
AcDbEntity
 67
     1
  8
AREA1
100
AcDbViewport
 10
5.25
 20
4.0
 30
0.0
 40
8.4
 41
6.4
 68
     1
 69
     2
1001
ACAD
1000
MVIEW
1002
{
1070
    16
1010
0.563444
1020
-0.880137
1030
1.686493
1010
0.0
1020
0.0
1030
1.0
1040
0.0
1040
4.582914
1040
-1.017175
1040
0.747813
1040
50.0
1040
0.0
1040
0.0
1070
     0
1070
 20000
1070
     1
1070
     1
1070
     0
1070
     0
1070
     0
1070
     0
1040
0.0
1040
0.0
1040
0.0
1040
0.25
1040
0.25
1040
0.25
1040
0.25
1070
     0
1002
{
1002
}
1002
}
  0
ENDSEC
  0
SECTION
  2
OBJECTS
  0
DICTIONARY
  5
458CB
100
AcDbDictionary
  3
ACAD_GROUP
350
458CC
  3
ACAD_LAYOUT
350
458FB
  3
ACAD_MLINESTYLE
350
458D9
  3
ACAD_PLOTSETTINGS
350
458FC
  3
ACAD_PLOTSTYLENAME
350
458F9
  3
ACDBHEADERROUNDTRIPXREC
350
AB0B4
  3
ACDBVARIABLEDICTIONARY
350
458E1
  3
DWGPROPS
350
45901
  0
DICTIONARY
  5
AB0B2
100
AcDbDictionary
280
     1
  3
ACAD_XREC_ROUNDTRIP
360
AB0B3
  0
DICTIONARY
  5
AB0DB
100
AcDbDictionary
280
     1
  3
ACAD_XREC_ROUNDTRIP
360
AB0DC
  0
DICTIONARY
  5
AB0B0
100
AcDbDictionary
280
     1
  3
ACAD_XREC_ROUNDTRIP
360
AB0B1
  0
DICTIONARY
  5
AB0D7
100
AcDbDictionary
280
     1
  3
ACAD_XREC_ROUNDTRIP
360
AB0D8
  0
DICTIONARY
  5
4592C
100
AcDbDictionary
280
     1
  3
ACAD_LAYOUTSELFREF
360
AB0D6
  0
DICTIONARY
  5
4592A
100
AcDbDictionary
280
     1
  3
ACAD_LAYOUTSELFREF
360
AB0D5
  0
DICTIONARY
  5
AB0DD
100
AcDbDictionary
280
     1
  3
ACAD_XREC_ROUNDTRIP
360
AB0DE
  0
DICTIONARY
  5
AB0DF
100
AcDbDictionary
280
     1
  3
ACAD_XREC_ROUNDTRIP
360
AB0E0
  0
DICTIONARY
  5
458CC
102
{ACAD_REACTORS
330
458CB
102
}
100
AcDbDictionary
  0
DICTIONARY
  5
458FB
102
{ACAD_XDICTIONARY
360
AB0D9
102
}
102
{ACAD_REACTORS
330
458CB
102
}
100
AcDbDictionary
  3
LAYOUT1
350
458FE
  3
MODEL
350
458FD
  0
DICTIONARY
  5
458D9
102
{ACAD_REACTORS
330
458CB
102
}
100
AcDbDictionary
  3
STANDARD
350
458DA
  0
DICTIONARY
  5
458FC
102
{ACAD_REACTORS
330
458CB
102
}
100
AcDbDictionary
  0
ACAD_PROXY_OBJECT
  5
458F9
102
{ACAD_REACTORS
330
458CB
102
}
100
AcDbProxyObject
 90
      499
 91
      501
 93
       86
310
405010041939BDC9B585B0
350
458FA
340
458FA
 94
        0
  0
DICTIONARY
  5
AB0B4
102
{ACAD_REACTORS
330
458CB
102
}
100
AcDbDictionary
  3
CEPSNTYPE
350
AB0BE
  3
DIMSTYLEDATA
350
AB0C2
  3
FINGERPRINTGUID
350
AB0BF
  3
HYPERLINKBASE
350
AB0B7
  3
INSUNITS
350
AB0BD
  3
LAYOUTDICT
350
AB0B9
  3
LWETCUNION
350
AB0BC
  3
PLOTSETDICT
350
AB0BA
  3
PLOTSTYLNAMDICT
350
AB0BB
  3
PSVPSCALE
350
AB0C1
  3
PUCSBASE
350
AB0C5
  3
PUCSORGBACK
350
AB0CB
  3
PUCSORGBOTTOM
350
AB0C7
  3
PUCSORGFRONT
350
AB0CA
  3
PUCSORGLEFT
350
AB0C8
  3
PUCSORGRIGHT
350
AB0C9
  3
PUCSORGTOP
350
AB0C6
  3
PUCSORTHOREF
350
AB0C3
  3
PUCSORTHOVIEW
350
AB0C4
  3
STYLESHEET
350
AB0B8
  3
TSTACKALIGN
350
AB0B5
  3
TSTACKSIZE
350
AB0B6
  3
UCSBASE
350
AB0CE
  3
UCSORGBACK
350
AB0D4
  3
UCSORGBOTTOM
350
AB0D0
  3
UCSORGFRONT
350
AB0D3
  3
UCSORGLEFT
350
AB0D1
  3
UCSORGRIGHT
350
AB0D2
  3
UCSORGTOP
350
AB0CF
  3
UCSORTHOREF
350
AB0CC
  3
UCSORTHOVIEW
350
AB0CD
  3
VERSIONGUID
350
AB0C0
  0
DICTIONARY
  5
458E1
102
{ACAD_REACTORS
330
458CB
102
}
100
AcDbDictionary
  3
DIMADEC
350
458E2
  0
XRECORD
  5
45901
102
{ACAD_REACTORS
330
458CB
102
}
100
AcDbXrecord
  1
DWGPROPS COOKIE
  2

  3

  4

  6

  7

  8
colin
  9

300
=
301
=
302
=
303
=
304
=
305
=
306
=
307
=
308
=
309
=
 40
0.000599
 41
2451670.444777
 42
2451670.445376
  1

 90
        0
  0
XRECORD
  5
AB0B3
102
{ACAD_REACTORS
330
AB0B2
102
}
100
AcDbXrecord
102
EXTNAMES
  1
*ACTIVE
  2
*Active
102
UCS
 74
     0
 71
     1
 10
0.0
 20
0.0
 30
0.0
 10
1.0
 20
0.0
 30
0.0
 10
0.0
 20
1.0
 30
0.0
146
0.0
 79
     1
102
VIEW
281
     1
  0
XRECORD
  5
AB0DC
102
{ACAD_REACTORS
330
AB0DB
102
}
100
AcDbXrecord
102
PLOTBIT
280
     0
  0
XRECORD
  5
AB0B1
102
{ACAD_REACTORS
330
AB0B0
102
}
100
AcDbXrecord
102
EXTNAMES
  1
DEFPOINTS
  2
Defpoints
102
PLOTBIT
280
     0
  0
XRECORD
  5
AB0D8
102
{ACAD_REACTORS
330
AB0D7
102
}
100
AcDbXrecord
102
ACADR14ROUNDTRIP
1000
DSTYLE
1002
{
1070
   276
 70
     2
1070
   277
 70
     5
1070
   279
 70
     2
1070
   289
 70
     2
1002
}
  0
XRECORD
  5
AB0D6
102
{ACAD_REACTORS
330
4592C
102
}
100
AcDbXrecord
340
458D6
  0
XRECORD
  5
AB0D5
102
{ACAD_REACTORS
330
4592A
102
}
100
AcDbXrecord
340
458D3
  0
XRECORD
  5
AB0DE
102
{ACAD_REACTORS
330
AB0DD
102
}
100
AcDbXrecord
102
UCS
 74
     0
 71
     1
 10
0.0
 20
0.0
 30
0.0
 10
1.0
 20
0.0
 30
0.0
 10
0.0
 20
1.0
 30
0.0
146
0.0
 79
     0
102
VIEW
281
     0
102
NEWVIEWCONTROL
280
     4
  0
XRECORD
  5
AB0E0
102
{ACAD_REACTORS
330
AB0DF
102
}
100
AcDbXrecord
102
UCS
 74
     0
 71
     1
 10
0.0
 20
0.0
 30
0.0
 10
1.0
 20
0.0
 30
0.0
 10
0.0
 20
1.0
 30
0.0
146
0.0
 79
     1
102
VIEW
281
     1
102
NEWVIEWCONTROL
280
     4
  0
DICTIONARY
  5
AB0D9
100
AcDbDictionary
280
     1
  3
ACAD_XREC_ROUNDTRIP
360
AB0DA
  0
ACAD_PROXY_OBJECT
  5
458FE
102
{ACAD_REACTORS
330
458FB
102
}
100
AcDbProxyObject
 90
      499
 91
      503
 93
     1700
310
90B6E6F6E655F6465766963652C0080000006066661940000000181999865000000000068661940000000001A1986500000000C0CCFC6A4000000018199D9C5011C4C65747465725F28382E35305F785F31312E30305F496E6368657329A901416AA547D11959985D5B1D08148C4D081C195B88185CDCDA59DB9B595B9D1CC
310
B98DD1891069074C61796F75743140501A840201008040342FEFF7FBFDFFFFF3EFDFAFF7FBFFDFC9501008043E3FDFC8102A6A6A0000003033333C0FC000000809999E93F8FFFFFF5766E622403FFFFFEBF333071020
330
458D3
330
5677D
340
0
340
0
 94
        0
  0
ACAD_PROXY_OBJECT
  5
458FD
102
{ACAD_REACTORS
330
458FB
102
}
100
AcDbProxyObject
 90
      499
 91
      503
 93
      924
310
91D4850204C617365724A65742035303030205365726965732050434C20362C01AAAAAAAAA547D11959985D5B1D08148C4D081C195B88185CDCDA59DB9B595B9D1CCB98DD18A69054D6F64656C901A800000000000000000000000000000000000000000000A1000000000000008902A6A6AAAA0
330
458D6
330
0
340
0
340
0
 94
        0
  0
MLINESTYLE
  5
458DA
102
{ACAD_REACTORS
330
458D9
102
}
100
AcDbMlineStyle
  2
STANDARD
 70
     0
  3

 62
   256
 51
90.0
 52
90.0
 71
     2
 49
0.5
 62
   256
  6
BYLAYER
 49
-0.5
 62
   256
  6
BYLAYER
  0
ACAD_PROXY_OBJECT
  5
458FA
102
{ACAD_REACTORS
330
458F9
102
}
100
AcDbProxyObject
 90
      499
 91
      502
 93
        0
 94
        0
  0
XRECORD
  5
AB0BE
102
{ACAD_REACTORS
330
AB0B4
102
}
100
AcDbXrecord
 90
        0
  0
XRECORD
  5
AB0C2
102
{ACAD_REACTORS
330
AB0B4
102
}
100
AcDbXrecord
1000
DSTYLE
1002
{
1070
   276
 70
     2
1070
   277
 70
     5
1070
   279
 70
     2
1070
   289
 70
     2
1002
}
  0
XRECORD
  5
AB0BF
102
{ACAD_REACTORS
330
AB0B4
102
}
100
AcDbXrecord
  1
{6E0CF4B8-225E-11D4-A150-00A0CC3303EC}
  0
XRECORD
  5
AB0B7
102
{ACAD_REACTORS
330
AB0B4
102
}
100
AcDbXrecord
  1

  0
XRECORD
  5
AB0BD
102
{ACAD_REACTORS
330
AB0B4
102
}
100
AcDbXrecord
 90
        0
  0
XRECORD
  5
AB0B9
102
{ACAD_REACTORS
330
AB0B4
102
}
100
AcDbXrecord
340
458FB
  0
XRECORD
  5
AB0BC
102
{ACAD_REACTORS
330
AB0B4
102
}
100
AcDbXrecord
 90
    14877
  0
XRECORD
  5
AB0BA
102
{ACAD_REACTORS
330
AB0B4
102
}
100
AcDbXrecord
340
458FC
  0
XRECORD
  5
AB0BB
102
{ACAD_REACTORS
330
AB0B4
102
}
100
AcDbXrecord
340
458F9
  0
XRECORD
  5
AB0C1
102
{ACAD_REACTORS
330
AB0B4
102
}
100
AcDbXrecord
 40
0.0
  0
XRECORD
  5
AB0C5
102
{ACAD_REACTORS
330
AB0B4
102
}
100
AcDbXrecord
340
0
  0
XRECORD
  5
AB0CB
102
{ACAD_REACTORS
330
AB0B4
102
}
100
AcDbXrecord
 10
0.0
 20
0.0
 30
0.0
  0
XRECORD
  5
AB0C7
102
{ACAD_REACTORS
330
AB0B4
102
}
100
AcDbXrecord
 10
0.0
 20
0.0
 30
0.0
  0
XRECORD
  5
AB0CA
102
{ACAD_REACTORS
330
AB0B4
102
}
100
AcDbXrecord
 10
0.0
 20
0.0
 30
0.0
  0
XRECORD
  5
AB0C8
102
{ACAD_REACTORS
330
AB0B4
102
}
100
AcDbXrecord
 10
0.0
 20
0.0
 30
0.0
  0
XRECORD
  5
AB0C9
102
{ACAD_REACTORS
330
AB0B4
102
}
100
AcDbXrecord
 10
0.0
 20
0.0
 30
0.0
  0
XRECORD
  5
AB0C6
102
{ACAD_REACTORS
330
AB0B4
102
}
100
AcDbXrecord
 10
0.0
 20
0.0
 30
0.0
  0
XRECORD
  5
AB0C3
102
{ACAD_REACTORS
330
AB0B4
102
}
100
AcDbXrecord
340
0
  0
XRECORD
  5
AB0C4
102
{ACAD_REACTORS
330
AB0B4
102
}
100
AcDbXrecord
 70
     0
  0
XRECORD
  5
AB0B8
102
{ACAD_REACTORS
330
AB0B4
102
}
100
AcDbXrecord
  1

  0
XRECORD
  5
AB0B5
102
{ACAD_REACTORS
330
AB0B4
102
}
100
AcDbXrecord
 90
        1
  0
XRECORD
  5
AB0B6
102
{ACAD_REACTORS
330
AB0B4
102
}
100
AcDbXrecord
 90
       70
  0
XRECORD
  5
AB0CE
102
{ACAD_REACTORS
330
AB0B4
102
}
100
AcDbXrecord
340
0
  0
XRECORD
  5
AB0D4
102
{ACAD_REACTORS
330
AB0B4
102
}
100
AcDbXrecord
 10
0.0
 20
0.0
 30
0.0
  0
XRECORD
  5
AB0D0
102
{ACAD_REACTORS
330
AB0B4
102
}
100
AcDbXrecord
 10
0.0
 20
0.0
 30
0.0
  0
XRECORD
  5
AB0D3
102
{ACAD_REACTORS
330
AB0B4
102
}
100
AcDbXrecord
 10
0.0
 20
0.0
 30
0.0
  0
XRECORD
  5
AB0D1
102
{ACAD_REACTORS
330
AB0B4
102
}
100
AcDbXrecord
 10
0.0
 20
0.0
 30
0.0
  0
XRECORD
  5
AB0D2
102
{ACAD_REACTORS
330
AB0B4
102
}
100
AcDbXrecord
 10
0.0
 20
0.0
 30
0.0
  0
XRECORD
  5
AB0CF
102
{ACAD_REACTORS
330
AB0B4
102
}
100
AcDbXrecord
 10
0.0
 20
0.0
 30
0.0
  0
XRECORD
  5
AB0CC
102
{ACAD_REACTORS
330
AB0B4
102
}
100
AcDbXrecord
340
0
  0
XRECORD
  5
AB0CD
102
{ACAD_REACTORS
330
AB0B4
102
}
100
AcDbXrecord
 70
     1
  0
XRECORD
  5
AB0C0
102
{ACAD_REACTORS
330
AB0B4
102
}
100
AcDbXrecord
  1
{13BFE8DF-3CF0-4021-9DAE-EB8F6858AC8C}
  0
DICTIONARYVAR
  5
458E2
102
{ACAD_REACTORS
330
458E1
102
}
100
DictionaryVariables
280
     0
  1
0
  0
XRECORD
  5
AB0DA
102
{ACAD_REACTORS
330
AB0D9
102
}
100
AcDbXrecord
102
EXTNAMES
  1
LAYOUT1
  2
Layout1
  1
MODEL
  2
Model
  0
ENDSEC
  0
EOF
