  0
SECTION
  2
HEADER
  9
$ACADVER
  1
AC1014
  9
$ACADMAINTVER
 70
     8
  9
$DWGCODEPAGE
  3
ANSI_1252
  9
$INSBASE
 10
0.0
 20
0.0
 30
0.0
  9
$EXTMIN
 10
-1.403901
 20
-0.892
 30
-1.04
  9
$EXTMAX
 10
1.467268
 20
1.392335
 30
0.0
  9
$LIMMIN
 10
0.0
 20
0.0
  9
$LIMMAX
 10
12.0
 20
9.0
  9
$ORTHOMODE
 70
     0
  9
$REGENMODE
 70
     1
  9
$FILLMODE
 70
     1
  9
$QTEXTMODE
 70
     0
  9
$MIRRTEXT
 70
     1
  9
$DRAGMODE
 70
     2
  9
$LTSCALE
 40
1.0
  9
$OSMODE
 70
    37
  9
$ATTMODE
 70
     1
  9
$TEXTSIZE
 40
0.12
  9
$TRACEWID
 40
0.05
  9
$TEXTSTYLE
  7
STANDARD
  9
$CLAYER
  8
0
  9
$CELTYPE
  6
BYLAYER
  9
$CECOLOR
 62
   256
  9
$CELTSCALE
 40
1.0
  9
$DELOBJ
 70
     1
  9
$DISPSILH
 70
     0
  9
$DIMSCALE
 40
1.0
  9
$DIMASZ
 40
0.1
  9
$DIMEXO
 40
0.1
  9
$DIMDLI
 40
0.375
  9
$DIMRND
 40
0.0
  9
$DIMDLE
 40
0.0
  9
$DIMEXE
 40
0.1
  9
$DIMTP
 40
0.0
  9
$DIMTM
 40
0.0
  9
$DIMTXT
 40
0.1
  9
$DIMCEN
 40
0.09
  9
$DIMTSZ
 40
0.0
  9
$DIMTOL
 70
     0
  9
$DIMLIM
 70
     0
  9
$DIMTIH
 70
     0
  9
$DIMTOH
 70
     1
  9
$DIMSE1
 70
     0
  9
$DIMSE2
 70
     0
  9
$DIMTAD
 70
     0
  9
$DIMZIN
 70
     4
  9
$DIMBLK
  1

  9
$DIMASO
 70
     1
  9
$DIMSHO
 70
     1
  9
$DIMPOST
  1

  9
$DIMAPOST
  1

  9
$DIMALT
 70
     1
  9
$DIMALTD
 70
     2
  9
$DIMALTF
 40
25.4
  9
$DIMLFAC
 40
1.0
  9
$DIMTOFL
 70
     0
  9
$DIMTVP
 40
0.0
  9
$DIMTIX
 70
     0
  9
$DIMSOXD
 70
     0
  9
$DIMSAH
 70
     0
  9
$DIMBLK1
  1

  9
$DIMBLK2
  1

  9
$DIMSTYLE
  2
ABECAD_3D
  9
$DIMCLRD
 70
     0
  9
$DIMCLRE
 70
     0
  9
$DIMCLRT
 70
     0
  9
$DIMTFAC
 40
1.5
  9
$DIMGAP
 40
0.09
  9
$DIMJUST
 70
     0
  9
$DIMSD1
 70
     0
  9
$DIMSD2
 70
     0
  9
$DIMTOLJ
 70
     1
  9
$DIMTZIN
 70
     4
  9
$DIMALTZ
 70
     4
  9
$DIMALTTZ
 70
     4
  9
$DIMFIT
 70
     5
  9
$DIMUPT
 70
     1
  9
$DIMUNIT
 70
     7
  9
$DIMDEC
 70
     6
  9
$DIMTDEC
 70
     6
  9
$DIMALTU
 70
     2
  9
$DIMALTTD
 70
     2
  9
$DIMTXSTY
  7
STANDARD
  9
$DIMAUNIT
 70
     0
  9
$LUNITS
 70
     2
  9
$LUPREC
 70
     4
  9
$SKETCHINC
 40
0.1
  9
$FILLETRAD
 40
0.0
  9
$AUNITS
 70
     0
  9
$AUPREC
 70
     0
  9
$MENU
  1
ACAD
  9
$ELEVATION
 40
0.0
  9
$PELEVATION
 40
0.0
  9
$THICKNESS
 40
0.0
  9
$LIMCHECK
 70
     0
  9
$BLIPMODE
 70
     0
  9
$CHAMFERA
 40
0.0
  9
$CHAMFERB
 40
0.0
  9
$CHAMFERC
 40
0.0
  9
$CHAMFERD
 40
0.0
  9
$SKPOLY
 70
     0
  9
$TDCREATE
 40
2451726.438389120
  9
$TDUPDATE
 40
2452100.671989815
  9
$TDINDWG
 40
1.4318313657
  9
$TDUSRTIMER
 40
1.4318313657
  9
$USRTIMER
 70
     1
  9
$ANGBASE
 50
0.0
  9
$ANGDIR
 70
     0
  9
$PDMODE
 70
     3
  9
$PDSIZE
 40
0.09
  9
$PLINEWID
 40
0.0
  9
$COORDS
 70
     1
  9
$SPLFRAME
 70
     1
  9
$SPLINETYPE
 70
     6
  9
$SPLINESEGS
 70
     8
  9
$ATTDIA
 70
     0
  9
$ATTREQ
 70
     1
  9
$HANDLING
 70
     1
  9
$HANDSEED
  5
AB4F3
  9
$SURFTAB1
 70
     6
  9
$SURFTAB2
 70
     6
  9
$SURFTYPE
 70
     6
  9
$SURFU
 70
     6
  9
$SURFV
 70
     6
  9
$UCSNAME
  2

  9
$UCSORG
 10
0.0
 20
0.0
 30
0.0
  9
$UCSXDIR
 10
1.0
 20
0.0
 30
0.0
  9
$UCSYDIR
 10
0.0
 20
1.0
 30
0.0
  9
$PUCSNAME
  2

  9
$PUCSORG
 10
0.0
 20
0.0
 30
0.0
  9
$PUCSXDIR
 10
1.0
 20
0.0
 30
0.0
  9
$PUCSYDIR
 10
0.0
 20
1.0
 30
0.0
  9
$USERI1
 70
     0
  9
$USERI2
 70
     0
  9
$USERI3
 70
     0
  9
$USERI4
 70
     0
  9
$USERI5
 70
     0
  9
$USERR1
 40
0.0
  9
$USERR2
 40
0.0
  9
$USERR3
 40
0.0
  9
$USERR4
 40
0.0
  9
$USERR5
 40
0.0
  9
$WORLDVIEW
 70
     1
  9
$SHADEDGE
 70
     3
  9
$SHADEDIF
 70
    70
  9
$TILEMODE
 70
     1
  9
$MAXACTVP
 70
    16
  9
$PINSBASE
 10
0.0
 20
0.0
 30
0.0
  9
$PLIMCHECK
 70
     0
  9
$PEXTMIN
 10
1.05
 20
0.8
 30
0.0
  9
$PEXTMAX
 10
9.45
 20
7.2
 30
0.0
  9
$PLIMMIN
 10
-0.25
 20
-0.25
  9
$PLIMMAX
 10
10.75
 20
8.25
  9
$UNITMODE
 70
     0
  9
$VISRETAIN
 70
     0
  9
$PLINEGEN
 70
     0
  9
$PSLTSCALE
 70
     1
  9
$TREEDEPTH
 70
  3020
  9
$PICKSTYLE
 70
     1
  9
$CMLSTYLE
  2
STANDARD
  9
$CMLJUST
 70
     0
  9
$CMLSCALE
 40
1.0
  9
$PROXYGRAPHICS
 70
     1
  9
$MEASUREMENT
 70
     0
  0
ENDSEC
  0
SECTION
  2
CLASSES
  0
CLASS
  1
DICTIONARYVAR
  2
AcDbDictionaryVar
  3
"AutoCAD"
 90
        0
280
     0
281
     0
  0
CLASS
  1
ACDBDICTIONARYWDFLT
  2
AcDbDictionaryWithDefault
  3
AutoCAD 2000
 90
        0
280
     0
281
     0
  0
CLASS
  1
ACDBPLACEHOLDER
  2
AcDbPlaceHolder
  3
AutoCAD 2000
 90
        0
280
     0
281
     0
  0
CLASS
  1
LAYOUT
  2
AcDbLayout
  3
AutoCAD 2000
 90
        0
280
     0
281
     0
  0
CLASS
  1
LONG_TRANSACTION
  2
AcDbLongTransaction
  3
AutoCAD 2000
 90
        0
280
     0
281
     0
  0
CLASS
  1
LWPOLYLINE
  2
AcDbPolyline
  3
"AutoCAD"
 90
        0
280
     0
281
     1
  0
CLASS
  1
HATCH
  2
AcDbHatch
  3
"ACAD_SEDONA"
 90
        0
280
     0
281
     1
  0
CLASS
  1
XRECORD
  2
AcDbXrecord
  3
"<Built In>"
 90
        0
280
     0
281
     0
  0
CLASS
  1
LONG_TRANSACTION
  2
AcDbLongTransaction
  3
AutoCAD 2000
 90
        0
280
     0
281
     0
  0
CLASS
  1
LWPOLYLINE
  2
AcDbPolyline
  3
"AutoCAD"
 90
        0
280
     0
281
     1
  0
CLASS
  1
HATCH
  2
AcDbHatch
  3
"ACAD_SEDONA"
 90
        0
280
     0
281
     1
  0
CLASS
  1
XRECORD
  2
AcDbXrecord
  3
"<Built In>"
 90
        0
280
     0
281
     0
  0
CLASS
  1
LONG_TRANSACTION
  2
AcDbLongTransaction
  3
AutoCAD 2000
 90
        0
280
     0
281
     0
  0
CLASS
  1
LWPOLYLINE
  2
AcDbPolyline
  3
"AutoCAD"
 90
        0
280
     0
281
     1
  0
CLASS
  1
HATCH
  2
AcDbHatch
  3
"ACAD_SEDONA"
 90
        0
280
     0
281
     1
  0
CLASS
  1
XRECORD
  2
AcDbXrecord
  3
"<Built In>"
 90
        0
280
     0
281
     0
  0
CLASS
  1
LONG_TRANSACTION
  2
AcDbLongTransaction
  3
AutoCAD 2000
 90
        0
280
     0
281
     0
  0
CLASS
  1
LWPOLYLINE
  2
AcDbPolyline
  3
"AutoCAD"
 90
        0
280
     0
281
     1
  0
CLASS
  1
HATCH
  2
AcDbHatch
  3
"ACAD_SEDONA"
 90
        0
280
     0
281
     1
  0
CLASS
  1
XRECORD
  2
AcDbXrecord
  3
"<Built In>"
 90
        0
280
     0
281
     0
  0
CLASS
  1
LONG_TRANSACTION
  2
AcDbLongTransaction
  3
AutoCAD 2000
 90
        0
280
     0
281
     0
  0
CLASS
  1
LWPOLYLINE
  2
AcDbPolyline
  3
"AutoCAD"
 90
        0
280
     0
281
     1
  0
CLASS
  1
HATCH
  2
AcDbHatch
  3
"ACAD_SEDONA"
 90
        0
280
     0
281
     1
  0
CLASS
  1
XRECORD
  2
AcDbXrecord
  3
"<Built In>"
 90
        0
280
     0
281
     0
  0
CLASS
  1
LONG_TRANSACTION
  2
AcDbLongTransaction
  3
AutoCAD 2000
 90
        0
280
     0
281
     0
  0
CLASS
  1
LWPOLYLINE
  2
AcDbPolyline
  3
"AutoCAD"
 90
        0
280
     0
281
     1
  0
CLASS
  1
HATCH
  2
AcDbHatch
  3
"ACAD_SEDONA"
 90
        0
280
     0
281
     1
  0
CLASS
  1
XRECORD
  2
AcDbXrecord
  3
"<Built In>"
 90
        0
280
     0
281
     0
  0
CLASS
  1
LONG_TRANSACTION
  2
AcDbLongTransaction
  3
AutoCAD 2000
 90
        0
280
     0
281
     0
  0
CLASS
  1
LWPOLYLINE
  2
AcDbPolyline
  3
"AutoCAD"
 90
        0
280
     0
281
     1
  0
CLASS
  1
HATCH
  2
AcDbHatch
  3
"ACAD_SEDONA"
 90
        0
280
     0
281
     1
  0
CLASS
  1
XRECORD
  2
AcDbXrecord
  3
"<Built In>"
 90
        0
280
     0
281
     0
  0
CLASS
  1
LONG_TRANSACTION
  2
AcDbLongTransaction
  3
AutoCAD 2000
 90
        0
280
     0
281
     0
  0
CLASS
  1
LWPOLYLINE
  2
AcDbPolyline
  3
"AutoCAD"
 90
        0
280
     0
281
     1
  0
CLASS
  1
HATCH
  2
AcDbHatch
  3
"ACAD_SEDONA"
 90
        0
280
     0
281
     1
  0
CLASS
  1
XRECORD
  2
AcDbXrecord
  3
"<Built In>"
 90
        0
280
     0
281
     0
  0
CLASS
  1
LONG_TRANSACTION
  2
AcDbLongTransaction
  3
AutoCAD 2000
 90
        0
280
     0
281
     0
  0
CLASS
  1
LWPOLYLINE
  2
AcDbPolyline
  3
"AutoCAD"
 90
        0
280
     0
281
     1
  0
CLASS
  1
HATCH
  2
AcDbHatch
  3
"ACAD_SEDONA"
 90
        0
280
     0
281
     1
  0
CLASS
  1
XRECORD
  2
AcDbXrecord
  3
"<Built In>"
 90
        0
280
     0
281
     0
  0
CLASS
  1
LONG_TRANSACTION
  2
AcDbLongTransaction
  3
AutoCAD 2000
 90
        0
280
     0
281
     0
  0
CLASS
  1
LWPOLYLINE
  2
AcDbPolyline
  3
"AutoCAD"
 90
        0
280
     0
281
     1
  0
CLASS
  1
HATCH
  2
AcDbHatch
  3
"ACAD_SEDONA"
 90
        0
280
     0
281
     1
  0
CLASS
  1
XRECORD
  2
AcDbXrecord
  3
"<Built In>"
 90
        0
280
     0
281
     0
  0
CLASS
  1
LONG_TRANSACTION
  2
AcDbLongTransaction
  3
AutoCAD 2000
 90
        0
280
     0
281
     0
  0
CLASS
  1
LWPOLYLINE
  2
AcDbPolyline
  3
"AutoCAD"
 90
        0
280
     0
281
     1
  0
CLASS
  1
HATCH
  2
AcDbHatch
  3
"ACAD_SEDONA"
 90
        0
280
     0
281
     1
  0
CLASS
  1
XRECORD
  2
AcDbXrecord
  3
"<Built In>"
 90
        0
280
     0
281
     0
  0
CLASS
  1
LONG_TRANSACTION
  2
AcDbLongTransaction
  3
AutoCAD 2000
 90
        0
280
     0
281
     0
  0
CLASS
  1
LWPOLYLINE
  2
AcDbPolyline
  3
"AutoCAD"
 90
        0
280
     0
281
     1
  0
CLASS
  1
HATCH
  2
AcDbHatch
  3
"ACAD_SEDONA"
 90
        0
280
     0
281
     1
  0
CLASS
  1
XRECORD
  2
AcDbXrecord
  3
"<Built In>"
 90
        0
280
     0
281
     0
  0
CLASS
  1
LONG_TRANSACTION
  2
AcDbLongTransaction
  3
AutoCAD 2000
 90
        0
280
     0
281
     0
  0
CLASS
  1
LWPOLYLINE
  2
AcDbPolyline
  3
"AutoCAD"
 90
        0
280
     0
281
     1
  0
CLASS
  1
HATCH
  2
AcDbHatch
  3
"ACAD_SEDONA"
 90
        0
280
     0
281
     1
  0
CLASS
  1
XRECORD
  2
AcDbXrecord
  3
"<Built In>"
 90
        0
280
     0
281
     0
  0
CLASS
  1
LONG_TRANSACTION
  2
AcDbLongTransaction
  3
AutoCAD 2000
 90
        0
280
     0
281
     0
  0
CLASS
  1
LWPOLYLINE
  2
AcDbPolyline
  3
"AutoCAD"
 90
        0
280
     0
281
     1
  0
CLASS
  1
HATCH
  2
AcDbHatch
  3
"ACAD_SEDONA"
 90
        0
280
     0
281
     1
  0
CLASS
  1
XRECORD
  2
AcDbXrecord
  3
"<Built In>"
 90
        0
280
     0
281
     0
  0
CLASS
  1
LONG_TRANSACTION
  2
AcDbLongTransaction
  3
AutoCAD 2000
 90
        0
280
     0
281
     0
  0
CLASS
  1
LWPOLYLINE
  2
AcDbPolyline
  3
"AutoCAD"
 90
        0
280
     0
281
     1
  0
CLASS
  1
HATCH
  2
AcDbHatch
  3
"ACAD_SEDONA"
 90
        0
280
     0
281
     1
  0
CLASS
  1
XRECORD
  2
AcDbXrecord
  3
"<Built In>"
 90
        0
280
     0
281
     0
  0
CLASS
  1
LONG_TRANSACTION
  2
AcDbLongTransaction
  3
AutoCAD 2000
 90
        0
280
     0
281
     0
  0
CLASS
  1
LWPOLYLINE
  2
AcDbPolyline
  3
"AutoCAD"
 90
        0
280
     0
281
     1
  0
CLASS
  1
HATCH
  2
AcDbHatch
  3
"ACAD_SEDONA"
 90
        0
280
     0
281
     1
  0
CLASS
  1
XRECORD
  2
AcDbXrecord
  3
"<Built In>"
 90
        0
280
     0
281
     0
  0
CLASS
  1
LONG_TRANSACTION
  2
AcDbLongTransaction
  3
AutoCAD 2000
 90
        0
280
     0
281
     0
  0
CLASS
  1
LWPOLYLINE
  2
AcDbPolyline
  3
"AutoCAD"
 90
        0
280
     0
281
     1
  0
CLASS
  1
HATCH
  2
AcDbHatch
  3
"ACAD_SEDONA"
 90
        0
280
     0
281
     1
  0
CLASS
  1
XRECORD
  2
AcDbXrecord
  3
"<Built In>"
 90
        0
280
     0
281
     0
  0
CLASS
  1
LONG_TRANSACTION
  2
AcDbLongTransaction
  3
AutoCAD 2000
 90
        0
280
     0
281
     0
  0
CLASS
  1
LWPOLYLINE
  2
AcDbPolyline
  3
"AutoCAD"
 90
        0
280
     0
281
     1
  0
CLASS
  1
HATCH
  2
AcDbHatch
  3
"ACAD_SEDONA"
 90
        0
280
     0
281
     1
  0
CLASS
  1
XRECORD
  2
AcDbXrecord
  3
"<Built In>"
 90
        0
280
     0
281
     0
  0
CLASS
  1
LONG_TRANSACTION
  2
AcDbLongTransaction
  3
AutoCAD 2000
 90
        0
280
     0
281
     0
  0
CLASS
  1
LWPOLYLINE
  2
AcDbPolyline
  3
"AutoCAD"
 90
        0
280
     0
281
     1
  0
CLASS
  1
HATCH
  2
AcDbHatch
  3
"ACAD_SEDONA"
 90
        0
280
     0
281
     1
  0
CLASS
  1
XRECORD
  2
AcDbXrecord
  3
"<Built In>"
 90
        0
280
     0
281
     0
  0
CLASS
  1
LONG_TRANSACTION
  2
AcDbLongTransaction
  3
AutoCAD 2000
 90
        0
280
     0
281
     0
  0
CLASS
  1
LWPOLYLINE
  2
AcDbPolyline
  3
"AutoCAD"
 90
        0
280
     0
281
     1
  0
CLASS
  1
HATCH
  2
AcDbHatch
  3
"ACAD_SEDONA"
 90
        0
280
     0
281
     1
  0
CLASS
  1
XRECORD
  2
AcDbXrecord
  3
"<Built In>"
 90
        0
280
     0
281
     0
  0
CLASS
  1
LONG_TRANSACTION
  2
AcDbLongTransaction
  3
AutoCAD 2000
 90
        0
280
     0
281
     0
  0
CLASS
  1
LWPOLYLINE
  2
AcDbPolyline
  3
"AutoCAD"
 90
        0
280
     0
281
     1
  0
CLASS
  1
HATCH
  2
AcDbHatch
  3
"ACAD_SEDONA"
 90
        0
280
     0
281
     1
  0
CLASS
  1
XRECORD
  2
AcDbXrecord
  3
"<Built In>"
 90
        0
280
     0
281
     0
  0
CLASS
  1
LONG_TRANSACTION
  2
AcDbLongTransaction
  3
AutoCAD 2000
 90
        0
280
     0
281
     0
  0
CLASS
  1
LWPOLYLINE
  2
AcDbPolyline
  3
"AutoCAD"
 90
        0
280
     0
281
     1
  0
CLASS
  1
HATCH
  2
AcDbHatch
  3
"ACAD_SEDONA"
 90
        0
280
     0
281
     1
  0
CLASS
  1
XRECORD
  2
AcDbXrecord
  3
"<Built In>"
 90
        0
280
     0
281
     0
  0
CLASS
  1
LONG_TRANSACTION
  2
AcDbLongTransaction
  3
AutoCAD 2000
 90
        0
280
     0
281
     0
  0
CLASS
  1
LWPOLYLINE
  2
AcDbPolyline
  3
"AutoCAD"
 90
        0
280
     0
281
     1
  0
CLASS
  1
HATCH
  2
AcDbHatch
  3
"ACAD_SEDONA"
 90
        0
280
     0
281
     1
  0
CLASS
  1
XRECORD
  2
AcDbXrecord
  3
"<Built In>"
 90
        0
280
     0
281
     0
  0
CLASS
  1
LONG_TRANSACTION
  2
AcDbLongTransaction
  3
AutoCAD 2000
 90
        0
280
     0
281
     0
  0
CLASS
  1
LWPOLYLINE
  2
AcDbPolyline
  3
"AutoCAD"
 90
        0
280
     0
281
     1
  0
CLASS
  1
HATCH
  2
AcDbHatch
  3
"ACAD_SEDONA"
 90
        0
280
     0
281
     1
  0
CLASS
  1
XRECORD
  2
AcDbXrecord
  3
"<Built In>"
 90
        0
280
     0
281
     0
  0
CLASS
  1
LONG_TRANSACTION
  2
AcDbLongTransaction
  3
AutoCAD 2000
 90
        0
280
     0
281
     0
  0
CLASS
  1
LWPOLYLINE
  2
AcDbPolyline
  3
"AutoCAD"
 90
        0
280
     0
281
     1
  0
CLASS
  1
HATCH
  2
AcDbHatch
  3
"ACAD_SEDONA"
 90
        0
280
     0
281
     1
  0
CLASS
  1
XRECORD
  2
AcDbXrecord
  3
"<Built In>"
 90
        0
280
     0
281
     0
  0
CLASS
  1
LONG_TRANSACTION
  2
AcDbLongTransaction
  3
AutoCAD 2000
 90
        0
280
     0
281
     0
  0
CLASS
  1
LWPOLYLINE
  2
AcDbPolyline
  3
"AutoCAD"
 90
        0
280
     0
281
     1
  0
CLASS
  1
HATCH
  2
AcDbHatch
  3
"ACAD_SEDONA"
 90
        0
280
     0
281
     1
  0
CLASS
  1
XRECORD
  2
AcDbXrecord
  3
"<Built In>"
 90
        0
280
     0
281
     0
  0
CLASS
  1
LONG_TRANSACTION
  2
AcDbLongTransaction
  3
AutoCAD 2000
 90
        0
280
     0
281
     0
  0
CLASS
  1
LWPOLYLINE
  2
AcDbPolyline
  3
"AutoCAD"
 90
        0
280
     0
281
     1
  0
CLASS
  1
HATCH
  2
AcDbHatch
  3
"ACAD_SEDONA"
 90
        0
280
     0
281
     1
  0
CLASS
  1
XRECORD
  2
AcDbXrecord
  3
"<Built In>"
 90
        0
280
     0
281
     0
  0
CLASS
  1
LONG_TRANSACTION
  2
AcDbLongTransaction
  3
AutoCAD 2000
 90
        0
280
     0
281
     0
  0
CLASS
  1
LWPOLYLINE
  2
AcDbPolyline
  3
"AutoCAD"
 90
        0
280
     0
281
     1
  0
CLASS
  1
HATCH
  2
AcDbHatch
  3
"ACAD_SEDONA"
 90
        0
280
     0
281
     1
  0
CLASS
  1
XRECORD
  2
AcDbXrecord
  3
"<Built In>"
 90
        0
280
     0
281
     0
  0
CLASS
  1
LONG_TRANSACTION
  2
AcDbLongTransaction
  3
AutoCAD 2000
 90
        0
280
     0
281
     0
  0
CLASS
  1
LWPOLYLINE
  2
AcDbPolyline
  3
"AutoCAD"
 90
        0
280
     0
281
     1
  0
CLASS
  1
HATCH
  2
AcDbHatch
  3
"ACAD_SEDONA"
 90
        0
280
     0
281
     1
  0
CLASS
  1
XRECORD
  2
AcDbXrecord
  3
"<Built In>"
 90
        0
280
     0
281
     0
  0
CLASS
  1
LONG_TRANSACTION
  2
AcDbLongTransaction
  3
AutoCAD 2000
 90
        0
280
     0
281
     0
  0
CLASS
  1
LWPOLYLINE
  2
AcDbPolyline
  3
"AutoCAD"
 90
        0
280
     0
281
     1
  0
CLASS
  1
HATCH
  2
AcDbHatch
  3
"ACAD_SEDONA"
 90
        0
280
     0
281
     1
  0
CLASS
  1
XRECORD
  2
AcDbXrecord
  3
"<Built In>"
 90
        0
280
     0
281
     0
  0
CLASS
  1
LONG_TRANSACTION
  2
AcDbLongTransaction
  3
AutoCAD 2000
 90
        0
280
     0
281
     0
  0
CLASS
  1
LWPOLYLINE
  2
AcDbPolyline
  3
"AutoCAD"
 90
        0
280
     0
281
     1
  0
CLASS
  1
HATCH
  2
AcDbHatch
  3
"ACAD_SEDONA"
 90
        0
280
     0
281
     1
  0
CLASS
  1
XRECORD
  2
AcDbXrecord
  3
"<Built In>"
 90
        0
280
     0
281
     0
  0
CLASS
  1
LONG_TRANSACTION
  2
AcDbLongTransaction
  3
AutoCAD 2000
 90
        0
280
     0
281
     0
  0
CLASS
  1
LWPOLYLINE
  2
AcDbPolyline
  3
"AutoCAD"
 90
        0
280
     0
281
     1
  0
CLASS
  1
HATCH
  2
AcDbHatch
  3
"ACAD_SEDONA"
 90
        0
280
     0
281
     1
  0
CLASS
  1
XRECORD
  2
AcDbXrecord
  3
"<Built In>"
 90
        0
280
     0
281
     0
  0
CLASS
  1
LONG_TRANSACTION
  2
AcDbLongTransaction
  3
AutoCAD 2000
 90
        0
280
     0
281
     0
  0
CLASS
  1
LWPOLYLINE
  2
AcDbPolyline
  3
"AutoCAD"
 90
        0
280
     0
281
     1
  0
CLASS
  1
HATCH
  2
AcDbHatch
  3
"ACAD_SEDONA"
 90
        0
280
     0
281
     1
  0
CLASS
  1
XRECORD
  2
AcDbXrecord
  3
"<Built In>"
 90
        0
280
     0
281
     0
  0
CLASS
  1
LONG_TRANSACTION
  2
AcDbLongTransaction
  3
AutoCAD 2000
 90
        0
280
     0
281
     0
  0
CLASS
  1
LWPOLYLINE
  2
AcDbPolyline
  3
"AutoCAD"
 90
        0
280
     0
281
     1
  0
CLASS
  1
HATCH
  2
AcDbHatch
  3
"ACAD_SEDONA"
 90
        0
280
     0
281
     1
  0
CLASS
  1
XRECORD
  2
AcDbXrecord
  3
"<Built In>"
 90
        0
280
     0
281
     0
  0
CLASS
  1
LONG_TRANSACTION
  2
AcDbLongTransaction
  3
AutoCAD 2000
 90
        0
280
     0
281
     0
  0
CLASS
  1
LWPOLYLINE
  2
AcDbPolyline
  3
"AutoCAD"
 90
        0
280
     0
281
     1
  0
CLASS
  1
HATCH
  2
AcDbHatch
  3
"ACAD_SEDONA"
 90
        0
280
     0
281
     1
  0
CLASS
  1
XRECORD
  2
AcDbXrecord
  3
"<Built In>"
 90
        0
280
     0
281
     0
  0
CLASS
  1
LONG_TRANSACTION
  2
AcDbLongTransaction
  3
AutoCAD 2000
 90
        0
280
     0
281
     0
  0
CLASS
  1
LWPOLYLINE
  2
AcDbPolyline
  3
"AutoCAD"
 90
        0
280
     0
281
     1
  0
CLASS
  1
HATCH
  2
AcDbHatch
  3
"ACAD_SEDONA"
 90
        0
280
     0
281
     1
  0
CLASS
  1
XRECORD
  2
AcDbXrecord
  3
"<Built In>"
 90
        0
280
     0
281
     0
  0
CLASS
  1
LONG_TRANSACTION
  2
AcDbLongTransaction
  3
AutoCAD 2000
 90
        0
280
     0
281
     0
  0
CLASS
  1
LWPOLYLINE
  2
AcDbPolyline
  3
"AutoCAD"
 90
        0
280
     0
281
     1
  0
CLASS
  1
HATCH
  2
AcDbHatch
  3
"ACAD_SEDONA"
 90
        0
280
     0
281
     1
  0
CLASS
  1
XRECORD
  2
AcDbXrecord
  3
"<Built In>"
 90
        0
280
     0
281
     0
  0
CLASS
  1
LONG_TRANSACTION
  2
AcDbLongTransaction
  3
AutoCAD 2000
 90
        0
280
     0
281
     0
  0
CLASS
  1
LWPOLYLINE
  2
AcDbPolyline
  3
"AutoCAD"
 90
        0
280
     0
281
     1
  0
CLASS
  1
HATCH
  2
AcDbHatch
  3
"ACAD_SEDONA"
 90
        0
280
     0
281
     1
  0
CLASS
  1
XRECORD
  2
AcDbXrecord
  3
"<Built In>"
 90
        0
280
     0
281
     0
  0
CLASS
  1
LONG_TRANSACTION
  2
AcDbLongTransaction
  3
AutoCAD 2000
 90
        0
280
     0
281
     0
  0
CLASS
  1
LWPOLYLINE
  2
AcDbPolyline
  3
"AutoCAD"
 90
        0
280
     0
281
     1
  0
CLASS
  1
HATCH
  2
AcDbHatch
  3
"ACAD_SEDONA"
 90
        0
280
     0
281
     1
  0
CLASS
  1
XRECORD
  2
AcDbXrecord
  3
"<Built In>"
 90
        0
280
     0
281
     0
  0
CLASS
  1
LONG_TRANSACTION
  2
AcDbLongTransaction
  3
AutoCAD 2000
 90
        0
280
     0
281
     0
  0
CLASS
  1
LWPOLYLINE
  2
AcDbPolyline
  3
"AutoCAD"
 90
        0
280
     0
281
     1
  0
CLASS
  1
HATCH
  2
AcDbHatch
  3
"ACAD_SEDONA"
 90
        0
280
     0
281
     1
  0
CLASS
  1
XRECORD
  2
AcDbXrecord
  3
"<Built In>"
 90
        0
280
     0
281
     0
  0
CLASS
  1
LONG_TRANSACTION
  2
AcDbLongTransaction
  3
AutoCAD 2000
 90
        0
280
     0
281
     0
  0
CLASS
  1
LWPOLYLINE
  2
AcDbPolyline
  3
"AutoCAD"
 90
        0
280
     0
281
     1
  0
CLASS
  1
HATCH
  2
AcDbHatch
  3
"ACAD_SEDONA"
 90
        0
280
     0
281
     1
  0
CLASS
  1
XRECORD
  2
AcDbXrecord
  3
"<Built In>"
 90
        0
280
     0
281
     0
  0
CLASS
  1
LONG_TRANSACTION
  2
AcDbLongTransaction
  3
AutoCAD 2000
 90
        0
280
     0
281
     0
  0
CLASS
  1
LWPOLYLINE
  2
AcDbPolyline
  3
"AutoCAD"
 90
        0
280
     0
281
     1
  0
CLASS
  1
HATCH
  2
AcDbHatch
  3
"ACAD_SEDONA"
 90
        0
280
     0
281
     1
  0
CLASS
  1
XRECORD
  2
AcDbXrecord
  3
"<Built In>"
 90
        0
280
     0
281
     0
  0
CLASS
  1
LONG_TRANSACTION
  2
AcDbLongTransaction
  3
AutoCAD 2000
 90
        0
280
     0
281
     0
  0
CLASS
  1
LWPOLYLINE
  2
AcDbPolyline
  3
"AutoCAD"
 90
        0
280
     0
281
     1
  0
CLASS
  1
HATCH
  2
AcDbHatch
  3
"ACAD_SEDONA"
 90
        0
280
     0
281
     1
  0
CLASS
  1
XRECORD
  2
AcDbXrecord
  3
"<Built In>"
 90
        0
280
     0
281
     0
  0
CLASS
  1
LONG_TRANSACTION
  2
AcDbLongTransaction
  3
AutoCAD 2000
 90
        0
280
     0
281
     0
  0
CLASS
  1
LWPOLYLINE
  2
AcDbPolyline
  3
"AutoCAD"
 90
        0
280
     0
281
     1
  0
CLASS
  1
HATCH
  2
AcDbHatch
  3
"ACAD_SEDONA"
 90
        0
280
     0
281
     1
  0
CLASS
  1
XRECORD
  2
AcDbXrecord
  3
"<Built In>"
 90
        0
280
     0
281
     0
  0
CLASS
  1
LONG_TRANSACTION
  2
AcDbLongTransaction
  3
AutoCAD 2000
 90
        0
280
     0
281
     0
  0
CLASS
  1
LWPOLYLINE
  2
AcDbPolyline
  3
"AutoCAD"
 90
        0
280
     0
281
     1
  0
CLASS
  1
HATCH
  2
AcDbHatch
  3
"ACAD_SEDONA"
 90
        0
280
     0
281
     1
  0
CLASS
  1
XRECORD
  2
AcDbXrecord
  3
"<Built In>"
 90
        0
280
     0
281
     0
  0
ENDSEC
  0
SECTION
  2
TABLES
  0
TABLE
  2
VPORT
  5
458C7
100
AcDbSymbolTable
 70
     1
  0
VPORT
  5
AB4BE
102
{ACAD_XDICTIONARY
360
AB4C1
102
}
100
AcDbSymbolTableRecord
100
AcDbViewportTableRecord
  2
*ACTIVE
 70
     0
 10
0.0
 20
0.0
 11
1.0
 21
1.0
 12
1.034228
 22
1.15917
 13
0.0
 23
0.0
 14
0.25
 24
0.25
 15
0.25
 25
0.25
 16
0.0
 26
0.0
 36
1.0
 17
-1.002245
 27
-0.908856
 37
0.745855
 40
2.308749
 41
1.829897
 42
50.0
 43
0.0
 44
0.0
 50
0.0
 51
0.0
 71
     0
 72
 20000
 73
     1
 74
     1
 75
     0
 76
     0
 77
     0
 78
     0
  0
ENDTAB
  0
TABLE
  2
LTYPE
  5
458C4
100
AcDbSymbolTable
 70
     1
  0
LTYPE
  5
458D0
100
AcDbSymbolTableRecord
100
AcDbLinetypeTableRecord
  2
BYBLOCK
 70
     0
  3

 72
    65
 73
     0
 40
0.0
  0
LTYPE
  5
458D1
100
AcDbSymbolTableRecord
100
AcDbLinetypeTableRecord
  2
BYLAYER
 70
     0
  3

 72
    65
 73
     0
 40
0.0
  0
LTYPE
  5
458D2
100
AcDbSymbolTableRecord
100
AcDbLinetypeTableRecord
  2
CONTINUOUS
 70
     0
  3
Solid line
 72
    65
 73
     0
 40
0.0
  0
ENDTAB
  0
TABLE
  2
LAYER
  5
458C1
100
AcDbSymbolTable
 70
     7
  0
LAYER
  5
458CD
100
AcDbSymbolTableRecord
100
AcDbLayerTableRecord
  2
0
 70
     0
 62
     7
  6
CONTINUOUS
  0
LAYER
  5
458EA
100
AcDbSymbolTableRecord
100
AcDbLayerTableRecord
  2
DIMS-MTG-HOLES
 70
     0
 62
     1
  6
CONTINUOUS
  0
LAYER
  5
458EB
100
AcDbSymbolTableRecord
100
AcDbLayerTableRecord
  2
ATTRIBUTES
 70
     0
 62
     7
  6
CONTINUOUS
  0
LAYER
  5
4593B
102
{ACAD_XDICTIONARY
360
AB4EA
102
}
100
AcDbSymbolTableRecord
100
AcDbLayerTableRecord
  2
AREA1
 70
     0
 62
    -7
  6
CONTINUOUS
  0
LAYER
  5
45940
102
{ACAD_XDICTIONARY
360
AB4BF
102
}
100
AcDbSymbolTableRecord
100
AcDbLayerTableRecord
  2
DEFPOINTS
 70
     0
 62
    -7
  6
CONTINUOUS
  0
LAYER
  5
45954
100
AcDbSymbolTableRecord
100
AcDbLayerTableRecord
  2
SCALE
 70
     0
 62
    -7
  6
CONTINUOUS
  0
LAYER
  5
4D59A
100
AcDbSymbolTableRecord
100
AcDbLayerTableRecord
  2
SNAP_POINTS
 70
     0
 62
    -1
  6
CONTINUOUS
  0
ENDTAB
  0
TABLE
  2
STYLE
  5
458C2
100
AcDbSymbolTable
 70
     1
  0
STYLE
  5
458CE
100
AcDbSymbolTableRecord
100
AcDbTextStyleTableRecord
  2
STANDARD
 70
     0
 40
0.0
 41
1.0
 50
0.0
 71
     0
 42
0.12
  3
txt
  4

  0
ENDTAB
  0
TABLE
  2
VIEW
  5
458C5
100
AcDbSymbolTable
 70
     0
  0
ENDTAB
  0
TABLE
  2
UCS
  5
458C6
100
AcDbSymbolTable
 70
     0
  0
ENDTAB
  0
TABLE
  2
APPID
  5
458C8
100
AcDbSymbolTable
 70
     2
  0
APPID
  5
458CF
100
AcDbSymbolTableRecord
100
AcDbRegAppTableRecord
  2
ACAD
 70
     0
  0
APPID
  5
5FD5B
100
AcDbSymbolTableRecord
100
AcDbRegAppTableRecord
  2
AVE_RENDER
 70
     0
  0
ENDTAB
  0
TABLE
  2
DIMSTYLE
  5
458C9
100
AcDbSymbolTable
 70
     1
  0
DIMSTYLE
105
458F6
102
{ACAD_XDICTIONARY
360
AB4E6
102
}
102
{ACAD_REACTORS
330
AB3E1
330
AB3EF
102
}
100
AcDbSymbolTableRecord
100
AcDbDimStyleTableRecord
  2
ABECAD_3D
 70
     0
  3

  4

  5

  6

  7

 40
1.0
 41
0.1
 42
0.1
 43
0.375
 44
0.1
 45
0.0
 46
0.0
 47
0.0
 48
0.0
140
0.1
141
0.09
142
0.0
143
25.4
144
1.0
145
0.0
146
1.5
147
0.09
 71
     0
 72
     0
 73
     0
 74
     1
 75
     0
 76
     0
 77
     0
 78
     4
170
     1
171
     2
172
     0
173
     0
174
     0
175
     0
176
     0
177
     0
178
     0
270
     7
271
     6
272
     6
273
     2
274
     2
340
458CE
275
     0
280
     0
281
     0
282
     0
283
     1
284
     4
285
     4
286
     4
287
     5
288
     1
  0
ENDTAB
  0
TABLE
  2
BLOCK_RECORD
  5
458C0
100
AcDbSymbolTable
 70
     2
  0
BLOCK_RECORD
  5
458D6
102
{ACAD_XDICTIONARY
360
4592C
102
}
100
AcDbSymbolTableRecord
100
AcDbBlockTableRecord
  2
*MODEL_SPACE
  0
BLOCK_RECORD
  5
458D3
102
{ACAD_XDICTIONARY
360
4592A
102
}
100
AcDbSymbolTableRecord
100
AcDbBlockTableRecord
  2
*PAPER_SPACE
  0
BLOCK_RECORD
  5
AB3E2
100
AcDbSymbolTableRecord
100
AcDbBlockTableRecord
  2
*D0
  0
BLOCK_RECORD
  5
AB3F0
100
AcDbSymbolTableRecord
100
AcDbBlockTableRecord
  2
*D1
  0
ENDTAB
  0
ENDSEC
  0
SECTION
  2
BLOCKS
  0
BLOCK
  5
458DF
100
AcDbEntity
  8
0
100
AcDbBlockBegin
  2
*MODEL_SPACE
 70
     0
 10
0.0
 20
0.0
 30
0.0
  3
*MODEL_SPACE
  1

  0
ENDBLK
  5
458E0
100
AcDbEntity
  8
0
100
AcDbBlockEnd
  0
BLOCK
  5
458DD
100
AcDbEntity
 67
     1
  8
0
100
AcDbBlockBegin
  2
*PAPER_SPACE
 70
     0
 10
0.0
 20
0.0
 30
0.0
  3
*PAPER_SPACE
  1

  0
ENDBLK
  5
458DE
100
AcDbEntity
 67
     1
  8
0
100
AcDbBlockEnd
  0
BLOCK
  5
AB3ED
100
AcDbEntity
  8
0
100
AcDbBlockBegin
  2
*D0
 70
     1
 10
0.0
 20
0.0
 30
0.0
  3
*D0
  1

  0
LINE
  5
AB3E3
100
AcDbEntity
  8
AREA1
 62
     0
100
AcDbLine
 10
-1.106
 20
-0.892
 30
0.0
 11
-1.403901
 21
-0.892
 31
0.0
1001
ACAD
1000
RTLwPs
1070
   158
  0
LINE
  5
AB3E4
100
AcDbEntity
  8
AREA1
 62
     0
100
AcDbLine
 10
-1.106
 20
0.892
 30
0.0
 11
-1.403901
 21
0.892
 31
0.0
1001
ACAD
1000
RTLwPs
1070
   158
  0
LINE
  5
AB3E5
100
AcDbEntity
  8
AREA1
 62
     0
100
AcDbLine
 10
-1.303901
 20
-0.792
 30
0.0
 11
-1.303901
 21
-0.719162
 31
0.0
1001
ACAD
1000
RTLwPs
1070
   158
  0
LINE
  5
AB3E6
100
AcDbEntity
  8
AREA1
 62
     0
100
AcDbLine
 10
-1.303901
 20
0.792
 30
0.0
 11
-1.303901
 21
0.727505
 31
0.0
1001
ACAD
1000
RTLwPs
1070
   158
  0
MTEXT
  5
AB3E7
100
AcDbEntity
  8
AREA1
 62
     0
100
AcDbMText
 10
-1.303901
 20
0.004172
 30
0.0
 40
0.1
 41
0.0
 71
     5
 72
     1
  1
\A1;1 25/32 [45.31]
 11
0.0
 21
1.0
 31
0.0
1001
ACAD
1000
MTEXTBEGIN
1070
    73
1070
     1
1070
    44
1040
1.0
1070
    74
1070
     0
1000
MTEXTEND
1000
MTEXTBEGIN
1070
    73
1070
     1
1070
    44
1040
1.0
1070
    74
1070
     0
1000
MTEXTEND
1000
MTEXTBEGIN
1070
    73
1070
     1
1070
    44
1040
1.0
1070
    74
1070
     0
1000
MTEXTEND
1000
MTEXTBEGIN
1070
    73
1070
     1
1070
    44
1040
1.0
1070
    74
1070
     0
1000
MTEXTEND
  0
SOLID
  5
AB3E8
100
AcDbEntity
  8
AREA1
 62
     0
100
AcDbTrace
 10
-1.320567
 20
-0.792
 30
0.0
 11
-1.287234
 21
-0.792
 31
0.0
 12
-1.303901
 22
-0.892
 32
0.0
 13
-1.303901
 23
-0.892
 33
0.0
  0
SOLID
  5
AB3E9
100
AcDbEntity
  8
AREA1
 62
     0
100
AcDbTrace
 10
-1.320567
 20
0.792
 30
0.0
 11
-1.287234
 21
0.792
 31
0.0
 12
-1.303901
 22
0.892
 32
0.0
 13
-1.303901
 23
0.892
 33
0.0
  0
POINT
  5
AB3EA
100
AcDbEntity
  8
DEFPOINTS
 62
     0
100
AcDbPoint
 10
-1.006
 20
-0.892
 30
-0.145
  0
POINT
  5
AB3EB
100
AcDbEntity
  8
DEFPOINTS
 62
     0
100
AcDbPoint
 10
-1.006
 20
0.892
 30
-0.145
  0
POINT
  5
AB3EC
100
AcDbEntity
  8
DEFPOINTS
 62
     0
100
AcDbPoint
 10
-1.303901
 20
0.892
 30
0.0
  0
ENDBLK
  5
AB3EE
100
AcDbEntity
  8
0
100
AcDbBlockEnd
  0
BLOCK
  5
AB3FA
100
AcDbEntity
  8
0
100
AcDbBlockBegin
  2
*D1
 70
     1
 10
0.0
 20
0.0
 30
0.0
  3
*D1
  1

  0
LINE
  5
AB3FC
100
AcDbEntity
  8
AREA1
 62
     0
100
AcDbLine
 10
-1.006
 20
0.992
 30
0.0
 11
-1.006
 21
1.241945
 31
0.0
1001
ACAD
1000
RTLwPs
1070
   158
  0
LINE
  5
AB3FD
100
AcDbEntity
  8
AREA1
 62
     0
100
AcDbLine
 10
0.12
 20
0.9085
 30
0.0
 11
0.12
 21
1.241945
 31
0.0
1001
ACAD
1000
RTLwPs
1070
   158
  0
LINE
  5
AB3FE
100
AcDbEntity
  8
AREA1
 62
     0
100
AcDbLine
 10
-0.906
 20
1.141945
 30
0.0
 11
0.02
 21
1.141945
 31
0.0
1001
ACAD
1000
RTLwPs
1070
   158
  0
MTEXT
  5
AB3FF
100
AcDbEntity
  8
AREA1
 62
     0
100
AcDbMText
 10
-0.47113
 20
1.342335
 30
0.0
 40
0.1
 41
0.0
 71
     5
 72
     1
  1
\A1;1 1/8 [28.60]
1001
ACAD
1000
MTEXTBEGIN
1070
    73
1070
     1
1070
    44
1040
1.0
1070
    74
1070
     0
1000
MTEXTEND
1000
MTEXTBEGIN
1070
    73
1070
     1
1070
    44
1040
1.0
1070
    74
1070
     0
1000
MTEXTEND
1000
MTEXTBEGIN
1070
    73
1070
     1
1070
    44
1040
1.0
1070
    74
1070
     0
1000
MTEXTEND
1000
MTEXTBEGIN
1070
    73
1070
     1
1070
    44
1040
1.0
1070
    74
1070
     0
1000
MTEXTEND
  0
SOLID
  5
AB400
100
AcDbEntity
  8
AREA1
 62
     0
100
AcDbTrace
 10
-0.906
 20
1.158612
 30
0.0
 11
-0.906
 21
1.125279
 31
0.0
 12
-1.006
 22
1.141945
 32
0.0
 13
-1.006
 23
1.141945
 33
0.0
  0
SOLID
  5
AB401
100
AcDbEntity
  8
AREA1
 62
     0
100
AcDbTrace
 10
0.02
 20
1.158612
 30
0.0
 11
0.02
 21
1.125279
 31
0.0
 12
0.12
 22
1.141945
 32
0.0
 13
0.12
 23
1.141945
 33
0.0
  0
POINT
  5
AB402
100
AcDbEntity
  8
DEFPOINTS
 62
     0
100
AcDbPoint
 10
-1.006
 20
0.892
 30
-0.145
  0
POINT
  5
AB403
100
AcDbEntity
  8
DEFPOINTS
 62
     0
100
AcDbPoint
 10
0.12
 20
0.8085
 30
0.0
  0
POINT
  5
AB404
100
AcDbEntity
  8
DEFPOINTS
 62
     0
100
AcDbPoint
 10
0.12
 20
1.141945
 30
0.0
  0
ENDBLK
  5
AB3FB
100
AcDbEntity
  8
0
100
AcDbBlockEnd
  0
ENDSEC
  0
SECTION
  2
ENTITIES
  0
POINT
  5
AB2CD
100
AcDbEntity
  8
SNAP_POINTS
100
AcDbPoint
 10
0.0
 20
0.0
 30
0.0
  0
LINE
  5
AB2CE
100
AcDbEntity
  8
0
100
AcDbLine
 10
0.0
 20
-0.657
 30
0.0
 11
0.0
 21
-0.657
 31
-1.04
210
0.0
220
0.0
230
-1.0
  0
LINE
  5
AB2CF
100
AcDbEntity
  8
0
100
AcDbLine
 10
0.0
 20
-0.515
 30
-1.04
 11
0.0
 21
-0.515
 31
0.0
210
0.0
220
0.0
230
-1.0
  0
POLYLINE
  5
AB2D0
100
AcDbEntity
  8
0
100
AcDbPolygonMesh
 66
     1
 10
0.0
 20
0.0
 30
0.0
 70
    16
 71
     6
 72
     3
  0
VERTEX
  5
AB2D1
100
AcDbEntity
  8
0
100
AcDbVertex
100
AcDbPolygonMeshVertex
 10
0.0
 20
-0.8085
 30
0.0
 70
    64
  0
VERTEX
  5
AB2D2
100
AcDbEntity
  8
0
100
AcDbVertex
100
AcDbPolygonMeshVertex
 10
0.0
 20
-0.8085
 30
-1.04
 70
    64
  0
VERTEX
  5
AB2D3
100
AcDbEntity
  8
0
100
AcDbVertex
100
AcDbPolygonMeshVertex
 10
0.0
 20
-0.8085
 30
-1.04
 70
    64
  0
VERTEX
  5
AB2D4
100
AcDbEntity
  8
0
100
AcDbVertex
100
AcDbPolygonMeshVertex
 10
-0.471
 20
-0.8085
 30
0.0
 70
    64
  0
VERTEX
  5
AB2D5
100
AcDbEntity
  8
0
100
AcDbVertex
100
AcDbPolygonMeshVertex
 10
-0.471
 20
-0.8085
 30
-1.04
 70
    64
  0
VERTEX
  5
AB2D6
100
AcDbEntity
  8
0
100
AcDbVertex
100
AcDbPolygonMeshVertex
 10
-0.471
 20
-0.8085
 30
-1.04
 70
    64
  0
VERTEX
  5
AB2D7
100
AcDbEntity
  8
0
100
AcDbVertex
100
AcDbPolygonMeshVertex
 10
-0.471
 20
0.8085
 30
0.0
 70
    64
  0
VERTEX
  5
AB2D8
100
AcDbEntity
  8
0
100
AcDbVertex
100
AcDbPolygonMeshVertex
 10
-0.471
 20
0.8085
 30
-1.04
 70
    64
  0
VERTEX
  5
AB2D9
100
AcDbEntity
  8
0
100
AcDbVertex
100
AcDbPolygonMeshVertex
 10
-0.471
 20
-0.8085
 30
-1.04
 70
    64
  0
VERTEX
  5
AB2DA
100
AcDbEntity
  8
0
100
AcDbVertex
100
AcDbPolygonMeshVertex
 10
0.0
 20
0.8085
 30
0.0
 70
    64
  0
VERTEX
  5
AB2DB
100
AcDbEntity
  8
0
100
AcDbVertex
100
AcDbPolygonMeshVertex
 10
0.0
 20
0.8085
 30
-1.04
 70
    64
  0
VERTEX
  5
AB2DC
100
AcDbEntity
  8
0
100
AcDbVertex
100
AcDbPolygonMeshVertex
 10
0.0
 20
-0.8085
 30
-1.04
 70
    64
  0
VERTEX
  5
AB2DD
100
AcDbEntity
  8
0
100
AcDbVertex
100
AcDbPolygonMeshVertex
 10
0.0
 20
0.8085
 30
0.0
 70
    64
  0
VERTEX
  5
AB2DE
100
AcDbEntity
  8
0
100
AcDbVertex
100
AcDbPolygonMeshVertex
 10
0.0
 20
0.8085
 30
0.0
 70
    64
  0
VERTEX
  5
AB2DF
100
AcDbEntity
  8
0
100
AcDbVertex
100
AcDbPolygonMeshVertex
 10
0.0
 20
-0.8085
 30
0.0
 70
    64
  0
VERTEX
  5
AB2E0
100
AcDbEntity
  8
0
100
AcDbVertex
100
AcDbPolygonMeshVertex
 10
-0.471
 20
0.8085
 30
0.0
 70
    64
  0
VERTEX
  5
AB2E1
100
AcDbEntity
  8
0
100
AcDbVertex
100
AcDbPolygonMeshVertex
 10
-0.471
 20
0.8085
 30
0.0
 70
    64
  0
VERTEX
  5
AB2E2
100
AcDbEntity
  8
0
100
AcDbVertex
100
AcDbPolygonMeshVertex
 10
-0.471
 20
-0.8085
 30
0.0
 70
    64
  0
SEQEND
  5
AB2E3
100
AcDbEntity
  8
0
  0
POLYLINE
  5
AB2E4
100
AcDbEntity
  8
0
100
AcDbPolygonMesh
 66
     1
 10
0.0
 20
0.0
 30
0.0
 70
    16
 71
     6
 72
     3
  0
VERTEX
  5
AB2E5
100
AcDbEntity
  8
0
100
AcDbVertex
100
AcDbPolygonMeshVertex
 10
-0.471
 20
-0.892
 30
0.0
 70
    64
  0
VERTEX
  5
AB2E6
100
AcDbEntity
  8
0
100
AcDbVertex
100
AcDbPolygonMeshVertex
 10
-0.471
 20
-0.892
 30
-1.04
 70
    64
  0
VERTEX
  5
AB2E7
100
AcDbEntity
  8
0
100
AcDbVertex
100
AcDbPolygonMeshVertex
 10
-0.471
 20
-0.892
 30
-1.04
 70
    64
  0
VERTEX
  5
AB2E8
100
AcDbEntity
  8
0
100
AcDbVertex
100
AcDbPolygonMeshVertex
 10
-0.569
 20
-0.892
 30
0.0
 70
    64
  0
VERTEX
  5
AB2E9
100
AcDbEntity
  8
0
100
AcDbVertex
100
AcDbPolygonMeshVertex
 10
-0.569
 20
-0.892
 30
-1.04
 70
    64
  0
VERTEX
  5
AB2EA
100
AcDbEntity
  8
0
100
AcDbVertex
100
AcDbPolygonMeshVertex
 10
-0.569
 20
-0.892
 30
-1.04
 70
    64
  0
VERTEX
  5
AB2EB
100
AcDbEntity
  8
0
100
AcDbVertex
100
AcDbPolygonMeshVertex
 10
-0.569
 20
0.892
 30
0.0
 70
    64
  0
VERTEX
  5
AB2EC
100
AcDbEntity
  8
0
100
AcDbVertex
100
AcDbPolygonMeshVertex
 10
-0.569
 20
0.892
 30
-1.04
 70
    64
  0
VERTEX
  5
AB2ED
100
AcDbEntity
  8
0
100
AcDbVertex
100
AcDbPolygonMeshVertex
 10
-0.569
 20
-0.892
 30
-1.04
 70
    64
  0
VERTEX
  5
AB2EE
100
AcDbEntity
  8
0
100
AcDbVertex
100
AcDbPolygonMeshVertex
 10
-0.471
 20
0.892
 30
0.0
 70
    64
  0
VERTEX
  5
AB2EF
100
AcDbEntity
  8
0
100
AcDbVertex
100
AcDbPolygonMeshVertex
 10
-0.471
 20
0.892
 30
-1.04
 70
    64
  0
VERTEX
  5
AB2F0
100
AcDbEntity
  8
0
100
AcDbVertex
100
AcDbPolygonMeshVertex
 10
-0.471
 20
-0.892
 30
-1.04
 70
    64
  0
VERTEX
  5
AB2F1
100
AcDbEntity
  8
0
100
AcDbVertex
100
AcDbPolygonMeshVertex
 10
-0.471
 20
0.892
 30
0.0
 70
    64
  0
VERTEX
  5
AB2F2
100
AcDbEntity
  8
0
100
AcDbVertex
100
AcDbPolygonMeshVertex
 10
-0.471
 20
0.892
 30
0.0
 70
    64
  0
VERTEX
  5
AB2F3
100
AcDbEntity
  8
0
100
AcDbVertex
100
AcDbPolygonMeshVertex
 10
-0.471
 20
-0.892
 30
0.0
 70
    64
  0
VERTEX
  5
AB2F4
100
AcDbEntity
  8
0
100
AcDbVertex
100
AcDbPolygonMeshVertex
 10
-0.569
 20
0.892
 30
0.0
 70
    64
  0
VERTEX
  5
AB2F5
100
AcDbEntity
  8
0
100
AcDbVertex
100
AcDbPolygonMeshVertex
 10
-0.569
 20
0.892
 30
0.0
 70
    64
  0
VERTEX
  5
AB2F6
100
AcDbEntity
  8
0
100
AcDbVertex
100
AcDbPolygonMeshVertex
 10
-0.569
 20
-0.892
 30
0.0
 70
    64
  0
SEQEND
  5
AB2F7
100
AcDbEntity
  8
0
  0
POLYLINE
  5
AB2F8
100
AcDbEntity
  8
0
100
AcDbPolygonMesh
 66
     1
 10
0.0
 20
0.0
 30
0.0
 70
    16
 71
     6
 72
     3
  0
VERTEX
  5
AB2F9
100
AcDbEntity
  8
0
100
AcDbVertex
100
AcDbPolygonMeshVertex
 10
-1.006
 20
-0.892
 30
-0.145
 70
    64
  0
VERTEX
  5
AB2FA
100
AcDbEntity
  8
0
100
AcDbVertex
100
AcDbPolygonMeshVertex
 10
-1.006
 20
-0.892
 30
-0.145
 70
    64
  0
VERTEX
  5
AB2FB
100
AcDbEntity
  8
0
100
AcDbVertex
100
AcDbPolygonMeshVertex
 10
-1.006
 20
-0.892
 30
-0.145
 70
    64
  0
VERTEX
  5
AB2FC
100
AcDbEntity
  8
0
100
AcDbVertex
100
AcDbPolygonMeshVertex
 10
-0.569
 20
-0.892
 30
0.0
 70
    64
  0
VERTEX
  5
AB2FD
100
AcDbEntity
  8
0
100
AcDbVertex
100
AcDbPolygonMeshVertex
 10
-0.569
 20
-0.892
 30
-0.145
 70
    64
  0
VERTEX
  5
AB2FE
100
AcDbEntity
  8
0
100
AcDbVertex
100
AcDbPolygonMeshVertex
 10
-0.569
 20
-0.892
 30
-0.145
 70
    64
  0
VERTEX
  5
AB2FF
100
AcDbEntity
  8
0
100
AcDbVertex
100
AcDbPolygonMeshVertex
 10
-0.569
 20
-0.8085
 30
0.0
 70
    64
  0
VERTEX
  5
AB300
100
AcDbEntity
  8
0
100
AcDbVertex
100
AcDbPolygonMeshVertex
 10
-0.569
 20
-0.8085
 30
-0.145
 70
    64
  0
VERTEX
  5
AB301
100
AcDbEntity
  8
0
100
AcDbVertex
100
AcDbPolygonMeshVertex
 10
-0.569
 20
-0.892
 30
-0.145
 70
    64
  0
VERTEX
  5
AB302
100
AcDbEntity
  8
0
100
AcDbVertex
100
AcDbPolygonMeshVertex
 10
-1.006
 20
-0.8085
 30
-0.145
 70
    64
  0
VERTEX
  5
AB303
100
AcDbEntity
  8
0
100
AcDbVertex
100
AcDbPolygonMeshVertex
 10
-1.006
 20
-0.8085
 30
-0.145
 70
    64
  0
VERTEX
  5
AB304
100
AcDbEntity
  8
0
100
AcDbVertex
100
AcDbPolygonMeshVertex
 10
-1.006
 20
-0.892
 30
-0.145
 70
    64
  0
VERTEX
  5
AB305
100
AcDbEntity
  8
0
100
AcDbVertex
100
AcDbPolygonMeshVertex
 10
-1.006
 20
-0.8085
 30
-0.145
 70
    64
  0
VERTEX
  5
AB306
100
AcDbEntity
  8
0
100
AcDbVertex
100
AcDbPolygonMeshVertex
 10
-1.006
 20
-0.8085
 30
-0.145
 70
    64
  0
VERTEX
  5
AB307
100
AcDbEntity
  8
0
100
AcDbVertex
100
AcDbPolygonMeshVertex
 10
-1.006
 20
-0.892
 30
-0.145
 70
    64
  0
VERTEX
  5
AB308
100
AcDbEntity
  8
0
100
AcDbVertex
100
AcDbPolygonMeshVertex
 10
-0.569
 20
-0.8085
 30
0.0
 70
    64
  0
VERTEX
  5
AB309
100
AcDbEntity
  8
0
100
AcDbVertex
100
AcDbPolygonMeshVertex
 10
-0.569
 20
-0.8085
 30
0.0
 70
    64
  0
VERTEX
  5
AB30A
100
AcDbEntity
  8
0
100
AcDbVertex
100
AcDbPolygonMeshVertex
 10
-0.569
 20
-0.892
 30
0.0
 70
    64
  0
SEQEND
  5
AB30B
100
AcDbEntity
  8
0
  0
POLYLINE
  5
AB30C
100
AcDbEntity
  8
0
100
AcDbPolygonMesh
 66
     1
 10
0.0
 20
0.0
 30
0.0
 70
    16
 71
     6
 72
     3
  0
VERTEX
  5
AB30D
100
AcDbEntity
  8
0
100
AcDbVertex
100
AcDbPolygonMeshVertex
 10
-1.006
 20
-0.892
 30
-0.895
 70
    64
  0
VERTEX
  5
AB30E
100
AcDbEntity
  8
0
100
AcDbVertex
100
AcDbPolygonMeshVertex
 10
-1.006
 20
-0.892
 30
-0.895
 70
    64
  0
VERTEX
  5
AB30F
100
AcDbEntity
  8
0
100
AcDbVertex
100
AcDbPolygonMeshVertex
 10
-1.006
 20
-0.892
 30
-0.895
 70
    64
  0
VERTEX
  5
AB310
100
AcDbEntity
  8
0
100
AcDbVertex
100
AcDbPolygonMeshVertex
 10
-0.569
 20
-0.892
 30
-1.04
 70
    64
  0
VERTEX
  5
AB311
100
AcDbEntity
  8
0
100
AcDbVertex
100
AcDbPolygonMeshVertex
 10
-0.569
 20
-0.892
 30
-0.895
 70
    64
  0
VERTEX
  5
AB312
100
AcDbEntity
  8
0
100
AcDbVertex
100
AcDbPolygonMeshVertex
 10
-0.569
 20
-0.892
 30
-0.895
 70
    64
  0
VERTEX
  5
AB313
100
AcDbEntity
  8
0
100
AcDbVertex
100
AcDbPolygonMeshVertex
 10
-0.569
 20
-0.8085
 30
-1.04
 70
    64
  0
VERTEX
  5
AB314
100
AcDbEntity
  8
0
100
AcDbVertex
100
AcDbPolygonMeshVertex
 10
-0.569
 20
-0.8085
 30
-0.895
 70
    64
  0
VERTEX
  5
AB315
100
AcDbEntity
  8
0
100
AcDbVertex
100
AcDbPolygonMeshVertex
 10
-0.569
 20
-0.892
 30
-0.895
 70
    64
  0
VERTEX
  5
AB316
100
AcDbEntity
  8
0
100
AcDbVertex
100
AcDbPolygonMeshVertex
 10
-1.006
 20
-0.8085
 30
-0.895
 70
    64
  0
VERTEX
  5
AB317
100
AcDbEntity
  8
0
100
AcDbVertex
100
AcDbPolygonMeshVertex
 10
-1.006
 20
-0.8085
 30
-0.895
 70
    64
  0
VERTEX
  5
AB318
100
AcDbEntity
  8
0
100
AcDbVertex
100
AcDbPolygonMeshVertex
 10
-1.006
 20
-0.892
 30
-0.895
 70
    64
  0
VERTEX
  5
AB319
100
AcDbEntity
  8
0
100
AcDbVertex
100
AcDbPolygonMeshVertex
 10
-1.006
 20
-0.8085
 30
-0.895
 70
    64
  0
VERTEX
  5
AB31A
100
AcDbEntity
  8
0
100
AcDbVertex
100
AcDbPolygonMeshVertex
 10
-1.006
 20
-0.8085
 30
-0.895
 70
    64
  0
VERTEX
  5
AB31B
100
AcDbEntity
  8
0
100
AcDbVertex
100
AcDbPolygonMeshVertex
 10
-1.006
 20
-0.892
 30
-0.895
 70
    64
  0
VERTEX
  5
AB31C
100
AcDbEntity
  8
0
100
AcDbVertex
100
AcDbPolygonMeshVertex
 10
-0.569
 20
-0.8085
 30
-1.04
 70
    64
  0
VERTEX
  5
AB31D
100
AcDbEntity
  8
0
100
AcDbVertex
100
AcDbPolygonMeshVertex
 10
-0.569
 20
-0.8085
 30
-1.04
 70
    64
  0
VERTEX
  5
AB31E
100
AcDbEntity
  8
0
100
AcDbVertex
100
AcDbPolygonMeshVertex
 10
-0.569
 20
-0.892
 30
-1.04
 70
    64
  0
SEQEND
  5
AB31F
100
AcDbEntity
  8
0
  0
POLYLINE
  5
AB320
100
AcDbEntity
  8
0
100
AcDbPolygonMesh
 66
     1
 10
0.0
 20
0.0
 30
0.0
 70
    16
 71
     6
 72
     3
  0
VERTEX
  5
AB321
100
AcDbEntity
  8
0
100
AcDbVertex
100
AcDbPolygonMeshVertex
 10
-0.569
 20
-0.892
 30
-0.145
 70
    64
  0
VERTEX
  5
AB322
100
AcDbEntity
  8
0
100
AcDbVertex
100
AcDbPolygonMeshVertex
 10
-0.569
 20
-0.892
 30
-0.895
 70
    64
  0
VERTEX
  5
AB323
100
AcDbEntity
  8
0
100
AcDbVertex
100
AcDbPolygonMeshVertex
 10
-0.569
 20
-0.892
 30
-0.895
 70
    64
  0
VERTEX
  5
AB324
100
AcDbEntity
  8
0
100
AcDbVertex
100
AcDbPolygonMeshVertex
 10
-1.006
 20
-0.892
 30
-0.145
 70
    64
  0
VERTEX
  5
AB325
100
AcDbEntity
  8
0
100
AcDbVertex
100
AcDbPolygonMeshVertex
 10
-1.006
 20
-0.892
 30
-0.895
 70
    64
  0
VERTEX
  5
AB326
100
AcDbEntity
  8
0
100
AcDbVertex
100
AcDbPolygonMeshVertex
 10
-1.006
 20
-0.892
 30
-0.895
 70
    64
  0
VERTEX
  5
AB327
100
AcDbEntity
  8
0
100
AcDbVertex
100
AcDbPolygonMeshVertex
 10
-1.006
 20
-0.8085
 30
-0.145
 70
    64
  0
VERTEX
  5
AB328
100
AcDbEntity
  8
0
100
AcDbVertex
100
AcDbPolygonMeshVertex
 10
-1.006
 20
-0.8085
 30
-0.895
 70
    64
  0
VERTEX
  5
AB329
100
AcDbEntity
  8
0
100
AcDbVertex
100
AcDbPolygonMeshVertex
 10
-1.006
 20
-0.892
 30
-0.895
 70
    64
  0
VERTEX
  5
AB32A
100
AcDbEntity
  8
0
100
AcDbVertex
100
AcDbPolygonMeshVertex
 10
-0.569
 20
-0.8085
 30
-0.145
 70
    64
  0
VERTEX
  5
AB32B
100
AcDbEntity
  8
0
100
AcDbVertex
100
AcDbPolygonMeshVertex
 10
-0.569
 20
-0.8085
 30
-0.895
 70
    64
  0
VERTEX
  5
AB32C
100
AcDbEntity
  8
0
100
AcDbVertex
100
AcDbPolygonMeshVertex
 10
-0.569
 20
-0.892
 30
-0.895
 70
    64
  0
VERTEX
  5
AB32D
100
AcDbEntity
  8
0
100
AcDbVertex
100
AcDbPolygonMeshVertex
 10
-0.569
 20
-0.8085
 30
-0.145
 70
    64
  0
VERTEX
  5
AB32E
100
AcDbEntity
  8
0
100
AcDbVertex
100
AcDbPolygonMeshVertex
 10
-0.569
 20
-0.8085
 30
-0.145
 70
    64
  0
VERTEX
  5
AB32F
100
AcDbEntity
  8
0
100
AcDbVertex
100
AcDbPolygonMeshVertex
 10
-0.569
 20
-0.892
 30
-0.145
 70
    64
  0
VERTEX
  5
AB330
100
AcDbEntity
  8
0
100
AcDbVertex
100
AcDbPolygonMeshVertex
 10
-1.006
 20
-0.8085
 30
-0.145
 70
    64
  0
VERTEX
  5
AB331
100
AcDbEntity
  8
0
100
AcDbVertex
100
AcDbPolygonMeshVertex
 10
-1.006
 20
-0.8085
 30
-0.145
 70
    64
  0
VERTEX
  5
AB332
100
AcDbEntity
  8
0
100
AcDbVertex
100
AcDbPolygonMeshVertex
 10
-1.006
 20
-0.892
 30
-0.145
 70
    64
  0
SEQEND
  5
AB333
100
AcDbEntity
  8
0
  0
POLYLINE
  5
AB334
100
AcDbEntity
  8
0
100
AcDbPolygonMesh
 66
     1
 10
0.0
 20
0.0
 30
0.0
 70
    16
 71
     6
 72
     3
  0
VERTEX
  5
AB335
100
AcDbEntity
  8
0
100
AcDbVertex
100
AcDbPolygonMeshVertex
 10
-1.006
 20
0.8085
 30
-0.145
 70
    64
  0
VERTEX
  5
AB336
100
AcDbEntity
  8
0
100
AcDbVertex
100
AcDbPolygonMeshVertex
 10
-1.006
 20
0.8085
 30
-0.145
 70
    64
  0
VERTEX
  5
AB337
100
AcDbEntity
  8
0
100
AcDbVertex
100
AcDbPolygonMeshVertex
 10
-1.006
 20
0.8085
 30
-0.145
 70
    64
  0
VERTEX
  5
AB338
100
AcDbEntity
  8
0
100
AcDbVertex
100
AcDbPolygonMeshVertex
 10
-0.569
 20
0.8085
 30
0.0
 70
    64
  0
VERTEX
  5
AB339
100
AcDbEntity
  8
0
100
AcDbVertex
100
AcDbPolygonMeshVertex
 10
-0.569
 20
0.8085
 30
-0.145
 70
    64
  0
VERTEX
  5
AB33A
100
AcDbEntity
  8
0
100
AcDbVertex
100
AcDbPolygonMeshVertex
 10
-0.569
 20
0.8085
 30
-0.145
 70
    64
  0
VERTEX
  5
AB33B
100
AcDbEntity
  8
0
100
AcDbVertex
100
AcDbPolygonMeshVertex
 10
-0.569
 20
0.892
 30
0.0
 70
    64
  0
VERTEX
  5
AB33C
100
AcDbEntity
  8
0
100
AcDbVertex
100
AcDbPolygonMeshVertex
 10
-0.569
 20
0.892
 30
-0.145
 70
    64
  0
VERTEX
  5
AB33D
100
AcDbEntity
  8
0
100
AcDbVertex
100
AcDbPolygonMeshVertex
 10
-0.569
 20
0.8085
 30
-0.145
 70
    64
  0
VERTEX
  5
AB33E
100
AcDbEntity
  8
0
100
AcDbVertex
100
AcDbPolygonMeshVertex
 10
-1.006
 20
0.892
 30
-0.145
 70
    64
  0
VERTEX
  5
AB33F
100
AcDbEntity
  8
0
100
AcDbVertex
100
AcDbPolygonMeshVertex
 10
-1.006
 20
0.892
 30
-0.145
 70
    64
  0
VERTEX
  5
AB340
100
AcDbEntity
  8
0
100
AcDbVertex
100
AcDbPolygonMeshVertex
 10
-1.006
 20
0.8085
 30
-0.145
 70
    64
  0
VERTEX
  5
AB341
100
AcDbEntity
  8
0
100
AcDbVertex
100
AcDbPolygonMeshVertex
 10
-1.006
 20
0.892
 30
-0.145
 70
    64
  0
VERTEX
  5
AB342
100
AcDbEntity
  8
0
100
AcDbVertex
100
AcDbPolygonMeshVertex
 10
-1.006
 20
0.892
 30
-0.145
 70
    64
  0
VERTEX
  5
AB343
100
AcDbEntity
  8
0
100
AcDbVertex
100
AcDbPolygonMeshVertex
 10
-1.006
 20
0.8085
 30
-0.145
 70
    64
  0
VERTEX
  5
AB344
100
AcDbEntity
  8
0
100
AcDbVertex
100
AcDbPolygonMeshVertex
 10
-0.569
 20
0.892
 30
0.0
 70
    64
  0
VERTEX
  5
AB345
100
AcDbEntity
  8
0
100
AcDbVertex
100
AcDbPolygonMeshVertex
 10
-0.569
 20
0.892
 30
0.0
 70
    64
  0
VERTEX
  5
AB346
100
AcDbEntity
  8
0
100
AcDbVertex
100
AcDbPolygonMeshVertex
 10
-0.569
 20
0.8085
 30
0.0
 70
    64
  0
SEQEND
  5
AB347
100
AcDbEntity
  8
0
  0
POLYLINE
  5
AB348
100
AcDbEntity
  8
0
100
AcDbPolygonMesh
 66
     1
 10
0.0
 20
0.0
 30
0.0
 70
    16
 71
     6
 72
     3
  0
VERTEX
  5
AB349
100
AcDbEntity
  8
0
100
AcDbVertex
100
AcDbPolygonMeshVertex
 10
-0.569
 20
0.8085
 30
-0.145
 70
    64
  0
VERTEX
  5
AB34A
100
AcDbEntity
  8
0
100
AcDbVertex
100
AcDbPolygonMeshVertex
 10
-0.569
 20
0.8085
 30
-0.895
 70
    64
  0
VERTEX
  5
AB34B
100
AcDbEntity
  8
0
100
AcDbVertex
100
AcDbPolygonMeshVertex
 10
-0.569
 20
0.8085
 30
-0.895
 70
    64
  0
VERTEX
  5
AB34C
100
AcDbEntity
  8
0
100
AcDbVertex
100
AcDbPolygonMeshVertex
 10
-1.006
 20
0.8085
 30
-0.145
 70
    64
  0
VERTEX
  5
AB34D
100
AcDbEntity
  8
0
100
AcDbVertex
100
AcDbPolygonMeshVertex
 10
-1.006
 20
0.8085
 30
-0.895
 70
    64
  0
VERTEX
  5
AB34E
100
AcDbEntity
  8
0
100
AcDbVertex
100
AcDbPolygonMeshVertex
 10
-1.006
 20
0.8085
 30
-0.895
 70
    64
  0
VERTEX
  5
AB34F
100
AcDbEntity
  8
0
100
AcDbVertex
100
AcDbPolygonMeshVertex
 10
-1.006
 20
0.892
 30
-0.145
 70
    64
  0
VERTEX
  5
AB350
100
AcDbEntity
  8
0
100
AcDbVertex
100
AcDbPolygonMeshVertex
 10
-1.006
 20
0.892
 30
-0.895
 70
    64
  0
VERTEX
  5
AB351
100
AcDbEntity
  8
0
100
AcDbVertex
100
AcDbPolygonMeshVertex
 10
-1.006
 20
0.8085
 30
-0.895
 70
    64
  0
VERTEX
  5
AB352
100
AcDbEntity
  8
0
100
AcDbVertex
100
AcDbPolygonMeshVertex
 10
-0.569
 20
0.892
 30
-0.145
 70
    64
  0
VERTEX
  5
AB353
100
AcDbEntity
  8
0
100
AcDbVertex
100
AcDbPolygonMeshVertex
 10
-0.569
 20
0.892
 30
-0.895
 70
    64
  0
VERTEX
  5
AB354
100
AcDbEntity
  8
0
100
AcDbVertex
100
AcDbPolygonMeshVertex
 10
-0.569
 20
0.8085
 30
-0.895
 70
    64
  0
VERTEX
  5
AB355
100
AcDbEntity
  8
0
100
AcDbVertex
100
AcDbPolygonMeshVertex
 10
-0.569
 20
0.892
 30
-0.145
 70
    64
  0
VERTEX
  5
AB356
100
AcDbEntity
  8
0
100
AcDbVertex
100
AcDbPolygonMeshVertex
 10
-0.569
 20
0.892
 30
-0.145
 70
    64
  0
VERTEX
  5
AB357
100
AcDbEntity
  8
0
100
AcDbVertex
100
AcDbPolygonMeshVertex
 10
-0.569
 20
0.8085
 30
-0.145
 70
    64
  0
VERTEX
  5
AB358
100
AcDbEntity
  8
0
100
AcDbVertex
100
AcDbPolygonMeshVertex
 10
-1.006
 20
0.892
 30
-0.145
 70
    64
  0
VERTEX
  5
AB359
100
AcDbEntity
  8
0
100
AcDbVertex
100
AcDbPolygonMeshVertex
 10
-1.006
 20
0.892
 30
-0.145
 70
    64
  0
VERTEX
  5
AB35A
100
AcDbEntity
  8
0
100
AcDbVertex
100
AcDbPolygonMeshVertex
 10
-1.006
 20
0.8085
 30
-0.145
 70
    64
  0
SEQEND
  5
AB35B
100
AcDbEntity
  8
0
  0
POLYLINE
  5
AB35C
100
AcDbEntity
  8
0
100
AcDbPolygonMesh
 66
     1
 10
0.0
 20
0.0
 30
0.0
 70
    16
 71
     6
 72
     3
  0
VERTEX
  5
AB35D
100
AcDbEntity
  8
0
100
AcDbVertex
100
AcDbPolygonMeshVertex
 10
-1.006
 20
0.8085
 30
-0.895
 70
    64
  0
VERTEX
  5
AB35E
100
AcDbEntity
  8
0
100
AcDbVertex
100
AcDbPolygonMeshVertex
 10
-1.006
 20
0.8085
 30
-0.895
 70
    64
  0
VERTEX
  5
AB35F
100
AcDbEntity
  8
0
100
AcDbVertex
100
AcDbPolygonMeshVertex
 10
-1.006
 20
0.8085
 30
-0.895
 70
    64
  0
VERTEX
  5
AB360
100
AcDbEntity
  8
0
100
AcDbVertex
100
AcDbPolygonMeshVertex
 10
-0.569
 20
0.8085
 30
-1.04
 70
    64
  0
VERTEX
  5
AB361
100
AcDbEntity
  8
0
100
AcDbVertex
100
AcDbPolygonMeshVertex
 10
-0.569
 20
0.8085
 30
-0.895
 70
    64
  0
VERTEX
  5
AB362
100
AcDbEntity
  8
0
100
AcDbVertex
100
AcDbPolygonMeshVertex
 10
-0.569
 20
0.8085
 30
-0.895
 70
    64
  0
VERTEX
  5
AB363
100
AcDbEntity
  8
0
100
AcDbVertex
100
AcDbPolygonMeshVertex
 10
-0.569
 20
0.892
 30
-1.04
 70
    64
  0
VERTEX
  5
AB364
100
AcDbEntity
  8
0
100
AcDbVertex
100
AcDbPolygonMeshVertex
 10
-0.569
 20
0.892
 30
-0.895
 70
    64
  0
VERTEX
  5
AB365
100
AcDbEntity
  8
0
100
AcDbVertex
100
AcDbPolygonMeshVertex
 10
-0.569
 20
0.8085
 30
-0.895
 70
    64
  0
VERTEX
  5
AB366
100
AcDbEntity
  8
0
100
AcDbVertex
100
AcDbPolygonMeshVertex
 10
-1.006
 20
0.892
 30
-0.895
 70
    64
  0
VERTEX
  5
AB367
100
AcDbEntity
  8
0
100
AcDbVertex
100
AcDbPolygonMeshVertex
 10
-1.006
 20
0.892
 30
-0.895
 70
    64
  0
VERTEX
  5
AB368
100
AcDbEntity
  8
0
100
AcDbVertex
100
AcDbPolygonMeshVertex
 10
-1.006
 20
0.8085
 30
-0.895
 70
    64
  0
VERTEX
  5
AB369
100
AcDbEntity
  8
0
100
AcDbVertex
100
AcDbPolygonMeshVertex
 10
-1.006
 20
0.892
 30
-0.895
 70
    64
  0
VERTEX
  5
AB36A
100
AcDbEntity
  8
0
100
AcDbVertex
100
AcDbPolygonMeshVertex
 10
-1.006
 20
0.892
 30
-0.895
 70
    64
  0
VERTEX
  5
AB36B
100
AcDbEntity
  8
0
100
AcDbVertex
100
AcDbPolygonMeshVertex
 10
-1.006
 20
0.8085
 30
-0.895
 70
    64
  0
VERTEX
  5
AB36C
100
AcDbEntity
  8
0
100
AcDbVertex
100
AcDbPolygonMeshVertex
 10
-0.569
 20
0.892
 30
-1.04
 70
    64
  0
VERTEX
  5
AB36D
100
AcDbEntity
  8
0
100
AcDbVertex
100
AcDbPolygonMeshVertex
 10
-0.569
 20
0.892
 30
-1.04
 70
    64
  0
VERTEX
  5
AB36E
100
AcDbEntity
  8
0
100
AcDbVertex
100
AcDbPolygonMeshVertex
 10
-0.569
 20
0.8085
 30
-1.04
 70
    64
  0
SEQEND
  5
AB36F
100
AcDbEntity
  8
0
  0
ARC
  5
AB370
100
AcDbEntity
  8
0
100
AcDbCircle
 10
0.0
 20
-0.586
 30
0.0
 40
0.071
210
0.0
220
0.0
230
-1.0
100
AcDbArc
 50
270.0
 51
90.0
  0
LINE
  5
AB371
100
AcDbEntity
  8
0
100
AcDbLine
 10
0.0
 20
0.515
 30
0.0
 11
0.0
 21
0.515
 31
-1.04
210
0.0
220
0.0
230
-1.0
  0
ARC
  5
AB372
100
AcDbEntity
  8
0
100
AcDbCircle
 10
0.0
 20
0.586
 30
0.0
 40
0.071
210
0.0
220
0.0
230
-1.0
100
AcDbArc
 50
270.0
 51
90.0
  0
ARC
  5
AB373
100
AcDbEntity
  8
0
100
AcDbCircle
 10
0.0
 20
-0.586
 30
1.04
 40
0.071
210
0.0
220
0.0
230
-1.0
100
AcDbArc
 50
270.0
 51
90.0
  0
ARC
  5
AB374
100
AcDbEntity
  8
0
100
AcDbCircle
 10
0.0
 20
0.586
 30
1.04
 40
0.071
210
0.0
220
0.0
230
-1.0
100
AcDbArc
 50
270.0
 51
90.0
  0
LINE
  5
AB375
100
AcDbEntity
  8
0
100
AcDbLine
 10
0.0
 20
0.657
 30
-1.04
 11
0.0
 21
0.657
 31
0.0
210
0.0
220
0.0
230
-1.0
  0
POLYLINE
  5
AB376
100
AcDbEntity
  8
0
100
AcDbPolygonMesh
 66
     1
 10
0.0
 20
0.0
 30
0.0
 70
    16
 71
     6
 72
     3
  0
VERTEX
  5
AB377
100
AcDbEntity
  8
0
100
AcDbVertex
100
AcDbPolygonMeshVertex
 10
-0.569
 20
-0.77725
 30
-0.760222
 70
    64
  0
VERTEX
  5
AB378
100
AcDbEntity
  8
0
100
AcDbVertex
100
AcDbPolygonMeshVertex
 10
-0.569
 20
-0.77725
 30
-0.914222
 70
    64
  0
VERTEX
  5
AB379
100
AcDbEntity
  8
0
100
AcDbVertex
100
AcDbPolygonMeshVertex
 10
-0.569
 20
-0.77725
 30
-0.914222
 70
    64
  0
VERTEX
  5
AB37A
100
AcDbEntity
  8
0
100
AcDbVertex
100
AcDbPolygonMeshVertex
 10
-0.885
 20
-0.77725
 30
-0.760222
 70
    64
  0
VERTEX
  5
AB37B
100
AcDbEntity
  8
0
100
AcDbVertex
100
AcDbPolygonMeshVertex
 10
-0.885
 20
-0.77725
 30
-0.914222
 70
    64
  0
VERTEX
  5
AB37C
100
AcDbEntity
  8
0
100
AcDbVertex
100
AcDbPolygonMeshVertex
 10
-0.885
 20
-0.77725
 30
-0.914222
 70
    64
  0
VERTEX
  5
AB37D
100
AcDbEntity
  8
0
100
AcDbVertex
100
AcDbPolygonMeshVertex
 10
-0.885
 20
-0.40425
 30
-0.760222
 70
    64
  0
VERTEX
  5
AB37E
100
AcDbEntity
  8
0
100
AcDbVertex
100
AcDbPolygonMeshVertex
 10
-0.885
 20
-0.40425
 30
-0.914222
 70
    64
  0
VERTEX
  5
AB37F
100
AcDbEntity
  8
0
100
AcDbVertex
100
AcDbPolygonMeshVertex
 10
-0.885
 20
-0.77725
 30
-0.914222
 70
    64
  0
VERTEX
  5
AB380
100
AcDbEntity
  8
0
100
AcDbVertex
100
AcDbPolygonMeshVertex
 10
-0.569
 20
-0.40425
 30
-0.760222
 70
    64
  0
VERTEX
  5
AB381
100
AcDbEntity
  8
0
100
AcDbVertex
100
AcDbPolygonMeshVertex
 10
-0.569
 20
-0.40425
 30
-0.914222
 70
    64
  0
VERTEX
  5
AB382
100
AcDbEntity
  8
0
100
AcDbVertex
100
AcDbPolygonMeshVertex
 10
-0.569
 20
-0.77725
 30
-0.914222
 70
    64
  0
VERTEX
  5
AB383
100
AcDbEntity
  8
0
100
AcDbVertex
100
AcDbPolygonMeshVertex
 10
-0.569
 20
-0.40425
 30
-0.760222
 70
    64
  0
VERTEX
  5
AB384
100
AcDbEntity
  8
0
100
AcDbVertex
100
AcDbPolygonMeshVertex
 10
-0.569
 20
-0.40425
 30
-0.760222
 70
    64
  0
VERTEX
  5
AB385
100
AcDbEntity
  8
0
100
AcDbVertex
100
AcDbPolygonMeshVertex
 10
-0.569
 20
-0.77725
 30
-0.760222
 70
    64
  0
VERTEX
  5
AB386
100
AcDbEntity
  8
0
100
AcDbVertex
100
AcDbPolygonMeshVertex
 10
-0.885
 20
-0.40425
 30
-0.760222
 70
    64
  0
VERTEX
  5
AB387
100
AcDbEntity
  8
0
100
AcDbVertex
100
AcDbPolygonMeshVertex
 10
-0.885
 20
-0.40425
 30
-0.760222
 70
    64
  0
VERTEX
  5
AB388
100
AcDbEntity
  8
0
100
AcDbVertex
100
AcDbPolygonMeshVertex
 10
-0.885
 20
-0.77725
 30
-0.760222
 70
    64
  0
SEQEND
  5
AB389
100
AcDbEntity
  8
0
  0
CIRCLE
  5
AB38A
100
AcDbEntity
  8
0
100
AcDbCircle
 39
0.1
 10
-0.727
 20
-0.59075
 30
-1.014222
 40
0.130519
  0
LINE
  5
AB38B
100
AcDbEntity
  8
0
100
AcDbLine
 10
-0.598023
 20
-0.61075
 30
-1.014222
 11
-0.855977
 21
-0.61075
 31
-1.014222
  0
LINE
  5
AB38C
100
AcDbEntity
  8
0
100
AcDbLine
 10
-0.598023
 20
-0.57075
 30
-1.014222
 11
-0.855977
 21
-0.57075
 31
-1.014222
  0
LINE
  5
AB38D
100
AcDbEntity
  8
0
100
AcDbLine
 10
0.0
 20
0.657
 30
0.0
 11
0.0
 21
0.657
 31
-1.04
210
0.0
220
0.0
230
-1.0
  0
LINE
  5
AB38E
100
AcDbEntity
  8
0
100
AcDbLine
 10
0.0
 20
0.515
 30
-1.04
 11
0.0
 21
0.515
 31
0.0
210
0.0
220
0.0
230
-1.0
  0
LINE
  5
AB38F
100
AcDbEntity
  8
0
100
AcDbLine
 10
0.0
 20
-0.515
 30
0.0
 11
0.0
 21
-0.515
 31
-1.04
210
0.0
220
0.0
230
-1.0
  0
LINE
  5
AB390
100
AcDbEntity
  8
0
100
AcDbLine
 10
0.0
 20
-0.657
 30
-1.04
 11
0.0
 21
-0.657
 31
0.0
210
0.0
220
0.0
230
-1.0
  0
POLYLINE
  5
AB391
100
AcDbEntity
  8
0
100
AcDbPolygonMesh
 66
     1
 10
0.0
 20
0.0
 30
0.0
 70
    16
 71
     6
 72
     3
  0
VERTEX
  5
AB392
100
AcDbEntity
  8
0
100
AcDbVertex
100
AcDbPolygonMeshVertex
 10
-0.569
 20
0.77725
 30
-0.760222
 70
    64
  0
VERTEX
  5
AB393
100
AcDbEntity
  8
0
100
AcDbVertex
100
AcDbPolygonMeshVertex
 10
-0.569
 20
0.77725
 30
-0.914222
 70
    64
  0
VERTEX
  5
AB394
100
AcDbEntity
  8
0
100
AcDbVertex
100
AcDbPolygonMeshVertex
 10
-0.569
 20
0.77725
 30
-0.914222
 70
    64
  0
VERTEX
  5
AB395
100
AcDbEntity
  8
0
100
AcDbVertex
100
AcDbPolygonMeshVertex
 10
-0.885
 20
0.77725
 30
-0.760222
 70
    64
  0
VERTEX
  5
AB396
100
AcDbEntity
  8
0
100
AcDbVertex
100
AcDbPolygonMeshVertex
 10
-0.885
 20
0.77725
 30
-0.914222
 70
    64
  0
VERTEX
  5
AB397
100
AcDbEntity
  8
0
100
AcDbVertex
100
AcDbPolygonMeshVertex
 10
-0.885
 20
0.77725
 30
-0.914222
 70
    64
  0
VERTEX
  5
AB398
100
AcDbEntity
  8
0
100
AcDbVertex
100
AcDbPolygonMeshVertex
 10
-0.885
 20
0.40425
 30
-0.760222
 70
    64
  0
VERTEX
  5
AB399
100
AcDbEntity
  8
0
100
AcDbVertex
100
AcDbPolygonMeshVertex
 10
-0.885
 20
0.40425
 30
-0.914222
 70
    64
  0
VERTEX
  5
AB39A
100
AcDbEntity
  8
0
100
AcDbVertex
100
AcDbPolygonMeshVertex
 10
-0.885
 20
0.77725
 30
-0.914222
 70
    64
  0
VERTEX
  5
AB39B
100
AcDbEntity
  8
0
100
AcDbVertex
100
AcDbPolygonMeshVertex
 10
-0.569
 20
0.40425
 30
-0.760222
 70
    64
  0
VERTEX
  5
AB39C
100
AcDbEntity
  8
0
100
AcDbVertex
100
AcDbPolygonMeshVertex
 10
-0.569
 20
0.40425
 30
-0.914222
 70
    64
  0
VERTEX
  5
AB39D
100
AcDbEntity
  8
0
100
AcDbVertex
100
AcDbPolygonMeshVertex
 10
-0.569
 20
0.77725
 30
-0.914222
 70
    64
  0
VERTEX
  5
AB39E
100
AcDbEntity
  8
0
100
AcDbVertex
100
AcDbPolygonMeshVertex
 10
-0.569
 20
0.40425
 30
-0.760222
 70
    64
  0
VERTEX
  5
AB39F
100
AcDbEntity
  8
0
100
AcDbVertex
100
AcDbPolygonMeshVertex
 10
-0.569
 20
0.40425
 30
-0.760222
 70
    64
  0
VERTEX
  5
AB3A0
100
AcDbEntity
  8
0
100
AcDbVertex
100
AcDbPolygonMeshVertex
 10
-0.569
 20
0.77725
 30
-0.760222
 70
    64
  0
VERTEX
  5
AB3A1
100
AcDbEntity
  8
0
100
AcDbVertex
100
AcDbPolygonMeshVertex
 10
-0.885
 20
0.40425
 30
-0.760222
 70
    64
  0
VERTEX
  5
AB3A2
100
AcDbEntity
  8
0
100
AcDbVertex
100
AcDbPolygonMeshVertex
 10
-0.885
 20
0.40425
 30
-0.760222
 70
    64
  0
VERTEX
  5
AB3A3
100
AcDbEntity
  8
0
100
AcDbVertex
100
AcDbPolygonMeshVertex
 10
-0.885
 20
0.77725
 30
-0.760222
 70
    64
  0
SEQEND
  5
AB3A4
100
AcDbEntity
  8
0
  0
CIRCLE
  5
AB3A5
100
AcDbEntity
  8
0
100
AcDbCircle
 39
0.1
 10
-0.727
 20
0.59075
 30
-1.014222
 40
0.130519
  0
POLYLINE
  5
AB3A6
100
AcDbEntity
  8
0
100
AcDb3dPolyline
 66
     1
 10
0.0
 20
0.0
 30
0.0
 70
     8
  0
VERTEX
  5
AB3A7
100
AcDbEntity
  8
0
100
AcDbVertex
100
AcDb3dPolylineVertex
 10
-0.471
 20
-0.142
 30
0.0
 70
    32
  0
VERTEX
  5
AB3A8
100
AcDbEntity
  8
0
100
AcDbVertex
100
AcDb3dPolylineVertex
 10
0.0
 20
-0.142
 30
0.0
 70
    32
  0
VERTEX
  5
AB3A9
100
AcDbEntity
  8
0
100
AcDbVertex
100
AcDb3dPolylineVertex
 10
0.0
 20
-0.142
 30
-0.198
 70
    32
  0
VERTEX
  5
AB3AA
100
AcDbEntity
  8
0
100
AcDbVertex
100
AcDb3dPolylineVertex
 10
0.0
 20
0.142
 30
-0.198
 70
    32
  0
VERTEX
  5
AB3AB
100
AcDbEntity
  8
0
100
AcDbVertex
100
AcDb3dPolylineVertex
 10
0.0
 20
0.142
 30
0.0
 70
    32
  0
VERTEX
  5
AB3AC
100
AcDbEntity
  8
0
100
AcDbVertex
100
AcDb3dPolylineVertex
 10
-0.471
 20
0.142
 30
0.0
 70
    32
  0
SEQEND
  5
AB3AD
100
AcDbEntity
  8
0
  0
POLYLINE
  5
AB3AE
100
AcDbEntity
  8
0
100
AcDbPolygonMesh
 66
     1
 10
0.0
 20
0.0
 30
0.0
 70
    16
 71
     6
 72
     3
  0
VERTEX
  5
AB3AF
100
AcDbEntity
  8
0
100
AcDbVertex
100
AcDbPolygonMeshVertex
 10
0.12
 20
0.8085
 30
0.0
 70
    64
  0
VERTEX
  5
AB3B0
100
AcDbEntity
  8
0
100
AcDbVertex
100
AcDbPolygonMeshVertex
 10
0.12
 20
0.8085
 30
-0.282
 70
    64
  0
VERTEX
  5
AB3B1
100
AcDbEntity
  8
0
100
AcDbVertex
100
AcDbPolygonMeshVertex
 10
0.12
 20
0.8085
 30
-0.282
 70
    64
  0
VERTEX
  5
AB3B2
100
AcDbEntity
  8
0
100
AcDbVertex
100
AcDbPolygonMeshVertex
 10
0.12
 20
0.657
 30
0.0
 70
    64
  0
VERTEX
  5
AB3B3
100
AcDbEntity
  8
0
100
AcDbVertex
100
AcDbPolygonMeshVertex
 10
0.12
 20
0.657
 30
-0.282
 70
    64
  0
VERTEX
  5
AB3B4
100
AcDbEntity
  8
0
100
AcDbVertex
100
AcDbPolygonMeshVertex
 10
0.12
 20
0.657
 30
-0.282
 70
    64
  0
VERTEX
  5
AB3B5
100
AcDbEntity
  8
0
100
AcDbVertex
100
AcDbPolygonMeshVertex
 10
0.0
 20
0.657
 30
0.0
 70
    64
  0
VERTEX
  5
AB3B6
100
AcDbEntity
  8
0
100
AcDbVertex
100
AcDbPolygonMeshVertex
 10
0.0
 20
0.657
 30
-0.282
 70
    64
  0
VERTEX
  5
AB3B7
100
AcDbEntity
  8
0
100
AcDbVertex
100
AcDbPolygonMeshVertex
 10
0.12
 20
0.657
 30
-0.282
 70
    64
  0
VERTEX
  5
AB3B8
100
AcDbEntity
  8
0
100
AcDbVertex
100
AcDbPolygonMeshVertex
 10
0.0
 20
0.8085
 30
0.0
 70
    64
  0
VERTEX
  5
AB3B9
100
AcDbEntity
  8
0
100
AcDbVertex
100
AcDbPolygonMeshVertex
 10
0.0
 20
0.8085
 30
-0.282
 70
    64
  0
VERTEX
  5
AB3BA
100
AcDbEntity
  8
0
100
AcDbVertex
100
AcDbPolygonMeshVertex
 10
0.12
 20
0.8085
 30
-0.282
 70
    64
  0
VERTEX
  5
AB3BB
100
AcDbEntity
  8
0
100
AcDbVertex
100
AcDbPolygonMeshVertex
 10
0.0
 20
0.8085
 30
0.0
 70
    64
  0
VERTEX
  5
AB3BC
100
AcDbEntity
  8
0
100
AcDbVertex
100
AcDbPolygonMeshVertex
 10
0.0
 20
0.8085
 30
0.0
 70
    64
  0
VERTEX
  5
AB3BD
100
AcDbEntity
  8
0
100
AcDbVertex
100
AcDbPolygonMeshVertex
 10
0.12
 20
0.8085
 30
0.0
 70
    64
  0
VERTEX
  5
AB3BE
100
AcDbEntity
  8
0
100
AcDbVertex
100
AcDbPolygonMeshVertex
 10
0.0
 20
0.657
 30
0.0
 70
    64
  0
VERTEX
  5
AB3BF
100
AcDbEntity
  8
0
100
AcDbVertex
100
AcDbPolygonMeshVertex
 10
0.0
 20
0.657
 30
0.0
 70
    64
  0
VERTEX
  5
AB3C0
100
AcDbEntity
  8
0
100
AcDbVertex
100
AcDbPolygonMeshVertex
 10
0.12
 20
0.657
 30
0.0
 70
    64
  0
SEQEND
  5
AB3C1
100
AcDbEntity
  8
0
  0
POLYLINE
  5
AB3C2
100
AcDbEntity
  8
0
100
AcDbPolygonMesh
 66
     1
 10
0.0
 20
0.0
 30
0.0
 70
    16
 71
     6
 72
     3
  0
VERTEX
  5
AB3C3
100
AcDbEntity
  8
0
100
AcDbVertex
100
AcDbPolygonMeshVertex
 10
0.12
 20
-0.3635
 30
0.0
 70
    64
  0
VERTEX
  5
AB3C4
100
AcDbEntity
  8
0
100
AcDbVertex
100
AcDbPolygonMeshVertex
 10
0.12
 20
-0.3635
 30
-0.282
 70
    64
  0
VERTEX
  5
AB3C5
100
AcDbEntity
  8
0
100
AcDbVertex
100
AcDbPolygonMeshVertex
 10
0.12
 20
-0.3635
 30
-0.282
 70
    64
  0
VERTEX
  5
AB3C6
100
AcDbEntity
  8
0
100
AcDbVertex
100
AcDbPolygonMeshVertex
 10
0.12
 20
-0.515
 30
0.0
 70
    64
  0
VERTEX
  5
AB3C7
100
AcDbEntity
  8
0
100
AcDbVertex
100
AcDbPolygonMeshVertex
 10
0.12
 20
-0.515
 30
-0.282
 70
    64
  0
VERTEX
  5
AB3C8
100
AcDbEntity
  8
0
100
AcDbVertex
100
AcDbPolygonMeshVertex
 10
0.12
 20
-0.515
 30
-0.282
 70
    64
  0
VERTEX
  5
AB3C9
100
AcDbEntity
  8
0
100
AcDbVertex
100
AcDbPolygonMeshVertex
 10
0.0
 20
-0.515
 30
0.0
 70
    64
  0
VERTEX
  5
AB3CA
100
AcDbEntity
  8
0
100
AcDbVertex
100
AcDbPolygonMeshVertex
 10
0.0
 20
-0.515
 30
-0.282
 70
    64
  0
VERTEX
  5
AB3CB
100
AcDbEntity
  8
0
100
AcDbVertex
100
AcDbPolygonMeshVertex
 10
0.12
 20
-0.515
 30
-0.282
 70
    64
  0
VERTEX
  5
AB3CC
100
AcDbEntity
  8
0
100
AcDbVertex
100
AcDbPolygonMeshVertex
 10
0.0
 20
-0.3635
 30
0.0
 70
    64
  0
VERTEX
  5
AB3CD
100
AcDbEntity
  8
0
100
AcDbVertex
100
AcDbPolygonMeshVertex
 10
0.0
 20
-0.3635
 30
-0.282
 70
    64
  0
VERTEX
  5
AB3CE
100
AcDbEntity
  8
0
100
AcDbVertex
100
AcDbPolygonMeshVertex
 10
0.12
 20
-0.3635
 30
-0.282
 70
    64
  0
VERTEX
  5
AB3CF
100
AcDbEntity
  8
0
100
AcDbVertex
100
AcDbPolygonMeshVertex
 10
0.0
 20
-0.3635
 30
0.0
 70
    64
  0
VERTEX
  5
AB3D0
100
AcDbEntity
  8
0
100
AcDbVertex
100
AcDbPolygonMeshVertex
 10
0.0
 20
-0.3635
 30
0.0
 70
    64
  0
VERTEX
  5
AB3D1
100
AcDbEntity
  8
0
100
AcDbVertex
100
AcDbPolygonMeshVertex
 10
0.12
 20
-0.3635
 30
0.0
 70
    64
  0
VERTEX
  5
AB3D2
100
AcDbEntity
  8
0
100
AcDbVertex
100
AcDbPolygonMeshVertex
 10
0.0
 20
-0.515
 30
0.0
 70
    64
  0
VERTEX
  5
AB3D3
100
AcDbEntity
  8
0
100
AcDbVertex
100
AcDbPolygonMeshVertex
 10
0.0
 20
-0.515
 30
0.0
 70
    64
  0
VERTEX
  5
AB3D4
100
AcDbEntity
  8
0
100
AcDbVertex
100
AcDbPolygonMeshVertex
 10
0.12
 20
-0.515
 30
0.0
 70
    64
  0
SEQEND
  5
AB3D5
100
AcDbEntity
  8
0
  0
ARC
  5
AB3D6
100
AcDbEntity
  8
0
100
AcDbCircle
 10
0.0
 20
-0.586
 30
-1.04
 40
0.221
100
AcDbArc
 50
90.0
 51
270.0
  0
ARC
  5
AB3D7
100
AcDbEntity
  8
0
100
AcDbCircle
 10
0.0
 20
0.586
 30
-1.04
 40
0.221
100
AcDbArc
 50
90.0
 51
270.0
  0
ATTDEF
  5
AB3D8
100
AcDbEntity
  8
ATTRIBUTES
100
AcDbText
 10
-0.454614
 20
0.200069
 30
0.0
 40
0.026002
  1
ALLEN-BRADLEY
100
AcDbAttributeDefinition
  3
MANUFACTURER NAME?
  2
AC_VND_LABEL
 70
     0
  0
ATTDEF
  5
AB3D9
100
AcDbEntity
  8
ATTRIBUTES
100
AcDbText
 10
-0.454614
 20
0.145899
 30
0.0
 40
0.026002
  1
800T-NL24/32/10
100
AcDbAttributeDefinition
  3
CATALOG NUMBER?
  2
AC_PART_NO
 70
     0
  0
ATTDEF
  5
AB3DA
100
AcDbEntity
  8
ATTRIBUTES
100
AcDbText
 10
-0.454614
 20
0.091729
 30
0.0
 40
0.026002
  1
NEMA LED POWER MODULE
100
AcDbAttributeDefinition
  3
PART DESCRIPTION?
  2
AC_DESCRIPTION
 70
     0
  0
ATTDEF
  5
AB3DB
100
AcDbEntity
  8
ATTRIBUTES
100
AcDbText
 10
-0.454614
 20
0.037559
 30
0.0
 40
0.026002
  1

100
AcDbAttributeDefinition
  3
DEVICE ID?
  2
DEVICE_ID
 70
     0
  0
ATTDEF
  5
AB3DC
100
AcDbEntity
  8
ATTRIBUTES
100
AcDbText
 10
-0.454614
 20
-0.016612
 30
0.0
 40
0.026002
  1

100
AcDbAttributeDefinition
  3
CUSTOMER PART NUMBER?
  2
AC_CPART_NO
 70
     0
  0
ATTDEF
  5
AB3DD
100
AcDbEntity
  8
ATTRIBUTES
100
AcDbText
 10
-0.454614
 20
-0.070782
 30
0.0
 40
0.026002
  1

100
AcDbAttributeDefinition
  3
CUSTOMER NOTE?
  2
AC_NOTE
 70
     0
  0
ATTDEF
  5
AB3DE
100
AcDbEntity
  8
ATTRIBUTES
100
AcDbText
 10
-0.454614
 20
-0.124952
 30
0.0
 40
0.026002
  1

100
AcDbAttributeDefinition
  3
FASTENER DATA?
  2
FASTENER
 70
     0
  0
ATTDEF
  5
AB3DF
100
AcDbEntity
  8
ATTRIBUTES
100
AcDbText
 10
-0.454614
 20
-0.179123
 30
0.0
 40
0.026002
  1

100
AcDbAttributeDefinition
  3
UNIT OF SCALE?
  2
AC_SCALE_UNIT
 70
     0
  0
ATTDEF
  5
AB3E0
100
AcDbEntity
  8
ATTRIBUTES
100
AcDbText
 10
-0.454614
 20
-0.233293
 30
0.0
 40
0.026002
  1

100
AcDbAttributeDefinition
  3
VIEW CODE?
  2
AC_VIEW_CODE
 70
     0
  0
DIMENSION
  5
AB3E1
100
AcDbEntity
  8
AREA1
100
AcDbDimension
  2
*D0
 10
-1.303901
 20
0.892
 30
0.0
 11
-1.303901
 21
0.004172
 31
0.0
 70
   160
  3
ABECAD_3D
100
AcDbAlignedDimension
 13
-1.006
 23
-0.892
 33
-0.145
 14
-1.006
 24
0.892
 34
-0.145
 50
90.0
100
AcDbRotatedDimension
  0
DIMENSION
  5
AB3EF
100
AcDbEntity
  8
AREA1
100
AcDbDimension
  2
*D1
 10
0.12
 20
1.141945
 30
0.0
 11
-0.47113
 21
1.342335
 31
0.0
 70
   160
  3
ABECAD_3D
100
AcDbAlignedDimension
 13
-1.006
 23
0.892
 33
-0.145
 14
0.12
 24
0.8085
 34
0.0
100
AcDbRotatedDimension
  0
LWPOLYLINE
  5
AB414
100
AcDbEntity
  8
SCALE
100
AcDbPolyline
 90
        4
 70
     1
 43
0.0
 10
0.331639
 20
-0.014952
 10
1.467268
 20
-0.014952
 10
1.467268
 20
-0.856562
 10
0.331639
 20
-0.856562
  0
LINE
  5
AB415
100
AcDbEntity
  8
SCALE
100
AcDbLine
 10
0.389638
 20
-0.39503
 30
0.0
 11
1.389638
 21
-0.39503
 31
0.0
  0
LINE
  5
AB416
100
AcDbEntity
  8
SCALE
100
AcDbLine
 10
0.389638
 20
-0.69503
 30
0.0
 11
0.783338
 21
-0.69503
 31
0.0
  0
LINE
  5
AB417
100
AcDbEntity
  8
SCALE
100
AcDbLine
 10
0.389638
 20
-0.49503
 30
0.0
 11
0.389638
 21
-0.29503
 31
0.0
  0
TEXT
  5
AB418
100
AcDbEntity
  8
SCALE
100
AcDbText
 10
0.445614
 20
-0.647345
 30
0.0
 40
0.0625
  1
[10mm]
100
AcDbText
  0
LINE
  5
AB419
100
AcDbEntity
  8
SCALE
100
AcDbLine
 10
0.389638
 20
-0.79503
 30
0.0
 11
0.389638
 21
-0.59503
 31
0.0
  0
TEXT
  5
AB41A
100
AcDbEntity
  8
SCALE
100
AcDbText
 10
0.391168
 20
-0.120153
 30
0.0
 40
0.0625
  1
SCALE:
100
AcDbText
  0
LINE
  5
AB41B
100
AcDbEntity
  8
SCALE
100
AcDbLine
 10
0.783338
 20
-0.79503
 30
0.0
 11
0.783338
 21
-0.59503
 31
0.0
  0
TEXT
  5
AB41C
100
AcDbEntity
  8
SCALE
100
AcDbText
 10
0.752921
 20
-0.325982
 30
0.0
 40
0.0625
  1
1 Inch
100
AcDbText
  0
LINE
  5
AB41D
100
AcDbEntity
  8
SCALE
100
AcDbLine
 10
1.389638
 20
-0.39503
 30
0.0
 11
1.389638
 21
-0.49503
 31
0.0
  0
LINE
  5
AB41E
100
AcDbEntity
  8
SCALE
100
AcDbLine
 10
1.389638
 20
-0.49503
 30
0.0
 11
1.389638
 21
-0.29503
 31
0.0
  0
VIEWPORT
  5
5677D
102
{ACAD_XDICTIONARY
360
AB4EC
102
}
100
AcDbEntity
 67
     1
  8
0
100
AcDbViewport
 10
5.25
 20
4.0
 30
0.0
 40
16.386862
 41
8.993
 68
    -1
 69
     1
1001
ACAD
1000
MVIEW
1002
{
1070
    16
1010
0.0
1020
0.0
1030
0.0
1010
0.0
1020
0.0
1030
1.0
1040
0.0
1040
8.993
1040
5.25
1040
4.0
1040
50.0
1040
0.0
1040
0.0
1070
     0
1070
 20000
1070
     1
1070
     1
1070
     0
1070
     0
1070
     0
1070
     0
1040
0.0
1040
0.0
1040
0.0
1040
0.5
1040
0.5
1040
0.5
1040
0.5
1070
     0
1002
{
1002
}
1002
}
  0
VIEWPORT
  5
5677F
102
{ACAD_XDICTIONARY
360
AB4EE
102
}
100
AcDbEntity
 67
     1
  8
AREA1
100
AcDbViewport
 10
5.25
 20
4.0
 30
0.0
 40
8.4
 41
6.4
 68
     1
 69
     2
1001
ACAD
1000
MVIEW
1002
{
1070
    16
1010
0.563444
1020
-0.880137
1030
1.686493
1010
0.0
1020
0.0
1030
1.0
1040
0.0
1040
4.582914
1040
-1.017175
1040
0.747813
1040
50.0
1040
0.0
1040
0.0
1070
     0
1070
 20000
1070
     1
1070
     1
1070
     0
1070
     0
1070
     0
1070
     0
1040
0.0
1040
0.0
1040
0.0
1040
0.25
1040
0.25
1040
0.25
1040
0.25
1070
     0
1002
{
1002
}
1002
}
  0
ENDSEC
  0
SECTION
  2
OBJECTS
  0
DICTIONARY
  5
458CB
100
AcDbDictionary
  3
ACAD_GROUP
350
458CC
  3
ACAD_LAYOUT
350
458FB
  3
ACAD_MLINESTYLE
350
458D9
  3
ACAD_PLOTSETTINGS
350
458FC
  3
ACAD_PLOTSTYLENAME
350
458F9
  3
ACDBHEADERROUNDTRIPXREC
350
AB4C3
  3
ACDBVARIABLEDICTIONARY
350
458E1
  3
DWGPROPS
350
45901
  0
DICTIONARY
  5
AB4C1
100
AcDbDictionary
280
     1
  3
ACAD_XREC_ROUNDTRIP
360
AB4C2
  0
DICTIONARY
  5
AB4EA
100
AcDbDictionary
280
     1
  3
ACAD_XREC_ROUNDTRIP
360
AB4EB
  0
DICTIONARY
  5
AB4BF
100
AcDbDictionary
280
     1
  3
ACAD_XREC_ROUNDTRIP
360
AB4C0
  0
DICTIONARY
  5
AB4E6
100
AcDbDictionary
280
     1
  3
ACAD_XREC_ROUNDTRIP
360
AB4E7
  0
DICTIONARY
  5
4592C
100
AcDbDictionary
280
     1
  3
ACAD_LAYOUTSELFREF
360
AB4E5
  0
DICTIONARY
  5
4592A
100
AcDbDictionary
280
     1
  3
ACAD_LAYOUTSELFREF
360
AB4E4
  0
DICTIONARY
  5
AB4EC
100
AcDbDictionary
280
     1
  3
ACAD_XREC_ROUNDTRIP
360
AB4ED
  0
DICTIONARY
  5
AB4EE
100
AcDbDictionary
280
     1
  3
ACAD_XREC_ROUNDTRIP
360
AB4EF
  0
DICTIONARY
  5
458CC
102
{ACAD_REACTORS
330
458CB
102
}
100
AcDbDictionary
  0
DICTIONARY
  5
458FB
102
{ACAD_XDICTIONARY
360
AB4E8
102
}
102
{ACAD_REACTORS
330
458CB
102
}
100
AcDbDictionary
  3
LAYOUT1
350
458FE
  3
MODEL
350
458FD
  0
DICTIONARY
  5
458D9
102
{ACAD_REACTORS
330
458CB
102
}
100
AcDbDictionary
  3
STANDARD
350
458DA
  0
DICTIONARY
  5
458FC
102
{ACAD_REACTORS
330
458CB
102
}
100
AcDbDictionary
  0
ACAD_PROXY_OBJECT
  5
458F9
102
{ACAD_REACTORS
330
458CB
102
}
100
AcDbProxyObject
 90
      499
 91
      501
 93
       86
310
405010041939BDC9B585B2
350
458FA
340
458FA
 94
        0
  0
DICTIONARY
  5
AB4C3
102
{ACAD_REACTORS
330
458CB
102
}
100
AcDbDictionary
  3
CEPSNTYPE
350
AB4CD
  3
DIMSTYLEDATA
350
AB4D1
  3
FINGERPRINTGUID
350
AB4CE
  3
HYPERLINKBASE
350
AB4C6
  3
INSUNITS
350
AB4CC
  3
LAYOUTDICT
350
AB4C8
  3
LWETCUNION
350
AB4CB
  3
PLOTSETDICT
350
AB4C9
  3
PLOTSTYLNAMDICT
350
AB4CA
  3
PSVPSCALE
350
AB4D0
  3
PUCSBASE
350
AB4D4
  3
PUCSORGBACK
350
AB4DA
  3
PUCSORGBOTTOM
350
AB4D6
  3
PUCSORGFRONT
350
AB4D9
  3
PUCSORGLEFT
350
AB4D7
  3
PUCSORGRIGHT
350
AB4D8
  3
PUCSORGTOP
350
AB4D5
  3
PUCSORTHOREF
350
AB4D2
  3
PUCSORTHOVIEW
350
AB4D3
  3
STYLESHEET
350
AB4C7
  3
TSTACKALIGN
350
AB4C4
  3
TSTACKSIZE
350
AB4C5
  3
UCSBASE
350
AB4DD
  3
UCSORGBACK
350
AB4E3
  3
UCSORGBOTTOM
350
AB4DF
  3
UCSORGFRONT
350
AB4E2
  3
UCSORGLEFT
350
AB4E0
  3
UCSORGRIGHT
350
AB4E1
  3
UCSORGTOP
350
AB4DE
  3
UCSORTHOREF
350
AB4DB
  3
UCSORTHOVIEW
350
AB4DC
  3
VERSIONGUID
350
AB4CF
  0
DICTIONARY
  5
458E1
102
{ACAD_REACTORS
330
458CB
102
}
100
AcDbDictionary
  3
DIMADEC
350
458E2
  0
XRECORD
  5
45901
102
{ACAD_REACTORS
330
458CB
102
}
100
AcDbXrecord
  1
DWGPROPS COOKIE
  2

  3

  4

  6

  7

  8
colin
  9

300
=
301
=
302
=
303
=
304
=
305
=
306
=
307
=
308
=
309
=
 40
0.000599
 41
2451670.444777
 42
2451670.445376
  1

 90
        0
  0
XRECORD
  5
AB4C2
102
{ACAD_REACTORS
330
AB4C1
102
}
100
AcDbXrecord
102
EXTNAMES
  1
*ACTIVE
  2
*Active
102
UCS
 74
     0
 71
     1
 10
0.0
 20
0.0
 30
0.0
 10
1.0
 20
0.0
 30
0.0
 10
0.0
 20
1.0
 30
0.0
146
0.0
 79
     1
102
VIEW
281
     1
  0
XRECORD
  5
AB4EB
102
{ACAD_REACTORS
330
AB4EA
102
}
100
AcDbXrecord
102
PLOTBIT
280
     0
  0
XRECORD
  5
AB4C0
102
{ACAD_REACTORS
330
AB4BF
102
}
100
AcDbXrecord
102
EXTNAMES
  1
DEFPOINTS
  2
Defpoints
102
PLOTBIT
280
     0
  0
XRECORD
  5
AB4E7
102
{ACAD_REACTORS
330
AB4E6
102
}
100
AcDbXrecord
102
ACADR14ROUNDTRIP
1000
DSTYLE
1002
{
1070
   276
 70
     2
1070
   277
 70
     5
1070
   279
 70
     2
1070
   289
 70
     2
1002
}
  0
XRECORD
  5
AB4E5
102
{ACAD_REACTORS
330
4592C
102
}
100
AcDbXrecord
340
458D6
  0
XRECORD
  5
AB4E4
102
{ACAD_REACTORS
330
4592A
102
}
100
AcDbXrecord
340
458D3
  0
XRECORD
  5
AB4ED
102
{ACAD_REACTORS
330
AB4EC
102
}
100
AcDbXrecord
102
UCS
 74
     0
 71
     1
 10
0.0
 20
0.0
 30
0.0
 10
1.0
 20
0.0
 30
0.0
 10
0.0
 20
1.0
 30
0.0
146
0.0
 79
     0
102
VIEW
281
     0
102
NEWVIEWCONTROL
280
     4
  0
XRECORD
  5
AB4EF
102
{ACAD_REACTORS
330
AB4EE
102
}
100
AcDbXrecord
102
UCS
 74
     0
 71
     1
 10
0.0
 20
0.0
 30
0.0
 10
1.0
 20
0.0
 30
0.0
 10
0.0
 20
1.0
 30
0.0
146
0.0
 79
     1
102
VIEW
281
     1
102
NEWVIEWCONTROL
280
     4
  0
DICTIONARY
  5
AB4E8
100
AcDbDictionary
280
     1
  3
ACAD_XREC_ROUNDTRIP
360
AB4E9
  0
ACAD_PROXY_OBJECT
  5
458FE
102
{ACAD_REACTORS
330
458FB
102
}
100
AcDbProxyObject
 90
      499
 91
      503
 93
     1700
310
90B6E6F6E655F6465766963652C0080000006066661940000000181999865000000000068661940000000001A1986500000000C0CCFC6A4000000018199D9C5011C4C65747465725F28382E35305F785F31312E30305F496E6368657329A901416AA547D11959985D5B1D08148C4D081C195B88185CDCDA59DB9B595B9D1CC
310
B98DD1891069074C61796F75743140501A840201008040342FEFF7FBFDFFFFF3EFDFAFF7FBFFDFC9501008043E3FDFC8102A6A6A0000003033333C0FC000000809999E93F8FFFFFF5766E622403FFFFFEBF333071020
330
458D3
330
5677D
340
0
340
0
 94
        0
  0
ACAD_PROXY_OBJECT
  5
458FD
102
{ACAD_REACTORS
330
458FB
102
}
100
AcDbProxyObject
 90
      499
 91
      503
 93
      924
310
91D4850204C617365724A65742035303030205365726965732050434C20362C01AAAAAAAAA547D11959985D5B1D08148C4D081C195B88185CDCDA59DB9B595B9D1CCB98DD18A69054D6F64656C901A800000000000000000000000000000000000000000000A1000000000000008902A6A6AAAA0
330
458D6
330
0
340
0
340
0
 94
        0
  0
MLINESTYLE
  5
458DA
102
{ACAD_REACTORS
330
458D9
102
}
100
AcDbMlineStyle
  2
STANDARD
 70
     0
  3

 62
   256
 51
90.0
 52
90.0
 71
     2
 49
0.5
 62
   256
  6
BYLAYER
 49
-0.5
 62
   256
  6
BYLAYER
  0
ACAD_PROXY_OBJECT
  5
458FA
102
{ACAD_REACTORS
330
458F9
102
}
100
AcDbProxyObject
 90
      499
 91
      502
 93
        0
 94
        0
  0
XRECORD
  5
AB4CD
102
{ACAD_REACTORS
330
AB4C3
102
}
100
AcDbXrecord
 90
        0
  0
XRECORD
  5
AB4D1
102
{ACAD_REACTORS
330
AB4C3
102
}
100
AcDbXrecord
1000
DSTYLE
1002
{
1070
   276
 70
     2
1070
   277
 70
     5
1070
   279
 70
     2
1070
   289
 70
     2
1002
}
  0
XRECORD
  5
AB4CE
102
{ACAD_REACTORS
330
AB4C3
102
}
100
AcDbXrecord
  1
{6E0CF4B8-225E-11D4-A150-00A0CC3303EC}
  0
XRECORD
  5
AB4C6
102
{ACAD_REACTORS
330
AB4C3
102
}
100
AcDbXrecord
  1

  0
XRECORD
  5
AB4CC
102
{ACAD_REACTORS
330
AB4C3
102
}
100
AcDbXrecord
 90
        0
  0
XRECORD
  5
AB4C8
102
{ACAD_REACTORS
330
AB4C3
102
}
100
AcDbXrecord
340
458FB
  0
XRECORD
  5
AB4CB
102
{ACAD_REACTORS
330
AB4C3
102
}
100
AcDbXrecord
 90
    14877
  0
XRECORD
  5
AB4C9
102
{ACAD_REACTORS
330
AB4C3
102
}
100
AcDbXrecord
340
458FC
  0
XRECORD
  5
AB4CA
102
{ACAD_REACTORS
330
AB4C3
102
}
100
AcDbXrecord
340
458F9
  0
XRECORD
  5
AB4D0
102
{ACAD_REACTORS
330
AB4C3
102
}
100
AcDbXrecord
 40
0.0
  0
XRECORD
  5
AB4D4
102
{ACAD_REACTORS
330
AB4C3
102
}
100
AcDbXrecord
340
0
  0
XRECORD
  5
AB4DA
102
{ACAD_REACTORS
330
AB4C3
102
}
100
AcDbXrecord
 10
0.0
 20
0.0
 30
0.0
  0
XRECORD
  5
AB4D6
102
{ACAD_REACTORS
330
AB4C3
102
}
100
AcDbXrecord
 10
0.0
 20
0.0
 30
0.0
  0
XRECORD
  5
AB4D9
102
{ACAD_REACTORS
330
AB4C3
102
}
100
AcDbXrecord
 10
0.0
 20
0.0
 30
0.0
  0
XRECORD
  5
AB4D7
102
{ACAD_REACTORS
330
AB4C3
102
}
100
AcDbXrecord
 10
0.0
 20
0.0
 30
0.0
  0
XRECORD
  5
AB4D8
102
{ACAD_REACTORS
330
AB4C3
102
}
100
AcDbXrecord
 10
0.0
 20
0.0
 30
0.0
  0
XRECORD
  5
AB4D5
102
{ACAD_REACTORS
330
AB4C3
102
}
100
AcDbXrecord
 10
0.0
 20
0.0
 30
0.0
  0
XRECORD
  5
AB4D2
102
{ACAD_REACTORS
330
AB4C3
102
}
100
AcDbXrecord
340
0
  0
XRECORD
  5
AB4D3
102
{ACAD_REACTORS
330
AB4C3
102
}
100
AcDbXrecord
 70
     0
  0
XRECORD
  5
AB4C7
102
{ACAD_REACTORS
330
AB4C3
102
}
100
AcDbXrecord
  1

  0
XRECORD
  5
AB4C4
102
{ACAD_REACTORS
330
AB4C3
102
}
100
AcDbXrecord
 90
        1
  0
XRECORD
  5
AB4C5
102
{ACAD_REACTORS
330
AB4C3
102
}
100
AcDbXrecord
 90
       70
  0
XRECORD
  5
AB4DD
102
{ACAD_REACTORS
330
AB4C3
102
}
100
AcDbXrecord
340
0
  0
XRECORD
  5
AB4E3
102
{ACAD_REACTORS
330
AB4C3
102
}
100
AcDbXrecord
 10
0.0
 20
0.0
 30
0.0
  0
XRECORD
  5
AB4DF
102
{ACAD_REACTORS
330
AB4C3
102
}
100
AcDbXrecord
 10
0.0
 20
0.0
 30
0.0
  0
XRECORD
  5
AB4E2
102
{ACAD_REACTORS
330
AB4C3
102
}
100
AcDbXrecord
 10
0.0
 20
0.0
 30
0.0
  0
XRECORD
  5
AB4E0
102
{ACAD_REACTORS
330
AB4C3
102
}
100
AcDbXrecord
 10
0.0
 20
0.0
 30
0.0
  0
XRECORD
  5
AB4E1
102
{ACAD_REACTORS
330
AB4C3
102
}
100
AcDbXrecord
 10
0.0
 20
0.0
 30
0.0
  0
XRECORD
  5
AB4DE
102
{ACAD_REACTORS
330
AB4C3
102
}
100
AcDbXrecord
 10
0.0
 20
0.0
 30
0.0
  0
XRECORD
  5
AB4DB
102
{ACAD_REACTORS
330
AB4C3
102
}
100
AcDbXrecord
340
0
  0
XRECORD
  5
AB4DC
102
{ACAD_REACTORS
330
AB4C3
102
}
100
AcDbXrecord
 70
     1
  0
XRECORD
  5
AB4CF
102
{ACAD_REACTORS
330
AB4C3
102
}
100
AcDbXrecord
  1
{9691F0A7-7401-4B7E-8747-5F3A10F1819C}
  0
DICTIONARYVAR
  5
458E2
102
{ACAD_REACTORS
330
458E1
102
}
100
DictionaryVariables
280
     0
  1
0
  0
XRECORD
  5
AB4E9
102
{ACAD_REACTORS
330
AB4E8
102
}
100
AcDbXrecord
102
EXTNAMES
  1
LAYOUT1
  2
Layout1
  1
MODEL
  2
Model
  0
ENDSEC
  0
EOF
