  0
SECTION
  2
HEADER
  9
$ACADVER
  1
AC1014
  9
$ACADMAINTVER
 70
     8
  9
$DWGCODEPAGE
  3
ANSI_1252
  9
$INSBASE
 10
0.0
 20
0.0
 30
0.0
  9
$EXTMIN
 10
-1.343683
 20
-0.892
 30
-1.19913
  9
$EXTMAX
 10
1.467268
 20
1.382118
 30
0.15913
  9
$LIMMIN
 10
0.0
 20
0.0
  9
$LIMMAX
 10
12.0
 20
9.0
  9
$ORTHOMODE
 70
     0
  9
$REGENMODE
 70
     1
  9
$FILLMODE
 70
     1
  9
$QTEXTMODE
 70
     0
  9
$MIRRTEXT
 70
     1
  9
$DRAGMODE
 70
     2
  9
$LTSCALE
 40
1.0
  9
$OSMODE
 70
    23
  9
$ATTMODE
 70
     0
  9
$TEXTSIZE
 40
0.2
  9
$TRACEWID
 40
0.05
  9
$TEXTSTYLE
  7
STANDARD
  9
$CLAYER
  8
0
  9
$CELTYPE
  6
BYLAYER
  9
$CECOLOR
 62
   256
  9
$CELTSCALE
 40
1.0
  9
$DELOBJ
 70
     1
  9
$DISPSILH
 70
     0
  9
$DIMSCALE
 40
0.0
  9
$DIMASZ
 40
0.125
  9
$DIMEXO
 40
0.0625
  9
$DIMDLI
 40
0.375
  9
$DIMRND
 40
0.0
  9
$DIMDLE
 40
0.0
  9
$DIMEXE
 40
0.0625
  9
$DIMTP
 40
0.0
  9
$DIMTM
 40
0.0
  9
$DIMTXT
 40
0.125
  9
$DIMCEN
 40
0.09
  9
$DIMTSZ
 40
0.0
  9
$DIMTOL
 70
     0
  9
$DIMLIM
 70
     0
  9
$DIMTIH
 70
     0
  9
$DIMTOH
 70
     1
  9
$DIMSE1
 70
     0
  9
$DIMSE2
 70
     0
  9
$DIMTAD
 70
     0
  9
$DIMZIN
 70
     4
  9
$DIMBLK
  1

  9
$DIMASO
 70
     1
  9
$DIMSHO
 70
     1
  9
$DIMPOST
  1

  9
$DIMAPOST
  1

  9
$DIMALT
 70
     1
  9
$DIMALTD
 70
     2
  9
$DIMALTF
 40
25.4
  9
$DIMLFAC
 40
1.0
  9
$DIMTOFL
 70
     0
  9
$DIMTVP
 40
0.0
  9
$DIMTIX
 70
     0
  9
$DIMSOXD
 70
     0
  9
$DIMSAH
 70
     0
  9
$DIMBLK1
  1

  9
$DIMBLK2
  1

  9
$DIMSTYLE
  2
ABECAD_3V
  9
$DIMCLRD
 70
     0
  9
$DIMCLRE
 70
     0
  9
$DIMCLRT
 70
     0
  9
$DIMTFAC
 40
1.5
  9
$DIMGAP
 40
0.09
  9
$DIMJUST
 70
     0
  9
$DIMSD1
 70
     0
  9
$DIMSD2
 70
     0
  9
$DIMTOLJ
 70
     1
  9
$DIMTZIN
 70
     4
  9
$DIMALTZ
 70
     4
  9
$DIMALTTZ
 70
     4
  9
$DIMFIT
 70
     5
  9
$DIMUPT
 70
     1
  9
$DIMUNIT
 70
     7
  9
$DIMDEC
 70
     6
  9
$DIMTDEC
 70
     6
  9
$DIMALTU
 70
     2
  9
$DIMALTTD
 70
     2
  9
$DIMTXSTY
  7
STANDARD
  9
$DIMAUNIT
 70
     0
  9
$LUNITS
 70
     2
  9
$LUPREC
 70
     6
  9
$SKETCHINC
 40
0.1
  9
$FILLETRAD
 40
0.0
  9
$AUNITS
 70
     0
  9
$AUPREC
 70
     0
  9
$MENU
  1
acad
  9
$ELEVATION
 40
0.0
  9
$PELEVATION
 40
0.0
  9
$THICKNESS
 40
0.0
  9
$LIMCHECK
 70
     0
  9
$BLIPMODE
 70
     0
  9
$CHAMFERA
 40
0.0
  9
$CHAMFERB
 40
0.0
  9
$CHAMFERC
 40
0.0
  9
$CHAMFERD
 40
0.0
  9
$SKPOLY
 70
     0
  9
$TDCREATE
 40
2451726.438362384
  9
$TDUPDATE
 40
2452577.378780555
  9
$TDINDWG
 40
1.4571366898
  9
$TDUSRTIMER
 40
1.4571366898
  9
$USRTIMER
 70
     1
  9
$ANGBASE
 50
0.0
  9
$ANGDIR
 70
     0
  9
$PDMODE
 70
     3
  9
$PDSIZE
 40
0.18
  9
$PLINEWID
 40
0.0
  9
$COORDS
 70
     1
  9
$SPLFRAME
 70
     0
  9
$SPLINETYPE
 70
     6
  9
$SPLINESEGS
 70
     8
  9
$ATTDIA
 70
     0
  9
$ATTREQ
 70
     1
  9
$HANDLING
 70
     1
  9
$HANDSEED
  5
6FCEF
  9
$SURFTAB1
 70
     6
  9
$SURFTAB2
 70
     6
  9
$SURFTYPE
 70
     6
  9
$SURFU
 70
     6
  9
$SURFV
 70
     6
  9
$UCSNAME
  2

  9
$UCSORG
 10
0.0
 20
0.0
 30
0.0
  9
$UCSXDIR
 10
1.0
 20
0.0
 30
0.0
  9
$UCSYDIR
 10
0.0
 20
1.0
 30
0.0
  9
$PUCSNAME
  2

  9
$PUCSORG
 10
0.0
 20
0.0
 30
0.0
  9
$PUCSXDIR
 10
1.0
 20
0.0
 30
0.0
  9
$PUCSYDIR
 10
0.0
 20
1.0
 30
0.0
  9
$USERI1
 70
     0
  9
$USERI2
 70
     0
  9
$USERI3
 70
     0
  9
$USERI4
 70
     0
  9
$USERI5
 70
     0
  9
$USERR1
 40
0.0
  9
$USERR2
 40
0.0
  9
$USERR3
 40
0.0
  9
$USERR4
 40
0.0
  9
$USERR5
 40
0.0
  9
$WORLDVIEW
 70
     1
  9
$SHADEDGE
 70
     3
  9
$SHADEDIF
 70
    70
  9
$TILEMODE
 70
     0
  9
$MAXACTVP
 70
    16
  9
$PINSBASE
 10
0.0
 20
0.0
 30
0.0
  9
$PLIMCHECK
 70
     0
  9
$PEXTMIN
 10
0.0
 20
0.0
 30
0.0
  9
$PEXTMAX
 10
10.0
 20
7.5
 30
0.0
  9
$PLIMMIN
 10
-0.187029
 20
-0.186938
  9
$PLIMMAX
 10
10.187518
 20
7.829757
  9
$UNITMODE
 70
     0
  9
$VISRETAIN
 70
     0
  9
$PLINEGEN
 70
     0
  9
$PSLTSCALE
 70
     1
  9
$TREEDEPTH
 70
  3020
  9
$PICKSTYLE
 70
     1
  9
$CMLSTYLE
  2
STANDARD
  9
$CMLJUST
 70
     0
  9
$CMLSCALE
 40
1.0
  9
$PROXYGRAPHICS
 70
     1
  9
$MEASUREMENT
 70
     0
  0
ENDSEC
  0
SECTION
  2
CLASSES
  0
CLASS
  1
DICTIONARYVAR
  2
AcDbDictionaryVar
  3
"AutoCAD"
 90
        0
280
     0
281
     0
  0
CLASS
  1
ACDBDICTIONARYWDFLT
  2
AcDbDictionaryWithDefault
  3
AutoCAD 2000
 90
        0
280
     0
281
     0
  0
CLASS
  1
ACDBPLACEHOLDER
  2
AcDbPlaceHolder
  3
AutoCAD 2000
 90
        0
280
     0
281
     0
  0
CLASS
  1
LAYOUT
  2
AcDbLayout
  3
AutoCAD 2000
 90
        0
280
     0
281
     0
  0
CLASS
  1
LONG_TRANSACTION
  2
AcDbLongTransaction
  3
AutoCAD 2000
 90
        0
280
     0
281
     0
  0
CLASS
  1
LWPOLYLINE
  2
AcDbPolyline
  3
"AutoCAD"
 90
        0
280
     0
281
     1
  0
CLASS
  1
HATCH
  2
AcDbHatch
  3
"ACAD_SEDONA"
 90
        0
280
     0
281
     1
  0
CLASS
  1
XRECORD
  2
AcDbXrecord
  3
"<Built In>"
 90
        0
280
     0
281
     0
  0
CLASS
  1
LONG_TRANSACTION
  2
AcDbLongTransaction
  3
AutoCAD 2000
 90
        0
280
     0
281
     0
  0
CLASS
  1
LWPOLYLINE
  2
AcDbPolyline
  3
"AutoCAD"
 90
        0
280
     0
281
     1
  0
CLASS
  1
HATCH
  2
AcDbHatch
  3
"ACAD_SEDONA"
 90
        0
280
     0
281
     1
  0
CLASS
  1
XRECORD
  2
AcDbXrecord
  3
"<Built In>"
 90
        0
280
     0
281
     0
  0
CLASS
  1
LONG_TRANSACTION
  2
AcDbLongTransaction
  3
AutoCAD 2000
 90
        0
280
     0
281
     0
  0
CLASS
  1
LWPOLYLINE
  2
AcDbPolyline
  3
"AutoCAD"
 90
        0
280
     0
281
     1
  0
CLASS
  1
HATCH
  2
AcDbHatch
  3
"ACAD_SEDONA"
 90
        0
280
     0
281
     1
  0
CLASS
  1
XRECORD
  2
AcDbXrecord
  3
"<Built In>"
 90
        0
280
     0
281
     0
  0
CLASS
  1
LONG_TRANSACTION
  2
AcDbLongTransaction
  3
AutoCAD 2000
 90
        0
280
     0
281
     0
  0
CLASS
  1
LWPOLYLINE
  2
AcDbPolyline
  3
"AutoCAD"
 90
        0
280
     0
281
     1
  0
CLASS
  1
HATCH
  2
AcDbHatch
  3
"ACAD_SEDONA"
 90
        0
280
     0
281
     1
  0
CLASS
  1
XRECORD
  2
AcDbXrecord
  3
"<Built In>"
 90
        0
280
     0
281
     0
  0
CLASS
  1
LONG_TRANSACTION
  2
AcDbLongTransaction
  3
AutoCAD 2000
 90
        0
280
     0
281
     0
  0
CLASS
  1
LWPOLYLINE
  2
AcDbPolyline
  3
"AutoCAD"
 90
        0
280
     0
281
     1
  0
CLASS
  1
HATCH
  2
AcDbHatch
  3
"ACAD_SEDONA"
 90
        0
280
     0
281
     1
  0
CLASS
  1
XRECORD
  2
AcDbXrecord
  3
"<Built In>"
 90
        0
280
     0
281
     0
  0
CLASS
  1
LONG_TRANSACTION
  2
AcDbLongTransaction
  3
AutoCAD 2000
 90
        0
280
     0
281
     0
  0
CLASS
  1
LWPOLYLINE
  2
AcDbPolyline
  3
"AutoCAD"
 90
        0
280
     0
281
     1
  0
CLASS
  1
HATCH
  2
AcDbHatch
  3
"ACAD_SEDONA"
 90
        0
280
     0
281
     1
  0
CLASS
  1
XRECORD
  2
AcDbXrecord
  3
"<Built In>"
 90
        0
280
     0
281
     0
  0
CLASS
  1
LONG_TRANSACTION
  2
AcDbLongTransaction
  3
AutoCAD 2000
 90
        0
280
     0
281
     0
  0
CLASS
  1
LWPOLYLINE
  2
AcDbPolyline
  3
"AutoCAD"
 90
        0
280
     0
281
     1
  0
CLASS
  1
HATCH
  2
AcDbHatch
  3
"ACAD_SEDONA"
 90
        0
280
     0
281
     1
  0
CLASS
  1
XRECORD
  2
AcDbXrecord
  3
"<Built In>"
 90
        0
280
     0
281
     0
  0
CLASS
  1
LONG_TRANSACTION
  2
AcDbLongTransaction
  3
AutoCAD 2000
 90
        0
280
     0
281
     0
  0
CLASS
  1
LWPOLYLINE
  2
AcDbPolyline
  3
"AutoCAD"
 90
        0
280
     0
281
     1
  0
CLASS
  1
HATCH
  2
AcDbHatch
  3
"ACAD_SEDONA"
 90
        0
280
     0
281
     1
  0
CLASS
  1
XRECORD
  2
AcDbXrecord
  3
"<Built In>"
 90
        0
280
     0
281
     0
  0
CLASS
  1
LONG_TRANSACTION
  2
AcDbLongTransaction
  3
AutoCAD 2000
 90
        0
280
     0
281
     0
  0
CLASS
  1
LWPOLYLINE
  2
AcDbPolyline
  3
"AutoCAD"
 90
        0
280
     0
281
     1
  0
CLASS
  1
HATCH
  2
AcDbHatch
  3
"ACAD_SEDONA"
 90
        0
280
     0
281
     1
  0
CLASS
  1
XRECORD
  2
AcDbXrecord
  3
"<Built In>"
 90
        0
280
     0
281
     0
  0
CLASS
  1
LONG_TRANSACTION
  2
AcDbLongTransaction
  3
AutoCAD 2000
 90
        0
280
     0
281
     0
  0
CLASS
  1
LWPOLYLINE
  2
AcDbPolyline
  3
"AutoCAD"
 90
        0
280
     0
281
     1
  0
CLASS
  1
HATCH
  2
AcDbHatch
  3
"ACAD_SEDONA"
 90
        0
280
     0
281
     1
  0
CLASS
  1
XRECORD
  2
AcDbXrecord
  3
"<Built In>"
 90
        0
280
     0
281
     0
  0
CLASS
  1
LONG_TRANSACTION
  2
AcDbLongTransaction
  3
AutoCAD 2000
 90
        0
280
     0
281
     0
  0
CLASS
  1
LWPOLYLINE
  2
AcDbPolyline
  3
"AutoCAD"
 90
        0
280
     0
281
     1
  0
CLASS
  1
HATCH
  2
AcDbHatch
  3
"ACAD_SEDONA"
 90
        0
280
     0
281
     1
  0
CLASS
  1
XRECORD
  2
AcDbXrecord
  3
"<Built In>"
 90
        0
280
     0
281
     0
  0
CLASS
  1
LONG_TRANSACTION
  2
AcDbLongTransaction
  3
AutoCAD 2000
 90
        0
280
     0
281
     0
  0
CLASS
  1
LWPOLYLINE
  2
AcDbPolyline
  3
"AutoCAD"
 90
        0
280
     0
281
     1
  0
CLASS
  1
HATCH
  2
AcDbHatch
  3
"ACAD_SEDONA"
 90
        0
280
     0
281
     1
  0
CLASS
  1
XRECORD
  2
AcDbXrecord
  3
"<Built In>"
 90
        0
280
     0
281
     0
  0
CLASS
  1
LONG_TRANSACTION
  2
AcDbLongTransaction
  3
AutoCAD 2000
 90
        0
280
     0
281
     0
  0
CLASS
  1
LWPOLYLINE
  2
AcDbPolyline
  3
"AutoCAD"
 90
        0
280
     0
281
     1
  0
CLASS
  1
HATCH
  2
AcDbHatch
  3
"ACAD_SEDONA"
 90
        0
280
     0
281
     1
  0
CLASS
  1
XRECORD
  2
AcDbXrecord
  3
"<Built In>"
 90
        0
280
     0
281
     0
  0
CLASS
  1
LONG_TRANSACTION
  2
AcDbLongTransaction
  3
AutoCAD 2000
 90
        0
280
     0
281
     0
  0
CLASS
  1
LWPOLYLINE
  2
AcDbPolyline
  3
"AutoCAD"
 90
        0
280
     0
281
     1
  0
CLASS
  1
HATCH
  2
AcDbHatch
  3
"ACAD_SEDONA"
 90
        0
280
     0
281
     1
  0
CLASS
  1
XRECORD
  2
AcDbXrecord
  3
"<Built In>"
 90
        0
280
     0
281
     0
  0
CLASS
  1
LONG_TRANSACTION
  2
AcDbLongTransaction
  3
AutoCAD 2000
 90
        0
280
     0
281
     0
  0
CLASS
  1
LWPOLYLINE
  2
AcDbPolyline
  3
"AutoCAD"
 90
        0
280
     0
281
     1
  0
CLASS
  1
HATCH
  2
AcDbHatch
  3
"ACAD_SEDONA"
 90
        0
280
     0
281
     1
  0
CLASS
  1
XRECORD
  2
AcDbXrecord
  3
"<Built In>"
 90
        0
280
     0
281
     0
  0
CLASS
  1
LONG_TRANSACTION
  2
AcDbLongTransaction
  3
AutoCAD 2000
 90
        0
280
     0
281
     0
  0
CLASS
  1
LWPOLYLINE
  2
AcDbPolyline
  3
"AutoCAD"
 90
        0
280
     0
281
     1
  0
CLASS
  1
HATCH
  2
AcDbHatch
  3
"ACAD_SEDONA"
 90
        0
280
     0
281
     1
  0
CLASS
  1
XRECORD
  2
AcDbXrecord
  3
"<Built In>"
 90
        0
280
     0
281
     0
  0
CLASS
  1
LONG_TRANSACTION
  2
AcDbLongTransaction
  3
AutoCAD 2000
 90
        0
280
     0
281
     0
  0
CLASS
  1
LWPOLYLINE
  2
AcDbPolyline
  3
"AutoCAD"
 90
        0
280
     0
281
     1
  0
CLASS
  1
HATCH
  2
AcDbHatch
  3
"ACAD_SEDONA"
 90
        0
280
     0
281
     1
  0
CLASS
  1
XRECORD
  2
AcDbXrecord
  3
"<Built In>"
 90
        0
280
     0
281
     0
  0
CLASS
  1
LONG_TRANSACTION
  2
AcDbLongTransaction
  3
AutoCAD 2000
 90
        0
280
     0
281
     0
  0
CLASS
  1
LWPOLYLINE
  2
AcDbPolyline
  3
"AutoCAD"
 90
        0
280
     0
281
     1
  0
CLASS
  1
HATCH
  2
AcDbHatch
  3
"ACAD_SEDONA"
 90
        0
280
     0
281
     1
  0
CLASS
  1
XRECORD
  2
AcDbXrecord
  3
"<Built In>"
 90
        0
280
     0
281
     0
  0
CLASS
  1
LONG_TRANSACTION
  2
AcDbLongTransaction
  3
AutoCAD 2000
 90
        0
280
     0
281
     0
  0
CLASS
  1
LWPOLYLINE
  2
AcDbPolyline
  3
"AutoCAD"
 90
        0
280
     0
281
     1
  0
CLASS
  1
HATCH
  2
AcDbHatch
  3
"ACAD_SEDONA"
 90
        0
280
     0
281
     1
  0
CLASS
  1
XRECORD
  2
AcDbXrecord
  3
"<Built In>"
 90
        0
280
     0
281
     0
  0
CLASS
  1
LONG_TRANSACTION
  2
AcDbLongTransaction
  3
AutoCAD 2000
 90
        0
280
     0
281
     0
  0
CLASS
  1
LWPOLYLINE
  2
AcDbPolyline
  3
"AutoCAD"
 90
        0
280
     0
281
     1
  0
CLASS
  1
HATCH
  2
AcDbHatch
  3
"ACAD_SEDONA"
 90
        0
280
     0
281
     1
  0
CLASS
  1
XRECORD
  2
AcDbXrecord
  3
"<Built In>"
 90
        0
280
     0
281
     0
  0
CLASS
  1
LONG_TRANSACTION
  2
AcDbLongTransaction
  3
AutoCAD 2000
 90
        0
280
     0
281
     0
  0
CLASS
  1
LWPOLYLINE
  2
AcDbPolyline
  3
"AutoCAD"
 90
        0
280
     0
281
     1
  0
CLASS
  1
HATCH
  2
AcDbHatch
  3
"ACAD_SEDONA"
 90
        0
280
     0
281
     1
  0
CLASS
  1
XRECORD
  2
AcDbXrecord
  3
"<Built In>"
 90
        0
280
     0
281
     0
  0
CLASS
  1
LONG_TRANSACTION
  2
AcDbLongTransaction
  3
AutoCAD 2000
 90
        0
280
     0
281
     0
  0
CLASS
  1
LWPOLYLINE
  2
AcDbPolyline
  3
"AutoCAD"
 90
        0
280
     0
281
     1
  0
CLASS
  1
HATCH
  2
AcDbHatch
  3
"ACAD_SEDONA"
 90
        0
280
     0
281
     1
  0
CLASS
  1
XRECORD
  2
AcDbXrecord
  3
"<Built In>"
 90
        0
280
     0
281
     0
  0
CLASS
  1
LONG_TRANSACTION
  2
AcDbLongTransaction
  3
AutoCAD 2000
 90
        0
280
     0
281
     0
  0
CLASS
  1
LWPOLYLINE
  2
AcDbPolyline
  3
"AutoCAD"
 90
        0
280
     0
281
     1
  0
CLASS
  1
HATCH
  2
AcDbHatch
  3
"ACAD_SEDONA"
 90
        0
280
     0
281
     1
  0
CLASS
  1
XRECORD
  2
AcDbXrecord
  3
"<Built In>"
 90
        0
280
     0
281
     0
  0
CLASS
  1
LONG_TRANSACTION
  2
AcDbLongTransaction
  3
AutoCAD 2000
 90
        0
280
     0
281
     0
  0
CLASS
  1
LWPOLYLINE
  2
AcDbPolyline
  3
"AutoCAD"
 90
        0
280
     0
281
     1
  0
CLASS
  1
HATCH
  2
AcDbHatch
  3
"ACAD_SEDONA"
 90
        0
280
     0
281
     1
  0
CLASS
  1
XRECORD
  2
AcDbXrecord
  3
"<Built In>"
 90
        0
280
     0
281
     0
  0
CLASS
  1
LONG_TRANSACTION
  2
AcDbLongTransaction
  3
AutoCAD 2000
 90
        0
280
     0
281
     0
  0
CLASS
  1
LWPOLYLINE
  2
AcDbPolyline
  3
"AutoCAD"
 90
        0
280
     0
281
     1
  0
CLASS
  1
HATCH
  2
AcDbHatch
  3
"ACAD_SEDONA"
 90
        0
280
     0
281
     1
  0
CLASS
  1
XRECORD
  2
AcDbXrecord
  3
"<Built In>"
 90
        0
280
     0
281
     0
  0
CLASS
  1
LONG_TRANSACTION
  2
AcDbLongTransaction
  3
AutoCAD 2000
 90
        0
280
     0
281
     0
  0
CLASS
  1
LWPOLYLINE
  2
AcDbPolyline
  3
"AutoCAD"
 90
        0
280
     0
281
     1
  0
CLASS
  1
HATCH
  2
AcDbHatch
  3
"ACAD_SEDONA"
 90
        0
280
     0
281
     1
  0
CLASS
  1
XRECORD
  2
AcDbXrecord
  3
"<Built In>"
 90
        0
280
     0
281
     0
  0
CLASS
  1
LONG_TRANSACTION
  2
AcDbLongTransaction
  3
AutoCAD 2000
 90
        0
280
     0
281
     0
  0
CLASS
  1
LWPOLYLINE
  2
AcDbPolyline
  3
"AutoCAD"
 90
        0
280
     0
281
     1
  0
CLASS
  1
HATCH
  2
AcDbHatch
  3
"ACAD_SEDONA"
 90
        0
280
     0
281
     1
  0
CLASS
  1
XRECORD
  2
AcDbXrecord
  3
"<Built In>"
 90
        0
280
     0
281
     0
  0
CLASS
  1
LONG_TRANSACTION
  2
AcDbLongTransaction
  3
AutoCAD 2000
 90
        0
280
     0
281
     0
  0
CLASS
  1
LWPOLYLINE
  2
AcDbPolyline
  3
"AutoCAD"
 90
        0
280
     0
281
     1
  0
CLASS
  1
HATCH
  2
AcDbHatch
  3
"ACAD_SEDONA"
 90
        0
280
     0
281
     1
  0
CLASS
  1
XRECORD
  2
AcDbXrecord
  3
"<Built In>"
 90
        0
280
     0
281
     0
  0
CLASS
  1
LONG_TRANSACTION
  2
AcDbLongTransaction
  3
AutoCAD 2000
 90
        0
280
     0
281
     0
  0
CLASS
  1
LWPOLYLINE
  2
AcDbPolyline
  3
"AutoCAD"
 90
        0
280
     0
281
     1
  0
CLASS
  1
HATCH
  2
AcDbHatch
  3
"ACAD_SEDONA"
 90
        0
280
     0
281
     1
  0
CLASS
  1
XRECORD
  2
AcDbXrecord
  3
"<Built In>"
 90
        0
280
     0
281
     0
  0
CLASS
  1
LONG_TRANSACTION
  2
AcDbLongTransaction
  3
AutoCAD 2000
 90
        0
280
     0
281
     0
  0
CLASS
  1
LWPOLYLINE
  2
AcDbPolyline
  3
"AutoCAD"
 90
        0
280
     0
281
     1
  0
CLASS
  1
HATCH
  2
AcDbHatch
  3
"ACAD_SEDONA"
 90
        0
280
     0
281
     1
  0
CLASS
  1
XRECORD
  2
AcDbXrecord
  3
"<Built In>"
 90
        0
280
     0
281
     0
  0
CLASS
  1
LONG_TRANSACTION
  2
AcDbLongTransaction
  3
AutoCAD 2000
 90
        0
280
     0
281
     0
  0
CLASS
  1
LWPOLYLINE
  2
AcDbPolyline
  3
"AutoCAD"
 90
        0
280
     0
281
     1
  0
CLASS
  1
HATCH
  2
AcDbHatch
  3
"ACAD_SEDONA"
 90
        0
280
     0
281
     1
  0
CLASS
  1
XRECORD
  2
AcDbXrecord
  3
"<Built In>"
 90
        0
280
     0
281
     0
  0
CLASS
  1
LONG_TRANSACTION
  2
AcDbLongTransaction
  3
AutoCAD 2000
 90
        0
280
     0
281
     0
  0
CLASS
  1
LWPOLYLINE
  2
AcDbPolyline
  3
"AutoCAD"
 90
        0
280
     0
281
     1
  0
CLASS
  1
HATCH
  2
AcDbHatch
  3
"ACAD_SEDONA"
 90
        0
280
     0
281
     1
  0
CLASS
  1
XRECORD
  2
AcDbXrecord
  3
"<Built In>"
 90
        0
280
     0
281
     0
  0
CLASS
  1
LONG_TRANSACTION
  2
AcDbLongTransaction
  3
AutoCAD 2000
 90
        0
280
     0
281
     0
  0
CLASS
  1
LWPOLYLINE
  2
AcDbPolyline
  3
"AutoCAD"
 90
        0
280
     0
281
     1
  0
CLASS
  1
HATCH
  2
AcDbHatch
  3
"ACAD_SEDONA"
 90
        0
280
     0
281
     1
  0
CLASS
  1
XRECORD
  2
AcDbXrecord
  3
"<Built In>"
 90
        0
280
     0
281
     0
  0
CLASS
  1
LONG_TRANSACTION
  2
AcDbLongTransaction
  3
AutoCAD 2000
 90
        0
280
     0
281
     0
  0
CLASS
  1
LWPOLYLINE
  2
AcDbPolyline
  3
"AutoCAD"
 90
        0
280
     0
281
     1
  0
CLASS
  1
HATCH
  2
AcDbHatch
  3
"ACAD_SEDONA"
 90
        0
280
     0
281
     1
  0
CLASS
  1
XRECORD
  2
AcDbXrecord
  3
"<Built In>"
 90
        0
280
     0
281
     0
  0
CLASS
  1
LONG_TRANSACTION
  2
AcDbLongTransaction
  3
AutoCAD 2000
 90
        0
280
     0
281
     0
  0
CLASS
  1
LWPOLYLINE
  2
AcDbPolyline
  3
"AutoCAD"
 90
        0
280
     0
281
     1
  0
CLASS
  1
HATCH
  2
AcDbHatch
  3
"ACAD_SEDONA"
 90
        0
280
     0
281
     1
  0
CLASS
  1
XRECORD
  2
AcDbXrecord
  3
"<Built In>"
 90
        0
280
     0
281
     0
  0
CLASS
  1
LONG_TRANSACTION
  2
AcDbLongTransaction
  3
AutoCAD 2000
 90
        0
280
     0
281
     0
  0
CLASS
  1
LWPOLYLINE
  2
AcDbPolyline
  3
"AutoCAD"
 90
        0
280
     0
281
     1
  0
CLASS
  1
HATCH
  2
AcDbHatch
  3
"ACAD_SEDONA"
 90
        0
280
     0
281
     1
  0
CLASS
  1
XRECORD
  2
AcDbXrecord
  3
"<Built In>"
 90
        0
280
     0
281
     0
  0
CLASS
  1
LONG_TRANSACTION
  2
AcDbLongTransaction
  3
AutoCAD 2000
 90
        0
280
     0
281
     0
  0
CLASS
  1
LWPOLYLINE
  2
AcDbPolyline
  3
"AutoCAD"
 90
        0
280
     0
281
     1
  0
CLASS
  1
HATCH
  2
AcDbHatch
  3
"ACAD_SEDONA"
 90
        0
280
     0
281
     1
  0
CLASS
  1
XRECORD
  2
AcDbXrecord
  3
"<Built In>"
 90
        0
280
     0
281
     0
  0
CLASS
  1
LONG_TRANSACTION
  2
AcDbLongTransaction
  3
AutoCAD 2000
 90
        0
280
     0
281
     0
  0
CLASS
  1
LWPOLYLINE
  2
AcDbPolyline
  3
"AutoCAD"
 90
        0
280
     0
281
     1
  0
CLASS
  1
HATCH
  2
AcDbHatch
  3
"ACAD_SEDONA"
 90
        0
280
     0
281
     1
  0
CLASS
  1
XRECORD
  2
AcDbXrecord
  3
"<Built In>"
 90
        0
280
     0
281
     0
  0
CLASS
  1
LONG_TRANSACTION
  2
AcDbLongTransaction
  3
AutoCAD 2000
 90
        0
280
     0
281
     0
  0
CLASS
  1
LWPOLYLINE
  2
AcDbPolyline
  3
"AutoCAD"
 90
        0
280
     0
281
     1
  0
CLASS
  1
HATCH
  2
AcDbHatch
  3
"ACAD_SEDONA"
 90
        0
280
     0
281
     1
  0
CLASS
  1
XRECORD
  2
AcDbXrecord
  3
"<Built In>"
 90
        0
280
     0
281
     0
  0
CLASS
  1
LONG_TRANSACTION
  2
AcDbLongTransaction
  3
AutoCAD 2000
 90
        0
280
     0
281
     0
  0
CLASS
  1
LWPOLYLINE
  2
AcDbPolyline
  3
"AutoCAD"
 90
        0
280
     0
281
     1
  0
CLASS
  1
HATCH
  2
AcDbHatch
  3
"ACAD_SEDONA"
 90
        0
280
     0
281
     1
  0
CLASS
  1
XRECORD
  2
AcDbXrecord
  3
"<Built In>"
 90
        0
280
     0
281
     0
  0
CLASS
  1
LONG_TRANSACTION
  2
AcDbLongTransaction
  3
AutoCAD 2000
 90
        0
280
     0
281
     0
  0
CLASS
  1
LWPOLYLINE
  2
AcDbPolyline
  3
"AutoCAD"
 90
        0
280
     0
281
     1
  0
CLASS
  1
HATCH
  2
AcDbHatch
  3
"ACAD_SEDONA"
 90
        0
280
     0
281
     1
  0
CLASS
  1
XRECORD
  2
AcDbXrecord
  3
"<Built In>"
 90
        0
280
     0
281
     0
  0
CLASS
  1
LONG_TRANSACTION
  2
AcDbLongTransaction
  3
AutoCAD 2000
 90
        0
280
     0
281
     0
  0
CLASS
  1
LWPOLYLINE
  2
AcDbPolyline
  3
"AutoCAD"
 90
        0
280
     0
281
     1
  0
CLASS
  1
HATCH
  2
AcDbHatch
  3
"ACAD_SEDONA"
 90
        0
280
     0
281
     1
  0
CLASS
  1
XRECORD
  2
AcDbXrecord
  3
"<Built In>"
 90
        0
280
     0
281
     0
  0
CLASS
  1
LONG_TRANSACTION
  2
AcDbLongTransaction
  3
AutoCAD 2000
 90
        0
280
     0
281
     0
  0
CLASS
  1
LWPOLYLINE
  2
AcDbPolyline
  3
"AutoCAD"
 90
        0
280
     0
281
     1
  0
CLASS
  1
HATCH
  2
AcDbHatch
  3
"ACAD_SEDONA"
 90
        0
280
     0
281
     1
  0
CLASS
  1
XRECORD
  2
AcDbXrecord
  3
"<Built In>"
 90
        0
280
     0
281
     0
  0
CLASS
  1
LONG_TRANSACTION
  2
AcDbLongTransaction
  3
AutoCAD 2000
 90
        0
280
     0
281
     0
  0
CLASS
  1
LWPOLYLINE
  2
AcDbPolyline
  3
"AutoCAD"
 90
        0
280
     0
281
     1
  0
CLASS
  1
HATCH
  2
AcDbHatch
  3
"ACAD_SEDONA"
 90
        0
280
     0
281
     1
  0
CLASS
  1
XRECORD
  2
AcDbXrecord
  3
"<Built In>"
 90
        0
280
     0
281
     0
  0
CLASS
  1
LONG_TRANSACTION
  2
AcDbLongTransaction
  3
AutoCAD 2000
 90
        0
280
     0
281
     0
  0
CLASS
  1
LWPOLYLINE
  2
AcDbPolyline
  3
"AutoCAD"
 90
        0
280
     0
281
     1
  0
CLASS
  1
HATCH
  2
AcDbHatch
  3
"ACAD_SEDONA"
 90
        0
280
     0
281
     1
  0
CLASS
  1
XRECORD
  2
AcDbXrecord
  3
"<Built In>"
 90
        0
280
     0
281
     0
  0
CLASS
  1
LONG_TRANSACTION
  2
AcDbLongTransaction
  3
AutoCAD 2000
 90
        0
280
     0
281
     0
  0
CLASS
  1
LWPOLYLINE
  2
AcDbPolyline
  3
"AutoCAD"
 90
        0
280
     0
281
     1
  0
CLASS
  1
HATCH
  2
AcDbHatch
  3
"ACAD_SEDONA"
 90
        0
280
     0
281
     1
  0
CLASS
  1
XRECORD
  2
AcDbXrecord
  3
"<Built In>"
 90
        0
280
     0
281
     0
  0
CLASS
  1
LONG_TRANSACTION
  2
AcDbLongTransaction
  3
AutoCAD 2000
 90
        0
280
     0
281
     0
  0
CLASS
  1
LWPOLYLINE
  2
AcDbPolyline
  3
"AutoCAD"
 90
        0
280
     0
281
     1
  0
CLASS
  1
HATCH
  2
AcDbHatch
  3
"ACAD_SEDONA"
 90
        0
280
     0
281
     1
  0
CLASS
  1
XRECORD
  2
AcDbXrecord
  3
"<Built In>"
 90
        0
280
     0
281
     0
  0
CLASS
  1
LONG_TRANSACTION
  2
AcDbLongTransaction
  3
AutoCAD 2000
 90
        0
280
     0
281
     0
  0
CLASS
  1
LWPOLYLINE
  2
AcDbPolyline
  3
"AutoCAD"
 90
        0
280
     0
281
     1
  0
CLASS
  1
HATCH
  2
AcDbHatch
  3
"ACAD_SEDONA"
 90
        0
280
     0
281
     1
  0
CLASS
  1
XRECORD
  2
AcDbXrecord
  3
"<Built In>"
 90
        0
280
     0
281
     0
  0
CLASS
  1
LONG_TRANSACTION
  2
AcDbLongTransaction
  3
AutoCAD 2000
 90
        0
280
     0
281
     0
  0
CLASS
  1
LWPOLYLINE
  2
AcDbPolyline
  3
"AutoCAD"
 90
        0
280
     0
281
     1
  0
CLASS
  1
HATCH
  2
AcDbHatch
  3
"ACAD_SEDONA"
 90
        0
280
     0
281
     1
  0
CLASS
  1
XRECORD
  2
AcDbXrecord
  3
"<Built In>"
 90
        0
280
     0
281
     0
  0
CLASS
  1
LONG_TRANSACTION
  2
AcDbLongTransaction
  3
AutoCAD 2000
 90
        0
280
     0
281
     0
  0
CLASS
  1
LWPOLYLINE
  2
AcDbPolyline
  3
"AutoCAD"
 90
        0
280
     0
281
     1
  0
CLASS
  1
HATCH
  2
AcDbHatch
  3
"ACAD_SEDONA"
 90
        0
280
     0
281
     1
  0
CLASS
  1
XRECORD
  2
AcDbXrecord
  3
"<Built In>"
 90
        0
280
     0
281
     0
  0
CLASS
  1
LONG_TRANSACTION
  2
AcDbLongTransaction
  3
AutoCAD 2000
 90
        0
280
     0
281
     0
  0
CLASS
  1
LWPOLYLINE
  2
AcDbPolyline
  3
"AutoCAD"
 90
        0
280
     0
281
     1
  0
CLASS
  1
HATCH
  2
AcDbHatch
  3
"ACAD_SEDONA"
 90
        0
280
     0
281
     1
  0
CLASS
  1
XRECORD
  2
AcDbXrecord
  3
"<Built In>"
 90
        0
280
     0
281
     0
  0
CLASS
  1
LONG_TRANSACTION
  2
AcDbLongTransaction
  3
AutoCAD 2000
 90
        0
280
     0
281
     0
  0
CLASS
  1
LWPOLYLINE
  2
AcDbPolyline
  3
"AutoCAD"
 90
        0
280
     0
281
     1
  0
CLASS
  1
HATCH
  2
AcDbHatch
  3
"ACAD_SEDONA"
 90
        0
280
     0
281
     1
  0
CLASS
  1
XRECORD
  2
AcDbXrecord
  3
"<Built In>"
 90
        0
280
     0
281
     0
  0
CLASS
  1
LONG_TRANSACTION
  2
AcDbLongTransaction
  3
AutoCAD 2000
 90
        0
280
     0
281
     0
  0
CLASS
  1
LWPOLYLINE
  2
AcDbPolyline
  3
"AutoCAD"
 90
        0
280
     0
281
     1
  0
CLASS
  1
HATCH
  2
AcDbHatch
  3
"ACAD_SEDONA"
 90
        0
280
     0
281
     1
  0
CLASS
  1
XRECORD
  2
AcDbXrecord
  3
"<Built In>"
 90
        0
280
     0
281
     0
  0
CLASS
  1
LONG_TRANSACTION
  2
AcDbLongTransaction
  3
AutoCAD 2000
 90
        0
280
     0
281
     0
  0
CLASS
  1
LWPOLYLINE
  2
AcDbPolyline
  3
"AutoCAD"
 90
        0
280
     0
281
     1
  0
CLASS
  1
HATCH
  2
AcDbHatch
  3
"ACAD_SEDONA"
 90
        0
280
     0
281
     1
  0
CLASS
  1
XRECORD
  2
AcDbXrecord
  3
"<Built In>"
 90
        0
280
     0
281
     0
  0
CLASS
  1
LONG_TRANSACTION
  2
AcDbLongTransaction
  3
AutoCAD 2000
 90
        0
280
     0
281
     0
  0
CLASS
  1
LWPOLYLINE
  2
AcDbPolyline
  3
"AutoCAD"
 90
        0
280
     0
281
     1
  0
CLASS
  1
HATCH
  2
AcDbHatch
  3
"ACAD_SEDONA"
 90
        0
280
     0
281
     1
  0
CLASS
  1
XRECORD
  2
AcDbXrecord
  3
"<Built In>"
 90
        0
280
     0
281
     0
  0
CLASS
  1
LONG_TRANSACTION
  2
AcDbLongTransaction
  3
AutoCAD 2000
 90
        0
280
     0
281
     0
  0
CLASS
  1
LWPOLYLINE
  2
AcDbPolyline
  3
"AutoCAD"
 90
        0
280
     0
281
     1
  0
CLASS
  1
HATCH
  2
AcDbHatch
  3
"ACAD_SEDONA"
 90
        0
280
     0
281
     1
  0
CLASS
  1
XRECORD
  2
AcDbXrecord
  3
"<Built In>"
 90
        0
280
     0
281
     0
  0
ENDSEC
  0
SECTION
  2
TABLES
  0
TABLE
  2
VPORT
  5
469
100
AcDbSymbolTable
 70
     1
  0
VPORT
  5
6FAA1
102
{ACAD_XDICTIONARY
360
6FCB7
102
}
100
AcDbSymbolTableRecord
100
AcDbViewportTableRecord
  2
*ACTIVE
 70
     0
 10
0.0
 20
0.0
 11
1.0
 21
1.0
 12
-0.657122
 22
6.280437
 13
0.0
 23
0.0
 14
1.0
 24
1.0
 15
0.0
 25
0.0
 16
0.0
 26
0.0
 36
1.0
 17
0.648805
 27
-6.132183
 37
2.586733
 40
2.596231
 41
1.786496
 42
50.0
 43
0.0
 44
0.0
 50
0.0
 51
0.0
 71
     0
 72
   100
 73
     1
 74
     1
 75
     0
 76
     0
 77
     0
 78
     0
  0
ENDTAB
  0
TABLE
  2
LTYPE
  5
466
100
AcDbSymbolTable
 70
     1
  0
LTYPE
  5
472
100
AcDbSymbolTableRecord
100
AcDbLinetypeTableRecord
  2
BYBLOCK
 70
     0
  3

 72
    65
 73
     0
 40
0.0
  0
LTYPE
  5
473
100
AcDbSymbolTableRecord
100
AcDbLinetypeTableRecord
  2
BYLAYER
 70
     0
  3

 72
    65
 73
     0
 40
0.0
  0
LTYPE
  5
474
100
AcDbSymbolTableRecord
100
AcDbLinetypeTableRecord
  2
CONTINUOUS
 70
     0
  3
Solid line
 72
    65
 73
     0
 40
0.0
  0
ENDTAB
  0
TABLE
  2
LAYER
  5
463
100
AcDbSymbolTable
 70
     8
  0
LAYER
  5
46F
100
AcDbSymbolTableRecord
100
AcDbLayerTableRecord
  2
0
 70
     0
 62
     7
  6
CONTINUOUS
  0
LAYER
  5
485
100
AcDbSymbolTableRecord
100
AcDbLayerTableRecord
  2
AREA1
 70
     0
 62
     7
  6
CONTINUOUS
  0
LAYER
  5
486
100
AcDbSymbolTableRecord
100
AcDbLayerTableRecord
  2
AREA2
 70
     0
 62
     7
  6
CONTINUOUS
  0
LAYER
  5
494
102
{ACAD_XDICTIONARY
360
6FCE4
102
}
100
AcDbSymbolTableRecord
100
AcDbLayerTableRecord
  2
DEFPOINTS
 70
     0
 62
    -7
  6
CONTINUOUS
  0
LAYER
  5
495
100
AcDbSymbolTableRecord
100
AcDbLayerTableRecord
  2
DIMS-MTG-HOLES
 70
     0
 62
    -1
  6
CONTINUOUS
  0
LAYER
  5
4E6
100
AcDbSymbolTableRecord
100
AcDbLayerTableRecord
  2
SCALE
 70
     0
 62
    -7
  6
CONTINUOUS
  0
LAYER
  5
4ED
100
AcDbSymbolTableRecord
100
AcDbLayerTableRecord
  2
SNAP_POINTS
 70
     0
 62
    -1
  6
CONTINUOUS
  0
LAYER
  5
4F1
100
AcDbSymbolTableRecord
100
AcDbLayerTableRecord
  2
ATTRIBUTES
 70
     0
 62
    -7
  6
CONTINUOUS
  0
ENDTAB
  0
TABLE
  2
STYLE
  5
464
100
AcDbSymbolTable
 70
     1
  0
STYLE
  5
470
100
AcDbSymbolTableRecord
100
AcDbTextStyleTableRecord
  2
STANDARD
 70
     0
 40
0.0
 41
1.0
 50
0.0
 71
     0
 42
0.2
  3
txt
  4

  0
ENDTAB
  0
TABLE
  2
VIEW
  5
467
100
AcDbSymbolTable
 70
     0
  0
ENDTAB
  0
TABLE
  2
UCS
  5
468
100
AcDbSymbolTable
 70
     0
  0
ENDTAB
  0
TABLE
  2
APPID
  5
46A
100
AcDbSymbolTable
 70
     2
  0
APPID
  5
471
100
AcDbSymbolTableRecord
100
AcDbRegAppTableRecord
  2
ACAD
 70
     0
  0
APPID
  5
47E
100
AcDbSymbolTableRecord
100
AcDbRegAppTableRecord
  2
AVE_RENDER
 70
     0
  0
ENDTAB
  0
TABLE
  2
DIMSTYLE
  5
46B
100
AcDbSymbolTable
 70
     2
  0
DIMSTYLE
105
49A
102
{ACAD_XDICTIONARY
360
6FCE6
102
}
102
{ACAD_REACTORS
330
6FA93
330
6FA5D
330
6FA5C
102
}
100
AcDbSymbolTableRecord
100
AcDbDimStyleTableRecord
  2
ABECAD_3V
 70
     0
  3

  4

  5

  6

  7

 40
0.0
 41
0.125
 42
0.0625
 43
0.375
 44
0.0625
 45
0.0
 46
0.0
 47
0.0
 48
0.0
140
0.125
141
0.09
142
0.0
143
25.4
144
1.0
145
0.0
146
1.5
147
0.09
 71
     0
 72
     0
 73
     0
 74
     1
 75
     0
 76
     0
 77
     0
 78
     4
170
     1
171
     2
172
     0
173
     0
174
     0
175
     0
176
     0
177
     0
178
     0
270
     7
271
     6
272
     6
273
     2
274
     2
340
470
275
     0
280
     0
281
     0
282
     0
283
     1
284
     4
285
     4
286
     4
287
     5
288
     1
  0
DIMSTYLE
105
512
102
{ACAD_XDICTIONARY
360
6FCEA
102
}
100
AcDbSymbolTableRecord
100
AcDbDimStyleTableRecord
  2
ABECAD_3D
 70
     0
  3

  4

  5

  6

  7

 40
1.0
 41
0.18
 42
0.0625
 43
0.375
 44
0.18
 45
0.0
 46
0.0
 47
0.0
 48
0.0
140
0.18
141
0.09
142
0.0
143
25.4
144
1.0
145
0.0
146
1.5
147
0.09
 71
     0
 72
     0
 73
     0
 74
     1
 75
     0
 76
     0
 77
     0
 78
     4
170
     1
171
     2
172
     0
173
     0
174
     0
175
     0
176
     0
177
     0
178
     0
270
     7
271
     6
272
     6
273
     2
274
     2
340
470
275
     0
280
     0
281
     0
282
     0
283
     1
284
     4
285
     4
286
     4
287
     5
288
     1
  0
ENDTAB
  0
TABLE
  2
BLOCK_RECORD
  5
462
100
AcDbSymbolTable
 70
     3
  0
BLOCK_RECORD
  5
478
102
{ACAD_XDICTIONARY
360
4D2
102
}
100
AcDbSymbolTableRecord
100
AcDbBlockTableRecord
  2
*MODEL_SPACE
  0
BLOCK_RECORD
  5
475
102
{ACAD_XDICTIONARY
360
4D0
102
}
100
AcDbSymbolTableRecord
100
AcDbBlockTableRecord
  2
*PAPER_SPACE
  0
BLOCK_RECORD
  5
6FA69
100
AcDbSymbolTableRecord
100
AcDbBlockTableRecord
  2
*D0
  0
BLOCK_RECORD
  5
6FA75
100
AcDbSymbolTableRecord
100
AcDbBlockTableRecord
  2
*D1
  0
BLOCK_RECORD
  5
6FA94
100
AcDbSymbolTableRecord
100
AcDbBlockTableRecord
  2
*D2
  0
ENDTAB
  0
ENDSEC
  0
SECTION
  2
BLOCKS
  0
BLOCK
  5
48B
100
AcDbEntity
  8
0
100
AcDbBlockBegin
  2
*MODEL_SPACE
 70
     0
 10
0.0
 20
0.0
 30
0.0
  3
*MODEL_SPACE
  1

  0
ENDBLK
  5
48C
100
AcDbEntity
  8
0
100
AcDbBlockEnd
  0
BLOCK
  5
489
100
AcDbEntity
 67
     1
  8
0
100
AcDbBlockBegin
  2
*PAPER_SPACE
 70
     0
 10
0.0
 20
0.0
 30
0.0
  3
*PAPER_SPACE
  1

  0
ENDBLK
  5
48A
100
AcDbEntity
 67
     1
  8
0
100
AcDbBlockEnd
  0
BLOCK
  5
6FA73
100
AcDbEntity
  8
0
100
AcDbBlockBegin
  2
*D0
 70
     1
 10
0.0
 20
0.0
 30
0.0
  3
*D0
  1

  0
LINE
  5
6FAB5
100
AcDbEntity
  8
AREA1
 62
     0
100
AcDbLine
 10
-1.045783
 20
-0.892
 30
0.0
 11
-1.343683
 21
-0.892
 31
0.0
1001
ACAD
1000
RTLwPs
1070
   158
  0
LINE
  5
6FAB6
100
AcDbEntity
  8
AREA1
 62
     0
100
AcDbLine
 10
-1.045783
 20
0.892
 30
0.0
 11
-1.343683
 21
0.892
 31
0.0
1001
ACAD
1000
RTLwPs
1070
   158
  0
LINE
  5
6FAB7
100
AcDbEntity
  8
AREA1
 62
     0
100
AcDbLine
 10
-1.303901
 20
-0.812435
 30
0.0
 11
-1.303901
 21
-0.557028
 31
0.0
1001
ACAD
1000
RTLwPs
1070
   158
  0
LINE
  5
6FAB8
100
AcDbEntity
  8
AREA1
 62
     0
100
AcDbLine
 10
-1.303901
 20
0.812435
 30
0.0
 11
-1.303901
 21
0.565371
 31
0.0
1001
ACAD
1000
RTLwPs
1070
   158
  0
MTEXT
  5
6FAB9
100
AcDbEntity
  8
AREA1
 62
     0
100
AcDbMText
 10
-1.303901
 20
0.004172
 30
0.0
 40
0.079565
 41
0.0
 71
     5
 72
     1
  1
\A1;1 25/32 [45.31]
 11
0.0
 21
1.0
 31
0.0
1001
ACAD
1000
MTEXTBEGIN
1070
    73
1070
     1
1070
    44
1040
1.0
1070
    74
1070
     0
1000
MTEXTEND
1000
MTEXTBEGIN
1070
    73
1070
     1
1070
    44
1040
1.0
1070
    74
1070
     0
1000
MTEXTEND
1000
MTEXTBEGIN
1070
    73
1070
     1
1070
    44
1040
1.0
1070
    74
1070
     0
1000
MTEXTEND
1000
MTEXTBEGIN
1070
    73
1070
     1
1070
    44
1040
1.0
1070
    74
1070
     0
1000
MTEXTEND
1000
MTEXTBEGIN
1070
    73
1070
     1
1070
    44
1040
1.0
1070
    74
1070
     0
1000
MTEXTEND
1000
MTEXTBEGIN
1070
    73
1070
     1
1070
    44
1040
1.0
1070
    74
1070
     0
1000
MTEXTEND
1000
MTEXTBEGIN
1070
    73
1070
     1
1070
    44
1040
1.0
1070
    74
1070
     0
1000
MTEXTEND
1000
MTEXTBEGIN
1070
    73
1070
     1
1070
    44
1040
1.0
1070
    74
1070
     0
1000
MTEXTEND
1000
MTEXTBEGIN
1070
    73
1070
     1
1070
    44
1040
1.0
1070
    74
1070
     0
1000
MTEXTEND
1000
MTEXTBEGIN
1070
    73
1070
     1
1070
    44
1040
1.0
1070
    74
1070
     0
1000
MTEXTEND
  0
SOLID
  5
6FABA
100
AcDbEntity
  8
AREA1
 62
     0
100
AcDbTrace
 10
-1.317162
 20
-0.812435
 30
0.0
 11
-1.29064
 21
-0.812435
 31
0.0
 12
-1.303901
 22
-0.892
 32
0.0
 13
-1.303901
 23
-0.892
 33
0.0
  0
SOLID
  5
6FABB
100
AcDbEntity
  8
AREA1
 62
     0
100
AcDbTrace
 10
-1.317162
 20
0.812435
 30
0.0
 11
-1.29064
 21
0.812435
 31
0.0
 12
-1.303901
 22
0.892
 32
0.0
 13
-1.303901
 23
0.892
 33
0.0
  0
POINT
  5
6FABC
100
AcDbEntity
  8
DEFPOINTS
 62
     0
100
AcDbPoint
 10
-1.006
 20
-0.892
 30
-0.145
  0
POINT
  5
6FABD
100
AcDbEntity
  8
DEFPOINTS
 62
     0
100
AcDbPoint
 10
-1.006
 20
0.892
 30
-0.145
  0
POINT
  5
6FABE
100
AcDbEntity
  8
DEFPOINTS
 62
     0
100
AcDbPoint
 10
-1.303901
 20
0.892
 30
0.0
  0
ENDBLK
  5
6FA74
100
AcDbEntity
  8
0
100
AcDbBlockEnd
  0
BLOCK
  5
6FA7F
100
AcDbEntity
  8
0
100
AcDbBlockBegin
  2
*D1
 70
     1
 10
0.0
 20
0.0
 30
0.0
  3
*D1
  1

  0
LINE
  5
6FAAC
100
AcDbEntity
  8
AREA1
 62
     0
100
AcDbLine
 10
-1.006
 20
0.931783
 30
0.0
 11
-1.006
 21
1.181728
 31
0.0
1001
ACAD
1000
RTLwPs
1070
   158
  0
LINE
  5
6FAAD
100
AcDbEntity
  8
AREA1
 62
     0
100
AcDbLine
 10
0.12
 20
0.848283
 30
0.0
 11
0.12
 21
1.181728
 31
0.0
1001
ACAD
1000
RTLwPs
1070
   158
  0
LINE
  5
6FAAE
100
AcDbEntity
  8
AREA1
 62
     0
100
AcDbLine
 10
-0.926435
 20
1.141945
 30
0.0
 11
0.040435
 21
1.141945
 31
0.0
1001
ACAD
1000
RTLwPs
1070
   158
  0
MTEXT
  5
6FAAF
100
AcDbEntity
  8
AREA1
 62
     0
100
AcDbMText
 10
-0.47113
 20
1.342335
 30
0.0
 40
0.079565
 41
0.0
 71
     5
 72
     1
  1
\A1;1 1/8 [28.60]
1001
ACAD
1000
MTEXTBEGIN
1070
    73
1070
     1
1070
    44
1040
1.0
1070
    74
1070
     0
1000
MTEXTEND
1000
MTEXTBEGIN
1070
    73
1070
     1
1070
    44
1040
1.0
1070
    74
1070
     0
1000
MTEXTEND
1000
MTEXTBEGIN
1070
    73
1070
     1
1070
    44
1040
1.0
1070
    74
1070
     0
1000
MTEXTEND
1000
MTEXTBEGIN
1070
    73
1070
     1
1070
    44
1040
1.0
1070
    74
1070
     0
1000
MTEXTEND
1000
MTEXTBEGIN
1070
    73
1070
     1
1070
    44
1040
1.0
1070
    74
1070
     0
1000
MTEXTEND
1000
MTEXTBEGIN
1070
    73
1070
     1
1070
    44
1040
1.0
1070
    74
1070
     0
1000
MTEXTEND
1000
MTEXTBEGIN
1070
    73
1070
     1
1070
    44
1040
1.0
1070
    74
1070
     0
1000
MTEXTEND
1000
MTEXTBEGIN
1070
    73
1070
     1
1070
    44
1040
1.0
1070
    74
1070
     0
1000
MTEXTEND
1000
MTEXTBEGIN
1070
    73
1070
     1
1070
    44
1040
1.0
1070
    74
1070
     0
1000
MTEXTEND
1000
MTEXTBEGIN
1070
    73
1070
     1
1070
    44
1040
1.0
1070
    74
1070
     0
1000
MTEXTEND
  0
SOLID
  5
6FAB0
100
AcDbEntity
  8
AREA1
 62
     0
100
AcDbTrace
 10
-0.926435
 20
1.155206
 30
0.0
 11
-0.926435
 21
1.128685
 31
0.0
 12
-1.006
 22
1.141945
 32
0.0
 13
-1.006
 23
1.141945
 33
0.0
  0
SOLID
  5
6FAB1
100
AcDbEntity
  8
AREA1
 62
     0
100
AcDbTrace
 10
0.040435
 20
1.155206
 30
0.0
 11
0.040435
 21
1.128685
 31
0.0
 12
0.12
 22
1.141945
 32
0.0
 13
0.12
 23
1.141945
 33
0.0
  0
POINT
  5
6FAB2
100
AcDbEntity
  8
DEFPOINTS
 62
     0
100
AcDbPoint
 10
-1.006
 20
0.892
 30
-0.145
  0
POINT
  5
6FAB3
100
AcDbEntity
  8
DEFPOINTS
 62
     0
100
AcDbPoint
 10
0.12
 20
0.8085
 30
0.0
  0
POINT
  5
6FAB4
100
AcDbEntity
  8
DEFPOINTS
 62
     0
100
AcDbPoint
 10
0.12
 20
1.141945
 30
0.0
  0
ENDBLK
  5
6FA80
100
AcDbEntity
  8
0
100
AcDbBlockEnd
  0
BLOCK
  5
6FA9E
100
AcDbEntity
  8
0
100
AcDbBlockBegin
  2
*D2
 70
     1
 10
0.0
 20
0.0
 30
0.0
  3
*D2
  1

  0
LINE
  5
6FAA2
100
AcDbEntity
  8
AREA2
 62
     0
100
AcDbLine
 10
-0.608783
 20
-1.04
 30
0.0
 11
-1.294876
 21
-1.04
 31
0.0
1001
ACAD
1000
RTLwPs
1070
   158
  0
LINE
  5
6FAA3
100
AcDbEntity
  8
AREA2
 62
     0
100
AcDbLine
 10
-0.608783
 20
0.0
 30
0.0
 11
-1.294876
 21
0.0
 31
0.0
1001
ACAD
1000
RTLwPs
1070
   158
  0
LINE
  5
6FAA4
100
AcDbEntity
  8
AREA2
 62
     0
100
AcDbLine
 10
-1.255093
 20
-1.119565
 30
0.0
 11
-1.255093
 21
-1.19913
 31
0.0
1001
ACAD
1000
RTLwPs
1070
   158
  0
LINE
  5
6FAA5
100
AcDbEntity
  8
AREA2
 62
     0
100
AcDbLine
 10
-1.255093
 20
0.079565
 30
0.0
 11
-1.255093
 21
0.15913
 31
0.0
1001
ACAD
1000
RTLwPs
1070
   158
  0
MTEXT
  5
6FAA6
100
AcDbEntity
  8
AREA2
 62
     0
100
AcDbMText
 10
-1.255093
 20
-0.501836
 30
0.0
 40
0.079565
 41
0.0
 71
     5
 72
     1
  1
\A1;1 3/64 [26.42]
 11
0.0
 21
1.0
 31
0.0
1001
ACAD
1000
MTEXTBEGIN
1070
    73
1070
     1
1070
    44
1040
1.0
1070
    74
1070
     0
1000
MTEXTEND
1000
MTEXTBEGIN
1070
    73
1070
     1
1070
    44
1040
1.0
1070
    74
1070
     0
1000
MTEXTEND
1000
MTEXTBEGIN
1070
    73
1070
     1
1070
    44
1040
1.0
1070
    74
1070
     0
1000
MTEXTEND
1000
MTEXTBEGIN
1070
    73
1070
     1
1070
    44
1040
1.0
1070
    74
1070
     0
1000
MTEXTEND
1000
MTEXTBEGIN
1070
    73
1070
     1
1070
    44
1040
1.0
1070
    74
1070
     0
1000
MTEXTEND
1000
MTEXTBEGIN
1070
    73
1070
     1
1070
    44
1040
1.0
1070
    74
1070
     0
1000
MTEXTEND
1000
MTEXTBEGIN
1070
    73
1070
     1
1070
    44
1040
1.0
1070
    74
1070
     0
1000
MTEXTEND
1000
MTEXTBEGIN
1070
    73
1070
     1
1070
    44
1040
1.0
1070
    74
1070
     0
1000
MTEXTEND
1000
MTEXTBEGIN
1070
    73
1070
     1
1070
    44
1040
1.0
1070
    74
1070
     0
1000
MTEXTEND
1000
MTEXTBEGIN
1070
    73
1070
     1
1070
    44
1040
1.0
1070
    74
1070
     0
1000
MTEXTEND
  0
SOLID
  5
6FAA7
100
AcDbEntity
  8
AREA2
 62
     0
100
AcDbTrace
 10
-1.268354
 20
-1.119565
 30
0.0
 11
-1.241832
 21
-1.119565
 31
0.0
 12
-1.255093
 22
-1.04
 32
0.0
 13
-1.255093
 23
-1.04
 33
0.0
  0
SOLID
  5
6FAA8
100
AcDbEntity
  8
AREA2
 62
     0
100
AcDbTrace
 10
-1.268354
 20
0.079565
 30
0.0
 11
-1.241832
 21
0.079565
 31
0.0
 12
-1.255093
 22
0.0
 32
0.0
 13
-1.255093
 23
0.0
 33
0.0
  0
POINT
  5
6FAA9
100
AcDbEntity
  8
DEFPOINTS
 62
     0
100
AcDbPoint
 10
-0.569
 20
-1.04
 30
0.892
  0
POINT
  5
6FAAA
100
AcDbEntity
  8
DEFPOINTS
 62
     0
100
AcDbPoint
 10
-0.569
 20
0.0
 30
0.892
  0
POINT
  5
6FAAB
100
AcDbEntity
  8
DEFPOINTS
 62
     0
100
AcDbPoint
 10
-1.255093
 20
0.0
 30
0.0
  0
ENDBLK
  5
6FA9F
100
AcDbEntity
  8
0
100
AcDbBlockEnd
  0
ENDSEC
  0
SECTION
  2
ENTITIES
  0
POINT
  5
6F948
100
AcDbEntity
  8
SNAP_POINTS
100
AcDbPoint
 10
0.0
 20
0.0
 30
0.0
  0
LINE
  5
6F949
100
AcDbEntity
  8
0
100
AcDbLine
 10
0.0
 20
-0.657
 30
0.0
 11
0.0
 21
-0.657
 31
-1.04
210
0.0
220
0.0
230
-1.0
  0
LINE
  5
6F94A
100
AcDbEntity
  8
0
100
AcDbLine
 10
0.0
 20
-0.515
 30
-1.04
 11
0.0
 21
-0.515
 31
0.0
210
0.0
220
0.0
230
-1.0
  0
POLYLINE
  5
6F94B
100
AcDbEntity
  8
0
100
AcDbPolygonMesh
 66
     1
 10
0.0
 20
0.0
 30
0.0
 70
    16
 71
     6
 72
     3
  0
VERTEX
  5
6F94C
100
AcDbEntity
  8
0
100
AcDbVertex
100
AcDbPolygonMeshVertex
 10
0.0
 20
-0.8085
 30
0.0
 70
    64
  0
VERTEX
  5
6F94D
100
AcDbEntity
  8
0
100
AcDbVertex
100
AcDbPolygonMeshVertex
 10
0.0
 20
-0.8085
 30
-1.04
 70
    64
  0
VERTEX
  5
6F94E
100
AcDbEntity
  8
0
100
AcDbVertex
100
AcDbPolygonMeshVertex
 10
0.0
 20
-0.8085
 30
-1.04
 70
    64
  0
VERTEX
  5
6F94F
100
AcDbEntity
  8
0
100
AcDbVertex
100
AcDbPolygonMeshVertex
 10
-0.471
 20
-0.8085
 30
0.0
 70
    64
  0
VERTEX
  5
6F950
100
AcDbEntity
  8
0
100
AcDbVertex
100
AcDbPolygonMeshVertex
 10
-0.471
 20
-0.8085
 30
-1.04
 70
    64
  0
VERTEX
  5
6F951
100
AcDbEntity
  8
0
100
AcDbVertex
100
AcDbPolygonMeshVertex
 10
-0.471
 20
-0.8085
 30
-1.04
 70
    64
  0
VERTEX
  5
6F952
100
AcDbEntity
  8
0
100
AcDbVertex
100
AcDbPolygonMeshVertex
 10
-0.471
 20
0.8085
 30
0.0
 70
    64
  0
VERTEX
  5
6F953
100
AcDbEntity
  8
0
100
AcDbVertex
100
AcDbPolygonMeshVertex
 10
-0.471
 20
0.8085
 30
-1.04
 70
    64
  0
VERTEX
  5
6F954
100
AcDbEntity
  8
0
100
AcDbVertex
100
AcDbPolygonMeshVertex
 10
-0.471
 20
-0.8085
 30
-1.04
 70
    64
  0
VERTEX
  5
6F955
100
AcDbEntity
  8
0
100
AcDbVertex
100
AcDbPolygonMeshVertex
 10
0.0
 20
0.8085
 30
0.0
 70
    64
  0
VERTEX
  5
6F956
100
AcDbEntity
  8
0
100
AcDbVertex
100
AcDbPolygonMeshVertex
 10
0.0
 20
0.8085
 30
-1.04
 70
    64
  0
VERTEX
  5
6F957
100
AcDbEntity
  8
0
100
AcDbVertex
100
AcDbPolygonMeshVertex
 10
0.0
 20
-0.8085
 30
-1.04
 70
    64
  0
VERTEX
  5
6F958
100
AcDbEntity
  8
0
100
AcDbVertex
100
AcDbPolygonMeshVertex
 10
0.0
 20
0.8085
 30
0.0
 70
    64
  0
VERTEX
  5
6F959
100
AcDbEntity
  8
0
100
AcDbVertex
100
AcDbPolygonMeshVertex
 10
0.0
 20
0.8085
 30
0.0
 70
    64
  0
VERTEX
  5
6F95A
100
AcDbEntity
  8
0
100
AcDbVertex
100
AcDbPolygonMeshVertex
 10
0.0
 20
-0.8085
 30
0.0
 70
    64
  0
VERTEX
  5
6F95B
100
AcDbEntity
  8
0
100
AcDbVertex
100
AcDbPolygonMeshVertex
 10
-0.471
 20
0.8085
 30
0.0
 70
    64
  0
VERTEX
  5
6F95C
100
AcDbEntity
  8
0
100
AcDbVertex
100
AcDbPolygonMeshVertex
 10
-0.471
 20
0.8085
 30
0.0
 70
    64
  0
VERTEX
  5
6F95D
100
AcDbEntity
  8
0
100
AcDbVertex
100
AcDbPolygonMeshVertex
 10
-0.471
 20
-0.8085
 30
0.0
 70
    64
  0
SEQEND
  5
6F95E
100
AcDbEntity
  8
0
  0
POLYLINE
  5
6F95F
100
AcDbEntity
  8
0
100
AcDbPolygonMesh
 66
     1
 10
0.0
 20
0.0
 30
0.0
 70
    16
 71
     6
 72
     3
  0
VERTEX
  5
6F960
100
AcDbEntity
  8
0
100
AcDbVertex
100
AcDbPolygonMeshVertex
 10
-0.471
 20
-0.892
 30
0.0
 70
    64
  0
VERTEX
  5
6F961
100
AcDbEntity
  8
0
100
AcDbVertex
100
AcDbPolygonMeshVertex
 10
-0.471
 20
-0.892
 30
-1.04
 70
    64
  0
VERTEX
  5
6F962
100
AcDbEntity
  8
0
100
AcDbVertex
100
AcDbPolygonMeshVertex
 10
-0.471
 20
-0.892
 30
-1.04
 70
    64
  0
VERTEX
  5
6F963
100
AcDbEntity
  8
0
100
AcDbVertex
100
AcDbPolygonMeshVertex
 10
-0.569
 20
-0.892
 30
0.0
 70
    64
  0
VERTEX
  5
6F964
100
AcDbEntity
  8
0
100
AcDbVertex
100
AcDbPolygonMeshVertex
 10
-0.569
 20
-0.892
 30
-1.04
 70
    64
  0
VERTEX
  5
6F965
100
AcDbEntity
  8
0
100
AcDbVertex
100
AcDbPolygonMeshVertex
 10
-0.569
 20
-0.892
 30
-1.04
 70
    64
  0
VERTEX
  5
6F966
100
AcDbEntity
  8
0
100
AcDbVertex
100
AcDbPolygonMeshVertex
 10
-0.569
 20
0.892
 30
0.0
 70
    64
  0
VERTEX
  5
6F967
100
AcDbEntity
  8
0
100
AcDbVertex
100
AcDbPolygonMeshVertex
 10
-0.569
 20
0.892
 30
-1.04
 70
    64
  0
VERTEX
  5
6F968
100
AcDbEntity
  8
0
100
AcDbVertex
100
AcDbPolygonMeshVertex
 10
-0.569
 20
-0.892
 30
-1.04
 70
    64
  0
VERTEX
  5
6F969
100
AcDbEntity
  8
0
100
AcDbVertex
100
AcDbPolygonMeshVertex
 10
-0.471
 20
0.892
 30
0.0
 70
    64
  0
VERTEX
  5
6F96A
100
AcDbEntity
  8
0
100
AcDbVertex
100
AcDbPolygonMeshVertex
 10
-0.471
 20
0.892
 30
-1.04
 70
    64
  0
VERTEX
  5
6F96B
100
AcDbEntity
  8
0
100
AcDbVertex
100
AcDbPolygonMeshVertex
 10
-0.471
 20
-0.892
 30
-1.04
 70
    64
  0
VERTEX
  5
6F96C
100
AcDbEntity
  8
0
100
AcDbVertex
100
AcDbPolygonMeshVertex
 10
-0.471
 20
0.892
 30
0.0
 70
    64
  0
VERTEX
  5
6F96D
100
AcDbEntity
  8
0
100
AcDbVertex
100
AcDbPolygonMeshVertex
 10
-0.471
 20
0.892
 30
0.0
 70
    64
  0
VERTEX
  5
6F96E
100
AcDbEntity
  8
0
100
AcDbVertex
100
AcDbPolygonMeshVertex
 10
-0.471
 20
-0.892
 30
0.0
 70
    64
  0
VERTEX
  5
6F96F
100
AcDbEntity
  8
0
100
AcDbVertex
100
AcDbPolygonMeshVertex
 10
-0.569
 20
0.892
 30
0.0
 70
    64
  0
VERTEX
  5
6F970
100
AcDbEntity
  8
0
100
AcDbVertex
100
AcDbPolygonMeshVertex
 10
-0.569
 20
0.892
 30
0.0
 70
    64
  0
VERTEX
  5
6F971
100
AcDbEntity
  8
0
100
AcDbVertex
100
AcDbPolygonMeshVertex
 10
-0.569
 20
-0.892
 30
0.0
 70
    64
  0
SEQEND
  5
6F972
100
AcDbEntity
  8
0
  0
POLYLINE
  5
6F973
100
AcDbEntity
  8
0
100
AcDbPolygonMesh
 66
     1
 10
0.0
 20
0.0
 30
0.0
 70
    16
 71
     6
 72
     3
  0
VERTEX
  5
6F974
100
AcDbEntity
  8
0
100
AcDbVertex
100
AcDbPolygonMeshVertex
 10
-1.006
 20
-0.892
 30
-0.145
 70
    64
  0
VERTEX
  5
6F975
100
AcDbEntity
  8
0
100
AcDbVertex
100
AcDbPolygonMeshVertex
 10
-1.006
 20
-0.892
 30
-0.145
 70
    64
  0
VERTEX
  5
6F976
100
AcDbEntity
  8
0
100
AcDbVertex
100
AcDbPolygonMeshVertex
 10
-1.006
 20
-0.892
 30
-0.145
 70
    64
  0
VERTEX
  5
6F977
100
AcDbEntity
  8
0
100
AcDbVertex
100
AcDbPolygonMeshVertex
 10
-0.569
 20
-0.892
 30
0.0
 70
    64
  0
VERTEX
  5
6F978
100
AcDbEntity
  8
0
100
AcDbVertex
100
AcDbPolygonMeshVertex
 10
-0.569
 20
-0.892
 30
-0.145
 70
    64
  0
VERTEX
  5
6F979
100
AcDbEntity
  8
0
100
AcDbVertex
100
AcDbPolygonMeshVertex
 10
-0.569
 20
-0.892
 30
-0.145
 70
    64
  0
VERTEX
  5
6F97A
100
AcDbEntity
  8
0
100
AcDbVertex
100
AcDbPolygonMeshVertex
 10
-0.569
 20
-0.8085
 30
0.0
 70
    64
  0
VERTEX
  5
6F97B
100
AcDbEntity
  8
0
100
AcDbVertex
100
AcDbPolygonMeshVertex
 10
-0.569
 20
-0.8085
 30
-0.145
 70
    64
  0
VERTEX
  5
6F97C
100
AcDbEntity
  8
0
100
AcDbVertex
100
AcDbPolygonMeshVertex
 10
-0.569
 20
-0.892
 30
-0.145
 70
    64
  0
VERTEX
  5
6F97D
100
AcDbEntity
  8
0
100
AcDbVertex
100
AcDbPolygonMeshVertex
 10
-1.006
 20
-0.8085
 30
-0.145
 70
    64
  0
VERTEX
  5
6F97E
100
AcDbEntity
  8
0
100
AcDbVertex
100
AcDbPolygonMeshVertex
 10
-1.006
 20
-0.8085
 30
-0.145
 70
    64
  0
VERTEX
  5
6F97F
100
AcDbEntity
  8
0
100
AcDbVertex
100
AcDbPolygonMeshVertex
 10
-1.006
 20
-0.892
 30
-0.145
 70
    64
  0
VERTEX
  5
6F980
100
AcDbEntity
  8
0
100
AcDbVertex
100
AcDbPolygonMeshVertex
 10
-1.006
 20
-0.8085
 30
-0.145
 70
    64
  0
VERTEX
  5
6F981
100
AcDbEntity
  8
0
100
AcDbVertex
100
AcDbPolygonMeshVertex
 10
-1.006
 20
-0.8085
 30
-0.145
 70
    64
  0
VERTEX
  5
6F982
100
AcDbEntity
  8
0
100
AcDbVertex
100
AcDbPolygonMeshVertex
 10
-1.006
 20
-0.892
 30
-0.145
 70
    64
  0
VERTEX
  5
6F983
100
AcDbEntity
  8
0
100
AcDbVertex
100
AcDbPolygonMeshVertex
 10
-0.569
 20
-0.8085
 30
0.0
 70
    64
  0
VERTEX
  5
6F984
100
AcDbEntity
  8
0
100
AcDbVertex
100
AcDbPolygonMeshVertex
 10
-0.569
 20
-0.8085
 30
0.0
 70
    64
  0
VERTEX
  5
6F985
100
AcDbEntity
  8
0
100
AcDbVertex
100
AcDbPolygonMeshVertex
 10
-0.569
 20
-0.892
 30
0.0
 70
    64
  0
SEQEND
  5
6F986
100
AcDbEntity
  8
0
  0
POLYLINE
  5
6F987
100
AcDbEntity
  8
0
100
AcDbPolygonMesh
 66
     1
 10
0.0
 20
0.0
 30
0.0
 70
    16
 71
     6
 72
     3
  0
VERTEX
  5
6F988
100
AcDbEntity
  8
0
100
AcDbVertex
100
AcDbPolygonMeshVertex
 10
-1.006
 20
-0.892
 30
-0.895
 70
    64
  0
VERTEX
  5
6F989
100
AcDbEntity
  8
0
100
AcDbVertex
100
AcDbPolygonMeshVertex
 10
-1.006
 20
-0.892
 30
-0.895
 70
    64
  0
VERTEX
  5
6F98A
100
AcDbEntity
  8
0
100
AcDbVertex
100
AcDbPolygonMeshVertex
 10
-1.006
 20
-0.892
 30
-0.895
 70
    64
  0
VERTEX
  5
6F98B
100
AcDbEntity
  8
0
100
AcDbVertex
100
AcDbPolygonMeshVertex
 10
-0.569
 20
-0.892
 30
-1.04
 70
    64
  0
VERTEX
  5
6F98C
100
AcDbEntity
  8
0
100
AcDbVertex
100
AcDbPolygonMeshVertex
 10
-0.569
 20
-0.892
 30
-0.895
 70
    64
  0
VERTEX
  5
6F98D
100
AcDbEntity
  8
0
100
AcDbVertex
100
AcDbPolygonMeshVertex
 10
-0.569
 20
-0.892
 30
-0.895
 70
    64
  0
VERTEX
  5
6F98E
100
AcDbEntity
  8
0
100
AcDbVertex
100
AcDbPolygonMeshVertex
 10
-0.569
 20
-0.8085
 30
-1.04
 70
    64
  0
VERTEX
  5
6F98F
100
AcDbEntity
  8
0
100
AcDbVertex
100
AcDbPolygonMeshVertex
 10
-0.569
 20
-0.8085
 30
-0.895
 70
    64
  0
VERTEX
  5
6F990
100
AcDbEntity
  8
0
100
AcDbVertex
100
AcDbPolygonMeshVertex
 10
-0.569
 20
-0.892
 30
-0.895
 70
    64
  0
VERTEX
  5
6F991
100
AcDbEntity
  8
0
100
AcDbVertex
100
AcDbPolygonMeshVertex
 10
-1.006
 20
-0.8085
 30
-0.895
 70
    64
  0
VERTEX
  5
6F992
100
AcDbEntity
  8
0
100
AcDbVertex
100
AcDbPolygonMeshVertex
 10
-1.006
 20
-0.8085
 30
-0.895
 70
    64
  0
VERTEX
  5
6F993
100
AcDbEntity
  8
0
100
AcDbVertex
100
AcDbPolygonMeshVertex
 10
-1.006
 20
-0.892
 30
-0.895
 70
    64
  0
VERTEX
  5
6F994
100
AcDbEntity
  8
0
100
AcDbVertex
100
AcDbPolygonMeshVertex
 10
-1.006
 20
-0.8085
 30
-0.895
 70
    64
  0
VERTEX
  5
6F995
100
AcDbEntity
  8
0
100
AcDbVertex
100
AcDbPolygonMeshVertex
 10
-1.006
 20
-0.8085
 30
-0.895
 70
    64
  0
VERTEX
  5
6F996
100
AcDbEntity
  8
0
100
AcDbVertex
100
AcDbPolygonMeshVertex
 10
-1.006
 20
-0.892
 30
-0.895
 70
    64
  0
VERTEX
  5
6F997
100
AcDbEntity
  8
0
100
AcDbVertex
100
AcDbPolygonMeshVertex
 10
-0.569
 20
-0.8085
 30
-1.04
 70
    64
  0
VERTEX
  5
6F998
100
AcDbEntity
  8
0
100
AcDbVertex
100
AcDbPolygonMeshVertex
 10
-0.569
 20
-0.8085
 30
-1.04
 70
    64
  0
VERTEX
  5
6F999
100
AcDbEntity
  8
0
100
AcDbVertex
100
AcDbPolygonMeshVertex
 10
-0.569
 20
-0.892
 30
-1.04
 70
    64
  0
SEQEND
  5
6F99A
100
AcDbEntity
  8
0
  0
POLYLINE
  5
6F99B
100
AcDbEntity
  8
0
100
AcDbPolygonMesh
 66
     1
 10
0.0
 20
0.0
 30
0.0
 70
    16
 71
     6
 72
     3
  0
VERTEX
  5
6F99C
100
AcDbEntity
  8
0
100
AcDbVertex
100
AcDbPolygonMeshVertex
 10
-0.569
 20
-0.892
 30
-0.145
 70
    64
  0
VERTEX
  5
6F99D
100
AcDbEntity
  8
0
100
AcDbVertex
100
AcDbPolygonMeshVertex
 10
-0.569
 20
-0.892
 30
-0.895
 70
    64
  0
VERTEX
  5
6F99E
100
AcDbEntity
  8
0
100
AcDbVertex
100
AcDbPolygonMeshVertex
 10
-0.569
 20
-0.892
 30
-0.895
 70
    64
  0
VERTEX
  5
6F99F
100
AcDbEntity
  8
0
100
AcDbVertex
100
AcDbPolygonMeshVertex
 10
-1.006
 20
-0.892
 30
-0.145
 70
    64
  0
VERTEX
  5
6F9A0
100
AcDbEntity
  8
0
100
AcDbVertex
100
AcDbPolygonMeshVertex
 10
-1.006
 20
-0.892
 30
-0.895
 70
    64
  0
VERTEX
  5
6F9A1
100
AcDbEntity
  8
0
100
AcDbVertex
100
AcDbPolygonMeshVertex
 10
-1.006
 20
-0.892
 30
-0.895
 70
    64
  0
VERTEX
  5
6F9A2
100
AcDbEntity
  8
0
100
AcDbVertex
100
AcDbPolygonMeshVertex
 10
-1.006
 20
-0.8085
 30
-0.145
 70
    64
  0
VERTEX
  5
6F9A3
100
AcDbEntity
  8
0
100
AcDbVertex
100
AcDbPolygonMeshVertex
 10
-1.006
 20
-0.8085
 30
-0.895
 70
    64
  0
VERTEX
  5
6F9A4
100
AcDbEntity
  8
0
100
AcDbVertex
100
AcDbPolygonMeshVertex
 10
-1.006
 20
-0.892
 30
-0.895
 70
    64
  0
VERTEX
  5
6F9A5
100
AcDbEntity
  8
0
100
AcDbVertex
100
AcDbPolygonMeshVertex
 10
-0.569
 20
-0.8085
 30
-0.145
 70
    64
  0
VERTEX
  5
6F9A6
100
AcDbEntity
  8
0
100
AcDbVertex
100
AcDbPolygonMeshVertex
 10
-0.569
 20
-0.8085
 30
-0.895
 70
    64
  0
VERTEX
  5
6F9A7
100
AcDbEntity
  8
0
100
AcDbVertex
100
AcDbPolygonMeshVertex
 10
-0.569
 20
-0.892
 30
-0.895
 70
    64
  0
VERTEX
  5
6F9A8
100
AcDbEntity
  8
0
100
AcDbVertex
100
AcDbPolygonMeshVertex
 10
-0.569
 20
-0.8085
 30
-0.145
 70
    64
  0
VERTEX
  5
6F9A9
100
AcDbEntity
  8
0
100
AcDbVertex
100
AcDbPolygonMeshVertex
 10
-0.569
 20
-0.8085
 30
-0.145
 70
    64
  0
VERTEX
  5
6F9AA
100
AcDbEntity
  8
0
100
AcDbVertex
100
AcDbPolygonMeshVertex
 10
-0.569
 20
-0.892
 30
-0.145
 70
    64
  0
VERTEX
  5
6F9AB
100
AcDbEntity
  8
0
100
AcDbVertex
100
AcDbPolygonMeshVertex
 10
-1.006
 20
-0.8085
 30
-0.145
 70
    64
  0
VERTEX
  5
6F9AC
100
AcDbEntity
  8
0
100
AcDbVertex
100
AcDbPolygonMeshVertex
 10
-1.006
 20
-0.8085
 30
-0.145
 70
    64
  0
VERTEX
  5
6F9AD
100
AcDbEntity
  8
0
100
AcDbVertex
100
AcDbPolygonMeshVertex
 10
-1.006
 20
-0.892
 30
-0.145
 70
    64
  0
SEQEND
  5
6F9AE
100
AcDbEntity
  8
0
  0
POLYLINE
  5
6F9AF
100
AcDbEntity
  8
0
100
AcDbPolygonMesh
 66
     1
 10
0.0
 20
0.0
 30
0.0
 70
    16
 71
     6
 72
     3
  0
VERTEX
  5
6F9B0
100
AcDbEntity
  8
0
100
AcDbVertex
100
AcDbPolygonMeshVertex
 10
-1.006
 20
0.8085
 30
-0.145
 70
    64
  0
VERTEX
  5
6F9B1
100
AcDbEntity
  8
0
100
AcDbVertex
100
AcDbPolygonMeshVertex
 10
-1.006
 20
0.8085
 30
-0.145
 70
    64
  0
VERTEX
  5
6F9B2
100
AcDbEntity
  8
0
100
AcDbVertex
100
AcDbPolygonMeshVertex
 10
-1.006
 20
0.8085
 30
-0.145
 70
    64
  0
VERTEX
  5
6F9B3
100
AcDbEntity
  8
0
100
AcDbVertex
100
AcDbPolygonMeshVertex
 10
-0.569
 20
0.8085
 30
0.0
 70
    64
  0
VERTEX
  5
6F9B4
100
AcDbEntity
  8
0
100
AcDbVertex
100
AcDbPolygonMeshVertex
 10
-0.569
 20
0.8085
 30
-0.145
 70
    64
  0
VERTEX
  5
6F9B5
100
AcDbEntity
  8
0
100
AcDbVertex
100
AcDbPolygonMeshVertex
 10
-0.569
 20
0.8085
 30
-0.145
 70
    64
  0
VERTEX
  5
6F9B6
100
AcDbEntity
  8
0
100
AcDbVertex
100
AcDbPolygonMeshVertex
 10
-0.569
 20
0.892
 30
0.0
 70
    64
  0
VERTEX
  5
6F9B7
100
AcDbEntity
  8
0
100
AcDbVertex
100
AcDbPolygonMeshVertex
 10
-0.569
 20
0.892
 30
-0.145
 70
    64
  0
VERTEX
  5
6F9B8
100
AcDbEntity
  8
0
100
AcDbVertex
100
AcDbPolygonMeshVertex
 10
-0.569
 20
0.8085
 30
-0.145
 70
    64
  0
VERTEX
  5
6F9B9
100
AcDbEntity
  8
0
100
AcDbVertex
100
AcDbPolygonMeshVertex
 10
-1.006
 20
0.892
 30
-0.145
 70
    64
  0
VERTEX
  5
6F9BA
100
AcDbEntity
  8
0
100
AcDbVertex
100
AcDbPolygonMeshVertex
 10
-1.006
 20
0.892
 30
-0.145
 70
    64
  0
VERTEX
  5
6F9BB
100
AcDbEntity
  8
0
100
AcDbVertex
100
AcDbPolygonMeshVertex
 10
-1.006
 20
0.8085
 30
-0.145
 70
    64
  0
VERTEX
  5
6F9BC
100
AcDbEntity
  8
0
100
AcDbVertex
100
AcDbPolygonMeshVertex
 10
-1.006
 20
0.892
 30
-0.145
 70
    64
  0
VERTEX
  5
6F9BD
100
AcDbEntity
  8
0
100
AcDbVertex
100
AcDbPolygonMeshVertex
 10
-1.006
 20
0.892
 30
-0.145
 70
    64
  0
VERTEX
  5
6F9BE
100
AcDbEntity
  8
0
100
AcDbVertex
100
AcDbPolygonMeshVertex
 10
-1.006
 20
0.8085
 30
-0.145
 70
    64
  0
VERTEX
  5
6F9BF
100
AcDbEntity
  8
0
100
AcDbVertex
100
AcDbPolygonMeshVertex
 10
-0.569
 20
0.892
 30
0.0
 70
    64
  0
VERTEX
  5
6F9C0
100
AcDbEntity
  8
0
100
AcDbVertex
100
AcDbPolygonMeshVertex
 10
-0.569
 20
0.892
 30
0.0
 70
    64
  0
VERTEX
  5
6F9C1
100
AcDbEntity
  8
0
100
AcDbVertex
100
AcDbPolygonMeshVertex
 10
-0.569
 20
0.8085
 30
0.0
 70
    64
  0
SEQEND
  5
6F9C2
100
AcDbEntity
  8
0
  0
POLYLINE
  5
6F9C3
100
AcDbEntity
  8
0
100
AcDbPolygonMesh
 66
     1
 10
0.0
 20
0.0
 30
0.0
 70
    16
 71
     6
 72
     3
  0
VERTEX
  5
6F9C4
100
AcDbEntity
  8
0
100
AcDbVertex
100
AcDbPolygonMeshVertex
 10
-0.569
 20
0.8085
 30
-0.145
 70
    64
  0
VERTEX
  5
6F9C5
100
AcDbEntity
  8
0
100
AcDbVertex
100
AcDbPolygonMeshVertex
 10
-0.569
 20
0.8085
 30
-0.895
 70
    64
  0
VERTEX
  5
6F9C6
100
AcDbEntity
  8
0
100
AcDbVertex
100
AcDbPolygonMeshVertex
 10
-0.569
 20
0.8085
 30
-0.895
 70
    64
  0
VERTEX
  5
6F9C7
100
AcDbEntity
  8
0
100
AcDbVertex
100
AcDbPolygonMeshVertex
 10
-1.006
 20
0.8085
 30
-0.145
 70
    64
  0
VERTEX
  5
6F9C8
100
AcDbEntity
  8
0
100
AcDbVertex
100
AcDbPolygonMeshVertex
 10
-1.006
 20
0.8085
 30
-0.895
 70
    64
  0
VERTEX
  5
6F9C9
100
AcDbEntity
  8
0
100
AcDbVertex
100
AcDbPolygonMeshVertex
 10
-1.006
 20
0.8085
 30
-0.895
 70
    64
  0
VERTEX
  5
6F9CA
100
AcDbEntity
  8
0
100
AcDbVertex
100
AcDbPolygonMeshVertex
 10
-1.006
 20
0.892
 30
-0.145
 70
    64
  0
VERTEX
  5
6F9CB
100
AcDbEntity
  8
0
100
AcDbVertex
100
AcDbPolygonMeshVertex
 10
-1.006
 20
0.892
 30
-0.895
 70
    64
  0
VERTEX
  5
6F9CC
100
AcDbEntity
  8
0
100
AcDbVertex
100
AcDbPolygonMeshVertex
 10
-1.006
 20
0.8085
 30
-0.895
 70
    64
  0
VERTEX
  5
6F9CD
100
AcDbEntity
  8
0
100
AcDbVertex
100
AcDbPolygonMeshVertex
 10
-0.569
 20
0.892
 30
-0.145
 70
    64
  0
VERTEX
  5
6F9CE
100
AcDbEntity
  8
0
100
AcDbVertex
100
AcDbPolygonMeshVertex
 10
-0.569
 20
0.892
 30
-0.895
 70
    64
  0
VERTEX
  5
6F9CF
100
AcDbEntity
  8
0
100
AcDbVertex
100
AcDbPolygonMeshVertex
 10
-0.569
 20
0.8085
 30
-0.895
 70
    64
  0
VERTEX
  5
6F9D0
100
AcDbEntity
  8
0
100
AcDbVertex
100
AcDbPolygonMeshVertex
 10
-0.569
 20
0.892
 30
-0.145
 70
    64
  0
VERTEX
  5
6F9D1
100
AcDbEntity
  8
0
100
AcDbVertex
100
AcDbPolygonMeshVertex
 10
-0.569
 20
0.892
 30
-0.145
 70
    64
  0
VERTEX
  5
6F9D2
100
AcDbEntity
  8
0
100
AcDbVertex
100
AcDbPolygonMeshVertex
 10
-0.569
 20
0.8085
 30
-0.145
 70
    64
  0
VERTEX
  5
6F9D3
100
AcDbEntity
  8
0
100
AcDbVertex
100
AcDbPolygonMeshVertex
 10
-1.006
 20
0.892
 30
-0.145
 70
    64
  0
VERTEX
  5
6F9D4
100
AcDbEntity
  8
0
100
AcDbVertex
100
AcDbPolygonMeshVertex
 10
-1.006
 20
0.892
 30
-0.145
 70
    64
  0
VERTEX
  5
6F9D5
100
AcDbEntity
  8
0
100
AcDbVertex
100
AcDbPolygonMeshVertex
 10
-1.006
 20
0.8085
 30
-0.145
 70
    64
  0
SEQEND
  5
6F9D6
100
AcDbEntity
  8
0
  0
POLYLINE
  5
6F9D7
100
AcDbEntity
  8
0
100
AcDbPolygonMesh
 66
     1
 10
0.0
 20
0.0
 30
0.0
 70
    16
 71
     6
 72
     3
  0
VERTEX
  5
6F9D8
100
AcDbEntity
  8
0
100
AcDbVertex
100
AcDbPolygonMeshVertex
 10
-1.006
 20
0.8085
 30
-0.895
 70
    64
  0
VERTEX
  5
6F9D9
100
AcDbEntity
  8
0
100
AcDbVertex
100
AcDbPolygonMeshVertex
 10
-1.006
 20
0.8085
 30
-0.895
 70
    64
  0
VERTEX
  5
6F9DA
100
AcDbEntity
  8
0
100
AcDbVertex
100
AcDbPolygonMeshVertex
 10
-1.006
 20
0.8085
 30
-0.895
 70
    64
  0
VERTEX
  5
6F9DB
100
AcDbEntity
  8
0
100
AcDbVertex
100
AcDbPolygonMeshVertex
 10
-0.569
 20
0.8085
 30
-1.04
 70
    64
  0
VERTEX
  5
6F9DC
100
AcDbEntity
  8
0
100
AcDbVertex
100
AcDbPolygonMeshVertex
 10
-0.569
 20
0.8085
 30
-0.895
 70
    64
  0
VERTEX
  5
6F9DD
100
AcDbEntity
  8
0
100
AcDbVertex
100
AcDbPolygonMeshVertex
 10
-0.569
 20
0.8085
 30
-0.895
 70
    64
  0
VERTEX
  5
6F9DE
100
AcDbEntity
  8
0
100
AcDbVertex
100
AcDbPolygonMeshVertex
 10
-0.569
 20
0.892
 30
-1.04
 70
    64
  0
VERTEX
  5
6F9DF
100
AcDbEntity
  8
0
100
AcDbVertex
100
AcDbPolygonMeshVertex
 10
-0.569
 20
0.892
 30
-0.895
 70
    64
  0
VERTEX
  5
6F9E0
100
AcDbEntity
  8
0
100
AcDbVertex
100
AcDbPolygonMeshVertex
 10
-0.569
 20
0.8085
 30
-0.895
 70
    64
  0
VERTEX
  5
6F9E1
100
AcDbEntity
  8
0
100
AcDbVertex
100
AcDbPolygonMeshVertex
 10
-1.006
 20
0.892
 30
-0.895
 70
    64
  0
VERTEX
  5
6F9E2
100
AcDbEntity
  8
0
100
AcDbVertex
100
AcDbPolygonMeshVertex
 10
-1.006
 20
0.892
 30
-0.895
 70
    64
  0
VERTEX
  5
6F9E3
100
AcDbEntity
  8
0
100
AcDbVertex
100
AcDbPolygonMeshVertex
 10
-1.006
 20
0.8085
 30
-0.895
 70
    64
  0
VERTEX
  5
6F9E4
100
AcDbEntity
  8
0
100
AcDbVertex
100
AcDbPolygonMeshVertex
 10
-1.006
 20
0.892
 30
-0.895
 70
    64
  0
VERTEX
  5
6F9E5
100
AcDbEntity
  8
0
100
AcDbVertex
100
AcDbPolygonMeshVertex
 10
-1.006
 20
0.892
 30
-0.895
 70
    64
  0
VERTEX
  5
6F9E6
100
AcDbEntity
  8
0
100
AcDbVertex
100
AcDbPolygonMeshVertex
 10
-1.006
 20
0.8085
 30
-0.895
 70
    64
  0
VERTEX
  5
6F9E7
100
AcDbEntity
  8
0
100
AcDbVertex
100
AcDbPolygonMeshVertex
 10
-0.569
 20
0.892
 30
-1.04
 70
    64
  0
VERTEX
  5
6F9E8
100
AcDbEntity
  8
0
100
AcDbVertex
100
AcDbPolygonMeshVertex
 10
-0.569
 20
0.892
 30
-1.04
 70
    64
  0
VERTEX
  5
6F9E9
100
AcDbEntity
  8
0
100
AcDbVertex
100
AcDbPolygonMeshVertex
 10
-0.569
 20
0.8085
 30
-1.04
 70
    64
  0
SEQEND
  5
6F9EA
100
AcDbEntity
  8
0
  0
ARC
  5
6F9EB
100
AcDbEntity
  8
0
100
AcDbCircle
 10
0.0
 20
-0.586
 30
0.0
 40
0.071
210
0.0
220
0.0
230
-1.0
100
AcDbArc
 50
270.0
 51
90.0
  0
LINE
  5
6F9EC
100
AcDbEntity
  8
0
100
AcDbLine
 10
0.0
 20
0.515
 30
0.0
 11
0.0
 21
0.515
 31
-1.04
210
0.0
220
0.0
230
-1.0
  0
ARC
  5
6F9ED
100
AcDbEntity
  8
0
100
AcDbCircle
 10
0.0
 20
0.586
 30
0.0
 40
0.071
210
0.0
220
0.0
230
-1.0
100
AcDbArc
 50
270.0
 51
90.0
  0
ARC
  5
6F9EE
100
AcDbEntity
  8
0
100
AcDbCircle
 10
0.0
 20
-0.586
 30
1.04
 40
0.071
210
0.0
220
0.0
230
-1.0
100
AcDbArc
 50
270.0
 51
90.0
  0
ARC
  5
6F9EF
100
AcDbEntity
  8
0
100
AcDbCircle
 10
0.0
 20
0.586
 30
1.04
 40
0.071
210
0.0
220
0.0
230
-1.0
100
AcDbArc
 50
270.0
 51
90.0
  0
LINE
  5
6F9F0
100
AcDbEntity
  8
0
100
AcDbLine
 10
0.0
 20
0.657
 30
-1.04
 11
0.0
 21
0.657
 31
0.0
210
0.0
220
0.0
230
-1.0
  0
POLYLINE
  5
6F9F1
100
AcDbEntity
  8
0
100
AcDbPolygonMesh
 66
     1
 10
0.0
 20
0.0
 30
0.0
 70
    16
 71
     6
 72
     3
  0
VERTEX
  5
6F9F2
100
AcDbEntity
  8
0
100
AcDbVertex
100
AcDbPolygonMeshVertex
 10
-0.569
 20
-0.77725
 30
-0.760222
 70
    64
  0
VERTEX
  5
6F9F3
100
AcDbEntity
  8
0
100
AcDbVertex
100
AcDbPolygonMeshVertex
 10
-0.569
 20
-0.77725
 30
-0.914222
 70
    64
  0
VERTEX
  5
6F9F4
100
AcDbEntity
  8
0
100
AcDbVertex
100
AcDbPolygonMeshVertex
 10
-0.569
 20
-0.77725
 30
-0.914222
 70
    64
  0
VERTEX
  5
6F9F5
100
AcDbEntity
  8
0
100
AcDbVertex
100
AcDbPolygonMeshVertex
 10
-0.885
 20
-0.77725
 30
-0.760222
 70
    64
  0
VERTEX
  5
6F9F6
100
AcDbEntity
  8
0
100
AcDbVertex
100
AcDbPolygonMeshVertex
 10
-0.885
 20
-0.77725
 30
-0.914222
 70
    64
  0
VERTEX
  5
6F9F7
100
AcDbEntity
  8
0
100
AcDbVertex
100
AcDbPolygonMeshVertex
 10
-0.885
 20
-0.77725
 30
-0.914222
 70
    64
  0
VERTEX
  5
6F9F8
100
AcDbEntity
  8
0
100
AcDbVertex
100
AcDbPolygonMeshVertex
 10
-0.885
 20
-0.40425
 30
-0.760222
 70
    64
  0
VERTEX
  5
6F9F9
100
AcDbEntity
  8
0
100
AcDbVertex
100
AcDbPolygonMeshVertex
 10
-0.885
 20
-0.40425
 30
-0.914222
 70
    64
  0
VERTEX
  5
6F9FA
100
AcDbEntity
  8
0
100
AcDbVertex
100
AcDbPolygonMeshVertex
 10
-0.885
 20
-0.77725
 30
-0.914222
 70
    64
  0
VERTEX
  5
6F9FB
100
AcDbEntity
  8
0
100
AcDbVertex
100
AcDbPolygonMeshVertex
 10
-0.569
 20
-0.40425
 30
-0.760222
 70
    64
  0
VERTEX
  5
6F9FC
100
AcDbEntity
  8
0
100
AcDbVertex
100
AcDbPolygonMeshVertex
 10
-0.569
 20
-0.40425
 30
-0.914222
 70
    64
  0
VERTEX
  5
6F9FD
100
AcDbEntity
  8
0
100
AcDbVertex
100
AcDbPolygonMeshVertex
 10
-0.569
 20
-0.77725
 30
-0.914222
 70
    64
  0
VERTEX
  5
6F9FE
100
AcDbEntity
  8
0
100
AcDbVertex
100
AcDbPolygonMeshVertex
 10
-0.569
 20
-0.40425
 30
-0.760222
 70
    64
  0
VERTEX
  5
6F9FF
100
AcDbEntity
  8
0
100
AcDbVertex
100
AcDbPolygonMeshVertex
 10
-0.569
 20
-0.40425
 30
-0.760222
 70
    64
  0
VERTEX
  5
6FA00
100
AcDbEntity
  8
0
100
AcDbVertex
100
AcDbPolygonMeshVertex
 10
-0.569
 20
-0.77725
 30
-0.760222
 70
    64
  0
VERTEX
  5
6FA01
100
AcDbEntity
  8
0
100
AcDbVertex
100
AcDbPolygonMeshVertex
 10
-0.885
 20
-0.40425
 30
-0.760222
 70
    64
  0
VERTEX
  5
6FA02
100
AcDbEntity
  8
0
100
AcDbVertex
100
AcDbPolygonMeshVertex
 10
-0.885
 20
-0.40425
 30
-0.760222
 70
    64
  0
VERTEX
  5
6FA03
100
AcDbEntity
  8
0
100
AcDbVertex
100
AcDbPolygonMeshVertex
 10
-0.885
 20
-0.77725
 30
-0.760222
 70
    64
  0
SEQEND
  5
6FA04
100
AcDbEntity
  8
0
  0
CIRCLE
  5
6FA05
100
AcDbEntity
  8
0
100
AcDbCircle
 39
0.1
 10
-0.727
 20
-0.59075
 30
-1.014222
 40
0.130519
  0
LINE
  5
6FA06
100
AcDbEntity
  8
0
100
AcDbLine
 10
-0.598023
 20
-0.61075
 30
-1.014222
 11
-0.855977
 21
-0.61075
 31
-1.014222
  0
LINE
  5
6FA07
100
AcDbEntity
  8
0
100
AcDbLine
 10
-0.598023
 20
-0.57075
 30
-1.014222
 11
-0.855977
 21
-0.57075
 31
-1.014222
  0
LINE
  5
6FA08
100
AcDbEntity
  8
0
100
AcDbLine
 10
0.0
 20
0.657
 30
0.0
 11
0.0
 21
0.657
 31
-1.04
210
0.0
220
0.0
230
-1.0
  0
LINE
  5
6FA09
100
AcDbEntity
  8
0
100
AcDbLine
 10
0.0
 20
0.515
 30
-1.04
 11
0.0
 21
0.515
 31
0.0
210
0.0
220
0.0
230
-1.0
  0
LINE
  5
6FA0A
100
AcDbEntity
  8
0
100
AcDbLine
 10
0.0
 20
-0.515
 30
0.0
 11
0.0
 21
-0.515
 31
-1.04
210
0.0
220
0.0
230
-1.0
  0
LINE
  5
6FA0B
100
AcDbEntity
  8
0
100
AcDbLine
 10
0.0
 20
-0.657
 30
-1.04
 11
0.0
 21
-0.657
 31
0.0
210
0.0
220
0.0
230
-1.0
  0
POLYLINE
  5
6FA0C
100
AcDbEntity
  8
0
100
AcDbPolygonMesh
 66
     1
 10
0.0
 20
0.0
 30
0.0
 70
    16
 71
     6
 72
     3
  0
VERTEX
  5
6FA0D
100
AcDbEntity
  8
0
100
AcDbVertex
100
AcDbPolygonMeshVertex
 10
-0.569
 20
0.77725
 30
-0.760222
 70
    64
  0
VERTEX
  5
6FA0E
100
AcDbEntity
  8
0
100
AcDbVertex
100
AcDbPolygonMeshVertex
 10
-0.569
 20
0.77725
 30
-0.914222
 70
    64
  0
VERTEX
  5
6FA0F
100
AcDbEntity
  8
0
100
AcDbVertex
100
AcDbPolygonMeshVertex
 10
-0.569
 20
0.77725
 30
-0.914222
 70
    64
  0
VERTEX
  5
6FA10
100
AcDbEntity
  8
0
100
AcDbVertex
100
AcDbPolygonMeshVertex
 10
-0.885
 20
0.77725
 30
-0.760222
 70
    64
  0
VERTEX
  5
6FA11
100
AcDbEntity
  8
0
100
AcDbVertex
100
AcDbPolygonMeshVertex
 10
-0.885
 20
0.77725
 30
-0.914222
 70
    64
  0
VERTEX
  5
6FA12
100
AcDbEntity
  8
0
100
AcDbVertex
100
AcDbPolygonMeshVertex
 10
-0.885
 20
0.77725
 30
-0.914222
 70
    64
  0
VERTEX
  5
6FA13
100
AcDbEntity
  8
0
100
AcDbVertex
100
AcDbPolygonMeshVertex
 10
-0.885
 20
0.40425
 30
-0.760222
 70
    64
  0
VERTEX
  5
6FA14
100
AcDbEntity
  8
0
100
AcDbVertex
100
AcDbPolygonMeshVertex
 10
-0.885
 20
0.40425
 30
-0.914222
 70
    64
  0
VERTEX
  5
6FA15
100
AcDbEntity
  8
0
100
AcDbVertex
100
AcDbPolygonMeshVertex
 10
-0.885
 20
0.77725
 30
-0.914222
 70
    64
  0
VERTEX
  5
6FA16
100
AcDbEntity
  8
0
100
AcDbVertex
100
AcDbPolygonMeshVertex
 10
-0.569
 20
0.40425
 30
-0.760222
 70
    64
  0
VERTEX
  5
6FA17
100
AcDbEntity
  8
0
100
AcDbVertex
100
AcDbPolygonMeshVertex
 10
-0.569
 20
0.40425
 30
-0.914222
 70
    64
  0
VERTEX
  5
6FA18
100
AcDbEntity
  8
0
100
AcDbVertex
100
AcDbPolygonMeshVertex
 10
-0.569
 20
0.77725
 30
-0.914222
 70
    64
  0
VERTEX
  5
6FA19
100
AcDbEntity
  8
0
100
AcDbVertex
100
AcDbPolygonMeshVertex
 10
-0.569
 20
0.40425
 30
-0.760222
 70
    64
  0
VERTEX
  5
6FA1A
100
AcDbEntity
  8
0
100
AcDbVertex
100
AcDbPolygonMeshVertex
 10
-0.569
 20
0.40425
 30
-0.760222
 70
    64
  0
VERTEX
  5
6FA1B
100
AcDbEntity
  8
0
100
AcDbVertex
100
AcDbPolygonMeshVertex
 10
-0.569
 20
0.77725
 30
-0.760222
 70
    64
  0
VERTEX
  5
6FA1C
100
AcDbEntity
  8
0
100
AcDbVertex
100
AcDbPolygonMeshVertex
 10
-0.885
 20
0.40425
 30
-0.760222
 70
    64
  0
VERTEX
  5
6FA1D
100
AcDbEntity
  8
0
100
AcDbVertex
100
AcDbPolygonMeshVertex
 10
-0.885
 20
0.40425
 30
-0.760222
 70
    64
  0
VERTEX
  5
6FA1E
100
AcDbEntity
  8
0
100
AcDbVertex
100
AcDbPolygonMeshVertex
 10
-0.885
 20
0.77725
 30
-0.760222
 70
    64
  0
SEQEND
  5
6FA1F
100
AcDbEntity
  8
0
  0
CIRCLE
  5
6FA20
100
AcDbEntity
  8
0
100
AcDbCircle
 39
0.1
 10
-0.727
 20
0.59075
 30
-1.014222
 40
0.130519
  0
POLYLINE
  5
6FA21
100
AcDbEntity
  8
0
100
AcDb3dPolyline
 66
     1
 10
0.0
 20
0.0
 30
0.0
 70
     8
  0
VERTEX
  5
6FA22
100
AcDbEntity
  8
0
100
AcDbVertex
100
AcDb3dPolylineVertex
 10
-0.471
 20
-0.142
 30
0.0
 70
    32
  0
VERTEX
  5
6FA23
100
AcDbEntity
  8
0
100
AcDbVertex
100
AcDb3dPolylineVertex
 10
0.0
 20
-0.142
 30
0.0
 70
    32
  0
VERTEX
  5
6FA24
100
AcDbEntity
  8
0
100
AcDbVertex
100
AcDb3dPolylineVertex
 10
0.0
 20
-0.142
 30
-0.198
 70
    32
  0
VERTEX
  5
6FA25
100
AcDbEntity
  8
0
100
AcDbVertex
100
AcDb3dPolylineVertex
 10
0.0
 20
0.142
 30
-0.198
 70
    32
  0
VERTEX
  5
6FA26
100
AcDbEntity
  8
0
100
AcDbVertex
100
AcDb3dPolylineVertex
 10
0.0
 20
0.142
 30
0.0
 70
    32
  0
VERTEX
  5
6FA27
100
AcDbEntity
  8
0
100
AcDbVertex
100
AcDb3dPolylineVertex
 10
-0.471
 20
0.142
 30
0.0
 70
    32
  0
SEQEND
  5
6FA28
100
AcDbEntity
  8
0
  0
POLYLINE
  5
6FA29
100
AcDbEntity
  8
0
100
AcDbPolygonMesh
 66
     1
 10
0.0
 20
0.0
 30
0.0
 70
    16
 71
     6
 72
     3
  0
VERTEX
  5
6FA2A
100
AcDbEntity
  8
0
100
AcDbVertex
100
AcDbPolygonMeshVertex
 10
0.12
 20
0.8085
 30
0.0
 70
    64
  0
VERTEX
  5
6FA2B
100
AcDbEntity
  8
0
100
AcDbVertex
100
AcDbPolygonMeshVertex
 10
0.12
 20
0.8085
 30
-0.282
 70
    64
  0
VERTEX
  5
6FA2C
100
AcDbEntity
  8
0
100
AcDbVertex
100
AcDbPolygonMeshVertex
 10
0.12
 20
0.8085
 30
-0.282
 70
    64
  0
VERTEX
  5
6FA2D
100
AcDbEntity
  8
0
100
AcDbVertex
100
AcDbPolygonMeshVertex
 10
0.12
 20
0.657
 30
0.0
 70
    64
  0
VERTEX
  5
6FA2E
100
AcDbEntity
  8
0
100
AcDbVertex
100
AcDbPolygonMeshVertex
 10
0.12
 20
0.657
 30
-0.282
 70
    64
  0
VERTEX
  5
6FA2F
100
AcDbEntity
  8
0
100
AcDbVertex
100
AcDbPolygonMeshVertex
 10
0.12
 20
0.657
 30
-0.282
 70
    64
  0
VERTEX
  5
6FA30
100
AcDbEntity
  8
0
100
AcDbVertex
100
AcDbPolygonMeshVertex
 10
0.0
 20
0.657
 30
0.0
 70
    64
  0
VERTEX
  5
6FA31
100
AcDbEntity
  8
0
100
AcDbVertex
100
AcDbPolygonMeshVertex
 10
0.0
 20
0.657
 30
-0.282
 70
    64
  0
VERTEX
  5
6FA32
100
AcDbEntity
  8
0
100
AcDbVertex
100
AcDbPolygonMeshVertex
 10
0.12
 20
0.657
 30
-0.282
 70
    64
  0
VERTEX
  5
6FA33
100
AcDbEntity
  8
0
100
AcDbVertex
100
AcDbPolygonMeshVertex
 10
0.0
 20
0.8085
 30
0.0
 70
    64
  0
VERTEX
  5
6FA34
100
AcDbEntity
  8
0
100
AcDbVertex
100
AcDbPolygonMeshVertex
 10
0.0
 20
0.8085
 30
-0.282
 70
    64
  0
VERTEX
  5
6FA35
100
AcDbEntity
  8
0
100
AcDbVertex
100
AcDbPolygonMeshVertex
 10
0.12
 20
0.8085
 30
-0.282
 70
    64
  0
VERTEX
  5
6FA36
100
AcDbEntity
  8
0
100
AcDbVertex
100
AcDbPolygonMeshVertex
 10
0.0
 20
0.8085
 30
0.0
 70
    64
  0
VERTEX
  5
6FA37
100
AcDbEntity
  8
0
100
AcDbVertex
100
AcDbPolygonMeshVertex
 10
0.0
 20
0.8085
 30
0.0
 70
    64
  0
VERTEX
  5
6FA38
100
AcDbEntity
  8
0
100
AcDbVertex
100
AcDbPolygonMeshVertex
 10
0.12
 20
0.8085
 30
0.0
 70
    64
  0
VERTEX
  5
6FA39
100
AcDbEntity
  8
0
100
AcDbVertex
100
AcDbPolygonMeshVertex
 10
0.0
 20
0.657
 30
0.0
 70
    64
  0
VERTEX
  5
6FA3A
100
AcDbEntity
  8
0
100
AcDbVertex
100
AcDbPolygonMeshVertex
 10
0.0
 20
0.657
 30
0.0
 70
    64
  0
VERTEX
  5
6FA3B
100
AcDbEntity
  8
0
100
AcDbVertex
100
AcDbPolygonMeshVertex
 10
0.12
 20
0.657
 30
0.0
 70
    64
  0
SEQEND
  5
6FA3C
100
AcDbEntity
  8
0
  0
POLYLINE
  5
6FA3D
100
AcDbEntity
  8
0
100
AcDbPolygonMesh
 66
     1
 10
0.0
 20
0.0
 30
0.0
 70
    16
 71
     6
 72
     3
  0
VERTEX
  5
6FA3E
100
AcDbEntity
  8
0
100
AcDbVertex
100
AcDbPolygonMeshVertex
 10
0.12
 20
-0.3635
 30
0.0
 70
    64
  0
VERTEX
  5
6FA3F
100
AcDbEntity
  8
0
100
AcDbVertex
100
AcDbPolygonMeshVertex
 10
0.12
 20
-0.3635
 30
-0.282
 70
    64
  0
VERTEX
  5
6FA40
100
AcDbEntity
  8
0
100
AcDbVertex
100
AcDbPolygonMeshVertex
 10
0.12
 20
-0.3635
 30
-0.282
 70
    64
  0
VERTEX
  5
6FA41
100
AcDbEntity
  8
0
100
AcDbVertex
100
AcDbPolygonMeshVertex
 10
0.12
 20
-0.515
 30
0.0
 70
    64
  0
VERTEX
  5
6FA42
100
AcDbEntity
  8
0
100
AcDbVertex
100
AcDbPolygonMeshVertex
 10
0.12
 20
-0.515
 30
-0.282
 70
    64
  0
VERTEX
  5
6FA43
100
AcDbEntity
  8
0
100
AcDbVertex
100
AcDbPolygonMeshVertex
 10
0.12
 20
-0.515
 30
-0.282
 70
    64
  0
VERTEX
  5
6FA44
100
AcDbEntity
  8
0
100
AcDbVertex
100
AcDbPolygonMeshVertex
 10
0.0
 20
-0.515
 30
0.0
 70
    64
  0
VERTEX
  5
6FA45
100
AcDbEntity
  8
0
100
AcDbVertex
100
AcDbPolygonMeshVertex
 10
0.0
 20
-0.515
 30
-0.282
 70
    64
  0
VERTEX
  5
6FA46
100
AcDbEntity
  8
0
100
AcDbVertex
100
AcDbPolygonMeshVertex
 10
0.12
 20
-0.515
 30
-0.282
 70
    64
  0
VERTEX
  5
6FA47
100
AcDbEntity
  8
0
100
AcDbVertex
100
AcDbPolygonMeshVertex
 10
0.0
 20
-0.3635
 30
0.0
 70
    64
  0
VERTEX
  5
6FA48
100
AcDbEntity
  8
0
100
AcDbVertex
100
AcDbPolygonMeshVertex
 10
0.0
 20
-0.3635
 30
-0.282
 70
    64
  0
VERTEX
  5
6FA49
100
AcDbEntity
  8
0
100
AcDbVertex
100
AcDbPolygonMeshVertex
 10
0.12
 20
-0.3635
 30
-0.282
 70
    64
  0
VERTEX
  5
6FA4A
100
AcDbEntity
  8
0
100
AcDbVertex
100
AcDbPolygonMeshVertex
 10
0.0
 20
-0.3635
 30
0.0
 70
    64
  0
VERTEX
  5
6FA4B
100
AcDbEntity
  8
0
100
AcDbVertex
100
AcDbPolygonMeshVertex
 10
0.0
 20
-0.3635
 30
0.0
 70
    64
  0
VERTEX
  5
6FA4C
100
AcDbEntity
  8
0
100
AcDbVertex
100
AcDbPolygonMeshVertex
 10
0.12
 20
-0.3635
 30
0.0
 70
    64
  0
VERTEX
  5
6FA4D
100
AcDbEntity
  8
0
100
AcDbVertex
100
AcDbPolygonMeshVertex
 10
0.0
 20
-0.515
 30
0.0
 70
    64
  0
VERTEX
  5
6FA4E
100
AcDbEntity
  8
0
100
AcDbVertex
100
AcDbPolygonMeshVertex
 10
0.0
 20
-0.515
 30
0.0
 70
    64
  0
VERTEX
  5
6FA4F
100
AcDbEntity
  8
0
100
AcDbVertex
100
AcDbPolygonMeshVertex
 10
0.12
 20
-0.515
 30
0.0
 70
    64
  0
SEQEND
  5
6FA50
100
AcDbEntity
  8
0
  0
ARC
  5
6FA51
100
AcDbEntity
  8
0
100
AcDbCircle
 10
0.0
 20
-0.586
 30
-1.04
 40
0.221
100
AcDbArc
 50
90.0
 51
270.0
  0
ARC
  5
6FA52
100
AcDbEntity
  8
0
100
AcDbCircle
 10
0.0
 20
0.586
 30
-1.04
 40
0.221
100
AcDbArc
 50
90.0
 51
270.0
  0
ATTDEF
  5
6FA53
100
AcDbEntity
  8
ATTRIBUTES
100
AcDbText
 10
-0.454614
 20
0.200069
 30
0.0
 40
0.026002
  1
ALLEN-BRADLEY
100
AcDbAttributeDefinition
  3
MANUFACTURER NAME?
  2
AC_VND_LABEL
 70
     0
  0
ATTDEF
  5
6FA54
100
AcDbEntity
  8
ATTRIBUTES
100
AcDbText
 10
-0.454614
 20
0.145899
 30
0.0
 40
0.026002
  1
800T-NL24/32/10
100
AcDbAttributeDefinition
  3
CATALOG NUMBER?
  2
AC_PART_NO
 70
     0
  0
ATTDEF
  5
6FA55
100
AcDbEntity
  8
ATTRIBUTES
100
AcDbText
 10
-0.454614
 20
0.091729
 30
0.0
 40
0.026002
  1
NEMA LED POWER MODULE
100
AcDbAttributeDefinition
  3
PART DESCRIPTION?
  2
AC_DESCRIPTION
 70
     0
  0
ATTDEF
  5
6FA56
100
AcDbEntity
  8
ATTRIBUTES
100
AcDbText
 10
-0.454614
 20
0.037559
 30
0.0
 40
0.026002
  1

100
AcDbAttributeDefinition
  3
DEVICE ID?
  2
DEVICE_ID
 70
     0
  0
ATTDEF
  5
6FA57
100
AcDbEntity
  8
ATTRIBUTES
100
AcDbText
 10
-0.454614
 20
-0.016612
 30
0.0
 40
0.026002
  1

100
AcDbAttributeDefinition
  3
CUSTOMER PART NUMBER?
  2
AC_CPART_NO
 70
     0
  0
ATTDEF
  5
6FA58
100
AcDbEntity
  8
ATTRIBUTES
100
AcDbText
 10
-0.454614
 20
-0.070782
 30
0.0
 40
0.026002
  1

100
AcDbAttributeDefinition
  3
CUSTOMER NOTE?
  2
AC_NOTE
 70
     0
  0
ATTDEF
  5
6FA59
100
AcDbEntity
  8
ATTRIBUTES
100
AcDbText
 10
-0.454614
 20
-0.124952
 30
0.0
 40
0.026002
  1

100
AcDbAttributeDefinition
  3
FASTENER DATA?
  2
FASTENER
 70
     0
  0
ATTDEF
  5
6FA5A
100
AcDbEntity
  8
ATTRIBUTES
100
AcDbText
 10
-0.454614
 20
-0.179123
 30
0.0
 40
0.026002
  1

100
AcDbAttributeDefinition
  3
UNIT OF SCALE?
  2
AC_SCALE_UNIT
 70
     0
  0
ATTDEF
  5
6FA5B
100
AcDbEntity
  8
ATTRIBUTES
100
AcDbText
 10
-0.454614
 20
-0.233293
 30
0.0
 40
0.026002
  1

100
AcDbAttributeDefinition
  3
VIEW CODE?
  2
AC_VIEW_CODE
 70
     0
  0
DIMENSION
  5
6FA5C
100
AcDbEntity
  8
AREA1
100
AcDbDimension
  2
*D0
 10
-1.303901
 20
0.892
 30
0.0
 11
-1.303901
 21
0.004172
 31
0.0
 70
   160
  3
ABECAD_3V
100
AcDbAlignedDimension
 13
-1.006
 23
-0.892
 33
-0.145
 14
-1.006
 24
0.892
 34
-0.145
 50
90.0
100
AcDbRotatedDimension
1001
ACAD
1000
DSTYLE
1002
{
1070
    40
1040
0.636521
1002
}
  0
DIMENSION
  5
6FA5D
100
AcDbEntity
  8
AREA1
100
AcDbDimension
  2
*D1
 10
0.12
 20
1.141945
 30
0.0
 11
-0.47113
 21
1.342335
 31
0.0
 70
   160
  3
ABECAD_3V
100
AcDbAlignedDimension
 13
-1.006
 23
0.892
 33
-0.145
 14
0.12
 24
0.8085
 34
0.0
100
AcDbRotatedDimension
1001
ACAD
1000
DSTYLE
1002
{
1070
    40
1040
0.636521
1002
}
  0
LWPOLYLINE
  5
6FA5E
100
AcDbEntity
  8
SCALE
100
AcDbPolyline
 90
        4
 70
     1
 43
0.0
 10
0.331639
 20
-0.014952
 10
1.467268
 20
-0.014952
 10
1.467268
 20
-0.856562
 10
0.331639
 20
-0.856562
  0
LINE
  5
6FA5F
100
AcDbEntity
  8
SCALE
100
AcDbLine
 10
0.389638
 20
-0.39503
 30
0.0
 11
1.389638
 21
-0.39503
 31
0.0
  0
LINE
  5
6FA60
100
AcDbEntity
  8
SCALE
100
AcDbLine
 10
0.389638
 20
-0.69503
 30
0.0
 11
0.783338
 21
-0.69503
 31
0.0
  0
LINE
  5
6FA61
100
AcDbEntity
  8
SCALE
100
AcDbLine
 10
0.389638
 20
-0.49503
 30
0.0
 11
0.389638
 21
-0.29503
 31
0.0
  0
TEXT
  5
6FA62
100
AcDbEntity
  8
SCALE
100
AcDbText
 10
0.445614
 20
-0.647345
 30
0.0
 40
0.0625
  1
[10mm]
100
AcDbText
  0
LINE
  5
6FA63
100
AcDbEntity
  8
SCALE
100
AcDbLine
 10
0.389638
 20
-0.79503
 30
0.0
 11
0.389638
 21
-0.59503
 31
0.0
  0
TEXT
  5
6FA64
100
AcDbEntity
  8
SCALE
100
AcDbText
 10
0.391168
 20
-0.120153
 30
0.0
 40
0.0625
  1
SCALE:
100
AcDbText
  0
LINE
  5
6FA65
100
AcDbEntity
  8
SCALE
100
AcDbLine
 10
0.783338
 20
-0.79503
 30
0.0
 11
0.783338
 21
-0.59503
 31
0.0
  0
TEXT
  5
6FA66
100
AcDbEntity
  8
SCALE
100
AcDbText
 10
0.752921
 20
-0.325982
 30
0.0
 40
0.0625
  1
1 Inch
100
AcDbText
  0
LINE
  5
6FA67
100
AcDbEntity
  8
SCALE
100
AcDbLine
 10
1.389638
 20
-0.39503
 30
0.0
 11
1.389638
 21
-0.49503
 31
0.0
  0
LINE
  5
6FA68
100
AcDbEntity
  8
SCALE
100
AcDbLine
 10
1.389638
 20
-0.49503
 30
0.0
 11
1.389638
 21
-0.29503
 31
0.0
  0
DIMENSION
  5
6FA93
100
AcDbEntity
  8
AREA2
100
AcDbDimension
  2
*D2
 10
-1.255093
 20
0.0
 30
0.0
 11
-1.255093
 21
-0.501836
 31
0.0
 70
   160
210
0.0
220
-1.0
230
0.0
  3
ABECAD_3V
100
AcDbAlignedDimension
 13
-0.569
 23
-0.892
 33
-1.04
 14
-0.569
 24
-0.892
 34
0.0
 50
90.0
100
AcDbRotatedDimension
1001
ACAD
1000
DSTYLE
1002
{
1070
    40
1040
0.636521
1002
}
  0
VIEWPORT
  5
2C
102
{ACAD_XDICTIONARY
360
6FCDA
102
}
100
AcDbEntity
 67
     1
  8
0
100
AcDbViewport
 10
4.999849
 20
3.750155
 30
0.0
 40
13.389022
 41
7.577951
 68
     1
 69
     1
1001
ACAD
1000
MVIEW
1002
{
1070
    16
1010
0.0
1020
0.0
1030
0.0
1010
0.0
1020
0.0
1030
1.0
1040
0.0
1040
7.577951
1040
4.999849
1040
3.750155
1040
50.0
1040
0.0
1040
0.0
1070
     0
1070
   100
1070
     1
1070
     1
1070
     0
1070
     0
1070
     0
1070
     0
1040
0.0
1040
0.0
1040
0.0
1040
1.0
1040
1.0
1040
0.0
1040
0.0
1070
     0
1002
{
1002
}
1002
}
  0
VIEWPORT
  5
2D
102
{ACAD_XDICTIONARY
360
6FCDC
102
}
100
AcDbEntity
 67
     1
  8
0
100
AcDbViewport
 10
2.5
 20
5.625
 30
0.0
 40
5.0
 41
3.75
 68
     2
 69
     2
1001
ACAD
1000
MVIEW
1002
{
1070
    16
1010
0.0
1020
0.0
1030
0.0
1010
0.0
1020
0.0
1030
1.0
1040
0.0
1040
2.386953
1040
-0.458773
1040
0.24512
1040
50.0
1040
0.0
1040
0.0
1070
     0
1070
   100
1070
     1
1070
     0
1070
     0
1070
     0
1070
     0
1070
     0
1040
0.0
1040
0.0
1040
0.0
1040
1.0
1040
1.0
1040
0.0
1040
0.0
1070
     0
1002
{
1003
AREA2
1002
}
1002
}
  0
VIEWPORT
  5
2E
102
{ACAD_XDICTIONARY
360
6FCDE
102
}
100
AcDbEntity
 67
     1
  8
0
100
AcDbViewport
 10
2.5
 20
1.875
 30
0.0
 40
5.0
 41
3.75
 68
     3
 69
     3
1001
ACAD
1000
MVIEW
1002
{
1070
    16
1010
0.0
1020
0.0
1030
0.0
1010
0.0
1020
-1.0
1030
0.0
1040
0.0
1040
2.379633
1040
-0.465996
1040
-0.374892
1040
50.0
1040
0.0
1040
0.0
1070
     0
1070
   100
1070
     1
1070
     0
1070
     0
1070
     0
1070
     0
1070
     0
1040
0.0
1040
0.0
1040
0.0
1040
1.0
1040
1.0
1040
0.0
1040
0.0
1070
     0
1002
{
1003
AREA1
1002
}
1002
}
  0
VIEWPORT
  5
2F
102
{ACAD_XDICTIONARY
360
6FCE0
102
}
100
AcDbEntity
 67
     1
  8
0
100
AcDbViewport
 10
7.5
 20
3.75
 30
0.0
 40
5.0
 41
7.5
 68
     4
 69
     4
1001
ACAD
1000
MVIEW
1002
{
1070
    16
1010
0.0
1020
0.0
1030
0.0
1010
-1.0
1020
-1.0
1030
1.0
1040
0.0
1040
3.645594
1040
-0.284541
1040
-0.397829
1040
50.0
1040
0.0
1040
0.0
1070
     0
1070
   100
1070
     1
1070
     0
1070
     0
1070
     0
1070
     0
1070
     0
1040
0.0
1040
0.0
1040
0.0
1040
1.0
1040
1.0
1040
0.0
1040
0.0
1070
     0
1002
{
1003
AREA1
1003
AREA2
1002
}
1002
}
  0
TEXT
  5
42D
100
AcDbEntity
 67
     1
  8
0
100
AcDbText
 10
5.253785
 20
7.092701
 30
0.0
 40
0.2
  1

100
AcDbText
  0
TEXT
  5
431
100
AcDbEntity
 67
     1
  8
0
100
AcDbText
 10
5.253785
 20
6.759368
 30
0.0
 40
0.2
  1

100
AcDbText
1001
ACAD
1000
R13OBJECT
1002
{
1005
42D
1002
}
  0
TEXT
  5
11D16
100
AcDbEntity
 67
     1
  8
AREA2
100
AcDbText
 10
5.101109
 20
7.152637
 30
0.0
 40
0.2
  1
800T-NL24/32/10
100
AcDbText
  0
TEXT
  5
24C0A
100
AcDbEntity
 67
     1
  8
AREA2
100
AcDbText
 10
5.101109
 20
6.881437
 30
0.0
 40
0.2
  1
NEMA LED POWER MODULE
100
AcDbText
  0
TEXT
  5
2F662
100
AcDbEntity
 67
     1
  8
AREA2
100
AcDbText
 10
5.101109
 20
6.599834
 30
0.0
 40
0.2
  1

100
AcDbText
  0
TEXT
  5
4B785
100
AcDbEntity
 67
     1
  8
AREA2
100
AcDbText
 10
5.101109
 20
6.310076
 30
0.0
 40
0.2
  1

100
AcDbText
  0
TEXT
  5
64888
100
AcDbEntity
 67
     1
  8
AREA2
100
AcDbText
 10
5.101109
 20
6.317557
 30
0.0
 40
0.2
  1

100
AcDbText
  0
TEXT
  5
651DC
100
AcDbEntity
 67
     1
  8
AREA2
100
AcDbText
 10
5.101109
 20
6.599161
 30
0.0
 40
0.2
  1

100
AcDbText
  0
TEXT
  5
65724
100
AcDbEntity
 67
     1
  8
AREA2
100
AcDbText
 10
5.101109
 20
6.331741
 30
0.0
 40
0.2
  1

100
AcDbText
  0
TEXT
  5
65FDD
100
AcDbEntity
 67
     1
  8
AREA2
100
AcDbText
 10
5.101109
 20
6.302028
 30
0.0
 40
0.2
  1

100
AcDbText
  0
TEXT
  5
66E77
100
AcDbEntity
 67
     1
  8
AREA2
100
AcDbText
 10
5.101109
 20
6.318596
 30
0.0
 40
0.2
  1

100
AcDbText
  0
TEXT
  5
67914
100
AcDbEntity
 67
     1
  8
AREA2
100
AcDbText
 10
5.101109
 20
6.591198
 30
0.0
 40
0.2
  1

100
AcDbText
  0
TEXT
  5
691A5
100
AcDbEntity
 67
     1
  8
AREA2
100
AcDbText
 10
5.101109
 20
6.289433
 30
0.0
 40
0.2
  1

100
AcDbText
  0
TEXT
  5
699EC
100
AcDbEntity
 67
     1
  8
AREA2
100
AcDbText
 10
5.101109
 20
6.275064
 30
0.0
 40
0.2
  1

100
AcDbText
  0
TEXT
  5
6AB31
100
AcDbEntity
 67
     1
  8
AREA2
100
AcDbText
 10
5.101109
 20
6.303803
 30
0.0
 40
0.2
  1

100
AcDbText
  0
TEXT
  5
6C3EC
100
AcDbEntity
 67
     1
  8
AREA2
100
AcDbText
 10
5.101109
 20
6.302592
 30
0.0
 40
0.2
  1

100
AcDbText
  0
TEXT
  5
6D015
100
AcDbEntity
 67
     1
  8
AREA2
100
AcDbText
 10
5.101109
 20
6.288162
 30
0.0
 40
0.2
  1

100
AcDbText
  0
TEXT
  5
6DB77
100
AcDbEntity
 67
     1
  8
AREA2
100
AcDbText
 10
5.101109
 20
6.288162
 30
0.0
 40
0.2
  1

100
AcDbText
  0
TEXT
  5
6E29A
100
AcDbEntity
 67
     1
  8
AREA2
100
AcDbText
 10
5.101109
 20
5.999555
 30
0.0
 40
0.2
  1

100
AcDbText
  0
ENDSEC
  0
SECTION
  2
OBJECTS
  0
DICTIONARY
  5
46D
100
AcDbDictionary
  3
ACAD_GROUP
350
46E
  3
ACAD_LAYOUT
350
49E
  3
ACAD_MLINESTYLE
350
47B
  3
ACAD_PLOTSETTINGS
350
49F
  3
ACAD_PLOTSTYLENAME
350
49C
  3
ACDBHEADERROUNDTRIPXREC
350
6FCB9
  3
ACDBVARIABLEDICTIONARY
350
48D
  0
DICTIONARY
  5
6FCB7
100
AcDbDictionary
280
     1
  3
ACAD_XREC_ROUNDTRIP
360
6FCB8
  0
DICTIONARY
  5
6FCE4
100
AcDbDictionary
280
     1
  3
ACAD_XREC_ROUNDTRIP
360
6FCE5
  0
DICTIONARY
  5
6FCE6
100
AcDbDictionary
280
     1
  3
ACAD_XREC_ROUNDTRIP
360
6FCE7
  0
DICTIONARY
  5
6FCEA
100
AcDbDictionary
280
     1
  3
ACAD_XREC_ROUNDTRIP
360
6FCEB
  0
DICTIONARY
  5
4D2
100
AcDbDictionary
280
     1
  3
ACAD_LAYOUTSELFREF
360
6FCE3
  0
DICTIONARY
  5
4D0
100
AcDbDictionary
280
     1
  3
ACAD_LAYOUTSELFREF
360
6FCE2
  0
DICTIONARY
  5
6FCDA
100
AcDbDictionary
280
     1
  3
ACAD_XREC_ROUNDTRIP
360
6FCDB
  0
DICTIONARY
  5
6FCDC
100
AcDbDictionary
280
     1
  3
ACAD_XREC_ROUNDTRIP
360
6FCDD
  0
DICTIONARY
  5
6FCDE
100
AcDbDictionary
280
     1
  3
ACAD_XREC_ROUNDTRIP
360
6FCDF
  0
DICTIONARY
  5
6FCE0
100
AcDbDictionary
280
     1
  3
ACAD_XREC_ROUNDTRIP
360
6FCE1
  0
DICTIONARY
  5
46E
102
{ACAD_REACTORS
330
46D
102
}
100
AcDbDictionary
  0
DICTIONARY
  5
49E
102
{ACAD_XDICTIONARY
360
6FCE8
102
}
102
{ACAD_REACTORS
330
46D
102
}
100
AcDbDictionary
  3
LAYOUT1
350
4A1
  3
MODEL
350
4A0
  0
DICTIONARY
  5
47B
102
{ACAD_REACTORS
330
46D
102
}
100
AcDbDictionary
  3
STANDARD
350
47C
  0
DICTIONARY
  5
49F
102
{ACAD_REACTORS
330
46D
102
}
100
AcDbDictionary
  0
ACAD_PROXY_OBJECT
  5
49C
102
{ACAD_REACTORS
330
46D
102
}
100
AcDbProxyObject
 90
      499
 91
      501
 93
       86
310
405010041939BDC9B585B1
350
49D
340
49D
 94
        0
  0
DICTIONARY
  5
6FCB9
102
{ACAD_REACTORS
330
46D
102
}
100
AcDbDictionary
  3
CEPSNTYPE
350
6FCC3
  3
DIMSTYLEDATA
350
6FCC7
  3
FINGERPRINTGUID
350
6FCC4
  3
HYPERLINKBASE
350
6FCBC
  3
INSUNITS
350
6FCC2
  3
LAYOUTDICT
350
6FCBE
  3
LWETCUNION
350
6FCC1
  3
PLOTSETDICT
350
6FCBF
  3
PLOTSTYLNAMDICT
350
6FCC0
  3
PSVPSCALE
350
6FCC6
  3
PUCSBASE
350
6FCCA
  3
PUCSORGBACK
350
6FCD0
  3
PUCSORGBOTTOM
350
6FCCC
  3
PUCSORGFRONT
350
6FCCF
  3
PUCSORGLEFT
350
6FCCD
  3
PUCSORGRIGHT
350
6FCCE
  3
PUCSORGTOP
350
6FCCB
  3
PUCSORTHOREF
350
6FCC8
  3
PUCSORTHOVIEW
350
6FCC9
  3
STYLESHEET
350
6FCBD
  3
TSTACKALIGN
350
6FCBA
  3
TSTACKSIZE
350
6FCBB
  3
UCSBASE
350
6FCD3
  3
UCSORGBACK
350
6FCD9
  3
UCSORGBOTTOM
350
6FCD5
  3
UCSORGFRONT
350
6FCD8
  3
UCSORGLEFT
350
6FCD6
  3
UCSORGRIGHT
350
6FCD7
  3
UCSORGTOP
350
6FCD4
  3
UCSORTHOREF
350
6FCD1
  3
UCSORTHOVIEW
350
6FCD2
  3
VERSIONGUID
350
6FCC5
  0
DICTIONARY
  5
48D
102
{ACAD_REACTORS
330
46D
102
}
100
AcDbDictionary
  3
DIMADEC
350
48E
  0
XRECORD
  5
6FCB8
102
{ACAD_REACTORS
330
6FCB7
102
}
100
AcDbXrecord
102
EXTNAMES
  1
*ACTIVE
  2
*Active
102
UCS
 74
     0
 71
     1
 10
0.0
 20
0.0
 30
0.0
 10
1.0
 20
0.0
 30
0.0
 10
0.0
 20
1.0
 30
0.0
146
0.0
 79
     1
102
VIEW
281
     1
  0
XRECORD
  5
6FCE5
102
{ACAD_REACTORS
330
6FCE4
102
}
100
AcDbXrecord
102
PLOTBIT
280
     0
  0
XRECORD
  5
6FCE7
102
{ACAD_REACTORS
330
6FCE6
102
}
100
AcDbXrecord
102
ACADR14ROUNDTRIP
1000
DSTYLE
1002
{
1070
   276
 70
     2
1070
   277
 70
     5
1070
   279
 70
     2
1002
}
  0
XRECORD
  5
6FCEB
102
{ACAD_REACTORS
330
6FCEA
102
}
100
AcDbXrecord
102
ACADR14ROUNDTRIP
1000
DSTYLE
1002
{
1070
   276
 70
     2
1070
   277
 70
     5
1070
   279
 70
     2
1070
   289
 70
     2
1002
}
  0
XRECORD
  5
6FCE3
102
{ACAD_REACTORS
330
4D2
102
}
100
AcDbXrecord
340
478
  0
XRECORD
  5
6FCE2
102
{ACAD_REACTORS
330
4D0
102
}
100
AcDbXrecord
340
475
  0
XRECORD
  5
6FCDB
102
{ACAD_REACTORS
330
6FCDA
102
}
100
AcDbXrecord
102
UCS
 74
     0
 71
     1
 10
0.0
 20
0.0
 30
0.0
 10
1.0
 20
0.0
 30
0.0
 10
0.0
 20
1.0
 30
0.0
146
0.0
 79
     0
102
VIEW
281
     0
102
NEWVIEWCONTROL
280
     4
  0
XRECORD
  5
6FCDD
102
{ACAD_REACTORS
330
6FCDC
102
}
100
AcDbXrecord
102
UCS
 74
     0
 71
     1
 10
0.0
 20
0.0
 30
0.0
 10
1.0
 20
0.0
 30
0.0
 10
0.0
 20
1.0
 30
0.0
146
0.0
 79
     1
102
VIEW
281
     0
102
NEWVIEWCONTROL
280
     4
  0
XRECORD
  5
6FCDF
102
{ACAD_REACTORS
330
6FCDE
102
}
100
AcDbXrecord
102
UCS
 74
     0
 71
     1
 10
0.0
 20
0.0
 30
0.0
 10
1.0
 20
0.0
 30
0.0
 10
0.0
 20
0.0
 30
1.0
146
0.0
 79
     3
102
VIEW
281
     0
102
NEWVIEWCONTROL
280
     4
  0
XRECORD
  5
6FCE1
102
{ACAD_REACTORS
330
6FCE0
102
}
100
AcDbXrecord
102
UCS
 74
     0
 71
     1
 10
0.0
 20
0.0
 30
0.0
 10
1.0
 20
0.0
 30
0.0
 10
0.0
 20
1.0
 30
0.0
146
0.0
 79
     0
102
VIEW
281
     0
102
NEWVIEWCONTROL
280
     4
  0
DICTIONARY
  5
6FCE8
100
AcDbDictionary
280
     1
  3
ACAD_XREC_ROUNDTRIP
360
6FCE9
  0
ACAD_PROXY_OBJECT
  5
4A1
102
{ACAD_REACTORS
330
49E
102
}
100
AcDbProxyObject
 90
      499
 91
      503
 93
     2044
310
91D4850204C617365724A65742035303030205365726965732050434C20362C008000000C0BB1B1440000000102F06C510000000000BC1B1440000000002E06C5100000000C0CCFC6A4000000018199D9C501064C6574746572A901406AA427D84144352EEE3F47D11959985D5B1D08148C4D081C195B88185CDCDA59DB9B5
310
95B9D1CCB98DD18A30EDE3B1BBFDBC0FC1D572C8D6D0C833F1A2B3054E9249F0FD074C61796F75743140501A97D7DB4AA43C31EFF91E46EBA53B71EFD1F32A15809809100B6537F8EAD447D02A6A6A00200C0093BD106FC0000F06EE366FABE0000062F4BFDFDEF04424FF2920002440160B7F435600079000000D06409610
310
63D0
330
475
330
2C
340
0
340
0
 94
        0
  0
ACAD_PROXY_OBJECT
  5
4A0
102
{ACAD_REACTORS
330
49E
102
}
100
AcDbProxyObject
 90
      499
 91
      503
 93
      924
310
91D4850204C617365724A65742035303030205365726965732050434C20362C01AAAAAAAAA547D11959985D5B1D08148C4D081C195B88185CDCDA59DB9B595B9D1CCB98DD18A69054D6F64656C901A800000000000000000000000000000000000000000000A1000000000000008902A6A6AAAA0
330
478
330
0
340
0
340
0
 94
        0
  0
MLINESTYLE
  5
47C
102
{ACAD_REACTORS
330
47B
102
}
100
AcDbMlineStyle
  2
STANDARD
 70
     0
  3

 62
   256
 51
90.0
 52
90.0
 71
     2
 49
0.5
 62
   256
  6
BYLAYER
 49
-0.5
 62
   256
  6
BYLAYER
  0
ACAD_PROXY_OBJECT
  5
49D
102
{ACAD_REACTORS
330
49C
102
}
100
AcDbProxyObject
 90
      499
 91
      502
 93
        0
 94
        0
  0
XRECORD
  5
6FCC3
102
{ACAD_REACTORS
330
6FCB9
102
}
100
AcDbXrecord
 90
        0
  0
XRECORD
  5
6FCC7
102
{ACAD_REACTORS
330
6FCB9
102
}
100
AcDbXrecord
1000
DSTYLE
1002
{
1070
   276
 70
     2
1070
   277
 70
     5
1070
   279
 70
     2
1002
}
  0
XRECORD
  5
6FCC4
102
{ACAD_REACTORS
330
6FCB9
102
}
100
AcDbXrecord
  1
{6E0CF4B5-225E-11D4-A150-00A0CC3303EC}
  0
XRECORD
  5
6FCBC
102
{ACAD_REACTORS
330
6FCB9
102
}
100
AcDbXrecord
  1

  0
XRECORD
  5
6FCC2
102
{ACAD_REACTORS
330
6FCB9
102
}
100
AcDbXrecord
 90
        0
  0
XRECORD
  5
6FCBE
102
{ACAD_REACTORS
330
6FCB9
102
}
100
AcDbXrecord
340
49E
  0
XRECORD
  5
6FCC1
102
{ACAD_REACTORS
330
6FCB9
102
}
100
AcDbXrecord
 90
    14877
  0
XRECORD
  5
6FCBF
102
{ACAD_REACTORS
330
6FCB9
102
}
100
AcDbXrecord
340
49F
  0
XRECORD
  5
6FCC0
102
{ACAD_REACTORS
330
6FCB9
102
}
100
AcDbXrecord
340
49C
  0
XRECORD
  5
6FCC6
102
{ACAD_REACTORS
330
6FCB9
102
}
100
AcDbXrecord
 40
0.0
  0
XRECORD
  5
6FCCA
102
{ACAD_REACTORS
330
6FCB9
102
}
100
AcDbXrecord
340
0
  0
XRECORD
  5
6FCD0
102
{ACAD_REACTORS
330
6FCB9
102
}
100
AcDbXrecord
 10
0.0
 20
0.0
 30
0.0
  0
XRECORD
  5
6FCCC
102
{ACAD_REACTORS
330
6FCB9
102
}
100
AcDbXrecord
 10
0.0
 20
0.0
 30
0.0
  0
XRECORD
  5
6FCCF
102
{ACAD_REACTORS
330
6FCB9
102
}
100
AcDbXrecord
 10
0.0
 20
0.0
 30
0.0
  0
XRECORD
  5
6FCCD
102
{ACAD_REACTORS
330
6FCB9
102
}
100
AcDbXrecord
 10
0.0
 20
0.0
 30
0.0
  0
XRECORD
  5
6FCCE
102
{ACAD_REACTORS
330
6FCB9
102
}
100
AcDbXrecord
 10
0.0
 20
0.0
 30
0.0
  0
XRECORD
  5
6FCCB
102
{ACAD_REACTORS
330
6FCB9
102
}
100
AcDbXrecord
 10
0.0
 20
0.0
 30
0.0
  0
XRECORD
  5
6FCC8
102
{ACAD_REACTORS
330
6FCB9
102
}
100
AcDbXrecord
340
0
  0
XRECORD
  5
6FCC9
102
{ACAD_REACTORS
330
6FCB9
102
}
100
AcDbXrecord
 70
     0
  0
XRECORD
  5
6FCBD
102
{ACAD_REACTORS
330
6FCB9
102
}
100
AcDbXrecord
  1

  0
XRECORD
  5
6FCBA
102
{ACAD_REACTORS
330
6FCB9
102
}
100
AcDbXrecord
 90
        1
  0
XRECORD
  5
6FCBB
102
{ACAD_REACTORS
330
6FCB9
102
}
100
AcDbXrecord
 90
       70
  0
XRECORD
  5
6FCD3
102
{ACAD_REACTORS
330
6FCB9
102
}
100
AcDbXrecord
340
0
  0
XRECORD
  5
6FCD9
102
{ACAD_REACTORS
330
6FCB9
102
}
100
AcDbXrecord
 10
0.0
 20
0.0
 30
0.0
  0
XRECORD
  5
6FCD5
102
{ACAD_REACTORS
330
6FCB9
102
}
100
AcDbXrecord
 10
0.0
 20
0.0
 30
0.0
  0
XRECORD
  5
6FCD8
102
{ACAD_REACTORS
330
6FCB9
102
}
100
AcDbXrecord
 10
0.0
 20
0.0
 30
0.0
  0
XRECORD
  5
6FCD6
102
{ACAD_REACTORS
330
6FCB9
102
}
100
AcDbXrecord
 10
0.0
 20
0.0
 30
0.0
  0
XRECORD
  5
6FCD7
102
{ACAD_REACTORS
330
6FCB9
102
}
100
AcDbXrecord
 10
0.0
 20
0.0
 30
0.0
  0
XRECORD
  5
6FCD4
102
{ACAD_REACTORS
330
6FCB9
102
}
100
AcDbXrecord
 10
0.0
 20
0.0
 30
0.0
  0
XRECORD
  5
6FCD1
102
{ACAD_REACTORS
330
6FCB9
102
}
100
AcDbXrecord
340
0
  0
XRECORD
  5
6FCD2
102
{ACAD_REACTORS
330
6FCB9
102
}
100
AcDbXrecord
 70
     1
  0
XRECORD
  5
6FCC5
102
{ACAD_REACTORS
330
6FCB9
102
}
100
AcDbXrecord
  1
{6AEA8C74-9F42-4168-A88F-953ABB93B74D}
  0
DICTIONARYVAR
  5
48E
102
{ACAD_REACTORS
330
48D
102
}
100
DictionaryVariables
280
     0
  1
0
  0
XRECORD
  5
6FCE9
102
{ACAD_REACTORS
330
6FCE8
102
}
100
AcDbXrecord
102
EXTNAMES
  1
LAYOUT1
  2
Layout1
  1
MODEL
  2
Model
  0
ENDSEC
  0
EOF
