  0
SECTION
  2
HEADER
  9
$ACADVER
  1
AC1014
  9
$ACADMAINTVER
 70
     9
  9
$DWGCODEPAGE
  3
ANSI_1252
  9
$INSBASE
 10
41.81725052594179
 20
0.6782560564657416
 30
0.0
  9
$EXTMIN
 10
0.3516808355164418
 20
-88.41524879343472
 30
-0.0000000000000024
  9
$EXTMAX
 10
81.63450105188358
 20
10.63801890058921
 30
31.59999976940396
  9
$LIMMIN
 10
0.0
 20
0.0
  9
$LIMMAX
 10
12.0
 20
9.0
  9
$ORTHOMODE
 70
     1
  9
$REGENMODE
 70
     1
  9
$FILLMODE
 70
     1
  9
$QTEXTMODE
 70
     0
  9
$MIRRTEXT
 70
     1
  9
$DRAGMODE
 70
     2
  9
$LTSCALE
 40
1.0
  9
$OSMODE
 70
    37
  9
$ATTMODE
 70
     1
  9
$TEXTSIZE
 40
0.12
  9
$TRACEWID
 40
0.05
  9
$TEXTSTYLE
  7
STANDARD
  9
$CLAYER
  8
0
  9
$CELTYPE
  6
BYLAYER
  9
$CECOLOR
 62
   256
  9
$CELTSCALE
 40
1.0
  9
$DELOBJ
 70
     1
  9
$DISPSILH
 70
     0
  9
$DIMSCALE
 40
1.0
  9
$DIMASZ
 40
4.572
  9
$DIMEXO
 40
1.587499999999999
  9
$DIMDLI
 40
9.525
  9
$DIMRND
 40
0.0
  9
$DIMDLE
 40
0.0
  9
$DIMEXE
 40
4.572
  9
$DIMTP
 40
0.0
  9
$DIMTM
 40
0.0
  9
$DIMTXT
 40
4.572
  9
$DIMCEN
 40
2.286
  9
$DIMTSZ
 40
0.0
  9
$DIMTOL
 70
     0
  9
$DIMLIM
 70
     0
  9
$DIMTIH
 70
     0
  9
$DIMTOH
 70
     1
  9
$DIMSE1
 70
     0
  9
$DIMSE2
 70
     0
  9
$DIMTAD
 70
     0
  9
$DIMZIN
 70
     4
  9
$DIMBLK
  1

  9
$DIMASO
 70
     1
  9
$DIMSHO
 70
     1
  9
$DIMPOST
  1

  9
$DIMAPOST
  1

  9
$DIMALT
 70
     1
  9
$DIMALTD
 70
     6
  9
$DIMALTF
 40
0.03937
  9
$DIMLFAC
 40
1.0
  9
$DIMTOFL
 70
     0
  9
$DIMTVP
 40
0.0
  9
$DIMTIX
 70
     0
  9
$DIMSOXD
 70
     0
  9
$DIMSAH
 70
     0
  9
$DIMBLK1
  1

  9
$DIMBLK2
  1

  9
$DIMSTYLE
  2
ABECAD_3D
  9
$DIMCLRD
 70
     0
  9
$DIMCLRE
 70
     0
  9
$DIMCLRT
 70
     0
  9
$DIMTFAC
 40
1.5
  9
$DIMGAP
 40
2.286
  9
$DIMJUST
 70
     0
  9
$DIMSD1
 70
     0
  9
$DIMSD2
 70
     0
  9
$DIMTOLJ
 70
     1
  9
$DIMTZIN
 70
     4
  9
$DIMALTZ
 70
     4
  9
$DIMALTTZ
 70
     4
  9
$DIMFIT
 70
     5
  9
$DIMUPT
 70
     1
  9
$DIMUNIT
 70
     2
  9
$DIMDEC
 70
     2
  9
$DIMTDEC
 70
     2
  9
$DIMALTU
 70
     7
  9
$DIMALTTD
 70
     6
  9
$DIMTXSTY
  7
STANDARD
  9
$DIMAUNIT
 70
     0
  9
$LUNITS
 70
     2
  9
$LUPREC
 70
     4
  9
$SKETCHINC
 40
0.1
  9
$FILLETRAD
 40
0.0
  9
$AUNITS
 70
     0
  9
$AUPREC
 70
     0
  9
$MENU
  1
ACAD
  9
$ELEVATION
 40
0.0
  9
$PELEVATION
 40
0.0
  9
$THICKNESS
 40
0.0
  9
$LIMCHECK
 70
     0
  9
$BLIPMODE
 70
     0
  9
$CHAMFERA
 40
0.0
  9
$CHAMFERB
 40
0.0
  9
$CHAMFERC
 40
0.0
  9
$CHAMFERD
 40
0.0
  9
$SKPOLY
 70
     0
  9
$TDCREATE
 40
2451760.428845717
  9
$TDUPDATE
 40
2453137.551479120
  9
$TDINDWG
 40
0.2997814352
  9
$TDUSRTIMER
 40
0.2997814352
  9
$USRTIMER
 70
     1
  9
$ANGBASE
 50
0.0
  9
$ANGDIR
 70
     0
  9
$PDMODE
 70
     3
  9
$PDSIZE
 40
2.5
  9
$PLINEWID
 40
0.0
  9
$COORDS
 70
     1
  9
$SPLFRAME
 70
     1
  9
$SPLINETYPE
 70
     6
  9
$SPLINESEGS
 70
     8
  9
$ATTDIA
 70
     0
  9
$ATTREQ
 70
     1
  9
$HANDLING
 70
 22529
  9
$HANDSEED
  5
45CB2
  9
$SURFTAB1
 70
     6
  9
$SURFTAB2
 70
     6
  9
$SURFTYPE
 70
     6
  9
$SURFU
 70
     6
  9
$SURFV
 70
     6
  9
$UCSNAME
  2

  9
$UCSORG
 10
41.81725052594179
 20
0.6782560564657416
 30
0.0
  9
$UCSXDIR
 10
1.0
 20
0.0
 30
0.0
  9
$UCSYDIR
 10
0.0
 20
1.0
 30
0.0
  9
$PUCSNAME
  2

  9
$PUCSORG
 10
0.0
 20
0.0
 30
0.0
  9
$PUCSXDIR
 10
1.0
 20
0.0
 30
0.0
  9
$PUCSYDIR
 10
0.0
 20
1.0
 30
0.0
  9
$USERI1
 70
     0
  9
$USERI2
 70
     0
  9
$USERI3
 70
     0
  9
$USERI4
 70
     0
  9
$USERI5
 70
     0
  9
$USERR1
 40
0.0
  9
$USERR2
 40
0.0
  9
$USERR3
 40
0.0
  9
$USERR4
 40
0.0
  9
$USERR5
 40
0.0
  9
$WORLDVIEW
 70
     1
  9
$SHADEDGE
 70
     3
  9
$SHADEDIF
 70
    70
  9
$TILEMODE
 70
     1
  9
$MAXACTVP
 70
    16
  9
$PINSBASE
 10
0.0
 20
0.0
 30
0.0
  9
$PLIMCHECK
 70
     0
  9
$PEXTMIN
 10
1.000000000000000E+20
 20
1.000000000000000E+20
 30
1.000000000000000E+20
  9
$PEXTMAX
 10
-1.000000000000000E+20
 20
-1.000000000000000E+20
 30
-1.000000000000000E+20
  9
$PLIMMIN
 10
0.0
 20
0.0
  9
$PLIMMAX
 10
12.0
 20
9.0
  9
$UNITMODE
 70
     0
  9
$VISRETAIN
 70
     0
  9
$PLINEGEN
 70
     0
  9
$PSLTSCALE
 70
     1
  9
$TREEDEPTH
 70
  3020
  9
$PICKSTYLE
 70
     1
  9
$CMLSTYLE
  2
STANDARD
  9
$CMLJUST
 70
     0
  9
$CMLSCALE
 40
1.0
  9
$PROXYGRAPHICS
 70
     1
  9
$MEASUREMENT
 70
     1
  0
ENDSEC
  0
SECTION
  2
CLASSES
  0
CLASS
  1
DICTIONARYVAR
  2
AcDbDictionaryVar
  3
AutoCAD 2000
 90
        0
280
     0
281
     0
  0
CLASS
  1
ACDBDICTIONARYWDFLT
  2
AcDbDictionaryWithDefault
  3
AutoCAD 2000
 90
        0
280
     0
281
     0
  0
CLASS
  1
ACDBPLACEHOLDER
  2
AcDbPlaceHolder
  3
AutoCAD 2000
 90
        0
280
     0
281
     0
  0
CLASS
  1
LAYOUT
  2
AcDbLayout
  3
AutoCAD 2000
 90
        0
280
     0
281
     0
  0
CLASS
  1
LONG_TRANSACTION
  2
AcDbLongTransaction
  3
AutoCAD 2000
 90
        0
280
     0
281
     0
  0
CLASS
  1
LWPOLYLINE
  2
AcDbPolyline
  3
AutoCAD 2000
 90
        0
280
     0
281
     1
  0
CLASS
  1
HATCH
  2
AcDbHatch
  3
AutoCAD 2000
 90
        0
280
     0
281
     1
  0
CLASS
  1
XRECORD
  2
AcDbXrecord
  3
AutoCAD 2000
 90
        0
280
     0
281
     0
  0
CLASS
  1
LONG_TRANSACTION
  2
AcDbLongTransaction
  3
AutoCAD 2000
 90
        0
280
     0
281
     0
  0
CLASS
  1
LWPOLYLINE
  2
AcDbPolyline
  3
AutoCAD 2000
 90
        0
280
     0
281
     1
  0
CLASS
  1
HATCH
  2
AcDbHatch
  3
AutoCAD 2000
 90
        0
280
     0
281
     1
  0
CLASS
  1
XRECORD
  2
AcDbXrecord
  3
AutoCAD 2000
 90
        0
280
     0
281
     0
  0
CLASS
  1
LONG_TRANSACTION
  2
AcDbLongTransaction
  3
AutoCAD 2000
 90
        0
280
     0
281
     0
  0
CLASS
  1
LWPOLYLINE
  2
AcDbPolyline
  3
AutoCAD 2000
 90
        0
280
     0
281
     1
  0
CLASS
  1
HATCH
  2
AcDbHatch
  3
AutoCAD 2000
 90
        0
280
     0
281
     1
  0
CLASS
  1
XRECORD
  2
AcDbXrecord
  3
AutoCAD 2000
 90
        0
280
     0
281
     0
  0
CLASS
  1
TABLESTYLE
  2
AcDbTableStyle
  3
ObjectDBX Classes
 90
     2047
280
     0
281
     0
  0
CLASS
  1
SORTENTSTABLE
  2
AcDbSortentsTable
  3
AutoCAD 2000
 90
        0
280
     0
281
     0
  0
CLASS
  1
ACAD_PROXY_OBJECT_WRAPPER
  2
AcDbProxyObjectWrapper
  3
AutoCAD 2000
 90
        0
280
     0
281
     0
  0
CLASS
  1
LONG_TRANSACTION
  2
AcDbLongTransaction
  3
AutoCAD 2000
 90
        0
280
     0
281
     0
  0
CLASS
  1
LWPOLYLINE
  2
AcDbPolyline
  3
AutoCAD 2000
 90
        0
280
     0
281
     1
  0
CLASS
  1
HATCH
  2
AcDbHatch
  3
AutoCAD 2000
 90
        0
280
     0
281
     1
  0
CLASS
  1
XRECORD
  2
AcDbXrecord
  3
AutoCAD 2000
 90
        0
280
     0
281
     0
  0
CLASS
  1
LONG_TRANSACTION
  2
AcDbLongTransaction
  3
AutoCAD 2000
 90
        0
280
     0
281
     0
  0
CLASS
  1
LWPOLYLINE
  2
AcDbPolyline
  3
AutoCAD 2000
 90
        0
280
     0
281
     1
  0
CLASS
  1
HATCH
  2
AcDbHatch
  3
AutoCAD 2000
 90
        0
280
     0
281
     1
  0
CLASS
  1
XRECORD
  2
AcDbXrecord
  3
AutoCAD 2000
 90
        0
280
     0
281
     0
  0
CLASS
  1
LONG_TRANSACTION
  2
AcDbLongTransaction
  3
AutoCAD 2000
 90
        0
280
     0
281
     0
  0
CLASS
  1
LWPOLYLINE
  2
AcDbPolyline
  3
AutoCAD 2000
 90
        0
280
     0
281
     1
  0
CLASS
  1
HATCH
  2
AcDbHatch
  3
AutoCAD 2000
 90
        0
280
     0
281
     1
  0
CLASS
  1
XRECORD
  2
AcDbXrecord
  3
AutoCAD 2000
 90
        0
280
     0
281
     0
  0
ENDSEC
  0
SECTION
  2
TABLES
  0
TABLE
  2
VPORT
  5
458C7
330
0
100
AcDbSymbolTable
 70
     2
  0
VPORT
  5
45C8E
330
458C7
100
AcDbSymbolTableRecord
100
AcDbViewportTableRecord
  2
*ACTIVE
 70
     0
 10
0.0
 20
0.0
 11
1.0
 21
1.0
 12
-3.8827484245177
 22
-23.53185664830521
 13
0.0
 23
0.0
 14
0.25
 24
0.25
 15
0.25
 25
0.25
 16
0.0
 26
0.0
 36
1.0
 17
44.8743892491809
 27
-15.35675806749121
 37
6.993523092661338
 40
100.0195006317667
 41
1.83009708737864
 42
50.0
 43
0.0
 44
0.0
 50
0.0
 51
0.0
 71
     0
 72
 20000
 73
     1
 74
     1
 75
     0
 76
     0
 77
     0
 78
     0
  0
ENDTAB
  0
TABLE
  2
LTYPE
  5
458C4
330
0
100
AcDbSymbolTable
 70
     1
  0
LTYPE
  5
458D0
330
458C4
100
AcDbSymbolTableRecord
100
AcDbLinetypeTableRecord
  2
BYBLOCK
 70
     0
  3

 72
    65
 73
     0
 40
0.0
  0
LTYPE
  5
458D1
330
458C4
100
AcDbSymbolTableRecord
100
AcDbLinetypeTableRecord
  2
BYLAYER
 70
     0
  3

 72
    65
 73
     0
 40
0.0
  0
LTYPE
  5
458D2
330
458C4
100
AcDbSymbolTableRecord
100
AcDbLinetypeTableRecord
  2
CONTINUOUS
 70
     0
  3
Solid line
 72
    65
 73
     0
 40
0.0
  0
ENDTAB
  0
TABLE
  2
LAYER
  5
458C1
330
0
100
AcDbSymbolTable
 70
     8
  0
LAYER
  5
458CD
330
458C1
100
AcDbSymbolTableRecord
100
AcDbLayerTableRecord
  2
0
 70
     0
 62
     7
  6
CONTINUOUS
  0
LAYER
  5
458EA
330
458C1
100
AcDbSymbolTableRecord
100
AcDbLayerTableRecord
  2
DIMS-MTG-HOLES
 70
     0
 62
     1
  6
CONTINUOUS
  0
LAYER
  5
458EB
330
458C1
100
AcDbSymbolTableRecord
100
AcDbLayerTableRecord
  2
ATTRIBUTES
 70
     0
 62
     7
  6
CONTINUOUS
  0
LAYER
  5
4593F
330
458C1
100
AcDbSymbolTableRecord
100
AcDbLayerTableRecord
  2
AREA1
 70
     0
 62
    -7
  6
CONTINUOUS
  0
LAYER
  5
45946
330
458C1
100
AcDbSymbolTableRecord
100
AcDbLayerTableRecord
  2
DEFPOINTS
 70
     0
 62
    -7
  6
CONTINUOUS
  0
LAYER
  5
45972
330
458C1
100
AcDbSymbolTableRecord
100
AcDbLayerTableRecord
  2
SCALE
 70
     0
 62
    -7
  6
CONTINUOUS
  0
LAYER
  5
4597A
330
458C1
100
AcDbSymbolTableRecord
100
AcDbLayerTableRecord
  2
SNAP_POINTS
 70
     0
 62
    -1
  6
CONTINUOUS
  0
LAYER
  5
459D2
330
458C1
100
AcDbSymbolTableRecord
100
AcDbLayerTableRecord
  2
AREA2
 70
     0
 62
    -7
  6
CONTINUOUS
  0
ENDTAB
  0
TABLE
  2
STYLE
  5
458C2
330
0
100
AcDbSymbolTable
 70
     1
  0
STYLE
  5
458CE
330
458C2
100
AcDbSymbolTableRecord
100
AcDbTextStyleTableRecord
  2
STANDARD
 70
     0
 40
0.0
 41
1.0
 50
0.0
 71
     0
 42
0.12
  3
txt
  4

  0
ENDTAB
  0
TABLE
  2
VIEW
  5
458C5
330
0
100
AcDbSymbolTable
 70
     0
  0
ENDTAB
  0
TABLE
  2
UCS
  5
458C6
330
0
100
AcDbSymbolTable
 70
     0
  0
ENDTAB
  0
TABLE
  2
APPID
  5
458C8
330
0
100
AcDbSymbolTable
 70
     1
  0
APPID
  5
458CF
330
458C8
100
AcDbSymbolTableRecord
100
AcDbRegAppTableRecord
  2
ACAD
 70
     0
  0
ENDTAB
  0
TABLE
  2
DIMSTYLE
  5
458C9
330
0
100
AcDbSymbolTable
 70
     2
  0
DIMSTYLE
105
458F6
102
{ACAD_REACTORS
330
45A4C
330
45A6E
330
45A7C
102
}
330
458C9
100
AcDbSymbolTableRecord
100
AcDbDimStyleTableRecord
  2
ABECAD_3D
 70
     0
  3

  4

  5

  6

  7

 40
1.0
 41
4.572
 42
1.587499999999999
 43
9.525
 44
4.572
 45
0.0
 46
0.0
 47
0.0
 48
0.0
140
4.572
141
2.286
142
0.0
143
0.03937
144
1.0
145
0.0
146
1.5
147
2.286
 71
     0
 72
     0
 73
     0
 74
     1
 75
     0
 76
     0
 77
     0
 78
     4
170
     1
171
     6
172
     0
173
     0
174
     0
175
     0
176
     0
177
     0
178
     0
270
     2
271
     2
272
     2
273
     7
274
     6
340
458CE
275
     0
280
     0
281
     0
282
     0
283
     1
284
     4
285
     4
286
     4
287
     5
288
     1
  0
DIMSTYLE
105
459E0
330
458C9
100
AcDbSymbolTableRecord
100
AcDbDimStyleTableRecord
  2
STANDARD
 70
     0
  3

  4

  5

  6

  7

 40
1.0
 41
0.18
 42
0.0625
 43
0.38
 44
0.18
 45
0.0
 46
0.0
 47
0.0
 48
0.0
140
0.18
141
0.09
142
0.0
143
25.4
144
1.0
145
0.0
146
1.0
147
0.09
 71
     0
 72
     0
 73
     1
 74
     1
 75
     0
 76
     0
 77
     0
 78
     0
170
     0
171
     2
172
     0
173
     0
174
     0
175
     0
176
     0
177
     0
178
     0
270
     2
271
     4
272
     4
273
     2
274
     2
340
458CE
275
     0
280
     0
281
     0
282
     0
283
     1
284
     0
285
     0
286
     0
287
     3
288
     0
  0
ENDTAB
  0
TABLE
  2
BLOCK_RECORD
  5
458C0
330
0
100
AcDbSymbolTable
 70
     3
  0
BLOCK_RECORD
  5
458D6
102
{ACAD_XDICTIONARY
360
45930
102
}
330
458C0
100
AcDbSymbolTableRecord
100
AcDbBlockTableRecord
  2
*MODEL_SPACE
  0
BLOCK_RECORD
  5
458D3
102
{ACAD_XDICTIONARY
360
4592E
102
}
330
458C0
100
AcDbSymbolTableRecord
100
AcDbBlockTableRecord
  2
*PAPER_SPACE
  0
BLOCK_RECORD
  5
45A4D
330
458C0
100
AcDbSymbolTableRecord
100
AcDbBlockTableRecord
  2
*D0
  0
BLOCK_RECORD
  5
45A6F
330
458C0
100
AcDbSymbolTableRecord
100
AcDbBlockTableRecord
  2
*D1
  0
BLOCK_RECORD
  5
45A7D
330
458C0
100
AcDbSymbolTableRecord
100
AcDbBlockTableRecord
  2
*D2
  0
ENDTAB
  0
ENDSEC
  0
SECTION
  2
BLOCKS
  0
BLOCK
  5
458DF
330
458D6
100
AcDbEntity
  8
0
100
AcDbBlockBegin
  2
*MODEL_SPACE
 70
     0
 10
0.0
 20
0.0
 30
0.0
  3
*MODEL_SPACE
  1

  0
ENDBLK
  5
458E0
330
458D6
100
AcDbEntity
  8
0
100
AcDbBlockEnd
  0
BLOCK
  5
458DD
330
458D3
100
AcDbEntity
 67
     1
  8
0
100
AcDbBlockBegin
  2
*PAPER_SPACE
 70
     0
 10
0.0
 20
0.0
 30
0.0
  3
*PAPER_SPACE
  1

  0
ENDBLK
  5
458DE
330
458D3
100
AcDbEntity
 67
     1
  8
0
100
AcDbBlockEnd
  0
BLOCK
  5
45A58
330
45A4D
100
AcDbEntity
  8
0
100
AcDbBlockBegin
  2
*D0
 70
     1
 10
0.0
 20
0.0
 30
0.0
  3
*D0
  1

  0
LINE
  5
45BBC
330
45A4D
100
AcDbEntity
  8
AREA1
 62
     0
100
AcDbLine
 10
39.8172505259418
 20
2.265756056473188
 30
0.0
 11
39.8172505259418
 21
8.393974337258395
 31
0.0
  0
LINE
  5
45BBD
330
45A4D
100
AcDbEntity
  8
AREA1
 62
     0
100
AcDbLine
 10
41.81725052594179
 20
2.265756056473188
 30
0.0
 11
41.81725052594179
 21
8.393974337258395
 31
0.0
  0
LINE
  5
45BBE
330
45A4D
100
AcDbEntity
  8
AREA1
 62
     0
100
AcDbLine
 10
37.8172505259418
 20
3.821974337258396
 30
0.0
 11
35.8172505259418
 21
3.821974337258396
 31
0.0
  0
LINE
  5
45BBF
330
45A4D
100
AcDbEntity
  8
AREA1
 62
     0
100
AcDbLine
 10
43.81725052594179
 20
3.821974337258396
 30
0.0
 11
45.81725052594179
 21
3.821974337258396
 31
0.0
  0
MTEXT
  5
45BC0
330
45A4D
100
AcDbEntity
  8
AREA1
 62
     0
100
AcDbMText
 10
41.92721793475076
 20
9.638018900589216
 30
0.0
 40
2.0
 41
0.0
 71
     5
 72
     1
  1
\A1;2.00 [5/64]
1001
ACAD
1000
MTEXTBEGIN
1070
    73
1070
     1
1070
    44
1040
1.0
1070
    74
1070
     0
1000
MTEXTEND
  0
SOLID
  5
45BC1
330
45A4D
100
AcDbEntity
  8
AREA1
 62
     0
100
AcDbTrace
 10
37.8172505259418
 20
4.155307670591729
 30
0.0
 11
37.8172505259418
 21
3.488641003925062
 31
0.0
 12
39.8172505259418
 22
3.821974337258396
 32
0.0
 13
39.8172505259418
 23
3.821974337258396
 33
0.0
  0
SOLID
  5
45BC2
330
45A4D
100
AcDbEntity
  8
AREA1
 62
     0
100
AcDbTrace
 10
43.81725052594179
 20
4.155307670591729
 30
0.0
 11
43.81725052594179
 21
3.488641003925062
 31
0.0
 12
41.81725052594179
 22
3.821974337258396
 32
0.0
 13
41.81725052594179
 23
3.821974337258396
 33
0.0
  0
POINT
  5
45BC3
330
45A4D
100
AcDbEntity
  8
DEFPOINTS
 62
     0
100
AcDbPoint
 10
39.8172505259418
 20
0.6782560564731881
 30
23.05627144960308
  0
POINT
  5
45BC4
330
45A4D
100
AcDbEntity
  8
DEFPOINTS
 62
     0
100
AcDbPoint
 10
41.81725052594179
 20
0.6782560564731881
 30
23.05627144960308
  0
POINT
  5
45BC5
330
45A4D
100
AcDbEntity
  8
DEFPOINTS
 62
     0
100
AcDbPoint
 10
41.81725052594179
 20
3.821974337258396
 30
0.0
  0
ENDBLK
  5
45A59
330
45A4D
100
AcDbEntity
  8
0
100
AcDbBlockEnd
  0
BLOCK
  5
45A7A
330
45A6F
100
AcDbEntity
  8
0
100
AcDbBlockBegin
  2
*D1
 70
     1
 10
0.0
 20
0.0
 30
0.0
  3
*D1
  1

  0
LINE
  5
45B95
330
45A6F
100
AcDbEntity
  8
AREA1
 62
     0
100
AcDbLine
 10
43.40475052594179
 20
0.6782560564731877
 30
0.0
 11
53.18509122097366
 21
0.678256056473185
 31
0.0
  0
LINE
  5
45B96
330
45A6F
100
AcDbEntity
  8
AREA1
 62
     0
100
AcDbLine
 10
43.40475052594178
 20
-78.37174226443424
 30
0.0
 11
53.18509122097364
 21
-78.37174226443424
 31
0.0
  0
LINE
  5
45B97
330
45A6F
100
AcDbEntity
  8
AREA1
 62
     0
100
AcDbLine
 10
48.61309122097366
 20
-1.321743943526813
 30
0.0
 11
48.61309122097365
 21
-24.33554615446336
 31
0.0
  0
LINE
  5
45B98
330
45A6F
100
AcDbEntity
  8
AREA1
 62
     0
100
AcDbLine
 10
48.61309122097364
 20
-76.37174226443424
 30
0.0
 11
48.61309122097364
 21
-53.2408794877967
 31
0.0
  0
MTEXT
  5
45B99
330
45A6F
100
AcDbEntity
  8
AREA1
 62
     0
100
AcDbMText
 10
48.61309122097365
 20
-38.78821282113001
 30
0.0
 40
2.0
 41
0.0
 71
     5
 72
     1
  1
\A1;79.05 [3 7/64]
 11
0.0000000000000001
 21
1.0
 31
0.0
1001
ACAD
1000
MTEXTBEGIN
1070
    73
1070
     1
1070
    44
1040
1.0
1070
    74
1070
     0
1000
MTEXTEND
  0
SOLID
  5
45B9A
330
45A6F
100
AcDbEntity
  8
AREA1
 62
     0
100
AcDbTrace
 10
48.27975788764032
 20
-1.321743943526813
 30
0.0
 11
48.94642455430699
 21
-1.321743943526813
 31
0.0
 12
48.61309122097366
 22
0.6782560564731863
 32
0.0
 13
48.61309122097366
 23
0.6782560564731863
 33
0.0
  0
SOLID
  5
45B9B
330
45A6F
100
AcDbEntity
  8
AREA1
 62
     0
100
AcDbTrace
 10
48.27975788764031
 20
-76.37174226443424
 30
0.0
 11
48.94642455430698
 21
-76.37174226443424
 31
0.0
 12
48.61309122097364
 22
-78.37174226443424
 32
0.0
 13
48.61309122097364
 23
-78.37174226443424
 33
0.0
  0
POINT
  5
45B9C
330
45A6F
100
AcDbEntity
  8
DEFPOINTS
 62
     0
100
AcDbPoint
 10
41.81725052594179
 20
0.6782560564731881
 30
23.05627144960308
  0
POINT
  5
45B9D
330
45A6F
100
AcDbEntity
  8
DEFPOINTS
 62
     0
100
AcDbPoint
 10
41.81725052594178
 20
-78.37174226443424
 30
0.0
  0
POINT
  5
45B9E
330
45A6F
100
AcDbEntity
  8
DEFPOINTS
 62
     0
100
AcDbPoint
 10
48.61309122097364
 20
-78.37174226443424
 30
0.0
  0
ENDBLK
  5
45A7B
330
45A6F
100
AcDbEntity
  8
0
100
AcDbBlockEnd
  0
BLOCK
  5
45A87
330
45A7D
100
AcDbEntity
  8
0
100
AcDbBlockBegin
  2
*D2
 70
     1
 10
0.0
 20
0.0
 30
0.0
  3
*D2
  1

  0
LINE
  5
45BC6
330
45A7D
100
AcDbEntity
  8
AREA2
 62
     0
100
AcDbLine
 10
76.42031412120926
 20
31.59999976938964
 30
0.0
 11
88.41524879343472
 21
31.59999976938964
 31
0.0
  0
LINE
  5
45BC7
330
45A7D
100
AcDbEntity
  8
AREA2
 62
     0
100
AcDbLine
 10
79.95924226443425
 20
0.0
 30
0.0
 11
88.41524879343472
 21
-0.0000000000000024
 31
0.0
  0
LINE
  5
45BC8
330
45A7D
100
AcDbEntity
  8
AREA2
 62
     0
100
AcDbLine
 10
83.84324879343472
 20
29.59999976938964
 30
0.0
 11
83.84324879343472
 21
28.25266655136147
 31
0.0
  0
LINE
  5
45BC9
330
45A7D
100
AcDbEntity
  8
AREA2
 62
     0
100
AcDbLine
 10
83.84324879343472
 20
1.999999999999998
 30
0.0
 11
83.84324879343472
 21
3.347333218028144
 31
0.0
  0
MTEXT
  5
45BCA
330
45A7D
100
AcDbEntity
  8
AREA2
 62
     0
100
AcDbMText
 10
83.84324879343472
 20
15.79999988469482
 30
0.0
 40
2.0
 41
0.0
 71
     5
 72
     1
  1
\A1;31.60 [1 1/4]
 11
0.0000000000000001
 21
1.0
 31
0.0
1001
ACAD
1000
MTEXTBEGIN
1070
    73
1070
     1
1070
    44
1040
1.0
1070
    74
1070
     0
1000
MTEXTEND
  0
SOLID
  5
45BCB
330
45A7D
100
AcDbEntity
  8
AREA2
 62
     0
100
AcDbTrace
 10
83.50991546010138
 20
29.59999976938964
 30
0.0
 11
84.17658212676803
 21
29.59999976938964
 31
0.0
 12
83.84324879343472
 22
31.59999976938964
 32
0.0
 13
83.84324879343472
 23
31.59999976938964
 33
0.0
  0
SOLID
  5
45BCC
330
45A7D
100
AcDbEntity
  8
AREA2
 62
     0
100
AcDbTrace
 10
83.50991546010138
 20
1.999999999999998
 30
0.0
 11
84.17658212676803
 21
1.999999999999998
 31
0.0
 12
83.84324879343472
 22
-0.0000000000000011
 32
0.0
 13
83.84324879343472
 23
-0.0000000000000011
 33
0.0
  0
POINT
  5
45BCD
330
45A7D
100
AcDbEntity
  8
DEFPOINTS
 62
     0
100
AcDbPoint
 10
74.83281412120925
 20
31.59999976938964
 30
-39.81725052594178
  0
POINT
  5
45BCE
330
45A7D
100
AcDbEntity
  8
DEFPOINTS
 62
     0
100
AcDbPoint
 10
78.37174226443424
 20
0.0000000000000004
 30
-39.81725052594178
  0
POINT
  5
45BCF
330
45A7D
100
AcDbEntity
  8
DEFPOINTS
 62
     0
100
AcDbPoint
 10
83.84324879343472
 20
-0.0000000000000011
 30
0.0
  0
ENDBLK
  5
45A88
330
45A7D
100
AcDbEntity
  8
0
100
AcDbBlockEnd
  0
ENDSEC
  0
SECTION
  2
ENTITIES
  0
ATTDEF
  5
1
330
458D6
100
AcDbEntity
  8
ATTRIBUTES
100
AcDbText
 10
40.03362344519974
 20
-23.71750745332886
 30
0.00085928477733
 40
0.11999952000048
  1
ALLEN-BRADLEY
100
AcDbAttributeDefinition
  3
MANUFACTURER NAME?
  2
AC_VND_LABEL
 70
     1
  0
ATTDEF
  5
2
330
458D6
100
AcDbEntity
  8
ATTRIBUTES
100
AcDbText
 10
40.03362344519974
 20
-23.96750645332986
 30
0.00085928477733
 40
0.11999952000048
  1
1492-EBL3Q
100
AcDbAttributeDefinition
  3
CATALOG NUMBER?
  2
AC_PART_NO
 70
     1
  0
ATTDEF
  5
3
330
458D6
100
AcDbEntity
  8
ATTRIBUTES
100
AcDbText
 10
40.03362344519974
 20
-24.21750545333086
 30
0.00085928477733
 40
0.11999952000048
  1
End Barrier
100
AcDbAttributeDefinition
  3
PART DESCRIPTION?
  2
AC_DESCRIPTION
 70
     1
  0
ATTDEF
  5
4
330
458D6
100
AcDbEntity
  8
ATTRIBUTES
100
AcDbText
 10
40.03362344519974
 20
-24.46750445333186
 30
0.00085928477733
 40
0.11999952000048
  1

100
AcDbAttributeDefinition
  3
DEVICE ID?
  2
DEVICE_ID
 70
     1
  0
ATTDEF
  5
5
330
458D6
100
AcDbEntity
  8
ATTRIBUTES
100
AcDbText
 10
40.03362344519974
 20
-24.71750345333286
 30
0.00085928477733
 40
0.11999952000048
  1

100
AcDbAttributeDefinition
  3
CUSTOMER PART NUMBER?
  2
AC_CPART_NO
 70
     1
  0
ATTDEF
  5
6
330
458D6
100
AcDbEntity
  8
ATTRIBUTES
100
AcDbText
 10
40.03362344519974
 20
-24.96750245333386
 30
0.00085928477733
 40
0.11999952000048
  1

100
AcDbAttributeDefinition
  3
CUSTOMER NOTE?
  2
AC_NOTE
 70
     1
  0
ATTDEF
  5
7
330
458D6
100
AcDbEntity
  8
ATTRIBUTES
100
AcDbText
 10
40.03362344519974
 20
-25.21750145333486
 30
0.00085928477733
 40
0.11999952000048
  1

100
AcDbAttributeDefinition
  3
FASTENER DATA?
  2
FASTENER
 70
     1
  0
ATTDEF
  5
8
330
458D6
100
AcDbEntity
  8
ATTRIBUTES
100
AcDbText
 10
40.03362344519974
 20
-25.46750045333586
 30
0.00085928477733
 40
0.11999952000048
  1
MM
100
AcDbAttributeDefinition
  3
UNIT OF SCALE?
  2
AC_SCALE_UNIT
 70
     1
  0
ATTDEF
  5
9
330
458D6
100
AcDbEntity
  8
ATTRIBUTES
100
AcDbText
 10
40.03362344519974
 20
-25.71749945333686
 30
0.00085928477733
 40
0.11999952000048
  1
0
100
AcDbAttributeDefinition
  3
VIEW CODE?
  2
AC_VIEW_CODE
 70
     1
  0
LINE
  5
45967
330
458D6
100
AcDbEntity
  8
SCALE
100
AcDbLine
 10
2.057631564008593
 20
-20.58353988219963
 30
0.0
 11
27.45763156400859
 21
-20.58353988219963
 31
0.0
  0
LINE
  5
45968
330
458D6
100
AcDbEntity
  8
SCALE
100
AcDbLine
 10
27.45763156400859
 20
-23.12353988219963
 30
0.0
 11
27.45763156400859
 21
-18.0435398821996
 31
0.0
  0
LINE
  5
4596A
330
458D6
100
AcDbEntity
  8
SCALE
100
AcDbLine
 10
2.057631564008593
 20
-23.12353988219963
 30
0.0
 11
2.057631564008593
 21
-18.0435398821996
 31
0.0
  0
LINE
  5
4596B
330
458D6
100
AcDbEntity
  8
SCALE
100
AcDbLine
 10
2.057631564008683
 20
-15.39711614490639
 30
0.0
 11
2.057631564008683
 21
-10.31711614490641
 31
0.0
  0
LINE
  5
4596C
330
458D6
100
AcDbEntity
  8
SCALE
100
AcDbLine
 10
12.05761156400868
 20
-15.39711614490639
 30
0.0
 11
12.05761156400868
 21
-10.31711614490641
 31
0.0
  0
LINE
  5
4596D
330
458D6
100
AcDbEntity
  8
SCALE
100
AcDbLine
 10
2.057631564008683
 20
-12.8571161449064
 30
0.0
 11
12.05761156400868
 21
-12.8571161449064
 31
0.0
  0
TEXT
  5
4596E
330
458D6
100
AcDbEntity
  8
SCALE
100
AcDbText
 10
3.566954304782544
 20
-11.6953291549439
 30
0.0
 40
1.587499999999999
  1
10 mm
100
AcDbText
  0
TEXT
  5
4596F
330
458D6
100
AcDbEntity
  8
SCALE
100
AcDbText
 10
9.655524297096594
 20
-18.82970301972032
 30
0.0
 40
1.587499999999999
  1
[1 Inch]
100
AcDbText
  0
TEXT
  5
45970
330
458D6
100
AcDbEntity
  8
SCALE
100
AcDbText
 10
1.863715644137954
 20
-7.32357853005453
 30
0.0
 40
1.587499999999999
  1
SCALE:
100
AcDbText
  0
3DSOLID
  5
45A4B
330
458D6
100
AcDbEntity
  8
0
100
AcDbModelerGeometry
 70
     1
  1
noi nim n o         
  1
=0;& {n {m {rn {rn |
  1
-:9@)+r3(;r>++-6= {rn {rn {rn {o {l {k |
  1
3*2/ {j {rn {i {o |
  1
-:961:2:1+ {rn o o o o oqmmhhgfogfoglihnjh lo o o m o |
  1
):-+:'@+:2/3>+: {rn l o n g |
  1
-:9@)+r3(;r>++-6= {rn {rn {rn {m {l {k |
  1
,7:33 {h {rn {rn {g {m |
  1
-:9@)+r3(;r>++-6= {rn {rn {rn {i {l {k |
  1
9><: {f {no {nn {i {rn {nm -:):-,:; ,6183: |
  1
92:,7r3(;r>++-6= {rn {nl {rn {g |
  1
9><: {nk {nj {ni {i {rn {nh 90-(>-; ,6183: |
  1
300/ {rn {rn {ng {g |
  1
/3>1:r,*-9><: {rn knqgnhmjojmjfknhg rgmqlmkmkmngokgkjok rnqjhfffffggkhojfjn rn nqglifofjlohlljijf:roni mqmmokkiokfmjolnln:roni rnqglifofjlohlljijf:roni rn o o V V V V |
  1
-:9@)+r3(;r>++-6= {rn {rn {f {g {l {k |
  1
92:,7r3(;r>++-6= {rn {nf {rn {no |
  1
9><: {mo {mn {mm {i {rn {ml -:):-,:; ,6183: |
  1
300/ {rn {rn {mk {no |
  1
/3>1:r,*-9><: {rn lfqgnhmjojmjfknhg rgmqlmkmkmngokgkjok rnqjhfffffggkhojfki rn nqglifofjlohlljijf:roni mqmmokkiokfmjolnln:roni rnqglifofjlohlljijf:roni rn o o V V V V |
  1
<0:;8: {rn {mj {mi {mh {mg n {nn {rn |
  1
-:9@)+r3(;r>++-6= {rn {rn {nk {no {l {k |
  1
92:,7r3(;r>++-6= {rn {mf {rn {nj |
  1
9><: {lo {ln {lm {i {rn {ll -:):-,:; ,6183: |
  1
300/ {rn {rn {lk {nj |
  1
/3>1:r,*-9><: {rn lfqhnhmjojmjfknhgi rhkqijjgihhnkohomfh lmqomhngingjlgglhl gqkhljjmolonofihml:ronh oqfmlghfjlmjnnmhijm roqlgmiglklmlijnnkjk rn nqglifofjlohlljijf:roni mqmmokkiokfmjolnln:roni o V V V V |
  1
<0:;8: {rn {lj {li {lh {lg o {ni {rn |
  1
<0:;8: {rn {lf {ng {ko {kn n {nn {rn |
  1
<0:;8: {rn {ng {km {kl {kk n {nn {rn |
  1
<0:;8: {rn {lk {kj {ng {mg o {mm {rn |
  1
:;8: {ki {kh {kg {ng {kf o |
  1
-:9@)+r3(;r>++-6= {rn {rn {mo {nj {l {k |
  1
92:,7r3(;r>++-6= {rn {jo {rn {mn |
  1
9><: {jn {jm {jl {i {rn {jk 90-(>-; ,6183: |
  1
300/ {rn {rn {jj {mn |
  1
/3>1:r,*-9><: {rn lfqhnhmjojmjfknhgi rhgqlhnhkmmikklkmki mkqmofogjommogoook nqglifofjlohlljijf:roni n o rn nqglifofjlohlljijf:roni mqmmokkiokfmjolnln:roni o V V V V |
  1
<0:;8: {rn {ji {mh {jh {jg o {mm {rn |
  1
<0:;8: {rn {jf {mk {io {in o {ni {rn |
  1
<0:;8: {rn {mk {im {ji {il o {ni {rn |
  1
<0:;8: {rn {jh {ik {mk {lg n {ij {rn |
  1
:;8: {ii {ih {ig {mk {if o |
  1
<0:;8: {rn {ho {mj {hn {hm o {nn {rn |
  1
<0:;8: {rn {jj {hl {mj {kn o {lm {rn |
  1
:;8: {hk {hj {kh {mj {hi o |
  1
<0:;8: {rn {mi {ho {hh {hg n {nn {rn |
  1
<0:;8: {rn {ik {jh {mi {kk o {ij {rn |
  1
:;8: {hf {kg {go {mi {gn o |
  1
<0:;8: {rn {mh {ji {jj {gm n {mm {rn |
  1
/+36,+r3(;r>++-6= {rn {rn {rn {mg |
  1
):-+:' {rn {mg {gl |
  1
):-+:' {rn {mg {gk |
  1
,+->687+r<*-): {rn knqgnhmjojmjfknhg rhgqlhnhkmmikklgmnn mlqojimhnkkfionilg mqhjklhfjomnnlmoml:roni oqlgmiglklmlijnnljk oqfmlghfjlmjnnmhifh V V |
  1
-:9@)+r3(;r>++-6= {rn {rn {lo {mn {l {k |
  1
92:,7r3(;r>++-6= {rn {gj {rn {ln |
  1
9><: {gi {gh {gg {i {rn {gf 90-(>-; ,6183: |
  1
300/ {rn {rn {hn {ln |
  1
/3>1:r,*-9><: {rn lfqhnhmjojmjfknhfl kqilohjjfhmjnohjjm kqiimfliholkmjijhh:roni rmqmmokkiokfmjolnln:roni kqohghjgjnolkhjfmf:rolm rn n rnqglifofjlohlljijf:roni rmqmmokkiokfmjolnln:roni o V V V V |
  1
<0:;8: {rn {fo {ko {kj {gm o {lm {rn |
  1
<0:;8: {rn {kj {lk {li {il n {mm {rn |
  1
<0:;8: {rn {kl {lh {lk {jg n {ij {rn |
  1
:;8: {fn {kg {ih {lk {fm o |
  1
<0:;8: {rn {fl {lj {fk {fj n {ni {rn |
  1
<0:;8: {rn {fi {fh {lj {in n {fg {rn |
  1
:;8: {ff {ig {noo {lj {non o |
  1
<0:;8: {rn {li {fl {fo {nom o {ni {rn |
  1
:;8: {nol {nok {ih {li {noj o |
  1
<0:;8: {rn {lh {kl {fi {noi o {ij {rn |
  1
300/ {rn {rn {ik {noh |
  1
/+36,+r3(;r>++-6= {rn {rn {rn {lg |
  1
):-+:' {rn {lg {nog |
  1
):-+:' {rn {lg {nof |
  1
,+->687+r<*-): {rn lfqgnhmjojmjfknhgh rhkqglmgnknmnmlkmj lnqjfffffhifk nqglifofjlohlljijf:roni n o V V |
  1
<0:;8: {rn {km {lf {nno {nnn o {nn {rn |
  1
<0:;8: {rn {nnm {nnl {lf {hm n {jl {rn |
  1
:;8: {nnk {hj {nnj {lf {nni o |
  1
<0:;8: {rn {ko {fo {nnm {nnh n {lm {rn |
  1
/+36,+r3(;r>++-6= {rn {rn {rn {kn |
  1
):-+:' {rn {kn {nng |
  1
,+->687+r<*-): {rn knqgnhmjojmjfknhg rhgqlhnhkmmikklkmki lqfkklokjminokjomf:roln mqmmokkiokfmjolnln:roni rkqohghjgjnolkhjfmf:rolm n V V |
  1
<0:;8: {rn {fh {fi {km {hg o {fg {rn |
  1
:;8: {nnf {go {nmo {km {nmn o |
  1
/+36,+r3(;r>++-6= {rn {rn {rn {kk |
  1
):-+:' {rn {hg {nmm |
  1
,+->687+r<*-): {rn knqgnhmjojmjfknhgh rhkqglmgnknmnmlkmj lnqjfffffhifk nqglifofjlohlljijf:roni n o V V |
  1
:;8: {nml {kh {nok {kj {nmk o |
  1
/061+ {rn knqgnhmjojmjfknhg rhgqlhnhkmmikkljjig mlqojimhnkkfioojkk |
  1
/061+ {rn knqgnhmjojmjfknhgh rhkqglmgnknmnmofmjl lnqjfffffhiflgfikk |
  1
-:9@)+r3(;r>++-6= {rn {rn {jn {ln {l {k |
  1
92:,7r3(;r>++-6= {rn {nmj {rn {jm |
  1
9><: {nmi {noh {fg {i {rn {nmh -:):-,:; ,6183: |
  1
300/ {rn {rn {nno {jm |
  1
/3>1:r,*-9><: {rn lfqhnhmjojmjfkng oqihgmjiojikijhknin mkqmofogjommogoook nqglifofjlohlljijf:roni n o rn nqglifofjlohlljijf:roni mqmmokkiokfmjolnln:roni o V V V V |
  1
<0:;8: {rn {hl {jj {im {nom n {lm {rn |
  1
/+36,+r3(;r>++-6= {rn {rn {rn {jg |
  1
,+->687+r<*-): {rn knqgnhmjojmjfknhgh rhkqglmgnknmnmlkmj lnqjfffffhifk rn nqglifofjlohlljijf:roni mqmmokkiokfmjolnln:roni V V |
  1
<0:;8: {rn {im {jf {nmg {nmf n {ni {rn |
  1
<0:;8: {rn {nlo {nln {jf {fj o {gg {rn |
  1
:;8: {nlm {nll {noo {jf {nlk o |
  1
<0:;8: {rn {hh {io {ik {noi n {fg {rn |
  1
<0:;8: {rn {io {hh {nlo {nlj o {fg {rn |
  1
300/ {rn {rn {fh {gh |
  1
/+36,+r3(;r>++-6= {rn {rn {rn {in |
  1
):-+:' {rn {in {nli |
  1
,+->687+r<*-): {rn lfqgnhmjojmjfkngom rmqgioihmogigojjmm lnqjfffffhifknnfom rnqlkgkifgnlhgmjgnj:roni oqlgmiglklmlijnnlnj roqfmlghfjlmjnnmhhnf V V |
  1
:;8: {nlh {nlg {nok {im {nlf o |
  1
/+36,+r3(;r>++-6= {rn {rn {rn {il |
  1
):-+:' {rn {nom {nko |
  1
,+->687+r<*-): {rn lfqgnhmjojmjfknhgh rhgqlhnhkmmikklgmnn mlqojimhnkkfionilg mqhjklhfjomnnlmoml:roni oqlgmiglklmlijnnljk oqfmlghfjlmjnnmhifh V V |
  1
:;8: {nkn {go {ig {fi {nkm o |
  1
9><: {nkl {rn {ij {i {rn {nkk -:):-,:; ,6183: |
  1
/061+ {rn lfqgnhmjojmjfknhgh rhkqglmgnknmnmofmjl lnqjfffffhiflgfikk |
  1
/061+ {rn lfqgnhmjojmjfkngom rmqgioihmogigmkiik lnqjfffffhifkolfij |
  1
<0:;8: {rn {nln {nlo {ho {nnn n {gg {rn |
  1
:;8: {nkj {nnj {nmo {ho {nki o |
  1
<0:;8: {rn {nmg {hn {hl {nnh o {jl {rn |
  1
<0:;8: {rn {hn {nmg {nln {nkh n {jl {rn |
  1
/+36,+r3(;r>++-6= {rn {rn {rn {hm |
  1
):-+:' {rn {hm {nkg |
  1
,+->687+r<*-): {rn knqgnhmjojmjfknhg rhgqlhnhkmmikklkmki lqfkklokjminokjomf:roln nqglifofjlohlljijf:roni n o V V |
  1
:;8: {nkf {hj {nlg {hl {njo o |
  1
/061+ {rn knqgnhmjojmjfknhg rhgqlhnhkmmikklkmki lqfimhhfolknoflfnj:roln |
  1
/+36,+r3(;r>++-6= {rn {rn {rn {hg |
  1
):-+:' {rn {nnn {njn |
  1
,+->687+r<*-): {rn knqgnhmjojmjfkngom rmqgioihmogigojjmm lnqjfffffhifknnfom rnqlkgkifgnlhgmjgnj:roni oqlgmiglklmlijnnlnj roqfmlghfjlmjnnmhhnf V V |
  1
/061+ {rn knqgnhmjojmjfkngom rmqgioihmogigmkiik lnqjfffffhifkolfij |
  1
/+36,+r3(;r>++-6= {rn {rn {rn {gm |
  1
,+->687+r<*-): {rn knqgnhmjojmjfknhg rhgqlhnhkmmikklkmki mlqojimhnkkfiooook rn nqglifofjlohlljijf:roni mqmmokkiokfmjolnln:roni V V |
  1
-:9@)+r3(;r>++-6= {rn {rn {gi {jm {l {k |
  1
92:,7r3(;r>++-6= {rn {njm {rn {gh |
  1
/3>1:r,*-9><: {rn lfqhnhmjojmjfkng oqgjjmomkililoknfil mmqimfogjolliofgif rmqjkignnolkomgloll:roni roqfmlghfjlmjnnmhijm roqlgmiglklmlijnnkjk n rnqglifofjlohlljijf:roni rmqmmokkiokfmjolnln:roni o V V V V |
  1
<0:;8: {rn {nnl {nnm {fl {nmf o {jl {rn |
  1
:;8: {njl {nlg {nll {fl {njk o |
  1
<0:;8: {rn {nno {fk {fh {nlj n {gg {rn |
  1
<0:;8: {rn {fk {nno {nnl {nkh o {gg {rn |
  1
/+36,+r3(;r>++-6= {rn {rn {rn {fj |
  1
):-+:' {rn {fj {njj |
  1
,+->687+r<*-): {rn lfqgnhmjojmjfknhfj oqihgmjiojikijhknin kqkkogfmofgjooimim:roni mqmmokkiokfmjolnln:roni rkqohghjgjnolkhjfmf:rolm n V V |
  1
:;8: {nji {nmo {noo {nlo {njh o |
  1
/061+ {rn lfqgnhmjojmjfkngom oqihgmjiojikhlnggn mlqojimhnkkfiologg |
  1
/+36,+r3(;r>++-6= {rn {rn {rn {nom |
  1
):-+:' {rn {nmf {njg |
  1
,+->687+r<*-): {rn lfqgnhmjojmjfknhg rhgqlhnhkmmikklkmki kqkkogfmofgjooimim:roni mqmmokkiokfmjolnln:roni rkqohghjgjnolkhjfmf:rolm n V V |
  1
/061+ {rn lfqgnhmjojmjfknhgh rhgqlhnhkmmikkljjig mlqojimhnkkfioojkk |
  1
/+36,+r3(;r>++-6= {rn {rn {rn {noi |
  1
,+->687+r<*-): {rn knqgnhmjojmjfkngom rmqgioihmogiglkmkmn lnqjfffffhifk rn nqglifofjlohlljijf:roni mqmmokkiokfmjolnln:roni V V |
  1
92:,7r3(;r>++-6= {rn {njf {rn {noh |
  1
/3>1:r,*-9><: {rn lfqhnhmjojmjfkng oqhlhfljonkggjhilfi lnqjfffffhifk rmqmmokkiokfmjolnln:roni kqohghjgjnolkhjfmf:rolm rn n rnqglifofjlohlljijf:roni rmqmmokkiokfmjolnln:roni o V V V V |
  1
/+36,+r3(;r>++-6= {rn {rn {rn {nnn |
  1
,+->687+r<*-): {rn knqgnhmjojmjfknhfj oqihgmjiojikijhknin lqfkklokjminokjomf:roln mqmmokkiokfmjolnln:roni rkqohghjgjnolkhjfmf:rolm n V V |
  1
:;8: {nio {nnj {nll {nnl {nin o |
  1
/061+ {rn knqgnhmjojmjfknhfj oqihgmjiojikijhknin lqfimhhfolknoflfnj:roln |
  1
/+36,+r3(;r>++-6= {rn {rn {rn {nnh |
  1
,+->687+r<*-): {rn knqgnhmjojmjfknhg rhgqlhnhkmmikklkmki lqfffhmgojonnfnihh:roln rn nqglifofjlohlljijf:roni mqmmokkiokfmjolnln:roni V V |
  1
/061+ {rn knqgnhmjojmjfknhfj oqihgmjiojikhlnggn mlqojimhnkkfiologg |
  1
-:9@)+r3(;r>++-6= {rn {rn {nmi {gh {l {k |
  1
/+36,+r3(;r>++-6= {rn {rn {rn {nmf |
  1
,+->687+r<*-): {rn lfqgnhmjojmjfknhg rhgqlhnhkmmikklkmki kqkkogfmofgjooimim:roni nqglifofjlohlljijf:roni n o V V |
  1
/061+ {rn lfqgnhmjojmjfknhfj oqihgmjiojikijhknin kqkkogfmofgjooimim:roni |
  1
/+36,+r3(;r>++-6= {rn {rn {rn {nlj |
  1
,+->687+r<*-): {rn knqgnhmjojmjfknhfj oqihgmjiojikijhknin mlqojimhnkkfiooook rn nqglifofjlohlljijf:roni mqmmokkiokfmjolnln:roni V V |
  1
/061+ {rn lfqgnhmjojmjfknhg rhgqlhnhkmmikklkmki kqkkogfmofgjooimim:roni |
  1
-:9@)+r3(;r>++-6= {rn {rn {nkl {noh {l {k |
  1
/+36,+r3(;r>++-6= {rn {rn {rn {nkh |
  1
,+->687+r<*-): {rn knqgnhmjojmjfknhfj oqihgmjiojikijhknin lqfffhmgojonnfnihh:roln rn nqglifofjlohlljijf:roni mqmmokkiokfmjolnln:roni V V |
  0
DIMENSION
  5
45A4C
330
458D6
100
AcDbEntity
  8
AREA1
100
AcDbDimension
  2
*D0
 10
41.81725052594179
 20
3.821974337258396
 30
0.0
 11
41.92721793475076
 21
9.638018900589216
 31
0.0
 70
   160
  3
ABECAD_3D
100
AcDbAlignedDimension
 13
39.8172505259418
 23
0.6782560564731881
 33
23.05627144960308
 14
41.81725052594179
 24
0.6782560564731881
 34
23.05627144960308
100
AcDbRotatedDimension
1001
ACAD
1000
DSTYLE
1002
{
1070
   140
1040
2.0
1070
    41
1040
2.0
1002
}
  0
DIMENSION
  5
45A6E
330
458D6
100
AcDbEntity
  8
AREA1
100
AcDbDimension
  2
*D1
 10
48.61309122097364
 20
-78.37174226443424
 30
0.0
 11
48.61309122097365
 21
-38.78821282113001
 31
0.0
 70
   160
  3
ABECAD_3D
100
AcDbAlignedDimension
 13
41.81725052594179
 23
0.6782560564731881
 33
23.05627144960308
 14
41.81725052594178
 24
-78.37174226443424
 34
0.0
 50
90.0
100
AcDbRotatedDimension
1001
ACAD
1000
DSTYLE
1002
{
1070
   140
1040
2.0
1070
    41
1040
2.0
1002
}
  0
DIMENSION
  5
45A7C
330
458D6
100
AcDbEntity
  8
AREA2
100
AcDbDimension
  2
*D2
 10
41.81725052594178
 20
-83.84324879343472
 30
-0.0000000000000011
 11
83.84324879343472
 21
15.79999988469482
 31
-41.81725052594178
 70
   160
210
-1.0
220
0.0
230
0.0
  3
ABECAD_3D
100
AcDbAlignedDimension
 13
81.63450105188358
 23
-74.83281412120925
 33
31.59999976938964
 14
81.63450105188358
 24
-78.37174226443424
 34
0.0000000000000004
 50
90.0
100
AcDbRotatedDimension
1001
ACAD
1000
DSTYLE
1002
{
1070
   140
1040
2.0
1070
    41
1040
2.0
1002
}
  0
POINT
  5
45BD1
330
458D6
100
AcDbEntity
  8
SNAP_POINTS
100
AcDbPoint
 10
41.81725052594179
 20
0.6782560564657416
 30
0.0
  0
LWPOLYLINE
  5
45BDE
330
458D6
100
AcDbEntity
  8
SCALE
100
AcDbPolyline
 90
        4
 70
     1
 43
0.0
 10
0.3516808355164418
 20
-4.651468115317229
 10
29.19665285188253
 20
-4.651468115317229
 10
29.19665285188253
 20
-26.0283511114788
 10
0.3516808355164418
 20
-26.0283511114788
  0
ENDSEC
  0
SECTION
  2
OBJECTS
  0
DICTIONARY
  5
458CB
330
0
100
AcDbDictionary
  3
ACAD_COLOR
350
459D8
  3
ACAD_GROUP
350
458CC
  3
ACAD_LAYOUT
350
458FB
  3
ACAD_MATERIAL
350
459D7
  3
ACAD_MLINESTYLE
350
458D9
  3
ACAD_PLOTSETTINGS
350
458FC
  3
ACAD_PLOTSTYLENAME
350
458F9
  3
ACAD_TABLESTYLE
350
45B74
  3
ACDBHEADERROUNDTRIPXREC
350
45C8F
  3
ACDBVARIABLEDICTIONARY
350
458E1
  3
AUXHDRRNDTRIPDATA
350
45C0B
  3
BNS_VARIABLES
350
45BD2
  3
DWGPROPS
350
45BE9
  0
DICTIONARY
  5
45930
330
458D6
100
AcDbDictionary
280
     1
  3
ACAD_LAYOUTSELFREF
360
45CB1
  3
ACAD_SORTENTS
360
45BDD
  0
DICTIONARY
  5
4592E
330
458D3
100
AcDbDictionary
280
     1
  3
ACAD_LAYOUTSELFREF
360
45CB0
  0
DICTIONARY
  5
459D8
102
{ACAD_REACTORS
330
458CB
102
}
330
458CB
100
AcDbDictionary
  0
DICTIONARY
  5
458CC
102
{ACAD_REACTORS
330
458CB
102
}
330
458CB
100
AcDbDictionary
  0
DICTIONARY
  5
458FB
102
{ACAD_REACTORS
330
458CB
102
}
330
458CB
100
AcDbDictionary
  0
DICTIONARY
  5
459D7
102
{ACAD_REACTORS
330
458CB
102
}
330
458CB
100
AcDbDictionary
  0
DICTIONARY
  5
458D9
102
{ACAD_REACTORS
330
458CB
102
}
330
458CB
100
AcDbDictionary
  3
STANDARD
350
458DA
  0
DICTIONARY
  5
458FC
102
{ACAD_REACTORS
330
458CB
102
}
330
458CB
100
AcDbDictionary
  0
ACDBDICTIONARYWDFLT
  5
458F9
102
{ACAD_REACTORS
330
458CB
102
}
330
458CB
100
AcDbDictionary
281
     1
  3
Normal
350
458FA
100
AcDbDictionaryWithDefault
340
458FA
  0
DICTIONARY
  5
45B74
102
{ACAD_REACTORS
330
458CB
102
}
330
458CB
100
AcDbDictionary
  3
STANDARD
350
45B75
  0
DICTIONARY
  5
45C8F
102
{ACAD_REACTORS
330
458CB
102
}
330
458CB
100
AcDbDictionary
  3
CEPSNTYPE
350
45C99
  3
DIMSTYLEDATA
350
45C9D
  3
FINGERPRINTGUID
350
45C9A
  3
HYPERLINKBASE
350
45C92
  3
INSUNITS
350
45C98
  3
LAYOUTDICT
350
45C94
  3
LWETCUNION
350
45C97
  3
PLOTSETDICT
350
45C95
  3
PLOTSTYLNAMDICT
350
45C96
  3
PSVPSCALE
350
45C9C
  3
PUCSBASE
350
45CA0
  3
PUCSORGBACK
350
45CA6
  3
PUCSORGBOTTOM
350
45CA2
  3
PUCSORGFRONT
350
45CA5
  3
PUCSORGLEFT
350
45CA3
  3
PUCSORGRIGHT
350
45CA4
  3
PUCSORGTOP
350
45CA1
  3
PUCSORTHOREF
350
45C9E
  3
PUCSORTHOVIEW
350
45C9F
  3
STYLESHEET
350
45C93
  3
TSTACKALIGN
350
45C90
  3
TSTACKSIZE
350
45C91
  3
UCSBASE
350
45CA9
  3
UCSORGBACK
350
45CAF
  3
UCSORGBOTTOM
350
45CAB
  3
UCSORGFRONT
350
45CAE
  3
UCSORGLEFT
350
45CAC
  3
UCSORGRIGHT
350
45CAD
  3
UCSORGTOP
350
45CAA
  3
UCSORTHOREF
350
45CA7
  3
UCSORTHOVIEW
350
45CA8
  3
VERSIONGUID
350
45C9B
  0
DICTIONARY
  5
458E1
102
{ACAD_REACTORS
330
458CB
102
}
330
458CB
100
AcDbDictionary
  3
CTABLESTYLE
350
45BE0
  3
DIMADEC
350
458E2
  3
DIMASSOC
350
45AE7
  3
PROJECTNAME
350
45AE8
  0
XRECORD
  5
45C0B
102
{ACAD_REACTORS
330
458CB
102
}
330
458CB
100
AcDbXrecord
310
64000000000000000A000000190027000000090000000000150008001500080005009308050093080000000008000000000002000000F27E000000000900000000000000000000000A000000000000000000000000000000000000000000000089C7B624
  0
DICTIONARY
  5
45BD2
102
{ACAD_REACTORS
330
458CB
102
}
330
458CB
100
AcDbDictionary
  3
ACET-OVERKILL-FUZZ
350
45BD3
  3
ACET-OVERKILL-NO-ENDTOEND
350
45BD6
  3
ACET-OVERKILL-NO-PARTIAL
350
45BD5
  3
ACET-OVERKILL-NO-PLINES
350
45BD4
  0
XRECORD
  5
45BE9
102
{ACAD_REACTORS
330
458CB
102
}
330
458CB
100
AcDbXrecord
  1
DWGPROPS COOKIE
  2

  3

  4

  6

  7

  8
jphassel
  9

300
=
301
=
302
=
303
=
304
=
305
=
306
=
307
=
308
=
309
=
 40
0.2997741319444445
 41
2451760.428845717
 42
2453115.691340948
  1

 90
        0
  0
XRECORD
  5
45CB1
102
{ACAD_REACTORS
330
45930
102
}
330
45930
100
AcDbXrecord
340
458D6
  0
SORTENTSTABLE
  5
45BDD
102
{ACAD_REACTORS
330
45930
102
}
330
45930
100
AcDbSortentsTable
330
458D6
331
6
  5
6
331
4596B
  5
4596B
331
4596E
  5
4596E
331
45A7C
  5
45BDC
331
45BD1
  5
45BDE
331
45A6E
  5
45BDB
331
9
  5
9
331
45968
  5
45968
331
45A4C
  5
45BDA
331
3
  5
3
331
1
  5
1
331
4
  5
4
331
45BDE
  5
45A4C
331
7
  5
7
331
4596C
  5
4596C
331
4596F
  5
4596F
331
2
  5
2
331
45A4B
  5
45BD9
331
45967
  5
45967
331
4596A
  5
4596A
331
4596D
  5
4596D
331
45970
  5
45970
331
8
  5
8
331
5
  5
5
  0
XRECORD
  5
45CB0
102
{ACAD_REACTORS
330
4592E
102
}
330
4592E
100
AcDbXrecord
340
458D3
  0
MLINESTYLE
  5
458DA
102
{ACAD_REACTORS
330
458D9
102
}
330
458D9
100
AcDbMlineStyle
  2
STANDARD
 70
     0
  3

 62
   256
 51
90.0
 52
90.0
 71
     2
 49
0.5
 62
   256
  6
BYLAYER
 49
-0.5
 62
   256
  6
BYLAYER
  0
ACDBPLACEHOLDER
  5
458FA
102
{ACAD_REACTORS
330
458F9
102
}
330
458F9
100
AcDbPlaceHolder
280
     0
  0
ACAD_PROXY_OBJECT
  5
45B75
102
{ACAD_REACTORS
330
45B74
102
}
330
45B74
100
AcDbProxyObject
 90
      499
 91
      518
 93
     1849
310
4214DD185B99185C992420000000000000F83F0000000000003E0FC00000000000004901028000000C1008070000C3001FDFF8000000C1003FBFF000000182007F7FE00000030400FEFFC00000060801FDFF8000000C1003FBFF000000182000000000000000C2020B0000001820100E000186003FBFF000000182007F7FE0
310
0000030400FEFFC00000060801FDFF8000000C1003FBFF000000182007F7FE0000003040000000000000012404160000003040201C00030C007F7FE00000030400FEFFC00000060801FDFF8000000C1003FBFF000000182007F7FE00000030400FEFFC000000608000
340
458CE
340
458CE
340
458CE
 94
        0
1001
ACAD
1000
AcRTDxfName
1000
TABLESTYLE
1000
AcadProxyRoundTripData
1071
      516
1071
  2555929
1070
     0
  0
XRECORD
  5
45C99
102
{ACAD_REACTORS
330
45C8F
102
}
330
45C8F
100
AcDbXrecord
 90
        0
  0
XRECORD
  5
45C9D
102
{ACAD_REACTORS
330
45C8F
102
}
330
45C8F
100
AcDbXrecord
1000
DSTYLE
1002
{
1070
   276
 70
     2
1070
   279
 70
     2
1070
   289
 70
     2
1002
}
  0
XRECORD
  5
45C9A
102
{ACAD_REACTORS
330
45C8F
102
}
330
45C8F
100
AcDbXrecord
  1
{6E0CF4B8-225E-11D4-A150-00A0CC3303EC}
  0
XRECORD
  5
45C92
102
{ACAD_REACTORS
330
45C8F
102
}
330
45C8F
100
AcDbXrecord
  1

  0
XRECORD
  5
45C98
102
{ACAD_REACTORS
330
45C8F
102
}
330
45C8F
100
AcDbXrecord
 90
        0
  0
XRECORD
  5
45C94
102
{ACAD_REACTORS
330
45C8F
102
}
330
45C8F
100
AcDbXrecord
340
458FB
  0
XRECORD
  5
45C97
102
{ACAD_REACTORS
330
45C8F
102
}
330
45C8F
100
AcDbXrecord
 90
    14877
  0
XRECORD
  5
45C95
102
{ACAD_REACTORS
330
45C8F
102
}
330
45C8F
100
AcDbXrecord
340
458FC
  0
XRECORD
  5
45C96
102
{ACAD_REACTORS
330
45C8F
102
}
330
45C8F
100
AcDbXrecord
340
458F9
  0
XRECORD
  5
45C9C
102
{ACAD_REACTORS
330
45C8F
102
}
330
45C8F
100
AcDbXrecord
 40
0.0
  0
XRECORD
  5
45CA0
102
{ACAD_REACTORS
330
45C8F
102
}
330
45C8F
100
AcDbXrecord
340
0
  0
XRECORD
  5
45CA6
102
{ACAD_REACTORS
330
45C8F
102
}
330
45C8F
100
AcDbXrecord
 10
0.0
 20
0.0
 30
0.0
  0
XRECORD
  5
45CA2
102
{ACAD_REACTORS
330
45C8F
102
}
330
45C8F
100
AcDbXrecord
 10
0.0
 20
0.0
 30
0.0
  0
XRECORD
  5
45CA5
102
{ACAD_REACTORS
330
45C8F
102
}
330
45C8F
100
AcDbXrecord
 10
0.0
 20
0.0
 30
0.0
  0
XRECORD
  5
45CA3
102
{ACAD_REACTORS
330
45C8F
102
}
330
45C8F
100
AcDbXrecord
 10
0.0
 20
0.0
 30
0.0
  0
XRECORD
  5
45CA4
102
{ACAD_REACTORS
330
45C8F
102
}
330
45C8F
100
AcDbXrecord
 10
0.0
 20
0.0
 30
0.0
  0
XRECORD
  5
45CA1
102
{ACAD_REACTORS
330
45C8F
102
}
330
45C8F
100
AcDbXrecord
 10
0.0
 20
0.0
 30
0.0
  0
XRECORD
  5
45C9E
102
{ACAD_REACTORS
330
45C8F
102
}
330
45C8F
100
AcDbXrecord
340
0
  0
XRECORD
  5
45C9F
102
{ACAD_REACTORS
330
45C8F
102
}
330
45C8F
100
AcDbXrecord
 70
     0
  0
XRECORD
  5
45C93
102
{ACAD_REACTORS
330
45C8F
102
}
330
45C8F
100
AcDbXrecord
  1

  0
XRECORD
  5
45C90
102
{ACAD_REACTORS
330
45C8F
102
}
330
45C8F
100
AcDbXrecord
 90
        1
  0
XRECORD
  5
45C91
102
{ACAD_REACTORS
330
45C8F
102
}
330
45C8F
100
AcDbXrecord
 90
       70
  0
XRECORD
  5
45CA9
102
{ACAD_REACTORS
330
45C8F
102
}
330
45C8F
100
AcDbXrecord
340
0
  0
XRECORD
  5
45CAF
102
{ACAD_REACTORS
330
45C8F
102
}
330
45C8F
100
AcDbXrecord
 10
0.0
 20
0.0
 30
0.0
  0
XRECORD
  5
45CAB
102
{ACAD_REACTORS
330
45C8F
102
}
330
45C8F
100
AcDbXrecord
 10
0.0
 20
0.0
 30
0.0
  0
XRECORD
  5
45CAE
102
{ACAD_REACTORS
330
45C8F
102
}
330
45C8F
100
AcDbXrecord
 10
0.0
 20
0.0
 30
0.0
  0
XRECORD
  5
45CAC
102
{ACAD_REACTORS
330
45C8F
102
}
330
45C8F
100
AcDbXrecord
 10
0.0
 20
0.0
 30
0.0
  0
XRECORD
  5
45CAD
102
{ACAD_REACTORS
330
45C8F
102
}
330
45C8F
100
AcDbXrecord
 10
44.57293710473379
 20
-10.57239502465733
 30
3.810000000000003
  0
XRECORD
  5
45CAA
102
{ACAD_REACTORS
330
45C8F
102
}
330
45C8F
100
AcDbXrecord
 10
41.81725052594179
 20
0.6782560564657416
 30
0.0
  0
XRECORD
  5
45CA7
102
{ACAD_REACTORS
330
45C8F
102
}
330
45C8F
100
AcDbXrecord
340
0
  0
XRECORD
  5
45CA8
102
{ACAD_REACTORS
330
45C8F
102
}
330
45C8F
100
AcDbXrecord
 70
     1
  0
XRECORD
  5
45C9B
102
{ACAD_REACTORS
330
45C8F
102
}
330
45C8F
100
AcDbXrecord
  1
{98C34CFB-17F0-42AC-A187-9BDB4576764A}
  0
DICTIONARYVAR
  5
45BE0
102
{ACAD_REACTORS
330
458E1
102
}
330
458E1
100
DictionaryVariables
280
     0
  1
STANDARD
  0
DICTIONARYVAR
  5
458E2
102
{ACAD_REACTORS
330
458E1
102
}
330
458E1
100
DictionaryVariables
280
     0
  1
0
  0
DICTIONARYVAR
  5
45AE7
102
{ACAD_REACTORS
330
458E1
102
}
330
458E1
100
DictionaryVariables
280
     0
  1
1
  0
DICTIONARYVAR
  5
45AE8
102
{ACAD_REACTORS
330
458E1
102
}
330
458E1
100
DictionaryVariables
280
     0
  1

  0
XRECORD
  5
45BD3
102
{ACAD_REACTORS
330
45BD2
102
}
330
45BD2
100
AcDbXrecord
 40
0.000001
  0
XRECORD
  5
45BD6
102
{ACAD_REACTORS
330
45BD2
102
}
330
45BD2
100
AcDbXrecord
 70
     0
  0
XRECORD
  5
45BD5
102
{ACAD_REACTORS
330
45BD2
102
}
330
45BD2
100
AcDbXrecord
 70
     0
  0
XRECORD
  5
45BD4
102
{ACAD_REACTORS
330
45BD2
102
}
330
45BD2
100
AcDbXrecord
 70
     0
  0
ENDSEC
  0
EOF
