  0
SECTION
  2
HEADER
  9
$ACADVER
  1
AC1014
  9
$ACADMAINTVER
 70
     9
  9
$DWGCODEPAGE
  3
ANSI_1252
  9
$INSBASE
 10
-579.3132324932856
 20
47.4377306157709
 30
0.0
  9
$EXTMIN
 10
-617.7141340954076
 20
35.36002246824687
 30
-0.0000000000000025
  9
$EXTMAX
 10
-490.8018628291318
 20
58.80557131080275
 30
31.59999976940396
  9
$LIMMIN
 10
0.0
 20
0.0
  9
$LIMMAX
 10
12.0
 20
9.0
  9
$ORTHOMODE
 70
     0
  9
$REGENMODE
 70
     1
  9
$FILLMODE
 70
     1
  9
$QTEXTMODE
 70
     0
  9
$MIRRTEXT
 70
     1
  9
$DRAGMODE
 70
     2
  9
$LTSCALE
 40
1.0
  9
$OSMODE
 70
    37
  9
$ATTMODE
 70
     0
  9
$TEXTSIZE
 40
0.2
  9
$TRACEWID
 40
0.05
  9
$TEXTSTYLE
  7
STANDARD
  9
$CLAYER
  8
0
  9
$CELTYPE
  6
BYLAYER
  9
$CECOLOR
 62
   256
  9
$CELTSCALE
 40
1.0
  9
$DELOBJ
 70
     1
  9
$DISPSILH
 70
     0
  9
$DIMSCALE
 40
0.0
  9
$DIMASZ
 40
0.1796875
  9
$DIMEXO
 40
0.0625
  9
$DIMDLI
 40
0.375
  9
$DIMRND
 40
0.0
  9
$DIMDLE
 40
0.0
  9
$DIMEXE
 40
0.1796875
  9
$DIMTP
 40
0.0
  9
$DIMTM
 40
0.0
  9
$DIMTXT
 40
0.125
  9
$DIMCEN
 40
0.08984375
  9
$DIMTSZ
 40
0.0
  9
$DIMTOL
 70
     0
  9
$DIMLIM
 70
     0
  9
$DIMTIH
 70
     0
  9
$DIMTOH
 70
     0
  9
$DIMSE1
 70
     0
  9
$DIMSE2
 70
     0
  9
$DIMTAD
 70
     0
  9
$DIMZIN
 70
     4
  9
$DIMBLK
  1

  9
$DIMASO
 70
     1
  9
$DIMSHO
 70
     1
  9
$DIMPOST
  1

  9
$DIMAPOST
  1

  9
$DIMALT
 70
     1
  9
$DIMALTD
 70
     6
  9
$DIMALTF
 40
0.03937
  9
$DIMLFAC
 40
1.0
  9
$DIMTOFL
 70
     0
  9
$DIMTVP
 40
0.0
  9
$DIMTIX
 70
     1
  9
$DIMSOXD
 70
     0
  9
$DIMSAH
 70
     0
  9
$DIMBLK1
  1

  9
$DIMBLK2
  1

  9
$DIMSTYLE
  2
ABECAD_3V
  9
$DIMCLRD
 70
     0
  9
$DIMCLRE
 70
     0
  9
$DIMCLRT
 70
     0
  9
$DIMTFAC
 40
1.5
  9
$DIMGAP
 40
0.09375
  9
$DIMJUST
 70
     0
  9
$DIMSD1
 70
     0
  9
$DIMSD2
 70
     0
  9
$DIMTOLJ
 70
     1
  9
$DIMTZIN
 70
     4
  9
$DIMALTZ
 70
     4
  9
$DIMALTTZ
 70
     4
  9
$DIMFIT
 70
     5
  9
$DIMUPT
 70
     0
  9
$DIMUNIT
 70
     2
  9
$DIMDEC
 70
     2
  9
$DIMTDEC
 70
     2
  9
$DIMALTU
 70
     7
  9
$DIMALTTD
 70
     6
  9
$DIMTXSTY
  7
STANDARD
  9
$DIMAUNIT
 70
     0
  9
$LUNITS
 70
     2
  9
$LUPREC
 70
     6
  9
$SKETCHINC
 40
0.1
  9
$FILLETRAD
 40
0.0
  9
$AUNITS
 70
     0
  9
$AUPREC
 70
     0
  9
$MENU
  1
acad
  9
$ELEVATION
 40
0.0
  9
$PELEVATION
 40
0.0
  9
$THICKNESS
 40
0.0
  9
$LIMCHECK
 70
     0
  9
$BLIPMODE
 70
     0
  9
$CHAMFERA
 40
0.0
  9
$CHAMFERB
 40
0.0
  9
$CHAMFERC
 40
0.0
  9
$CHAMFERD
 40
0.0
  9
$SKPOLY
 70
     0
  9
$TDCREATE
 40
2451670.449415046
  9
$TDUPDATE
 40
2453137.557257222
  9
$TDINDWG
 40
0.4279721528
  9
$TDUSRTIMER
 40
0.4279721528
  9
$USRTIMER
 70
     1
  9
$ANGBASE
 50
0.0
  9
$ANGDIR
 70
     0
  9
$PDMODE
 70
     3
  9
$PDSIZE
 40
2.286
  9
$PLINEWID
 40
0.0
  9
$COORDS
 70
     1
  9
$SPLFRAME
 70
     0
  9
$SPLINETYPE
 70
     6
  9
$SPLINESEGS
 70
     8
  9
$ATTDIA
 70
     0
  9
$ATTREQ
 70
     1
  9
$HANDLING
 70
 22529
  9
$HANDSEED
  5
287B
  9
$SURFTAB1
 70
     6
  9
$SURFTAB2
 70
     6
  9
$SURFTYPE
 70
     6
  9
$SURFU
 70
     6
  9
$SURFV
 70
     6
  9
$UCSNAME
  2

  9
$UCSORG
 10
-579.3132324932856
 20
47.4377306157709
 30
0.0
  9
$UCSXDIR
 10
1.0
 20
0.0
 30
0.0
  9
$UCSYDIR
 10
0.0
 20
1.0
 30
0.0
  9
$PUCSNAME
  2

  9
$PUCSORG
 10
0.0
 20
0.0
 30
0.0
  9
$PUCSXDIR
 10
1.0
 20
0.0
 30
0.0
  9
$PUCSYDIR
 10
0.0
 20
1.0
 30
0.0
  9
$USERI1
 70
     0
  9
$USERI2
 70
     0
  9
$USERI3
 70
     0
  9
$USERI4
 70
     0
  9
$USERI5
 70
     0
  9
$USERR1
 40
0.0
  9
$USERR2
 40
0.0
  9
$USERR3
 40
0.0
  9
$USERR4
 40
0.0
  9
$USERR5
 40
0.0
  9
$WORLDVIEW
 70
     1
  9
$SHADEDGE
 70
     3
  9
$SHADEDIF
 70
    70
  9
$TILEMODE
 70
     0
  9
$MAXACTVP
 70
    16
  9
$PINSBASE
 10
0.0
 20
0.0
 30
0.0
  9
$PLIMCHECK
 70
     0
  9
$PEXTMIN
 10
0.0226429257092988
 20
0.0040681204654334
 30
0.0
  9
$PEXTMAX
 10
10.55573210096327
 20
8.074637622092751
 30
0.0
  9
$PLIMMIN
 10
-0.2112501249538632
 20
-0.2112499935420479
  9
$PLIMMAX
 10
10.78874963475024
 20
8.288749766162061
  9
$UNITMODE
 70
     0
  9
$VISRETAIN
 70
     0
  9
$PLINEGEN
 70
     0
  9
$PSLTSCALE
 70
     1
  9
$TREEDEPTH
 70
  3020
  9
$PICKSTYLE
 70
     1
  9
$CMLSTYLE
  2
STANDARD
  9
$CMLJUST
 70
     0
  9
$CMLSCALE
 40
1.0
  9
$PROXYGRAPHICS
 70
     1
  9
$MEASUREMENT
 70
     1
  0
ENDSEC
  0
SECTION
  2
CLASSES
  0
CLASS
  1
DICTIONARYVAR
  2
AcDbDictionaryVar
  3
AutoCAD 2000
 90
        0
280
     0
281
     0
  0
CLASS
  1
ACDBDICTIONARYWDFLT
  2
AcDbDictionaryWithDefault
  3
AutoCAD 2000
 90
        0
280
     0
281
     0
  0
CLASS
  1
ACDBPLACEHOLDER
  2
AcDbPlaceHolder
  3
AutoCAD 2000
 90
        0
280
     0
281
     0
  0
CLASS
  1
LAYOUT
  2
AcDbLayout
  3
AutoCAD 2000
 90
        0
280
     0
281
     0
  0
CLASS
  1
LONG_TRANSACTION
  2
AcDbLongTransaction
  3
AutoCAD 2000
 90
        0
280
     0
281
     0
  0
CLASS
  1
LWPOLYLINE
  2
AcDbPolyline
  3
AutoCAD 2000
 90
        0
280
     0
281
     1
  0
CLASS
  1
HATCH
  2
AcDbHatch
  3
AutoCAD 2000
 90
        0
280
     0
281
     1
  0
CLASS
  1
XRECORD
  2
AcDbXrecord
  3
AutoCAD 2000
 90
        0
280
     0
281
     0
  0
CLASS
  1
LONG_TRANSACTION
  2
AcDbLongTransaction
  3
AutoCAD 2000
 90
        0
280
     0
281
     0
  0
CLASS
  1
LWPOLYLINE
  2
AcDbPolyline
  3
AutoCAD 2000
 90
        0
280
     0
281
     1
  0
CLASS
  1
HATCH
  2
AcDbHatch
  3
AutoCAD 2000
 90
        0
280
     0
281
     1
  0
CLASS
  1
XRECORD
  2
AcDbXrecord
  3
AutoCAD 2000
 90
        0
280
     0
281
     0
  0
CLASS
  1
LONG_TRANSACTION
  2
AcDbLongTransaction
  3
AutoCAD 2000
 90
        0
280
     0
281
     0
  0
CLASS
  1
LWPOLYLINE
  2
AcDbPolyline
  3
AutoCAD 2000
 90
        0
280
     0
281
     1
  0
CLASS
  1
HATCH
  2
AcDbHatch
  3
AutoCAD 2000
 90
        0
280
     0
281
     1
  0
CLASS
  1
XRECORD
  2
AcDbXrecord
  3
AutoCAD 2000
 90
        0
280
     0
281
     0
  0
CLASS
  1
LONG_TRANSACTION
  2
AcDbLongTransaction
  3
AutoCAD 2000
 90
        0
280
     0
281
     0
  0
CLASS
  1
LWPOLYLINE
  2
AcDbPolyline
  3
AutoCAD 2000
 90
        0
280
     0
281
     1
  0
CLASS
  1
HATCH
  2
AcDbHatch
  3
AutoCAD 2000
 90
        0
280
     0
281
     1
  0
CLASS
  1
XRECORD
  2
AcDbXrecord
  3
AutoCAD 2000
 90
        0
280
     0
281
     0
  0
CLASS
  1
LONG_TRANSACTION
  2
AcDbLongTransaction
  3
AutoCAD 2000
 90
        0
280
     0
281
     0
  0
CLASS
  1
LWPOLYLINE
  2
AcDbPolyline
  3
AutoCAD 2000
 90
        0
280
     0
281
     1
  0
CLASS
  1
HATCH
  2
AcDbHatch
  3
AutoCAD 2000
 90
        0
280
     0
281
     1
  0
CLASS
  1
XRECORD
  2
AcDbXrecord
  3
AutoCAD 2000
 90
        0
280
     0
281
     0
  0
CLASS
  1
TABLESTYLE
  2
AcDbTableStyle
  3
ObjectDBX Classes
 90
     2047
280
     0
281
     0
  0
CLASS
  1
SORTENTSTABLE
  2
AcDbSortentsTable
  3
AutoCAD 2000
 90
        0
280
     0
281
     0
  0
CLASS
  1
ACAD_PROXY_OBJECT_WRAPPER
  2
AcDbProxyObjectWrapper
  3
AutoCAD 2000
 90
        0
280
     0
281
     0
  0
CLASS
  1
LONG_TRANSACTION
  2
AcDbLongTransaction
  3
AutoCAD 2000
 90
        0
280
     0
281
     0
  0
CLASS
  1
LWPOLYLINE
  2
AcDbPolyline
  3
AutoCAD 2000
 90
        0
280
     0
281
     1
  0
CLASS
  1
HATCH
  2
AcDbHatch
  3
AutoCAD 2000
 90
        0
280
     0
281
     1
  0
CLASS
  1
XRECORD
  2
AcDbXrecord
  3
AutoCAD 2000
 90
        0
280
     0
281
     0
  0
CLASS
  1
LONG_TRANSACTION
  2
AcDbLongTransaction
  3
AutoCAD 2000
 90
        0
280
     0
281
     0
  0
CLASS
  1
LWPOLYLINE
  2
AcDbPolyline
  3
AutoCAD 2000
 90
        0
280
     0
281
     1
  0
CLASS
  1
HATCH
  2
AcDbHatch
  3
AutoCAD 2000
 90
        0
280
     0
281
     1
  0
CLASS
  1
XRECORD
  2
AcDbXrecord
  3
AutoCAD 2000
 90
        0
280
     0
281
     0
  0
ENDSEC
  0
SECTION
  2
TABLES
  0
TABLE
  2
VPORT
  5
469
330
0
100
AcDbSymbolTable
 70
     1
  0
VPORT
  5
27CF
330
469
100
AcDbSymbolTableRecord
100
AcDbViewportTableRecord
  2
*ACTIVE
 70
     0
 10
0.0
 20
0.0
 11
1.0
 21
1.0
 12
-333.3911696687139
 22
-85.79958878884967
 13
0.0
 23
0.0
 14
1.0
 24
1.0
 15
0.0
 25
0.0
 16
0.0
 26
0.0
 36
1.0
 17
-201.2859912414894
 27
133.0085389778893
 37
31.31551725228996
 40
79.82476214868885
 41
1.775510204081632
 42
50.0
 43
0.0
 44
0.0
 50
0.0
 51
0.0
 71
     0
 72
   100
 73
     1
 74
     1
 75
     0
 76
     0
 77
     0
 78
     0
  0
ENDTAB
  0
TABLE
  2
LTYPE
  5
466
330
0
100
AcDbSymbolTable
 70
     1
  0
LTYPE
  5
472
330
466
100
AcDbSymbolTableRecord
100
AcDbLinetypeTableRecord
  2
BYBLOCK
 70
     0
  3

 72
    65
 73
     0
 40
0.0
  0
LTYPE
  5
473
330
466
100
AcDbSymbolTableRecord
100
AcDbLinetypeTableRecord
  2
BYLAYER
 70
     0
  3

 72
    65
 73
     0
 40
0.0
  0
LTYPE
  5
474
330
466
100
AcDbSymbolTableRecord
100
AcDbLinetypeTableRecord
  2
CONTINUOUS
 70
     0
  3
Solid line
 72
    65
 73
     0
 40
0.0
  0
ENDTAB
  0
TABLE
  2
LAYER
  5
463
102
{ACAD_XDICTIONARY
360
26D1
102
}
330
0
100
AcDbSymbolTable
 70
     8
  0
LAYER
  5
46F
330
463
100
AcDbSymbolTableRecord
100
AcDbLayerTableRecord
  2
0
 70
     0
 62
     7
  6
CONTINUOUS
  0
LAYER
  5
485
330
463
100
AcDbSymbolTableRecord
100
AcDbLayerTableRecord
  2
AREA1
 70
     0
 62
     7
  6
CONTINUOUS
  0
LAYER
  5
486
330
463
100
AcDbSymbolTableRecord
100
AcDbLayerTableRecord
  2
AREA2
 70
     0
 62
     7
  6
CONTINUOUS
  0
LAYER
  5
494
330
463
100
AcDbSymbolTableRecord
100
AcDbLayerTableRecord
  2
DEFPOINTS
 70
     0
 62
    -7
  6
CONTINUOUS
  0
LAYER
  5
495
330
463
100
AcDbSymbolTableRecord
100
AcDbLayerTableRecord
  2
DIMS-MTG-HOLES
 70
     0
 62
    -1
  6
CONTINUOUS
  0
LAYER
  5
4EB
330
463
100
AcDbSymbolTableRecord
100
AcDbLayerTableRecord
  2
SCALE
 70
     0
 62
    -7
  6
CONTINUOUS
  0
LAYER
  5
560
330
463
100
AcDbSymbolTableRecord
100
AcDbLayerTableRecord
  2
ATTRIBUTES
 70
     0
 62
    -7
  6
CONTINUOUS
  0
LAYER
  5
561
330
463
100
AcDbSymbolTableRecord
100
AcDbLayerTableRecord
  2
SNAP_POINTS
 70
     0
 62
    -1
  6
CONTINUOUS
  0
ENDTAB
  0
TABLE
  2
STYLE
  5
464
330
0
100
AcDbSymbolTable
 70
     1
  0
STYLE
  5
470
330
464
100
AcDbSymbolTableRecord
100
AcDbTextStyleTableRecord
  2
STANDARD
 70
     0
 40
0.0
 41
1.0
 50
0.0
 71
     0
 42
0.2
  3
txt
  4

  0
ENDTAB
  0
TABLE
  2
VIEW
  5
467
330
0
100
AcDbSymbolTable
 70
     0
  0
ENDTAB
  0
TABLE
  2
UCS
  5
468
330
0
100
AcDbSymbolTable
 70
     0
  0
ENDTAB
  0
TABLE
  2
APPID
  5
46A
330
0
100
AcDbSymbolTable
 70
     2
  0
APPID
  5
471
330
46A
100
AcDbSymbolTableRecord
100
AcDbRegAppTableRecord
  2
ACAD
 70
     0
  0
APPID
  5
47E
330
46A
100
AcDbSymbolTableRecord
100
AcDbRegAppTableRecord
  2
AVE_RENDER
 70
     0
  0
ENDTAB
  0
TABLE
  2
DIMSTYLE
  5
46B
330
0
100
AcDbSymbolTable
 70
     3
  0
DIMSTYLE
105
47F
330
46B
100
AcDbSymbolTableRecord
100
AcDbDimStyleTableRecord
  2
STANDARD
 70
     0
  3

  4

  5

  6

  7

 40
1.0
 41
0.18
 42
0.0625
 43
0.38
 44
0.18
 45
0.0
 46
0.0
 47
0.0
 48
0.0
140
0.18
141
0.09
142
0.0
143
25.4
144
1.0
145
0.0
146
1.0
147
0.09
 71
     0
 72
     0
 73
     1
 74
     1
 75
     0
 76
     0
 77
     0
 78
     0
170
     0
171
     2
172
     0
173
     0
174
     0
175
     0
176
     0
177
     0
178
     0
270
     5
271
     6
272
     6
273
     5
274
     1
340
470
275
     0
280
     0
281
     0
282
     0
283
     1
284
     4
285
     4
286
     4
287
     5
288
     0
  0
DIMSTYLE
105
49A
330
46B
100
AcDbSymbolTableRecord
100
AcDbDimStyleTableRecord
  2
ABECAD_3V
 70
     0
  3

  4

  5

  6

  7

 40
0.0
 41
0.1796875
 42
0.0625
 43
0.375
 44
0.1796875
 45
0.0
 46
0.0
 47
0.0
 48
0.0
140
0.125
141
0.08984375
142
0.0
143
0.03937
144
1.0
145
0.0
146
1.5
147
0.09375
 71
     0
 72
     0
 73
     0
 74
     0
 75
     0
 76
     0
 77
     0
 78
     4
170
     1
171
     6
172
     0
173
     0
174
     1
175
     0
176
     0
177
     0
178
     0
270
     2
271
     2
272
     2
273
     7
274
     6
340
470
275
     0
280
     0
281
     0
282
     0
283
     1
284
     4
285
     4
286
     4
287
     5
288
     0
  0
DIMSTYLE
105
565
102
{ACAD_REACTORS
330
273A
330
273B
330
273C
102
}
330
46B
100
AcDbSymbolTableRecord
100
AcDbDimStyleTableRecord
  2
ABECAD_3D
 70
     0
  3

  4

  5

  6

  7

 40
1.0
 41
4.572
 42
1.587499999999999
 43
9.525
 44
4.572
 45
0.0
 46
0.0
 47
0.0
 48
0.0
140
4.572
141
2.286
142
0.0
143
0.03937
144
1.0
145
0.0
146
1.5
147
2.286
 71
     0
 72
     0
 73
     0
 74
     1
 75
     0
 76
     0
 77
     0
 78
     4
170
     1
171
     6
172
     0
173
     0
174
     0
175
     0
176
     0
177
     0
178
     0
270
     2
271
     2
272
     2
273
     7
274
     6
340
470
275
     0
280
     0
281
     0
282
     0
283
     1
284
     4
285
     4
286
     4
287
     5
288
     1
  0
ENDTAB
  0
TABLE
  2
BLOCK_RECORD
  5
462
330
0
100
AcDbSymbolTable
 70
     3
  0
BLOCK_RECORD
  5
478
102
{ACAD_XDICTIONARY
360
4D7
102
}
330
462
100
AcDbSymbolTableRecord
100
AcDbBlockTableRecord
  2
*MODEL_SPACE
  0
BLOCK_RECORD
  5
2544
102
{ACAD_XDICTIONARY
360
2650
102
}
330
462
100
AcDbSymbolTableRecord
100
AcDbBlockTableRecord
  2
*PAPER_SPACE
  0
BLOCK_RECORD
  5
273E
330
462
100
AcDbSymbolTableRecord
100
AcDbBlockTableRecord
  2
*D0
  0
BLOCK_RECORD
  5
274B
330
462
100
AcDbSymbolTableRecord
100
AcDbBlockTableRecord
  2
*D1
  0
BLOCK_RECORD
  5
2758
330
462
100
AcDbSymbolTableRecord
100
AcDbBlockTableRecord
  2
*D2
  0
ENDTAB
  0
ENDSEC
  0
SECTION
  2
BLOCKS
  0
BLOCK
  5
48B
330
478
100
AcDbEntity
  8
0
100
AcDbBlockBegin
  2
*MODEL_SPACE
 70
     0
 10
0.0
 20
0.0
 30
0.0
  3
*MODEL_SPACE
  1

  0
ENDBLK
  5
48C
330
478
100
AcDbEntity
  8
0
100
AcDbBlockEnd
  0
BLOCK
  5
254B
330
2544
100
AcDbEntity
 67
     1
  8
0
100
AcDbBlockBegin
  2
*PAPER_SPACE
 70
     0
 10
0.0
 20
0.0
 30
0.0
  3
*PAPER_SPACE
  1

  0
ENDBLK
  5
254C
330
2544
100
AcDbEntity
 67
     1
  8
0
100
AcDbBlockEnd
  0
BLOCK
  5
2749
330
273E
100
AcDbEntity
  8
0
100
AcDbBlockBegin
  2
*D0
 70
     1
 10
0.0
 20
0.0
 30
0.0
  3
*D0
  1

  0
LINE
  5
27C5
330
273E
100
AcDbEntity
  8
AREA1
 62
     0
100
AcDbLine
 10
-498.6757341723844
 20
45.43773061577089
 30
0.0
 11
-493.6196689412362
 21
45.43773061577088
 31
0.0
  0
LINE
  5
27C6
330
273E
100
AcDbEntity
  8
AREA1
 62
     0
100
AcDbLine
 10
-498.6757341723844
 20
47.43773061577087
 30
0.0
 11
-493.6196689412362
 21
47.43773061577086
 31
0.0
  0
LINE
  5
27C7
330
273E
100
AcDbEntity
  8
AREA1
 62
     0
100
AcDbLine
 10
-498.1916689412362
 20
43.43773061577088
 30
0.0
 11
-498.1916689412362
 21
41.43773061577088
 31
0.0
  0
LINE
  5
27C8
330
273E
100
AcDbEntity
  8
AREA1
 62
     0
100
AcDbLine
 10
-498.1916689412362
 20
49.43773061577087
 30
0.0
 11
-498.1916689412362
 21
51.43773061577087
 31
0.0
  0
MTEXT
  5
27C9
330
273E
100
AcDbEntity
  8
AREA1
 62
     0
100
AcDbMText
 10
-491.8018628291317
 20
46.40867752874487
 30
0.0
 40
2.0
 41
0.0
 71
     5
 72
     1
  1
\A1;2.00 [5/64]
 11
0.0000000000000001
 21
1.0
 31
0.0
1001
ACAD
1000
MTEXTBEGIN
1070
    73
1070
     1
1070
    44
1040
1.0
1070
    74
1070
     0
1000
MTEXTEND
  0
SOLID
  5
27CA
330
273E
100
AcDbEntity
  8
AREA1
 62
     0
100
AcDbTrace
 10
-498.5250022745695
 20
43.43773061577088
 30
0.0
 11
-497.8583356079029
 21
43.43773061577088
 31
0.0
 12
-498.1916689412362
 22
45.43773061577089
 32
0.0
 13
-498.1916689412362
 23
45.43773061577089
 33
0.0
  0
SOLID
  5
27CB
330
273E
100
AcDbEntity
  8
AREA1
 62
     0
100
AcDbTrace
 10
-498.5250022745695
 20
49.43773061577087
 30
0.0
 11
-497.8583356079029
 21
49.43773061577087
 31
0.0
 12
-498.1916689412362
 22
47.43773061577087
 32
0.0
 13
-498.1916689412362
 23
47.43773061577087
 33
0.0
  0
POINT
  5
27CC
330
273E
100
AcDbEntity
  8
DEFPOINTS
 62
     0
100
AcDbPoint
 10
-500.2632341723844
 20
45.43773061577089
 30
23.05627144960054
  0
POINT
  5
27CD
330
273E
100
AcDbEntity
  8
DEFPOINTS
 62
     0
100
AcDbPoint
 10
-500.2632341723844
 20
47.43773061577087
 30
23.05627144960054
  0
POINT
  5
27CE
330
273E
100
AcDbEntity
  8
DEFPOINTS
 62
     0
100
AcDbPoint
 10
-498.1916689412362
 20
47.43773061577087
 30
0.0
  0
ENDBLK
  5
274A
330
273E
100
AcDbEntity
  8
0
100
AcDbBlockEnd
  0
BLOCK
  5
2756
330
274B
100
AcDbEntity
  8
0
100
AcDbBlockBegin
  2
*D1
 70
     1
 10
0.0
 20
0.0
 30
0.0
  3
*D1
  1

  0
LINE
  5
276F
330
274B
100
AcDbEntity
  8
AREA1
 62
     0
100
AcDbLine
 10
-579.3132324932932
 20
49.0252306157709
 30
0.0
 11
-579.3132324932932
 21
58.80557131080275
 31
0.0
  0
LINE
  5
2770
330
274B
100
AcDbEntity
  8
AREA1
 62
     0
100
AcDbLine
 10
-500.2632341723857
 20
49.02523061577087
 30
0.0
 11
-500.2632341723857
 21
58.80557131080275
 31
0.0
  0
LINE
  5
2771
330
274B
100
AcDbEntity
  8
AREA1
 62
     0
100
AcDbLine
 10
-577.3132324932931
 20
54.23357131080274
 30
0.0
 11
-554.2994302823566
 21
54.23357131080274
 31
0.0
  0
LINE
  5
2772
330
274B
100
AcDbEntity
  8
AREA1
 62
     0
100
AcDbLine
 10
-502.2632341723857
 20
54.23357131080274
 30
0.0
 11
-525.3940969490233
 21
54.23357131080274
 31
0.0
  0
MTEXT
  5
2773
330
274B
100
AcDbEntity
  8
AREA1
 62
     0
100
AcDbMText
 10
-539.8467636156899
 20
54.23357131080276
 30
0.0
 40
2.0
 41
0.0
 71
     5
 72
     1
  1
\A1;79.05 [3 7/64]
1001
ACAD
1000
MTEXTBEGIN
1070
    73
1070
     1
1070
    44
1040
1.0
1070
    74
1070
     0
1000
MTEXTEND
  0
SOLID
  5
2774
330
274B
100
AcDbEntity
  8
AREA1
 62
     0
100
AcDbTrace
 10
-577.3132324932931
 20
54.56690464413608
 30
0.0
 11
-577.3132324932931
 21
53.90023797746941
 31
0.0
 12
-579.3132324932932
 22
54.23357131080274
 32
0.0
 13
-579.3132324932932
 23
54.23357131080274
 33
0.0
  0
SOLID
  5
2775
330
274B
100
AcDbEntity
  8
AREA1
 62
     0
100
AcDbTrace
 10
-502.2632341723857
 20
54.56690464413608
 30
0.0
 11
-502.2632341723857
 21
53.90023797746941
 31
0.0
 12
-500.2632341723857
 22
54.23357131080274
 32
0.0
 13
-500.2632341723857
 23
54.23357131080274
 33
0.0
  0
POINT
  5
2776
330
274B
100
AcDbEntity
  8
DEFPOINTS
 62
     0
100
AcDbPoint
 10
-579.3132324932932
 20
47.4377306157709
 30
23.05627144960308
  0
POINT
  5
2777
330
274B
100
AcDbEntity
  8
DEFPOINTS
 62
     0
100
AcDbPoint
 10
-500.2632341723857
 20
47.43773061577087
 30
0.0
  0
POINT
  5
2778
330
274B
100
AcDbEntity
  8
DEFPOINTS
 62
     0
100
AcDbPoint
 10
-500.2632341723857
 20
54.23357131080274
 30
0.0
  0
ENDBLK
  5
2757
330
274B
100
AcDbEntity
  8
0
100
AcDbBlockEnd
  0
BLOCK
  5
2763
330
2758
100
AcDbEntity
  8
0
100
AcDbBlockBegin
  2
*D2
 70
     1
 10
0.0
 20
0.0
 30
0.0
  3
*D2
  1

  0
LINE
  5
27B0
330
2758
100
AcDbEntity
  8
AREA2
 62
     0
100
AcDbLine
 10
-502.2146623156108
 20
31.59999976938964
 30
0.0
 11
-491.4208608213819
 21
31.59999976938964
 31
0.0
  0
LINE
  5
27B1
330
2758
100
AcDbEntity
  8
AREA2
 62
     0
100
AcDbLine
 10
-498.6757341723857
 20
-0.0000000000000004
 30
0.0
 11
-491.4208608213819
 21
-0.0000000000000025
 31
0.0
  0
LINE
  5
27B2
330
2758
100
AcDbEntity
  8
AREA2
 62
     0
100
AcDbLine
 10
-495.9928608213819
 20
29.59999976938964
 30
0.0
 11
-495.9928608213819
 21
28.25266655136156
 31
0.0
  0
LINE
  5
27B3
330
2758
100
AcDbEntity
  8
AREA2
 62
     0
100
AcDbLine
 10
-495.9928608213819
 20
1.999999999999998
 30
0.0
 11
-495.9928608213819
 21
3.347333218028238
 31
0.0
  0
MTEXT
  5
27B4
330
2758
100
AcDbEntity
  8
AREA2
 62
     0
100
AcDbMText
 10
-495.9928608213819
 20
15.79999988469482
 30
0.0
 40
2.0
 41
0.0
 71
     5
 72
     1
  1
\A1;31.60 [1 1/4]
 11
0.0000000000000001
 21
1.0
 31
0.0
1001
ACAD
1000
MTEXTBEGIN
1070
    73
1070
     1
1070
    44
1040
1.0
1070
    74
1070
     0
1000
MTEXTEND
  0
SOLID
  5
27B5
330
2758
100
AcDbEntity
  8
AREA2
 62
     0
100
AcDbTrace
 10
-496.3261941547152
 20
29.59999976938964
 30
0.0
 11
-495.6595274880486
 21
29.59999976938964
 31
0.0
 12
-495.9928608213819
 22
31.59999976938964
 32
0.0
 13
-495.9928608213819
 23
31.59999976938964
 33
0.0
  0
SOLID
  5
27B6
330
2758
100
AcDbEntity
  8
AREA2
 62
     0
100
AcDbTrace
 10
-496.3261941547152
 20
1.999999999999998
 30
0.0
 11
-495.6595274880486
 21
1.999999999999998
 31
0.0
 12
-495.9928608213819
 22
-0.0000000000000012
 32
0.0
 13
-495.9928608213819
 23
-0.0000000000000012
 33
0.0
  0
POINT
  5
27B7
330
2758
100
AcDbEntity
  8
DEFPOINTS
 62
     0
100
AcDbPoint
 10
-503.8021623156107
 20
31.59999976938964
 30
0.0
  0
POINT
  5
27B8
330
2758
100
AcDbEntity
  8
DEFPOINTS
 62
     0
100
AcDbPoint
 10
-500.2632341723857
 20
0.0
 30
-11.36784069503185
  0
POINT
  5
27B9
330
2758
100
AcDbEntity
  8
DEFPOINTS
 62
     0
100
AcDbPoint
 10
-495.9928608213819
 20
-0.0000000000000012
 30
0.0
  0
ENDBLK
  5
2764
330
2758
100
AcDbEntity
  8
0
100
AcDbBlockEnd
  0
ENDSEC
  0
SECTION
  2
ENTITIES
  0
ATTDEF
  5
2726
330
478
100
AcDbEntity
  8
ATTRIBUTES
100
AcDbText
 10
-554.917468983491
 20
45.65410353502885
 30
0.00085928477733
 40
0.11999952000048
  1
ALLEN-BRADLEY
 50
90.0
100
AcDbAttributeDefinition
  3
MANUFACTURER NAME?
  2
AC_VND_LABEL
 70
     1
  0
ATTDEF
  5
2727
330
478
100
AcDbEntity
  8
ATTRIBUTES
100
AcDbText
 10
-554.6674699834901
 20
45.65410353502885
 30
0.00085928477733
 40
0.11999952000048
  1
1492-EBL3Q
 50
90.0
100
AcDbAttributeDefinition
  3
CATALOG NUMBER?
  2
AC_PART_NO
 70
     1
  0
ATTDEF
  5
2728
330
478
100
AcDbEntity
  8
ATTRIBUTES
100
AcDbText
 10
-554.4174709834891
 20
45.65410353502885
 30
0.00085928477733
 40
0.11999952000048
  1
End Barrier
 50
90.0
100
AcDbAttributeDefinition
  3
PART DESCRIPTION?
  2
AC_DESCRIPTION
 70
     1
  0
ATTDEF
  5
2729
330
478
100
AcDbEntity
  8
ATTRIBUTES
100
AcDbText
 10
-554.1674719834881
 20
45.65410353502884
 30
0.00085928477733
 40
0.11999952000048
  1

 50
90.0
100
AcDbAttributeDefinition
  3
DEVICE ID?
  2
DEVICE_ID
 70
     1
  0
ATTDEF
  5
272A
330
478
100
AcDbEntity
  8
ATTRIBUTES
100
AcDbText
 10
-553.917472983487
 20
45.65410353502884
 30
0.00085928477733
 40
0.11999952000048
  1

 50
90.0
100
AcDbAttributeDefinition
  3
CUSTOMER PART NUMBER?
  2
AC_CPART_NO
 70
     1
  0
ATTDEF
  5
272B
330
478
100
AcDbEntity
  8
ATTRIBUTES
100
AcDbText
 10
-553.6674739834861
 20
45.65410353502884
 30
0.00085928477733
 40
0.11999952000048
  1

 50
90.0
100
AcDbAttributeDefinition
  3
CUSTOMER NOTE?
  2
AC_NOTE
 70
     1
  0
ATTDEF
  5
272C
330
478
100
AcDbEntity
  8
ATTRIBUTES
100
AcDbText
 10
-553.4174749834851
 20
45.65410353502884
 30
0.00085928477733
 40
0.11999952000048
  1

 50
90.0
100
AcDbAttributeDefinition
  3
FASTENER DATA?
  2
FASTENER
 70
     1
  0
ATTDEF
  5
272D
330
478
100
AcDbEntity
  8
ATTRIBUTES
100
AcDbText
 10
-553.1674759834841
 20
45.65410353502884
 30
0.00085928477733
 40
0.11999952000048
  1
MM
 50
90.0
100
AcDbAttributeDefinition
  3
UNIT OF SCALE?
  2
AC_SCALE_UNIT
 70
     1
  0
ATTDEF
  5
272E
330
478
100
AcDbEntity
  8
ATTRIBUTES
100
AcDbText
 10
-552.917476983483
 20
45.65410353502884
 30
0.00085928477733
 40
0.11999952000048
  1
0
 50
90.0
100
AcDbAttributeDefinition
  3
VIEW CODE?
  2
AC_VIEW_CODE
 70
     1
  0
LINE
  5
272F
330
478
100
AcDbEntity
  8
SCALE
100
AcDbLine
 10
-616.0081833669154
 20
40.80483369752603
 30
0.0
 11
-590.6081833669154
 21
40.80483369752603
 31
0.0
  0
LINE
  5
2730
330
478
100
AcDbEntity
  8
SCALE
100
AcDbLine
 10
-590.6081833669154
 20
38.26483369752604
 30
0.0
 11
-590.6081833669154
 21
43.34483369752606
 31
0.0
  0
LINE
  5
2731
330
478
100
AcDbEntity
  8
SCALE
100
AcDbLine
 10
-616.0081833669154
 20
38.26483369752604
 30
0.0
 11
-616.0081833669154
 21
43.34483369752606
 31
0.0
  0
LINE
  5
2732
330
478
100
AcDbEntity
  8
SCALE
100
AcDbLine
 10
-616.0081833669154
 20
45.99125743481927
 30
0.0
 11
-616.0081833669154
 21
51.07125743481926
 31
0.0
  0
LINE
  5
2733
330
478
100
AcDbEntity
  8
SCALE
100
AcDbLine
 10
-606.0082033669154
 20
45.99125743481927
 30
0.0
 11
-606.0082033669154
 21
51.07125743481926
 31
0.0
  0
LINE
  5
2734
330
478
100
AcDbEntity
  8
SCALE
100
AcDbLine
 10
-616.0081833669154
 20
48.53125743481927
 30
0.0
 11
-606.0082033669154
 21
48.53125743481927
 31
0.0
  0
TEXT
  5
2735
330
478
100
AcDbEntity
  8
SCALE
100
AcDbText
 10
-614.4988606261415
 20
49.69304442478177
 30
0.0
 40
1.587499999999999
  1
10 mm
100
AcDbText
  0
TEXT
  5
2736
330
478
100
AcDbEntity
  8
SCALE
100
AcDbText
 10
-608.4102906338274
 20
42.55867056000535
 30
0.0
 40
1.587499999999999
  1
[1 Inch]
100
AcDbText
  0
TEXT
  5
2737
330
478
100
AcDbEntity
  8
SCALE
100
AcDbText
 10
-616.2020992867861
 20
54.06479504967115
 30
0.0
 40
1.587499999999999
  1
SCALE:
100
AcDbText
  0
LWPOLYLINE
  5
2738
330
478
100
AcDbEntity
  8
SCALE
100
AcDbPolyline
 90
        4
 70
     1
 43
0.0
 10
-617.7141340954076
 20
56.73690546440845
 10
-588.8691620790415
 20
56.73690546440845
 10
-588.8691620790415
 20
35.36002246824687
 10
-617.7141340954076
 20
35.36002246824687
  0
3DSOLID
  5
2739
330
478
100
AcDbEntity
  8
0
100
AcDbModelerGeometry
 70
     1
  1
noi nim n o         
  1
=0;& {n {m {rn {rn |
  1
-:9@)+r3(;r>++-6= {rn {rn {rn {o {l {k |
  1
3*2/ {j {rn {i {o |
  1
-:961:2:1+ {rn o o o o oqlhmfhkhjllhfgmnhg lo o o m o |
  1
):-+:'@+:2/3>+: {rn l o n g |
  1
-:9@)+r3(;r>++-6= {rn {rn {rn {m {l {k |
  1
,7:33 {h {rn {rn {g {m |
  1
-:9@)+r3(;r>++-6= {rn {rn {rn {i {l {k |
  1
9><: {f {no {nn {i {rn {nm -:):-,:; ,6183: |
  1
92:,7r3(;r>++-6= {rn {nl {rn {g |
  1
9><: {nk {nj {ni {i {rn {nh 90-(>-; ,6183: |
  1
300/ {rn {rn {ng {g |
  1
/3>1:r,*-9><: {rn rkfiqlnohlkmjilljkg khqklhhloinjhhoghk rnqjhfffffggkhojfjn rmqkkfmnmhohikkhjkj:roni rn mqmmokkiokfmjolnln:roni n rmqkkfmnmhohikkhjkj:roni o o V V V V |
  1
-:9@)+r3(;r>++-6= {rn {rn {f {g {l {k |
  1
92:,7r3(;r>++-6= {rn {nf {rn {no |
  1
9><: {mo {mn {mm {i {rn {ml -:):-,:; ,6183: |
  1
300/ {rn {rn {mk {no |
  1
/3>1:r,*-9><: {rn rkfiqlnohlkmjilljkg kjqklhhloinjhhoghk rnqjhfffffggkhojfki rmqkkfmnmhohikkhjkj:roni rn mqmmokkiokfmjolnln:roni n rmqkkfmnmhohikkhjkj:roni o o V V V V |
  1
<0:;8: {rn {mj {mi {mh {mg n {nn {rn |
  1
-:9@)+r3(;r>++-6= {rn {rn {nk {no {l {k |
  1
92:,7r3(;r>++-6= {rn {mf {rn {nj |
  1
9><: {lo {ln {lm {i {rn {ll -:):-,:; ,6183: |
  1
300/ {rn {rn {lk {nj |
  1
/3>1:r,*-9><: {rn rjolqfhfnoghmmhkfif kjqllhhloinjhhogg lmqomhngingjlgglhl roqfmlghfjlmjnnmhijm nqknlokfjhjgjogkji:roni roqlgmiglklmlijnnkjk rmqkkfmnmhohikkhjkj:roni rn mqmmokkiokfmjolnln:roni o V V V V |
  1
<0:;8: {rn {lj {li {lh {lg o {ni {rn |
  1
<0:;8: {rn {lf {ng {ko {kn n {nn {rn |
  1
<0:;8: {rn {ng {km {kl {kk n {nn {rn |
  1
<0:;8: {rn {lk {kj {ng {mg o {mm {rn |
  1
:;8: {ki {kh {kg {ng {kf o |
  1
-:9@)+r3(;r>++-6= {rn {rn {mo {nj {l {k |
  1
92:,7r3(;r>++-6= {rn {jo {rn {mn |
  1
9><: {jn {jm {jl {i {rn {jk 90-(>-; ,6183: |
  1
300/ {rn {rn {jj {mn |
  1
/3>1:r,*-9><: {rn rjooqmilmlknhmlgjhj kjqllhhloinjhhogg mkqmofogjommogoook rn mqkkfmnmhohikkhjkj:roni o rmqkkfmnmhohikkhjkj:roni rn mqmmokkiokfmjolnln:roni o V V V V |
  1
<0:;8: {rn {ji {mh {jh {jg o {mm {rn |
  1
<0:;8: {rn {jf {mk {io {in o {ni {rn |
  1
<0:;8: {rn {mk {im {ji {il o {ni {rn |
  1
<0:;8: {rn {jh {ik {mk {lg n {ij {rn |
  1
:;8: {ii {ih {ig {mk {if o |
  1
<0:;8: {rn {ho {mj {hn {hm o {nn {rn |
  1
<0:;8: {rn {jj {hl {mj {kn o {lm {rn |
  1
:;8: {hk {hj {kh {mj {hi o |
  1
<0:;8: {rn {mi {ho {hh {hg n {nn {rn |
  1
<0:;8: {rn {ik {jh {mi {kk o {ij {rn |
  1
:;8: {hf {kg {go {mi {gn o |
  1
<0:;8: {rn {mh {ji {jj {gm n {mm {rn |
  1
/+36,+r3(;r>++-6= {rn {rn {rn {mg |
  1
):-+:' {rn {mg {gl |
  1
):-+:' {rn {mg {gk |
  1
,+->687+r<*-): {rn rjooqmilmlknhmlgnhh khqklhhloinjhhoghk mlqojimhnkkfionilg roqlgmiglklmlijnnljk mqfggifhhgljonilfl:roni oqfmlghfjlmjnnmhifh V V |
  1
-:9@)+r3(;r>++-6= {rn {rn {lo {mn {l {k |
  1
92:,7r3(;r>++-6= {rn {gj {rn {ln |
  1
9><: {gi {gh {gg {i {rn {gf 90-(>-; ,6183: |
  1
300/ {rn {rn {hn {ln |
  1
/3>1:r,*-9><: {rn rjglqmijhlmkofllohg kjqllhhloinjhhogfk kqiimfliholkmjikfg:roni rjqklglkkigokilkjhm:rolm rmqmmokkiokfmjolnln:roni rn mqkkfmnmhohikkhjkj:roni n rmqmmokkiokfmjolnln:roni o V V V V |
  1
<0:;8: {rn {fo {ko {kj {gm o {lm {rn |
  1
<0:;8: {rn {kj {lk {li {il n {mm {rn |
  1
<0:;8: {rn {kl {lh {lk {jg n {ij {rn |
  1
:;8: {fn {kg {ih {lk {fm o |
  1
<0:;8: {rn {fl {lj {fk {fj n {ni {rn |
  1
<0:;8: {rn {fi {fh {lj {in n {fg {rn |
  1
:;8: {ff {ig {noo {lj {non o |
  1
<0:;8: {rn {li {fl {fo {nom o {ni {rn |
  1
:;8: {nol {nok {ih {li {noj o |
  1
<0:;8: {rn {lh {kl {fi {noi o {ij {rn |
  1
300/ {rn {rn {ik {noh |
  1
/+36,+r3(;r>++-6= {rn {rn {rn {lg |
  1
):-+:' {rn {lg {nog |
  1
):-+:' {rn {lg {nof |
  1
,+->687+r<*-): {rn rjolqgomnimlnjjgjhj kjqklhhloinjhhoggf lnqjfffffhifk rn mqkkfmnmhohikkhjkj:roni o V V |
  1
<0:;8: {rn {km {lf {nno {nnn o {nn {rn |
  1
<0:;8: {rn {nnm {nnl {lf {hm n {jl {rn |
  1
:;8: {nnk {hj {nnj {lf {nni o |
  1
<0:;8: {rn {ko {fo {nnm {nnh n {lm {rn |
  1
/+36,+r3(;r>++-6= {rn {rn {rn {kn |
  1
):-+:' {rn {kn {nng |
  1
,+->687+r<*-): {rn rjooqmilmlknhmlgjhj khqklhhloinjhhoghk rlqfgnmjljkmnnkmg:roln jqklglkkigokilkjhm:rolm mqmmokkiokfmjolnln:roni n V V |
  1
<0:;8: {rn {fh {fi {km {hg o {fg {rn |
  1
:;8: {nnf {go {nmo {km {nmn o |
  1
/+36,+r3(;r>++-6= {rn {rn {rn {kk |
  1
):-+:' {rn {hg {nmm |
  1
,+->687+r<*-): {rn rjolqgomnimlnjjgjhj khqklhhloinjhhoggf lnqjfffffhifk rn mqkkfmnmhohikkhjkj:roni o V V |
  1
:;8: {nml {kh {nok {kj {nmk o |
  1
/061+ {rn rjooqmilmlknhmlgkkk khqklhhloinjhhoghk mlqojimhnkkfioojkk |
  1
/061+ {rn rjolqgomnimlnjinohi khqklhhloinjhhoggf lnqjfffffhiflgfikk |
  1
-:9@)+r3(;r>++-6= {rn {rn {jn {ln {l {k |
  1
92:,7r3(;r>++-6= {rn {nmj {rn {jm |
  1
9><: {nmi {noh {fg {i {rn {nmh -:):-,:; ,6183: |
  1
300/ {rn {rn {nno {jm |
  1
/3>1:r,*-9><: {rn rjhfqlnlmlmkflmgjig kjqllhhloinjhhofof mkqmofogjommogoook rn mqkkfmnmhohikkhjkj:roni o rmqkkfmnmhohikkhjkj:roni rn mqmmokkiokfmjolnln:roni o V V V V |
  1
<0:;8: {rn {hl {jj {im {nom n {lm {rn |
  1
/+36,+r3(;r>++-6= {rn {rn {rn {jg |
  1
,+->687+r<*-): {rn rjolqgomnimlnjjgjhj khqklhhloinjhhoggf lnqjfffffhifk rmqkkfmnmhohikkhjkj:roni rn mqmmokkiokfmjolnln:roni V V |
  1
<0:;8: {rn {im {jf {nmg {nmf n {ni {rn |
  1
<0:;8: {rn {nlo {nln {jf {fj o {gg {rn |
  1
:;8: {nlm {nll {noo {jf {nlk o |
  1
<0:;8: {rn {hh {io {ik {noi n {fg {rn |
  1
<0:;8: {rn {io {hh {nlo {nlj o {fg {rn |
  1
300/ {rn {rn {fh {gh |
  1
/+36,+r3(;r>++-6= {rn {rn {rn {in |
  1
):-+:' {rn {in {nli |
  1
,+->687+r<*-): {rn rjhjqhhklokljoonkjm kjqklhhloinjhhofol lnqjfffffhifknnfom roqlgmiglklmlijnnlnj rnqnnknjnjlmlfknkkh:roni roqfmlghfjlmjnnmhhnf V V |
  1
:;8: {nlh {nlg {nok {im {nlf o |
  1
/+36,+r3(;r>++-6= {rn {rn {rn {il |
  1
):-+:' {rn {nom {nko |
  1
,+->687+r<*-): {rn rjooqmilmlknhmlgnhh kjqklhhloinjhhoggf mlqojimhnkkfionilg roqlgmiglklmlijnnljk mqfggifhhgljonilfl:roni oqfmlghfjlmjnnmhifh V V |
  1
:;8: {nkn {go {ig {fi {nkm o |
  1
9><: {nkl {rn {ij {i {rn {nkk -:):-,:; ,6183: |
  1
/061+ {rn rjolqgomnimlnjinohi kjqklhhloinjhhoggf lnqjfffffhiflgfikk |
  1
/061+ {rn rjhjqhhkloklkfffjl kjqklhhloinjhhofol lnqjfffffhifkolfij |
  1
<0:;8: {rn {nln {nlo {ho {nnn n {gg {rn |
  1
:;8: {nkj {nnj {nmo {ho {nki o |
  1
<0:;8: {rn {nmg {hn {hl {nnh o {jl {rn |
  1
<0:;8: {rn {hn {nmg {nln {nkh n {jl {rn |
  1
/+36,+r3(;r>++-6= {rn {rn {rn {hm |
  1
):-+:' {rn {hm {nkg |
  1
,+->687+r<*-): {rn rjooqmilmlknhmlgjhj khqklhhloinjhhoghk rlqfgnmjljkmnnkmg:roln rn mqkkfmnmhohikkhjkj:roni o V V |
  1
:;8: {nkf {hj {nlg {hl {njo o |
  1
/061+ {rn rjooqmilmlknhmlgjhj khqklhhloinjhhoghk rlqfimhhfolknoflfnj:roln |
  1
/+36,+r3(;r>++-6= {rn {rn {rn {hg |
  1
):-+:' {rn {nnn {njn |
  1
,+->687+r<*-): {rn rjhjqhhklokljoonkjm khqklhhloinjhhofol lnqjfffffhifknnfom roqlgmiglklmlijnnlnj rnqnnknjnjlmlfknkkh:roni roqfmlghfjlmjnnmhhnf V V |
  1
/061+ {rn rjhjqhhkloklkfffjl khqklhhloinjhhofol lnqjfffffhifkolfij |
  1
/+36,+r3(;r>++-6= {rn {rn {rn {gm |
  1
,+->687+r<*-): {rn rjooqmilmlknhmlgjhj khqklhhloinjhhoghk mlqojimhnkkfiooook rmqkkfmnmhohikkhjkj:roni rn mqmmokkiokfmjolnln:roni V V |
  1
-:9@)+r3(;r>++-6= {rn {rn {gi {jm {l {k |
  1
92:,7r3(;r>++-6= {rn {njm {rn {gh |
  1
/3>1:r,*-9><: {rn rjhfqkfonhgfookjoli kjqllhhloinjhhofof mmqimfogjolliofgif oqfmlghfjlmjnnmhijm rlqnnmjojkoigigngng:roni roqlgmiglklmlijnnkjk mqkkfmnmhohikkhjkj:roni n rmqmmokkiokfmjolnln:roni o V V V V |
  1
<0:;8: {rn {nnl {nnm {fl {nmf o {jl {rn |
  1
:;8: {njl {nlg {nll {fl {njk o |
  1
<0:;8: {rn {nno {fk {fh {nlj n {gg {rn |
  1
<0:;8: {rn {fk {nno {nnl {nkh o {gg {rn |
  1
/+36,+r3(;r>++-6= {rn {rn {rn {fj |
  1
):-+:' {rn {fj {njj |
  1
,+->687+r<*-): {rn rjhfqlnlmlmkflmgjig kjqklhhloinjhhofol kqkkogfmofgjooingl:roni jqklglkkigokilkjhm:rolm mqmmokkiokfmjolnln:roni n V V |
  1
:;8: {nji {nmo {noo {nlo {njh o |
  1
/061+ {rn rjhfqlnlmlmkflmflnf kjqklhhloinjhhofol mlqojimhnkkfiologg |
  1
/+36,+r3(;r>++-6= {rn {rn {rn {nom |
  1
):-+:' {rn {nmf {njg |
  1
,+->687+r<*-): {rn rjooqmilmlknhmlgjhj kjqklhhloinjhhoghk kqkkogfmofgjooingl:roni jqklglkkigokilkjhm:rolm mqmmokkiokfmjolnln:roni n V V |
  1
/061+ {rn rjooqmilmlknhmlgkkk kjqklhhloinjhhoggf mlqojimhnkkfioojkk |
  1
/+36,+r3(;r>++-6= {rn {rn {rn {noi |
  1
,+->687+r<*-): {rn rjhjqhhkloklkffgjhj khqklhhloinjhhofol lnqjfffffhifk rmqkkfmnmhohikkhjkj:roni rn mqmmokkiokfmjolnln:roni V V |
  1
92:,7r3(;r>++-6= {rn {njf {rn {noh |
  1
/3>1:r,*-9><: {rn rjhfqlhmfnnkjnhojh kjqllhhloinjhhofof lnqjfffffhifk rjqklglkkigokilkjhm:rolm rmqmmokkiokfmjolnln:roni rn mqkkfmnmhohikkhjkj:roni n rmqmmokkiokfmjolnln:roni o V V V V |
  1
/+36,+r3(;r>++-6= {rn {rn {rn {nnn |
  1
,+->687+r<*-): {rn rjhfqlnlmlmkflmgjig khqklhhloinjhhofol rlqfgnmjljkmnnkmg:roln jqklglkkigokilkjhm:rolm mqmmokkiokfmjolnln:roni n V V |
  1
:;8: {nio {nnj {nll {nnl {nin o |
  1
/061+ {rn rjhfqlnlmlmkflmgjig khqklhhloinjhhofol rlqfimhhfolknoflfnj:roln |
  1
/+36,+r3(;r>++-6= {rn {rn {rn {nnh |
  1
,+->687+r<*-): {rn rjooqmilmlknhmlgjhj khqklhhloinjhhoghk rlqfmjgloongoffinjm:roln rmqkkfmnmhohikkhjkj:roni rn mqmmokkiokfmjolnln:roni V V |
  1
/061+ {rn rjhfqlnlmlmkflmflnf khqklhhloinjhhofol mlqojimhnkkfiologg |
  1
-:9@)+r3(;r>++-6= {rn {rn {nmi {gh {l {k |
  1
/+36,+r3(;r>++-6= {rn {rn {rn {nmf |
  1
,+->687+r<*-): {rn rjooqmilmlknhmlgjhj kjqklhhloinjhhoghk kqkkogfmofgjooingl:roni rn mqkkfmnmhohikkhjkj:roni o V V |
  1
/061+ {rn rjhfqlnlmlmkflmgjig kjqklhhloinjhhofol kqkkogfmofgjooingl:roni |
  1
/+36,+r3(;r>++-6= {rn {rn {rn {nlj |
  1
,+->687+r<*-): {rn rjhfqlnlmlmkflmgjig khqklhhloinjhhofol mlqojimhnkkfiooook rmqkkfmnmhohikkhjkj:roni rn mqmmokkiokfmjolnln:roni V V |
  1
/061+ {rn rjooqmilmlknhmlgjhj kjqklhhloinjhhoghk kqkkogfmofgjooingl:roni |
  1
-:9@)+r3(;r>++-6= {rn {rn {nkl {noh {l {k |
  1
/+36,+r3(;r>++-6= {rn {rn {rn {nkh |
  1
,+->687+r<*-): {rn rjhfqlnlmlmkflmgjig khqklhhloinjhhofol rlqfmjgloongoffinjm:roln rmqkkfmnmhohikkhjkj:roni rn mqmmokkiokfmjolnln:roni V V |
  0
DIMENSION
  5
273A
330
478
100
AcDbEntity
  8
AREA1
100
AcDbDimension
  2
*D0
 10
-498.1916689412362
 20
47.43773061577087
 30
0.0
 11
-491.8018628291317
 21
46.40867752874487
 31
0.0
 70
   160
  3
ABECAD_3D
100
AcDbAlignedDimension
 13
-500.2632341723844
 23
45.43773061577089
 33
23.05627144960054
 14
-500.2632341723844
 24
47.43773061577087
 34
23.05627144960054
 50
90.0
100
AcDbRotatedDimension
1001
ACAD
1000
DSTYLE
1002
{
1070
   140
1040
2.0
1070
    41
1040
2.0
1002
}
  0
DIMENSION
  5
273B
330
478
100
AcDbEntity
  8
AREA1
100
AcDbDimension
  2
*D1
 10
-500.2632341723857
 20
54.23357131080274
 30
0.0
 11
-539.8467636156899
 21
54.23357131080276
 31
0.0
 70
   160
  3
ABECAD_3D
100
AcDbAlignedDimension
 13
-579.3132324932932
 23
47.4377306157709
 33
23.05627144960308
 14
-500.2632341723857
 24
47.43773061577087
 34
0.0
 50
180.0
100
AcDbRotatedDimension
1001
ACAD
1000
DSTYLE
1002
{
1070
   140
1040
2.0
1070
    41
1040
2.0
1002
}
  0
DIMENSION
  5
273C
330
478
100
AcDbEntity
  8
AREA2
100
AcDbDimension
  2
*D2
 10
-495.9928608213819
 20
47.43773061577089
 30
-0.0000000000000012
 11
-495.9928608213819
 21
15.79999988469482
 31
-47.43773061577086
 70
   160
210
-0.0000000000000001
220
-1.0
230
0.0
  3
ABECAD_3D
100
AcDbAlignedDimension
 13
-503.8021623156107
 23
47.43773061577089
 33
31.59999976938964
 14
-500.2632341723857
 24
58.80557131080275
 34
0.0
 50
90.0
100
AcDbRotatedDimension
1001
ACAD
1000
DSTYLE
1002
{
1070
   140
1040
2.0
1070
    41
1040
2.0
1002
}
  0
POINT
  5
273D
330
478
100
AcDbEntity
  8
SNAP_POINTS
100
AcDbPoint
 10
-579.3132324932856
 20
47.4377306157709
 30
0.0
  0
VIEWPORT
  5
2545
102
{ACAD_XDICTIONARY
360
2813
102
}
330
2544
100
AcDbEntity
 67
     1
  8
0
100
AcDbViewport
 10
5.289169397200103
 20
4.039398404618191
 30
0.0
 40
14.91427964544735
 41
8.149447233321367
 68
     1
 69
     1
1001
ACAD
1000
MVIEW
1002
{
1070
    16
1010
0.0
1020
0.0
1030
0.0
1010
0.0
1020
0.0
1030
1.0
1040
0.0
1040
8.149447233321367
1040
5.289169397200103
1040
4.039398404618191
1040
50.0
1040
0.0
1040
0.0
1070
     0
1070
  1000
1070
     1
1070
     1
1070
     0
1070
     0
1070
     0
1070
     0
1040
0.0
1040
0.0
1040
0.0
1040
0.5
1040
0.5
1040
0.5
1040
0.5
1070
     0
1002
{
1002
}
1002
}
  0
VIEWPORT
  5
2546
102
{ACAD_XDICTIONARY
360
2815
102
}
330
2544
100
AcDbEntity
 67
     1
  8
0
100
AcDbViewport
 10
2.655279694450206
 20
5.99475209634221
 30
0.0
 40
5.265273537481815
 41
4.159771051501081
 68
     2
 69
     2
1001
ACAD
1000
MVIEW
1002
{
1070
    16
1010
0.0
1020
0.0
1030
0.0
1010
0.0
1020
0.0
1030
1.0
1040
0.0
1040
76.98162418891823
1040
-534.8946783315567
1040
46.77637166231972
1040
50.0
1040
0.0
1040
0.0
1070
     0
1070
  1000
1070
     1
1070
     2
1070
     0
1070
     0
1070
     0
1070
     0
1040
0.0
1040
0.0
1040
0.0
1040
0.5
1040
0.5
1040
0.5
1040
0.5
1070
     0
1002
{
1003
AREA2
1002
}
1002
}
  0
VIEWPORT
  5
2547
102
{ACAD_XDICTIONARY
360
2817
102
}
330
2544
100
AcDbEntity
 67
     1
  8
0
100
AcDbViewport
 10
2.655279694450205
 20
1.959467345528551
 30
0.0
 40
5.265273537481814
 41
3.910798450126236
 68
     3
 69
     3
1001
ACAD
1000
MVIEW
1002
{
1070
    16
1010
0.0
1020
0.0
1030
0.0
1010
0.0
1020
-1.0
1030
0.0
1040
0.0
1040
72.37099978816044
1040
-534.8965707891141
1040
16.23071216514132
1040
50.0
1040
0.0
1040
0.0
1070
     0
1070
  1000
1070
     1
1070
     2
1070
     0
1070
     0
1070
     0
1070
     0
1040
0.0
1040
0.0
1040
0.0
1040
0.5
1040
0.5
1040
0.5
1040
0.5
1070
     0
1002
{
1003
AREA1
1002
}
1002
}
  0
VIEWPORT
  5
2548
102
{ACAD_XDICTIONARY
360
2819
102
}
330
2544
100
AcDbEntity
 67
     1
  8
0
100
AcDbViewport
 10
7.921824282077194
 20
3.60237502911014
 30
0.0
 40
5.26781563777216
 41
7.196613817289414
 68
     4
 69
     4
1001
ACAD
1000
MVIEW
1002
{
1070
    16
1010
0.0
1020
0.0
1030
0.0
1010
1.0
1020
-1.0
1030
1.0
1040
0.0
1040
130.4846271501303
1040
-351.8461870121307
1040
285.6772142308721
1040
50.0
1040
0.0
1040
0.0
1070
     0
1070
  1000
1070
     1
1070
     2
1070
     0
1070
     0
1070
     0
1070
     0
1040
0.0
1040
0.0
1040
0.0
1040
0.5
1040
0.5
1040
0.5
1040
0.5
1070
     1
1002
{
1003
AREA1
1003
AREA2
1002
}
1002
}
  0
TEXT
  5
2549
330
2544
100
AcDbEntity
 67
     1
  8
0
100
AcDbText
 10
5.478669782259466
 20
7.727515017556658
 30
0.0
 40
0.203125
  1
1492-EBL3Q
100
AcDbText
  0
TEXT
  5
254A
330
2544
100
AcDbEntity
 67
     1
  8
0
100
AcDbText
 10
5.478669782259466
 20
7.394181684223325
 30
0.0
 40
0.203125
  1
End Barrier
100
AcDbText
  0
ENDSEC
  0
SECTION
  2
OBJECTS
  0
DICTIONARY
  5
46D
330
0
100
AcDbDictionary
  3
ACAD_COLOR
350
981
  3
ACAD_GROUP
350
46E
  3
ACAD_LAYOUT
350
49E
  3
ACAD_MATERIAL
350
980
  3
ACAD_MLINESTYLE
350
47B
  3
ACAD_PLOTSETTINGS
350
49F
  3
ACAD_PLOTSTYLENAME
350
49C
  3
ACAD_TABLESTYLE
350
26CA
  3
ACDBHEADERROUNDTRIPXREC
350
2858
  3
ACDBVARIABLEDICTIONARY
350
48D
  3
AUXHDRRNDTRIPDATA
350
2801
  3
BNS_VARIABLES
350
2783
  3
DWGPROPS
350
27DF
  0
DICTIONARY
  5
26D1
330
463
100
AcDbDictionary
280
     1
  3
ACAD_LAYERSTATES
360
26D2
  0
DICTIONARY
  5
4D7
330
478
100
AcDbDictionary
280
     1
  3
ACAD_LAYOUTSELFREF
360
2879
  0
DICTIONARY
  5
2650
330
2544
100
AcDbDictionary
280
     1
  3
ACAD_LAYOUTSELFREF
360
287A
  0
DICTIONARY
  5
2813
330
2545
100
AcDbDictionary
280
     1
  3
ACAD_XREC_ROUNDTRIP
360
2814
  0
DICTIONARY
  5
2815
330
2546
100
AcDbDictionary
280
     1
  3
ACAD_XREC_ROUNDTRIP
360
2816
  0
DICTIONARY
  5
2817
330
2547
100
AcDbDictionary
280
     1
  3
ACAD_XREC_ROUNDTRIP
360
2818
  0
DICTIONARY
  5
2819
330
2548
100
AcDbDictionary
280
     1
  3
ACAD_XREC_ROUNDTRIP
360
281A
  0
DICTIONARY
  5
981
102
{ACAD_REACTORS
330
46D
102
}
330
46D
100
AcDbDictionary
  0
DICTIONARY
  5
46E
102
{ACAD_REACTORS
330
46D
102
}
330
46D
100
AcDbDictionary
  0
DICTIONARY
  5
49E
102
{ACAD_REACTORS
330
46D
102
}
330
46D
100
AcDbDictionary
  0
DICTIONARY
  5
980
102
{ACAD_REACTORS
330
46D
102
}
330
46D
100
AcDbDictionary
  0
DICTIONARY
  5
47B
102
{ACAD_REACTORS
330
46D
102
}
330
46D
100
AcDbDictionary
  3
STANDARD
350
47C
  0
DICTIONARY
  5
49F
102
{ACAD_REACTORS
330
46D
102
}
330
46D
100
AcDbDictionary
  0
ACDBDICTIONARYWDFLT
  5
49C
102
{ACAD_REACTORS
330
46D
102
}
330
46D
100
AcDbDictionary
281
     1
  3
Normal
350
49D
100
AcDbDictionaryWithDefault
340
49D
  0
DICTIONARY
  5
26CA
102
{ACAD_REACTORS
330
46D
102
}
330
46D
100
AcDbDictionary
  3
STANDARD
350
26CB
  0
DICTIONARY
  5
2858
102
{ACAD_REACTORS
330
46D
102
}
330
46D
100
AcDbDictionary
  3
CEPSNTYPE
350
2862
  3
DIMSTYLEDATA
350
2866
  3
FINGERPRINTGUID
350
2863
  3
HYPERLINKBASE
350
285B
  3
INSUNITS
350
2861
  3
LAYOUTDICT
350
285D
  3
LWETCUNION
350
2860
  3
PLOTSETDICT
350
285E
  3
PLOTSTYLNAMDICT
350
285F
  3
PSVPSCALE
350
2865
  3
PUCSBASE
350
2869
  3
PUCSORGBACK
350
286F
  3
PUCSORGBOTTOM
350
286B
  3
PUCSORGFRONT
350
286E
  3
PUCSORGLEFT
350
286C
  3
PUCSORGRIGHT
350
286D
  3
PUCSORGTOP
350
286A
  3
PUCSORTHOREF
350
2867
  3
PUCSORTHOVIEW
350
2868
  3
STYLESHEET
350
285C
  3
TSTACKALIGN
350
2859
  3
TSTACKSIZE
350
285A
  3
UCSBASE
350
2872
  3
UCSORGBACK
350
2878
  3
UCSORGBOTTOM
350
2874
  3
UCSORGFRONT
350
2877
  3
UCSORGLEFT
350
2875
  3
UCSORGRIGHT
350
2876
  3
UCSORGTOP
350
2873
  3
UCSORTHOREF
350
2870
  3
UCSORTHOVIEW
350
2871
  3
VERSIONGUID
350
2864
  0
DICTIONARY
  5
48D
102
{ACAD_REACTORS
330
46D
102
}
330
46D
100
AcDbDictionary
  3
CTABLESTYLE
350
27BF
  3
DIMADEC
350
48E
  3
DIMASSOC
350
6EA
  3
PROJECTNAME
350
2536
  0
XRECORD
  5
2801
102
{ACAD_REACTORS
330
46D
102
}
330
46D
100
AcDbXrecord
310
64000000000000001B000000190027000900100000000000150009001500090005009308050093080000000018000000000002000000F27E000000001A00000000000000000000001B0000000000000000000000000000000000000000000000EDC75C50
  0
DICTIONARY
  5
2783
102
{ACAD_REACTORS
330
46D
102
}
330
46D
100
AcDbDictionary
  3
ACET-OVERKILL-FUZZ
350
2784
  3
ACET-OVERKILL-NO-ENDTOEND
350
2787
  3
ACET-OVERKILL-NO-PARTIAL
350
2786
  3
ACET-OVERKILL-NO-PLINES
350
2785
  0
XRECORD
  5
27DF
102
{ACAD_REACTORS
330
46D
102
}
330
46D
100
AcDbXrecord
  1
DWGPROPS COOKIE
  2

  3

  4

  6

  7

  8
colin
  9

300
=
301
=
302
=
303
=
304
=
305
=
306
=
307
=
308
=
309
=
 40
0.4279669444444444
 41
2451670.449415046
 42
2453115.702943981
  1

 90
        0
  0
DICTIONARY
  5
26D2
102
{ACAD_REACTORS
330
26D1
102
}
330
26D1
100
AcDbDictionary
  0
XRECORD
  5
2879
102
{ACAD_REACTORS
330
4D7
102
}
330
4D7
100
AcDbXrecord
340
478
  0
XRECORD
  5
287A
102
{ACAD_REACTORS
330
2650
102
}
330
2650
100
AcDbXrecord
340
2544
  0
XRECORD
  5
2814
102
{ACAD_REACTORS
330
2813
102
}
330
2813
100
AcDbXrecord
102
SHADEPLOT
 70
     0
  0
XRECORD
  5
2816
102
{ACAD_REACTORS
330
2815
102
}
330
2815
100
AcDbXrecord
102
SHADEPLOT
 70
     0
  0
XRECORD
  5
2818
102
{ACAD_REACTORS
330
2817
102
}
330
2817
100
AcDbXrecord
102
SHADEPLOT
 70
     0
  0
XRECORD
  5
281A
102
{ACAD_REACTORS
330
2819
102
}
330
2819
100
AcDbXrecord
102
SHADEPLOT
 70
     2
  0
MLINESTYLE
  5
47C
102
{ACAD_REACTORS
330
47B
102
}
330
47B
100
AcDbMlineStyle
  2
STANDARD
 70
     0
  3

 62
   256
 51
90.0
 52
90.0
 71
     2
 49
0.5
 62
   256
  6
BYLAYER
 49
-0.5
 62
   256
  6
BYLAYER
  0
ACDBPLACEHOLDER
  5
49D
102
{ACAD_REACTORS
330
49C
102
}
330
49C
100
AcDbPlaceHolder
280
     0
  0
ACAD_PROXY_OBJECT
  5
26CB
102
{ACAD_REACTORS
330
26CA
102
}
330
26CA
100
AcDbProxyObject
 90
      499
 91
      526
 93
     1849
310
4214DD185B99185C992420000000000000F83F0000000000003E0FC00000000000004901028000000C1008070000C3001FDFF8000000C1003FBFF000000182007F7FE00000030400FEFFC00000060801FDFF8000000C1003FBFF000000182000000000000000C2020B0000001820100E000186003FBFF000000182007F7FE0
310
0000030400FEFFC00000060801FDFF8000000C1003FBFF000000182007F7FE0000003040000000000000012404160000003040201C00030C007F7FE00000030400FEFFC00000060801FDFF8000000C1003FBFF000000182007F7FE00000030400FEFFC000000608075
340
470
340
470
340
470
 94
        0
1001
ACAD
1000
AcRTDxfName
1000
TABLESTYLE
1000
AcadProxyRoundTripData
1071
      524
1071
  2555929
1070
     0
  0
XRECORD
  5
2862
102
{ACAD_REACTORS
330
2858
102
}
330
2858
100
AcDbXrecord
 90
        0
  0
XRECORD
  5
2866
102
{ACAD_REACTORS
330
2858
102
}
330
2858
100
AcDbXrecord
1000
DSTYLE
1002
{
1070
   276
 70
     2
1070
   279
 70
     2
1002
}
  0
XRECORD
  5
2863
102
{ACAD_REACTORS
330
2858
102
}
330
2858
100
AcDbXrecord
  1
{6E0CF4B5-225E-11D4-A150-00A0CC3303EC}
  0
XRECORD
  5
285B
102
{ACAD_REACTORS
330
2858
102
}
330
2858
100
AcDbXrecord
  1

  0
XRECORD
  5
2861
102
{ACAD_REACTORS
330
2858
102
}
330
2858
100
AcDbXrecord
 90
        0
  0
XRECORD
  5
285D
102
{ACAD_REACTORS
330
2858
102
}
330
2858
100
AcDbXrecord
340
49E
  0
XRECORD
  5
2860
102
{ACAD_REACTORS
330
2858
102
}
330
2858
100
AcDbXrecord
 90
    14877
  0
XRECORD
  5
285E
102
{ACAD_REACTORS
330
2858
102
}
330
2858
100
AcDbXrecord
340
49F
  0
XRECORD
  5
285F
102
{ACAD_REACTORS
330
2858
102
}
330
2858
100
AcDbXrecord
340
49C
  0
XRECORD
  5
2865
102
{ACAD_REACTORS
330
2858
102
}
330
2858
100
AcDbXrecord
 40
0.0
  0
XRECORD
  5
2869
102
{ACAD_REACTORS
330
2858
102
}
330
2858
100
AcDbXrecord
340
0
  0
XRECORD
  5
286F
102
{ACAD_REACTORS
330
2858
102
}
330
2858
100
AcDbXrecord
 10
0.0
 20
0.0
 30
0.0
  0
XRECORD
  5
286B
102
{ACAD_REACTORS
330
2858
102
}
330
2858
100
AcDbXrecord
 10
0.0
 20
0.0
 30
0.0
  0
XRECORD
  5
286E
102
{ACAD_REACTORS
330
2858
102
}
330
2858
100
AcDbXrecord
 10
0.0
 20
0.0
 30
0.0
  0
XRECORD
  5
286C
102
{ACAD_REACTORS
330
2858
102
}
330
2858
100
AcDbXrecord
 10
0.0
 20
0.0
 30
0.0
  0
XRECORD
  5
286D
102
{ACAD_REACTORS
330
2858
102
}
330
2858
100
AcDbXrecord
 10
0.0
 20
0.0
 30
0.0
  0
XRECORD
  5
286A
102
{ACAD_REACTORS
330
2858
102
}
330
2858
100
AcDbXrecord
 10
0.0
 20
0.0
 30
0.0
  0
XRECORD
  5
2867
102
{ACAD_REACTORS
330
2858
102
}
330
2858
100
AcDbXrecord
340
0
  0
XRECORD
  5
2868
102
{ACAD_REACTORS
330
2858
102
}
330
2858
100
AcDbXrecord
 70
     0
  0
XRECORD
  5
285C
102
{ACAD_REACTORS
330
2858
102
}
330
2858
100
AcDbXrecord
  1

  0
XRECORD
  5
2859
102
{ACAD_REACTORS
330
2858
102
}
330
2858
100
AcDbXrecord
 90
        1
  0
XRECORD
  5
285A
102
{ACAD_REACTORS
330
2858
102
}
330
2858
100
AcDbXrecord
 90
       70
  0
XRECORD
  5
2872
102
{ACAD_REACTORS
330
2858
102
}
330
2858
100
AcDbXrecord
340
0
  0
XRECORD
  5
2878
102
{ACAD_REACTORS
330
2858
102
}
330
2858
100
AcDbXrecord
 10
0.0
 20
0.0
 30
0.0
  0
XRECORD
  5
2874
102
{ACAD_REACTORS
330
2858
102
}
330
2858
100
AcDbXrecord
 10
0.0
 20
0.0
 30
0.0
  0
XRECORD
  5
2877
102
{ACAD_REACTORS
330
2858
102
}
330
2858
100
AcDbXrecord
 10
0.0
 20
0.0
 30
0.0
  0
XRECORD
  5
2875
102
{ACAD_REACTORS
330
2858
102
}
330
2858
100
AcDbXrecord
 10
0.0
 20
0.0
 30
0.0
  0
XRECORD
  5
2876
102
{ACAD_REACTORS
330
2858
102
}
330
2858
100
AcDbXrecord
 10
0.0
 20
0.0
 30
0.0
  0
XRECORD
  5
2873
102
{ACAD_REACTORS
330
2858
102
}
330
2858
100
AcDbXrecord
 10
-579.3132324932856
 20
47.4377306157709
 30
0.0
  0
XRECORD
  5
2870
102
{ACAD_REACTORS
330
2858
102
}
330
2858
100
AcDbXrecord
340
0
  0
XRECORD
  5
2871
102
{ACAD_REACTORS
330
2858
102
}
330
2858
100
AcDbXrecord
 70
     1
  0
XRECORD
  5
2864
102
{ACAD_REACTORS
330
2858
102
}
330
2858
100
AcDbXrecord
  1
{15F0FF24-C051-49F3-B5F5-A8CF6C31D7E7}
  0
DICTIONARYVAR
  5
27BF
102
{ACAD_REACTORS
330
48D
102
}
330
48D
100
DictionaryVariables
280
     0
  1
STANDARD
  0
DICTIONARYVAR
  5
48E
102
{ACAD_REACTORS
330
48D
102
}
330
48D
100
DictionaryVariables
280
     0
  1
0
  0
DICTIONARYVAR
  5
6EA
102
{ACAD_REACTORS
330
48D
102
}
330
48D
100
DictionaryVariables
280
     0
  1
1
  0
DICTIONARYVAR
  5
2536
102
{ACAD_REACTORS
330
48D
102
}
330
48D
100
DictionaryVariables
280
     0
  1

  0
XRECORD
  5
2784
102
{ACAD_REACTORS
330
2783
102
}
330
2783
100
AcDbXrecord
 40
0.000001
  0
XRECORD
  5
2787
102
{ACAD_REACTORS
330
2783
102
}
330
2783
100
AcDbXrecord
 70
     0
  0
XRECORD
  5
2786
102
{ACAD_REACTORS
330
2783
102
}
330
2783
100
AcDbXrecord
 70
     0
  0
XRECORD
  5
2785
102
{ACAD_REACTORS
330
2783
102
}
330
2783
100
AcDbXrecord
 70
     0
  0
ENDSEC
  0
EOF
