  0
SECTION
  2
HEADER
  9
$ACADVER
  1
AC1015
  9
$ACADMAINTVER
 70
     6
  9
$DWGCODEPAGE
  3
ANSI_1252
  9
$INSBASE
 10
0.0
 20
0.0
 30
0.0
  9
$EXTMIN
 10
-0.9074303285849191
 20
-1.452000000000002
 30
-0.0000000000000002
  9
$EXTMAX
 10
1.729749723346824
 20
0.969749723346824
 30
1.370999999999999
  9
$LIMMIN
 10
0.0
 20
0.0
  9
$LIMMAX
 10
12.0
 20
9.0
  9
$ORTHOMODE
 70
     0
  9
$REGENMODE
 70
     1
  9
$FILLMODE
 70
     1
  9
$QTEXTMODE
 70
     0
  9
$MIRRTEXT
 70
     1
  9
$LTSCALE
 40
1.0
  9
$ATTMODE
 70
     1
  9
$TEXTSIZE
 40
0.12
  9
$TRACEWID
 40
0.05
  9
$TEXTSTYLE
  7
STANDARD
  9
$CLAYER
  8
0
  9
$CELTYPE
  6
BYLAYER
  9
$CECOLOR
 62
   256
  9
$CELTSCALE
 40
1.0
  9
$DISPSILH
 70
     0
  9
$DIMSCALE
 40
1.0
  9
$DIMASZ
 40
0.09
  9
$DIMEXO
 40
0.0625
  9
$DIMDLI
 40
0.375
  9
$DIMRND
 40
0.0
  9
$DIMDLE
 40
0.0
  9
$DIMEXE
 40
0.18
  9
$DIMTP
 40
0.0
  9
$DIMTM
 40
0.0
  9
$DIMTXT
 40
0.09
  9
$DIMCEN
 40
0.09
  9
$DIMTSZ
 40
0.0
  9
$DIMTOL
 70
     0
  9
$DIMLIM
 70
     0
  9
$DIMTIH
 70
     0
  9
$DIMTOH
 70
     1
  9
$DIMSE1
 70
     0
  9
$DIMSE2
 70
     0
  9
$DIMTAD
 70
     0
  9
$DIMZIN
 70
     4
  9
$DIMBLK
  1

  9
$DIMASO
 70
     1
  9
$DIMSHO
 70
     1
  9
$DIMPOST
  1

  9
$DIMAPOST
  1

  9
$DIMALT
 70
     1
  9
$DIMALTD
 70
     2
  9
$DIMALTF
 40
25.4
  9
$DIMLFAC
 40
1.0
  9
$DIMTOFL
 70
     0
  9
$DIMTVP
 40
0.0
  9
$DIMTIX
 70
     0
  9
$DIMSOXD
 70
     0
  9
$DIMSAH
 70
     0
  9
$DIMBLK1
  1

  9
$DIMBLK2
  1

  9
$DIMSTYLE
  2
ABECAD_3D
  9
$DIMCLRD
 70
     0
  9
$DIMCLRE
 70
     0
  9
$DIMCLRT
 70
     0
  9
$DIMTFAC
 40
1.5
  9
$DIMGAP
 40
0.09
  9
$DIMJUST
 70
     0
  9
$DIMSD1
 70
     0
  9
$DIMSD2
 70
     0
  9
$DIMTOLJ
 70
     1
  9
$DIMTZIN
 70
     4
  9
$DIMALTZ
 70
     4
  9
$DIMALTTZ
 70
     4
  9
$DIMUPT
 70
     1
  9
$DIMDEC
 70
     6
  9
$DIMTDEC
 70
     6
  9
$DIMALTU
 70
     2
  9
$DIMALTTD
 70
     2
  9
$DIMTXSTY
  7
STANDARD
  9
$DIMAUNIT
 70
     0
  9
$DIMADEC
 70
     0
  9
$DIMALTRND
 40
0.0
  9
$DIMAZIN
 70
     0
  9
$DIMDSEP
 70
    46
  9
$DIMATFIT
 70
     2
  9
$DIMFRAC
 70
     2
  9
$DIMLDRBLK
  1

  9
$DIMLUNIT
 70
     5
  9
$DIMLWD
 70
    -2
  9
$DIMLWE
 70
    -2
  9
$DIMTMOVE
 70
     2
  9
$LUNITS
 70
     2
  9
$LUPREC
 70
     4
  9
$SKETCHINC
 40
0.1
  9
$FILLETRAD
 40
0.0
  9
$AUNITS
 70
     0
  9
$AUPREC
 70
     0
  9
$MENU
  1
ACAD
  9
$ELEVATION
 40
0.0
  9
$PELEVATION
 40
0.0
  9
$THICKNESS
 40
0.0
  9
$LIMCHECK
 70
     0
  9
$CHAMFERA
 40
0.0
  9
$CHAMFERB
 40
0.0
  9
$CHAMFERC
 40
0.0
  9
$CHAMFERD
 40
0.0
  9
$SKPOLY
 70
     0
  9
$TDCREATE
 40
2452003.745757986
  9
$TDUCREATE
 40
2452003.954091319
  9
$TDUPDATE
 40
2453913.616999594
  9
$TDUUPDATE
 40
2453913.825332928
  9
$TDINDWG
 40
0.0737062037
  9
$TDUSRTIMER
 40
0.0737062037
  9
$USRTIMER
 70
     1
  9
$ANGBASE
 50
0.0
  9
$ANGDIR
 70
     0
  9
$PDMODE
 70
     3
  9
$PDSIZE
 40
0.09
  9
$PLINEWID
 40
0.0
  9
$SPLFRAME
 70
     1
  9
$SPLINETYPE
 70
     6
  9
$SPLINESEGS
 70
     8
  9
$HANDSEED
  5
45B3E
  9
$SURFTAB1
 70
     6
  9
$SURFTAB2
 70
     6
  9
$SURFTYPE
 70
     6
  9
$SURFU
 70
     6
  9
$SURFV
 70
     6
  9
$UCSBASE
  2

  9
$UCSNAME
  2

  9
$UCSORG
 10
0.0
 20
0.0
 30
0.0
  9
$UCSXDIR
 10
1.0
 20
0.0
 30
0.0
  9
$UCSYDIR
 10
0.0
 20
1.0
 30
0.0
  9
$UCSORTHOREF
  2

  9
$UCSORTHOVIEW
 70
     1
  9
$UCSORGTOP
 10
0.0
 20
0.0
 30
0.0
  9
$UCSORGBOTTOM
 10
0.0
 20
0.0
 30
0.0
  9
$UCSORGLEFT
 10
0.0
 20
0.0
 30
0.0
  9
$UCSORGRIGHT
 10
0.0
 20
0.0
 30
0.0
  9
$UCSORGFRONT
 10
0.0
 20
0.0
 30
0.0
  9
$UCSORGBACK
 10
0.0
 20
0.0
 30
0.0
  9
$PUCSBASE
  2

  9
$PUCSNAME
  2

  9
$PUCSORG
 10
0.0
 20
0.0
 30
0.0
  9
$PUCSXDIR
 10
1.0
 20
0.0
 30
0.0
  9
$PUCSYDIR
 10
0.0
 20
1.0
 30
0.0
  9
$PUCSORTHOREF
  2

  9
$PUCSORTHOVIEW
 70
     0
  9
$PUCSORGTOP
 10
0.0
 20
0.0
 30
0.0
  9
$PUCSORGBOTTOM
 10
0.0
 20
0.0
 30
0.0
  9
$PUCSORGLEFT
 10
0.0
 20
0.0
 30
0.0
  9
$PUCSORGRIGHT
 10
0.0
 20
0.0
 30
0.0
  9
$PUCSORGFRONT
 10
0.0
 20
0.0
 30
0.0
  9
$PUCSORGBACK
 10
0.0
 20
0.0
 30
0.0
  9
$USERI1
 70
     0
  9
$USERI2
 70
     0
  9
$USERI3
 70
     0
  9
$USERI4
 70
     0
  9
$USERI5
 70
     0
  9
$USERR1
 40
0.0
  9
$USERR2
 40
0.0
  9
$USERR3
 40
0.0
  9
$USERR4
 40
0.0
  9
$USERR5
 40
0.0
  9
$WORLDVIEW
 70
     1
  9
$SHADEDGE
 70
     3
  9
$SHADEDIF
 70
    70
  9
$TILEMODE
 70
     1
  9
$MAXACTVP
 70
    16
  9
$PINSBASE
 10
0.0
 20
0.0
 30
0.0
  9
$PLIMCHECK
 70
     0
  9
$PEXTMIN
 10
1.049999952316284
 20
0.7999999523162842
 30
0.0
  9
$PEXTMAX
 10
9.449999570846555
 20
7.199999570846556
 30
0.0
  9
$PLIMMIN
 10
-0.2500002402958907
 20
-0.2499999962453767
  9
$PLIMMAX
 10
10.74999951940821
 20
8.249999763458731
  9
$UNITMODE
 70
     0
  9
$VISRETAIN
 70
     0
  9
$PLINEGEN
 70
     0
  9
$PSLTSCALE
 70
     1
  9
$TREEDEPTH
 70
  3020
  9
$CMLSTYLE
  2
STANDARD
  9
$CMLJUST
 70
     0
  9
$CMLSCALE
 40
1.0
  9
$PROXYGRAPHICS
 70
     1
  9
$MEASUREMENT
 70
     0
  9
$CELWEIGHT
370
    -1
  9
$ENDCAPS
280
     0
  9
$JOINSTYLE
280
     0
  9
$LWDISPLAY
290
     0
  9
$INSUNITS
 70
     0
  9
$HYPERLINKBASE
  1

  9
$STYLESHEET
  1

  9
$XEDIT
290
     1
  9
$CEPSNTYPE
380
     0
  9
$PSTYLEMODE
290
     1
  9
$FINGERPRINTGUID
  2
{6E0CF4B8-225E-11D4-A150-00A0CC3303EC}
  9
$VERSIONGUID
  2
{BBD3064B-7055-4300-88DC-40216289609E}
  9
$EXTNAMES
290
     1
  9
$PSVPSCALE
 40
0.0
  9
$OLESTARTUP
290
     0
  0
ENDSEC
  0
SECTION
  2
CLASSES
  0
CLASS
  1
DICTIONARYVAR
  2
AcDbDictionaryVar
  3
AutoCAD 2000
 90
        0
280
     0
281
     0
  0
CLASS
  1
ACDBDICTIONARYWDFLT
  2
AcDbDictionaryWithDefault
  3
AutoCAD 2000
 90
        0
280
     0
281
     0
  0
CLASS
  1
ACDBPLACEHOLDER
  2
AcDbPlaceHolder
  3
AutoCAD 2000
 90
        0
280
     0
281
     0
  0
CLASS
  1
LAYOUT
  2
AcDbLayout
  3
AutoCAD 2000
 90
        0
280
     0
281
     0
  0
CLASS
  1
LONG_TRANSACTION
  2
AcDbLongTransaction
  3
AutoCAD 2000
 90
    32768
280
     0
281
     0
  0
CLASS
  1
LWPOLYLINE
  2
AcDbPolyline
  3
AutoCAD 2000
 90
    32768
280
     0
281
     1
  0
CLASS
  1
HATCH
  2
AcDbHatch
  3
AutoCAD 2000
 90
    32768
280
     0
281
     1
  0
CLASS
  1
XRECORD
  2
AcDbXrecord
  3
AutoCAD 2000
 90
    32768
280
     0
281
     0
  0
CLASS
  1
LONG_TRANSACTION
  2
AcDbLongTransaction
  3
AutoCAD 2000
 90
    32768
280
     0
281
     0
  0
CLASS
  1
LWPOLYLINE
  2
AcDbPolyline
  3
AutoCAD 2000
 90
    32768
280
     0
281
     1
  0
CLASS
  1
HATCH
  2
AcDbHatch
  3
AutoCAD 2000
 90
    32768
280
     0
281
     1
  0
CLASS
  1
XRECORD
  2
AcDbXrecord
  3
AutoCAD 2000
 90
    32768
280
     0
281
     0
  0
CLASS
  1
LONG_TRANSACTION
  2
AcDbLongTransaction
  3
AutoCAD 2000
 90
    32768
280
     0
281
     0
  0
CLASS
  1
LWPOLYLINE
  2
AcDbPolyline
  3
AutoCAD 2000
 90
    32768
280
     0
281
     1
  0
CLASS
  1
HATCH
  2
AcDbHatch
  3
AutoCAD 2000
 90
    32768
280
     0
281
     1
  0
CLASS
  1
XRECORD
  2
AcDbXrecord
  3
AutoCAD 2000
 90
    32768
280
     0
281
     0
  0
ENDSEC
  0
SECTION
  2
TABLES
  0
TABLE
  2
VPORT
  5
458C7
330
0
100
AcDbSymbolTable
 70
     2
  0
VPORT
  5
45B3D
330
458C7
100
AcDbSymbolTableRecord
100
AcDbViewportTableRecord
  2
*Active
 70
     0
 10
0.0
 20
0.0
 11
1.0
 21
1.0
 12
0.2814710796295401
 22
-0.4535405867850379
 13
0.0
 23
0.0
 14
0.25
 24
0.25
 15
0.25
 25
0.25
 16
0.0
 26
0.0
 36
1.0
 17
0.2142752465074508
 27
0.2125091733409132
 37
0.6519122450129526
 40
2.449642941703587
 41
2.03353057199211
 42
50.0
 43
0.0
 44
0.0
 50
0.0
 51
0.0
 71
     0
 72
 20000
 73
     1
 74
     1
 75
     0
 76
     0
 77
     0
 78
     0
281
     0
 65
     1
110
0.0
120
0.0
130
0.0
111
1.0
121
0.0
131
0.0
112
0.0
122
1.0
132
0.0
 79
     1
146
0.0
  0
ENDTAB
  0
TABLE
  2
LTYPE
  5
458C4
330
0
100
AcDbSymbolTable
 70
     1
  0
LTYPE
  5
458D0
330
458C4
100
AcDbSymbolTableRecord
100
AcDbLinetypeTableRecord
  2
BYBLOCK
 70
     0
  3

 72
    65
 73
     0
 40
0.0
  0
LTYPE
  5
458D1
330
458C4
100
AcDbSymbolTableRecord
100
AcDbLinetypeTableRecord
  2
BYLAYER
 70
     0
  3

 72
    65
 73
     0
 40
0.0
  0
LTYPE
  5
458D2
330
458C4
100
AcDbSymbolTableRecord
100
AcDbLinetypeTableRecord
  2
CONTINUOUS
 70
     0
  3
Solid line
 72
    65
 73
     0
 40
0.0
  0
ENDTAB
  0
TABLE
  2
LAYER
  5
458C1
330
0
100
AcDbSymbolTable
 70
     8
  0
LAYER
  5
458CD
330
458C1
100
AcDbSymbolTableRecord
100
AcDbLayerTableRecord
  2
0
 70
     0
 62
     7
  6
CONTINUOUS
370
    -3
390
458FA
  0
LAYER
  5
458EA
330
458C1
100
AcDbSymbolTableRecord
100
AcDbLayerTableRecord
  2
DIMS-MTG-HOLES
 70
     0
 62
     1
  6
CONTINUOUS
370
    -3
390
458FA
  0
LAYER
  5
458EB
330
458C1
100
AcDbSymbolTableRecord
100
AcDbLayerTableRecord
  2
ATTRIBUTES
 70
     0
 62
     7
  6
CONTINUOUS
370
    -3
390
458FA
  0
LAYER
  5
4593B
330
458C1
100
AcDbSymbolTableRecord
100
AcDbLayerTableRecord
  2
AREA1
 70
     0
 62
    -7
  6
CONTINUOUS
290
     0
370
    -3
390
458FA
  0
LAYER
  5
45940
330
458C1
100
AcDbSymbolTableRecord
100
AcDbLayerTableRecord
  2
Defpoints
 70
     0
 62
    -7
  6
CONTINUOUS
290
     0
370
    -3
390
458FA
  0
LAYER
  5
45954
330
458C1
100
AcDbSymbolTableRecord
100
AcDbLayerTableRecord
  2
SCALE
 70
     0
 62
    -7
  6
CONTINUOUS
370
    -3
390
458FA
  0
LAYER
  5
459D2
330
458C1
100
AcDbSymbolTableRecord
100
AcDbLayerTableRecord
  2
SNAP_POINTS
 70
     0
 62
    -1
  6
CONTINUOUS
370
    -3
390
458FA
  0
LAYER
  5
459DD
330
458C1
100
AcDbSymbolTableRecord
100
AcDbLayerTableRecord
  2
AREA2
 70
     0
 62
    -7
  6
CONTINUOUS
290
     0
370
    -3
390
458FA
  0
ENDTAB
  0
TABLE
  2
STYLE
  5
458C2
330
0
100
AcDbSymbolTable
 70
     1
  0
STYLE
  5
458CE
330
458C2
100
AcDbSymbolTableRecord
100
AcDbTextStyleTableRecord
  2
STANDARD
 70
     0
 40
0.0
 41
1.0
 50
0.0
 71
     0
 42
0.12
  3
txt
  4

  0
ENDTAB
  0
TABLE
  2
VIEW
  5
458C5
330
0
100
AcDbSymbolTable
 70
     0
  0
ENDTAB
  0
TABLE
  2
UCS
  5
458C6
330
0
100
AcDbSymbolTable
 70
     0
  0
ENDTAB
  0
TABLE
  2
APPID
  5
458C8
330
0
100
AcDbSymbolTable
 70
     2
  0
APPID
  5
458CF
330
458C8
100
AcDbSymbolTableRecord
100
AcDbRegAppTableRecord
  2
ACAD
 70
     0
  0
APPID
  5
45A20
330
458C8
100
AcDbSymbolTableRecord
100
AcDbRegAppTableRecord
  2
ACADSTEP
 70
     0
  0
ENDTAB
  0
TABLE
  2
DIMSTYLE
  5
458C9
330
0
100
AcDbSymbolTable
 70
     1
100
AcDbDimStyleTable
 71
     1
340
458F6
  0
DIMSTYLE
105
458F6
102
{ACAD_REACTORS
330
45A30
330
45A48
330
45AA6
102
}
330
458C9
100
AcDbSymbolTableRecord
100
AcDbDimStyleTableRecord
  2
ABECAD_3D
 70
     0
 41
0.09
 43
0.375
 73
     0
 78
     4
140
0.09
146
1.5
170
     1
271
     6
272
     6
276
     2
277
     5
279
     2
284
     4
285
     4
286
     4
288
     1
289
     2
340
458CE
  0
ENDTAB
  0
TABLE
  2
BLOCK_RECORD
  5
458C0
330
0
100
AcDbSymbolTable
 70
     4
  0
BLOCK_RECORD
  5
458D6
102
{ACAD_XDICTIONARY
360
4592C
102
}
330
458C0
100
AcDbSymbolTableRecord
100
AcDbBlockTableRecord
  2
*MODEL_SPACE
340
458FD
  0
BLOCK_RECORD
  5
458D3
102
{ACAD_XDICTIONARY
360
4592A
102
}
330
458C0
100
AcDbSymbolTableRecord
100
AcDbBlockTableRecord
  2
*PAPER_SPACE
340
458FE
  0
BLOCK_RECORD
  5
45A22
330
458C0
100
AcDbSymbolTableRecord
100
AcDbBlockTableRecord
  2
1492-EB3
340
0
102
{BLKREFS
331
45A26
102
}
  0
BLOCK_RECORD
  5
45A31
330
458C0
100
AcDbSymbolTableRecord
100
AcDbBlockTableRecord
  2
*D1
340
0
  0
BLOCK_RECORD
  5
45A49
330
458C0
100
AcDbSymbolTableRecord
100
AcDbBlockTableRecord
  2
*D2
340
0
  0
BLOCK_RECORD
  5
45AA7
330
458C0
100
AcDbSymbolTableRecord
100
AcDbBlockTableRecord
  2
*D3
340
0
  0
ENDTAB
  0
ENDSEC
  0
SECTION
  2
BLOCKS
  0
BLOCK
  5
458DF
330
458D6
100
AcDbEntity
  8
0
100
AcDbBlockBegin
  2
*MODEL_SPACE
 70
     0
 10
0.0
 20
0.0
 30
0.0
  3
*MODEL_SPACE
  1

  0
ENDBLK
  5
458E0
330
458D6
100
AcDbEntity
  8
0
100
AcDbBlockEnd
  0
BLOCK
  5
458DD
330
458D3
100
AcDbEntity
 67
     1
  8
0
100
AcDbBlockBegin
  2
*PAPER_SPACE
 70
     0
 10
0.0
 20
0.0
 30
0.0
  3
*PAPER_SPACE
  1

  0
ENDBLK
  5
458DE
330
458D3
100
AcDbEntity
 67
     1
  8
0
100
AcDbBlockEnd
  0
BLOCK
  5
45A23
330
45A22
100
AcDbEntity
  8
0
100
AcDbBlockBegin
  2
1492-EB3
 70
     0
 10
0.0
 20
0.0
 30
0.0
  3
1492-EB3
  1

  0
BODY
  5
45A25
330
45A22
100
AcDbEntity
  8
0
100
AcDbModelerGeometry
 70
     1
  1
joo nim n o         
  1
h J1410(1 nl ^ \VL jqoqn QK mk R01 U*1 mi nkekgemg mooi 
  1
rn fqfffffffffffffffj:rooh n:rono 
  1
=0;& {n {m {rn {rn |
  1
-:9@)+r:&:r>++-6= {rn {rn {rn {o {l {k |
  1
3*2/ {j {rn {i {o |
  1
:&:@-:961:2:1+ {rn j 8-6;  n l +-6 n k ,*-9 o l >;5 o k 8->; o f /0,+<7:<4 o k ,+03 oqonkfooigoilnlffnjj k 1+03 lo k ;,63 o g 93>+1:,, o h /6'>-:> o k 72>' o i 8-6;>- o j 28-6; looo j *8-6; o j )8-6; o no :1;@96:3;, |
  1
):-+:'@+:2/3>+: {rn l o n g |
  1
-:9@)+r:&:r>++-6= {rn {rn {rn {m {l {k |
  1
,7:33 {h {rn {rn {g {rn {m |
  1
-:9@)+r:&:r>++-6= {rn {rn {rn {i {l {k |
  1
9><: {f {no {nn {i {rn {nm -:):-,:; ,6183: |
  1
92:,7r:&:r>++-6= {rn {nl {rn {g |
  1
9><: {nk {nj {ni {i {rn {nh 90-(>-; ,6183: |
  1
300/ {rn {rn {ng {g |
  1
/3>1:r,*-9><: {rn roqhfgioooooooooomjl roqoigjj o o o n n o o 90-(>-;@) V V V V |
  1
-:9@)+r:&:r>++-6= {rn {rn {f {g {l {k |
  1
92:,7r:&:r>++-6= {rn {nf {rn {no |
  1
9><: {mo {mn {mm {i {rn {ml 90-(>-; ,6183: |
  1
300/ {rn {rn {mk {no |
  1
/3>1:r,*-9><: {rn oqhlklooooooooooonh oqggmhkfffffffffffm roqoolooooooooooooooon oqfknhghhmjmjngjjoi oqllimogofnnijnglfi o o o rn 90-(>-;@) V V V V |
  1
<0:;8: {rn {mj {mi {mh {mg -:):-,:; {nn {rn |
  1
-:9@)+r:&:r>++-6= {rn {rn {nk {no {l {k |
  1
92:,7r:&:r>++-6= {rn {mf {rn {nj |
  1
9><: {lo {ln {lm {i {rn {ll 90-(>-; ,6183: |
  1
300/ {rn {rn {lk {nj |
  1
/3>1:r,*-9><: {rn oqhmjfffffffffffffg roqokjloooooooooooooh roqoolooooooooooooooon n o o o o rn 90-(>-;@) V V V V |
  1
<0:;8: {rn {lj {li {lh {lg 90-(>-; {ni {rn |
  1
<0:;8: {rn {lf {ng {ko {kn -:):-,:; {nn {rn |
  1
<0:;8: {rn {ng {km {li {kl -:):-,:; {nn {rn |
  1
<0:;8: {rn {lk {kk {ng {mg 90-(>-; {mm {rn |
  1
:;8: {kj {ki o {kh oqfoioooooooooooool {ng {kg 90-(>-; h *1410(1 |
  1
-:9@)+r:&:r>++-6= {rn {rn {mo {nj {l {k |
  1
92:,7r:&:r>++-6= {rn {kf {rn {mn |
  1
9><: {jo {jn {jm {i {rn {jl 90-(>-; ,6183: |
  1
300/ {rn {rn {jk {mn |
  1
/3>1:r,*-9><: {rn roqhfgjffffffffffffg o roqoolooooooooooooooon o rn o o o rn 90-(>-;@) V V V V |
  1
<0:;8: {rn {jj {mh {ji {jh 90-(>-; {mm {rn |
  1
<0:;8: {rn {ji {mk {jg {jf -:):-,:; {ni {rn |
  1
<0:;8: {rn {mk {ji {mi {kl 90-(>-; {ni {rn |
  1
<0:;8: {rn {io {in {mk {lg -:):-,:; {im {rn |
  1
:;8: {il {ik o {ij oqojfffffffffffffffg {mk {ii 90-(>-; h *1410(1 |
  1
<0:;8: {rn {ih {mj {ig {if -:):-,:; {nn {rn |
  1
<0:;8: {rn {jk {ho {mj {kn 90-(>-; {lm {rn |
  1
:;8: {hn {hm o {ki nqkjm {mj {hl 90-(>-; h *1410(1 |
  1
<0:;8: {rn {mi {ih {io {hk -:):-,:; {nn {rn |
  1
:;8: {hj {kh o {ik oqkflhkngljlhjjlloh {mi {hi 90-(>-; h *1410(1 |
  1
<0:;8: {rn {mh {jj {jk {hh -:):-,:; {mm {rn |
  1
/+36,+r:&:r>++-6= {rn {rn {rn {mg |
  1
):-+:' {rn {mg {hg |
  1
):-+:' {rn {mg {hf |
  1
,+->687+r<*-): {rn oqhmjfffffffffffffg o o o n o V V |
  1
-:9@)+r:&:r>++-6= {rn {rn {lo {mn {l {k |
  1
92:,7r:&:r>++-6= {rn {go {rn {ln |
  1
9><: {gn {gm {gl {i {rn {gk 90-(>-; ,6183: |
  1
300/ {rn {rn {gj {ln |
  1
/3>1:r,*-9><: {rn roqhmjfffffffffffffg oqfjnlooooooooooool roqoolooooooooooooooon rn o o o o n 90-(>-;@) V V V V |
  1
<0:;8: {rn {gi {ko {kk {hh 90-(>-; {lm {rn |
  1
<0:;8: {rn {kk {lk {gh {gg -:):-,:; {mm {rn |
  1
<0:;8: {rn {li {lj {lk {jh -:):-,:; {ni {rn |
  1
:;8: {gf {kh o {fo oqojfffffffffffffffg {ji {fn 90-(>-; h *1410(1 |
  1
<0:;8: {rn {fm {gh {lj {jf 90-(>-; {fl {rn |
  1
:;8: {fk {fo o {ij oqkflhkngljlhjjlloh {lj {fj 90-(>-; h *1410(1 |
  1
<0:;8: {rn {fi {lh {km {hk 90-(>-; {im {rn |
  1
<0:;8: {rn {lh {fi {fm {fh -:):-,:; {im {rn |
  1
300/ {rn {rn {fi {gm |
  1
/+36,+r:&:r>++-6= {rn {rn {rn {lg |
  1
):-+:' {rn {hk {fg |
  1
):-+:' {rn {lg {ff |
  1
,+->687+r<*-): {rn oqjiooooooooooooooj nqlhn o o o n V V |
  1
<0:;8: {rn {km {lf {noo {non -:):-,:; {nn {rn |
  1
<0:;8: {rn {gj {nom {lf {if 90-(>-; {jm {rn |
  1
:;8: {nol {nok o {hm oqfoioooooooooooool {lf {noj 90-(>-; h *1410(1 |
  1
<0:;8: {rn {ko {gi {gj {noi -:):-,:; {lm {rn |
  1
/+36,+r:&:r>++-6= {rn {rn {rn {kn |
  1
):-+:' {rn {kn {noh |
  1
,+->687+r<*-): {rn roqhmjfffffffffffffg o o n o o V V |
  1
:;8: {nog {ik o {nof nqnmooooooooooooon {km {nno 90-(>-; h *1410(1 |
  1
/+36,+r:&:r>++-6= {rn {rn {rn {kl |
  1
,+->687+r<*-): {rn oqhmjfffffffffffffg oqfoioooooooooooool o roqllimogofnnijnglgj oqfknhghhmjmjngjjoi o V V |
  1
:;8: {nnn {ki o {nnm oqojfffffffffffffffg {kk {nnl 90-(>-; h *1410(1 |
  1
/061+ {rn oqhmjfffffffffffffg o o |
  1
/061+ {rn oqhmjfffffffffffffg oqfoioooooooooooool o |
  1
-:9@)+r:&:r>++-6= {rn {rn {jo {ln {l {k |
  1
92:,7r:&:r>++-6= {rn {nnk {rn {jn |
  1
9><: {nnj {nni {im {i {rn {nnh 90-(>-; ,6183: |
  1
300/ {rn {rn {nng {jn |
  1
/3>1:r,*-9><: {rn roqjjniffffffffffffh nqlfkmj roqoolooooooooooooooon roqfknhghhmjmjngjjoi oqllimogofnnijnglfi o o o n 90-(>-;@) V V V V |
  1
<0:;8: {rn {nnf {ig {ho {noi 90-(>-; {jm {rn |
  1
<0:;8: {rn {ho {jk {nmo {nmn -:):-,:; {lm {rn |
  1
<0:;8: {rn {jg {nmo {jj {gg 90-(>-; {fl {rn |
  1
:;8: {nmm {nnm o {fo oqfoioooooooooooool {jj {nml 90-(>-; h *1410(1 |
  1
/+36,+r:&:r>++-6= {rn {rn {rn {jh |
  1
):-+:' {rn {jf {nmk |
  1
,+->687+r<*-): {rn oqhmjfffffffffffffg oqfoioooooooooooool o o o n V V |
  1
<0:;8: {rn {nmj {jg {in {fh 90-(>-; {fl {rn |
  1
300/ {rn {rn {fm {nni |
  1
/+36,+r:&:r>++-6= {rn {rn {rn {jf |
  1
,+->687+r<*-): {rn oqhmjfffffffffffffg oqfoioooooooooooool oqojfffffffffffffffg roqllimogofnnijnglgj oqfknhghhmjmjngjjoi o V V |
  1
<0:;8: {rn {in {io {nmi {nmh 90-(>-; {im {rn |
  1
:;8: {nmg {ij o {nmf nqnmooooooooooooon {in {nlo 90-(>-; h *1410(1 |
  1
/061+ {rn oqjiooooooooooooooj nqlhn o |
  1
/061+ {rn oqjiooooooooooooooj nqlhn oqojfffffffffffffffg |
  1
<0:;8: {rn {nng {nmi {ih {non 90-(>-; {gl {rn |
  1
:;8: {nln {nof o {nok oqkflhkngljlhjjlloh {ih {nlm 90-(>-; h *1410(1 |
  1
<0:;8: {rn {ig {nnf {nng {nll -:):-,:; {jm {rn |
  1
/+36,+r:&:r>++-6= {rn {rn {rn {if |
  1
):-+:' {rn {if {nlk |
  1
,+->687+r<*-): {rn roqhmjfffffffffffffg oqfoioooooooooooool o o rn o V V |
  1
:;8: {nlj {hm o {nli oqojfffffffffffffffg {ho {nlh 90-(>-; h *1410(1 |
  1
/061+ {rn roqhmjfffffffffffffg o o |
  1
/+36,+r:&:r>++-6= {rn {rn {rn {hk |
  1
):-+:' {rn {non {nlg |
  1
,+->687+r<*-): {rn oqjiooooooooooooooj nqlhn o rn o o V V |
  1
/+36,+r:&:r>++-6= {rn {rn {rn {hh |
  1
):-+:' {rn {gg {nlf |
  1
,+->687+r<*-): {rn oqhmjfffffffffffffg o o o o n V V |
  1
-:9@)+r:&:r>++-6= {rn {rn {gn {jn {l {k |
  1
92:,7r:&:r>++-6= {rn {nko {rn {gm |
  1
9><: {nkn {rn {fl {i {rn {nkm 90-(>-; ,6183: |
  1
/3>1:r,*-9><: {rn oqinioooooooooooon nqlhn roqoolooooooooooooooon o n o o o n 90-(>-;@) V V V V |
  1
<0:;8: {rn {nkl {noo {nom {nll 90-(>-; {gl {rn |
  1
<0:;8: {rn {nom {gj {nkk {nkj -:):-,:; {jm {rn |
  1
<0:;8: {rn {gh {nkk {gi {nmn 90-(>-; {fl {rn |
  1
:;8: {nki {nli o {nnm nqkjm {gi {nkh 90-(>-; h *1410(1 |
  1
/+36,+r:&:r>++-6= {rn {rn {rn {gg |
  1
,+->687+r<*-): {rn oqhmjfffffffffffffg o oqojfffffffffffffffg o n o V V |
  1
/061+ {rn oqhmjfffffffffffffg oqfoioooooooooooool oqojfffffffffffffffg |
  1
<0:;8: {rn {nkk {fm {nkl {nkg 90-(>-; {fl {rn |
  1
<0:;8: {rn {noo {nkl {fi {nmh -:):-,:; {gl {rn |
  1
:;8: {nkf {nof o {nmf oqojfffffffffffffffg {nmi {njo 90-(>-; h *1410(1 |
  1
/+36,+r:&:r>++-6= {rn {rn {rn {fh |
  1
):-+:' {rn {nkg {njn |
  1
,+->687+r<*-): {rn oqjiooooooooooooooj nqlhn oqojfffffffffffffffg rn o o V V |
  1
/+36,+r:&:r>++-6= {rn {rn {rn {non |
  1
,+->687+r<*-): {rn roqjiooooooooooooooj nqlhn o roqllimogofnnijnglgj roqfknhghhmjmjngjjoi o V V |
  1
:;8: {njm {nok o {njl oqojfffffffffffffffg {nom {njk 90-(>-; h *1410(1 |
  1
/061+ {rn roqhmjfffffffffffffg oqfoioooooooooooool o |
  1
/+36,+r:&:r>++-6= {rn {rn {rn {noi |
  1
):-+:' {rn {nmn {njj |
  1
,+->687+r<*-): {rn roqhmjfffffffffffffg o o o o n V V |
  1
/061+ {rn roqjiooooooooooooooj nqlhn o |
  1
/061+ {rn oqhmjfffffffffffffg o oqojfffffffffffffffg |
  1
-:9@)+r:&:r>++-6= {rn {rn {nnj {gm {l {k |
  1
92:,7r:&:r>++-6= {rn {nji {rn {nni |
  1
/3>1:r,*-9><: {rn roqhfgioooooooooomjl roqoigjj oqojfffffffffffffffg o o n n o o 90-(>-;@) V V V V |
  1
<0:;8: {rn {nmi {nng {nmj {nkg -:):-,:; {gl {rn |
  1
<0:;8: {rn {nmo {nmj {nnf {nkj 90-(>-; {fl {rn |
  1
:;8: {njh {njl o {nli oqfoioooooooooooool {nnf {njg 90-(>-; h *1410(1 |
  1
/+36,+r:&:r>++-6= {rn {rn {rn {nmn |
  1
,+->687+r<*-): {rn roqhmjfffffffffffffg o oqojfffffffffffffffg n o o V V |
  1
:;8: {njf {nmf o {njl oqkflhkngljlhjjlloh {nkl {nio 90-(>-; h *1410(1 |
  1
/+36,+r:&:r>++-6= {rn {rn {rn {nmh |
  1
,+->687+r<*-): {rn roqjiooooooooooooooj nqlhn o o o n V V |
  1
/061+ {rn roqjiooooooooooooooj nqlhn oqojfffffffffffffffg |
  1
/+36,+r:&:r>++-6= {rn {rn {rn {nll |
  1
):-+:' {rn {nkj {nin |
  1
,+->687+r<*-): {rn roqhmjfffffffffffffg oqfoioooooooooooool o o o n V V |
  1
/061+ {rn roqhmjfffffffffffffg o oqojfffffffffffffffg |
  1
-:9@)+r:&:r>++-6= {rn {rn {nkn {nni {l {k |
  1
/+36,+r:&:r>++-6= {rn {rn {rn {nkj |
  1
,+->687+r<*-): {rn roqhmjfffffffffffffg oqfoioooooooooooool oqojfffffffffffffffg o rn o V V |
  1
/+36,+r:&:r>++-6= {rn {rn {rn {nkg |
  1
,+->687+r<*-): {rn roqjiooooooooooooooj nqlhn oqojfffffffffffffffg roqllimogofnnijnglgj roqfknhghhmjmjngjjoi o V V |
  1
/061+ {rn roqhmjfffffffffffffg oqfoioooooooooooool oqojfffffffffffffffg |
1001
ACADSTEP
1000
ID
1002
{
1000
215
1002
}
  0
ENDBLK
  5
45A24
330
45A22
100
AcDbEntity
  8
0
100
AcDbBlockEnd
  0
BLOCK
  5
45A3C
330
45A31
100
AcDbEntity
  8
0
100
AcDbBlockBegin
  2
*D1
 70
     1
 10
0.0
 20
0.0
 30
0.0
  3
*D1
  1

  0
LINE
  5
45B1F
330
45A31
100
AcDbEntity
  8
AREA1
 62
     0
370
    -2
100
AcDbLine
 10
0.0
 20
0.0625
 30
0.0
 11
0.0
 21
0.7747497233468235
 31
0.0
  0
LINE
  5
45B20
330
45A31
100
AcDbEntity
  8
AREA1
 62
     0
370
    -2
100
AcDbLine
 10
0.06
 20
0.0625
 30
0.0
 11
0.0600000000000001
 21
0.7747497233468235
 31
0.0
  0
LINE
  5
45B21
330
45A31
100
AcDbEntity
  8
AREA1
 62
     0
370
    -2
100
AcDbLine
 10
-0.09
 20
0.5947497233468236
 30
0.0
 11
-0.18
 21
0.5947497233468236
 31
0.0
  0
LINE
  5
45B22
330
45A31
100
AcDbEntity
  8
AREA1
 62
     0
370
    -2
100
AcDbLine
 10
0.15
 20
0.5947497233468236
 30
0.0
 11
0.24
 21
0.5947497233468236
 31
0.0
  0
MTEXT
  5
45B23
330
45A31
100
AcDbEntity
  8
AREA1
 62
     0
100
AcDbMText
 10
0.03
 20
0.9197497233468235
 30
0.0
 40
0.1
 41
0.0
 71
     5
 72
     1
  1
\A1;1/16 [1.52]
 73
     1
 44
1.0
  0
SOLID
  5
45B24
330
45A31
100
AcDbEntity
  8
AREA1
 62
     0
100
AcDbTrace
 10
-0.09
 20
0.6097497233468236
 30
0.0
 11
-0.09
 21
0.5797497233468235
 31
0.0
 12
0.0
 22
0.5947497233468236
 32
0.0
 13
0.0
 23
0.5947497233468236
 33
0.0
  0
SOLID
  5
45B25
330
45A31
100
AcDbEntity
  8
AREA1
 62
     0
100
AcDbTrace
 10
0.15
 20
0.6097497233468236
 30
0.0
 11
0.15
 21
0.5797497233468235
 31
0.0
 12
0.06
 22
0.5947497233468236
 32
0.0
 13
0.06
 23
0.5947497233468236
 33
0.0
  0
POINT
  5
45B26
330
45A31
100
AcDbEntity
  8
Defpoints
 62
     0
100
AcDbPoint
 10
0.0
 20
0.0
 30
0.0
  0
POINT
  5
45B27
330
45A31
100
AcDbEntity
  8
Defpoints
 62
     0
100
AcDbPoint
 10
0.06
 20
0.0
 30
0.0
  0
POINT
  5
45B28
330
45A31
100
AcDbEntity
  8
Defpoints
 62
     0
100
AcDbPoint
 10
0.06
 20
0.5947497233468236
 30
0.0
  0
ENDBLK
  5
45A3D
330
45A31
100
AcDbEntity
  8
0
100
AcDbBlockEnd
  0
BLOCK
  5
45A54
330
45A49
100
AcDbEntity
  8
0
100
AcDbBlockBegin
  2
*D2
 70
     1
 10
0.0
 20
0.0
 30
0.0
  3
*D2
  1

  0
LINE
  5
45B16
330
45A49
100
AcDbEntity
  8
AREA1
 62
     0
370
    -2
100
AcDbLine
 10
0.1225
 20
0.0
 30
0.0
 11
0.8347497233468235
 21
-0.0000000000000002
 31
0.0
  0
LINE
  5
45B17
330
45A49
100
AcDbEntity
  8
AREA1
 62
     0
370
    -2
100
AcDbLine
 10
0.1224999999999997
 20
-1.451999999999999
 30
0.0
 11
0.8347497233468232
 21
-1.452
 31
0.0
  0
LINE
  5
45B18
330
45A49
100
AcDbEntity
  8
AREA1
 62
     0
370
    -2
100
AcDbLine
 10
0.6547497233468236
 20
-0.0900000000000002
 30
0.0
 11
0.6547497233468233
 21
-1.362
 31
0.0
  0
MTEXT
  5
45B19
330
45A49
100
AcDbEntity
  8
AREA1
 62
     0
100
AcDbMText
 10
1.079749723346823
 20
-0.7260000000000001
 30
0.0
 40
0.1
 41
0.0
 71
     5
 72
     1
  1
\A1;1 29/64 [36.88]
 73
     1
 44
1.0
  0
SOLID
  5
45B1A
330
45A49
100
AcDbEntity
  8
AREA1
 62
     0
100
AcDbTrace
 10
0.6397497233468236
 20
-0.0900000000000002
 30
0.0
 11
0.6697497233468236
 21
-0.0900000000000002
 31
0.0
 12
0.6547497233468236
 22
-0.0000000000000002
 32
0.0
 13
0.6547497233468236
 23
-0.0000000000000002
 33
0.0
  0
SOLID
  5
45B1B
330
45A49
100
AcDbEntity
  8
AREA1
 62
     0
100
AcDbTrace
 10
0.6397497233468233
 20
-1.362
 30
0.0
 11
0.6697497233468233
 21
-1.362
 31
0.0
 12
0.6547497233468233
 22
-1.452
 32
0.0
 13
0.6547497233468233
 23
-1.452
 33
0.0
  0
POINT
  5
45B1C
330
45A49
100
AcDbEntity
  8
Defpoints
 62
     0
100
AcDbPoint
 10
0.06
 20
0.0
 30
0.0
  0
POINT
  5
45B1D
330
45A49
100
AcDbEntity
  8
Defpoints
 62
     0
100
AcDbPoint
 10
0.0599999999999997
 20
-1.451999999999999
 30
0.906
  0
POINT
  5
45B1E
330
45A49
100
AcDbEntity
  8
Defpoints
 62
     0
100
AcDbPoint
 10
0.6547497233468233
 20
-1.452
 30
0.0
  0
ENDBLK
  5
45A55
330
45A49
100
AcDbEntity
  8
0
100
AcDbBlockEnd
  0
BLOCK
  5
45AB2
330
45AA7
100
AcDbEntity
  8
0
100
AcDbBlockBegin
  2
*D3
 70
     1
 10
0.0
 20
0.0
 30
0.0
  3
*D3
  1

  0
LINE
  5
45B29
330
45AA7
100
AcDbEntity
  8
AREA2
 62
     0
370
    -2
100
AcDbLine
 10
0.1224999999999997
 20
1.370999999999999
 30
0.0
 11
0.8347497233468239
 21
1.370999999999999
 31
0.0
  0
LINE
  5
45B2A
330
45AA7
100
AcDbEntity
  8
AREA2
 62
     0
370
    -2
100
AcDbLine
 10
0.1225605419367296
 20
0.0
 30
0.0
 11
0.8347497233468235
 21
-0.0000000000000002
 31
0.0
  0
LINE
  5
45B2B
330
45AA7
100
AcDbEntity
  8
AREA2
 62
     0
370
    -2
100
AcDbLine
 10
0.654749723346824
 20
1.280999999999999
 30
0.0
 11
0.6547497233468236
 21
0.0899999999999999
 31
0.0
  0
MTEXT
  5
45B2C
330
45AA7
100
AcDbEntity
  8
AREA2
 62
     0
100
AcDbMText
 10
1.079749723346823
 20
0.6854999999999999
 30
0.0
 40
0.1
 41
0.0
 71
     5
 72
     1
  1
\A1;1 3/8 [34.82]
 73
     1
 44
1.0
  0
SOLID
  5
45B2D
330
45AA7
100
AcDbEntity
  8
AREA2
 62
     0
100
AcDbTrace
 10
0.6397497233468239
 20
1.280999999999999
 30
0.0
 11
0.6697497233468239
 21
1.280999999999999
 31
0.0
 12
0.654749723346824
 22
1.370999999999999
 32
0.0
 13
0.654749723346824
 23
1.370999999999999
 33
0.0
  0
SOLID
  5
45B2E
330
45AA7
100
AcDbEntity
  8
AREA2
 62
     0
100
AcDbTrace
 10
0.6397497233468236
 20
0.0899999999999999
 30
0.0
 11
0.6697497233468236
 21
0.0899999999999999
 31
0.0
 12
0.6547497233468236
 22
-0.0000000000000002
 32
0.0
 13
0.6547497233468236
 23
-0.0000000000000002
 33
0.0
  0
POINT
  5
45B2F
330
45AA7
100
AcDbEntity
  8
Defpoints
 62
     0
100
AcDbPoint
 10
0.0599999999999997
 20
1.370999999999999
 30
0.1659999999999999
  0
POINT
  5
45B30
330
45AA7
100
AcDbEntity
  8
Defpoints
 62
     0
100
AcDbPoint
 10
0.0600605419367296
 20
0.0
 30
0.0
  0
POINT
  5
45B31
330
45AA7
100
AcDbEntity
  8
Defpoints
 62
     0
100
AcDbPoint
 10
0.6547497233468236
 20
-0.0000000000000002
 30
0.0
  0
ENDBLK
  5
45AB3
330
45AA7
100
AcDbEntity
  8
0
100
AcDbBlockEnd
  0
ENDSEC
  0
SECTION
  2
ENTITIES
  0
ATTDEF
  5
1
330
458D6
100
AcDbEntity
  8
ATTRIBUTES
100
AcDbText
 10
-0.261604097920777
 20
-0.2546125575816651
 30
0.0
 40
0.06
  1
ALLEN-BRADLEY
100
AcDbAttributeDefinition
  3
MANUFACTURER NAME?
  2
AC_VND_LABEL
 70
     1
  0
ATTDEF
  5
2
330
458D6
100
AcDbEntity
  8
ATTRIBUTES
100
AcDbText
 10
-0.261604097920777
 20
-0.3796125575816651
 30
0.0
 40
0.06
  1
1492-EB3
100
AcDbAttributeDefinition
  3
CATALOG NUMBER?
  2
AC_PART_NO
 70
     1
  0
ATTDEF
  5
3
330
458D6
100
AcDbEntity
  8
ATTRIBUTES
100
AcDbText
 10
-0.261604097920777
 20
-0.5046125575816652
 30
0.0
 40
0.06
  1
End Barrier
100
AcDbAttributeDefinition
  3
PART DESCRIPTION?
  2
AC_DESCRIPTION
 70
     1
  0
ATTDEF
  5
4
330
458D6
100
AcDbEntity
  8
ATTRIBUTES
100
AcDbText
 10
-0.261604097920777
 20
-0.6296125575816652
 30
0.0
 40
0.06
  1

100
AcDbAttributeDefinition
  3
DEVICE ID?
  2
DEVICE_ID
 70
     1
  0
ATTDEF
  5
5
330
458D6
100
AcDbEntity
  8
ATTRIBUTES
100
AcDbText
 10
-0.261604097920777
 20
-0.7546125575816652
 30
0.0
 40
0.06
  1

100
AcDbAttributeDefinition
  3
CUSTOMER PART NUMBER?
  2
AC_CPART_NO
 70
     1
  0
ATTDEF
  5
6
330
458D6
100
AcDbEntity
  8
ATTRIBUTES
100
AcDbText
 10
-0.261604097920777
 20
-0.8796125575816651
 30
0.0
 40
0.06
  1

100
AcDbAttributeDefinition
  3
CUSTOMER NOTE?
  2
AC_NOTE
 70
     1
  0
ATTDEF
  5
7
330
458D6
100
AcDbEntity
  8
ATTRIBUTES
100
AcDbText
 10
-0.261604097920777
 20
-1.004612557581665
 30
0.0
 40
0.06
  1

100
AcDbAttributeDefinition
  3
FASTENER DATA?
  2
FASTENER
 70
     1
  0
ATTDEF
  5
8
330
458D6
100
AcDbEntity
  8
ATTRIBUTES
100
AcDbText
 10
-0.261604097920777
 20
-1.129612557581665
 30
0.0
 40
0.06
  1
INCH
100
AcDbAttributeDefinition
  3
UNIT OF SCALE?
  2
AC_SCALE_UNIT
 70
     1
  0
ATTDEF
  5
9
330
458D6
100
AcDbEntity
  8
ATTRIBUTES
100
AcDbText
 10
-0.261604097920777
 20
-1.254612557581665
 30
0.0
 40
0.06
  1
0
100
AcDbAttributeDefinition
  3
VIEW CODE?
  2
AC_VIEW_CODE
 70
     1
  0
LINE
  5
45955
330
458D6
100
AcDbEntity
  8
SCALE
100
AcDbLine
 10
-0.8784309964715381
 20
-1.221234375963101
 30
0.0
 11
-0.3784309964715381
 21
-1.221234375963101
 31
0.0
  0
LINE
  5
45957
330
458D6
100
AcDbEntity
  8
SCALE
100
AcDbLine
 10
-0.3784309964715381
 20
-1.2712343759631
 30
0.0
 11
-0.3784309964715381
 21
-1.1712343759631
 31
0.0
  0
LINE
  5
45958
330
458D6
100
AcDbEntity
  8
SCALE
100
AcDbLine
 10
-0.8784309964715381
 20
-1.2712343759631
 30
0.0
 11
-0.8784309964715381
 21
-1.1712343759631
 31
0.0
  0
LINE
  5
45959
330
458D6
100
AcDbEntity
  8
SCALE
100
AcDbLine
 10
-0.8784309964715381
 20
-1.4212343759631
 30
0.0
 11
-0.8784309964715381
 21
-1.3212343759631
 31
0.0
  0
LINE
  5
4595A
330
458D6
100
AcDbEntity
  8
SCALE
100
AcDbLine
 10
-0.6815809964715382
 20
-1.4212343759631
 30
0.0
 11
-0.6815809964715382
 21
-1.3212343759631
 31
0.0
  0
LINE
  5
4595B
330
458D6
100
AcDbEntity
  8
SCALE
100
AcDbLine
 10
-0.8784309964715381
 20
-1.371234375963099
 30
0.0
 11
-0.6815809964715382
 21
-1.371234375963099
 31
0.0
  0
TEXT
  5
4595C
330
458D6
100
AcDbEntity
  8
SCALE
100
AcDbText
 10
-0.8487199188972494
 20
-1.348364553326042
 30
0.0
 40
0.03125
  1
[10mm]
100
AcDbText
  0
TEXT
  5
4595D
330
458D6
100
AcDbEntity
  8
SCALE
100
AcDbText
 10
-0.6967895022295833
 20
-1.1867100282765
 30
0.0
 40
0.03125
  1
1 Inch
100
AcDbText
  0
TEXT
  5
4595E
330
458D6
100
AcDbEntity
  8
SCALE
100
AcDbText
 10
-0.8776658638482752
 20
-1.083795815326293
 30
0.0
 40
0.03125
  1
SCALE:
100
AcDbText
  0
LWPOLYLINE
  5
4595F
330
458D6
100
AcDbEntity
  8
SCALE
100
AcDbPolyline
 90
        4
 70
     1
 43
0.0
 10
-0.9074303285849191
 20
-1.031195216610992
 10
-0.3396159188139328
 20
-1.031195216610992
 10
-0.3396159188139328
 20
-1.451999999999999
 10
-0.9074303285849191
 20
-1.451999999999999
  0
INSERT
  5
45A26
330
458D6
100
AcDbEntity
  8
0
100
AcDbBlockReference
  2
1492-EB3
 10
-0.726
 20
0.0
 30
0.0
210
1.0
220
-0.0000000000000001
230
0.0000000000000002
1001
ACADSTEP
1000
ID
1002
{
1000
235
1002
}
  0
POINT
  5
45A28
330
458D6
100
AcDbEntity
  8
SNAP_POINTS
100
AcDbPoint
 10
0.0
 20
0.0
 30
0.0
  0
DIMENSION
  5
45A30
330
458D6
100
AcDbEntity
  8
AREA1
100
AcDbDimension
  2
*D1
 10
0.06
 20
0.5947497233468236
 30
0.0
 11
0.03
 21
0.9197497233468235
 31
0.0
 70
    32
 71
     5
 42
0.06
  3
ABECAD_3D
100
AcDbAlignedDimension
 13
0.0
 23
0.0
 33
0.0
 14
0.06
 24
0.0
 34
0.0
100
AcDbRotatedDimension
1001
ACAD
1000
DSTYLE
1002
{
1070
   140
1040
0.1
1002
}
  0
DIMENSION
  5
45A48
330
458D6
100
AcDbEntity
  8
AREA1
100
AcDbDimension
  2
*D2
 10
0.6547497233468233
 20
-1.452
 30
0.0
 11
1.079749723346823
 21
-0.7260000000000001
 31
0.0
 70
    32
 71
     5
 42
1.451999999999999
  3
ABECAD_3D
100
AcDbAlignedDimension
 13
0.06
 23
0.0
 33
0.0
 14
0.0599999999999997
 24
-1.451999999999999
 34
0.906
 50
90.0
100
AcDbRotatedDimension
1001
ACAD
1000
DSTYLE
1002
{
1070
   140
1040
0.1
1002
}
  0
DIMENSION
  5
45AA6
330
458D6
100
AcDbEntity
  8
AREA2
100
AcDbDimension
  2
*D3
 10
0.6547497233468236
 20
0.0
 30
-0.0000000000000002
 11
1.079749723346823
 21
0.6854999999999999
 31
0.0
 70
    32
 71
     5
 42
1.370999999999999
210
0.0
220
-1.0
230
0.0
  3
ABECAD_3D
100
AcDbAlignedDimension
 13
0.0599999999999997
 23
-0.1659999999999999
 33
1.370999999999999
 14
0.0600605419367296
 24
0.0
 34
0.0
 50
90.0
100
AcDbRotatedDimension
1001
ACAD
1000
DSTYLE
1002
{
1070
   140
1040
0.1
1002
}
  0
VIEWPORT
  5
45AEA
330
458D3
100
AcDbEntity
 67
     1
  8
0
100
AcDbViewport
 10
5.249999639556163
 20
3.999999883606677
 30
0.0
 40
14.01217200481839
 41
8.587628623206212
 68
     1
 69
     1
 12
5.249999639556163
 22
3.999999883606677
 13
0.0
 23
0.0
 14
0.5
 24
0.5
 15
0.5
 25
0.5
 16
0.0
 26
0.0
 36
1.0
 17
0.0
 27
0.0
 37
0.0
 42
50.0
 43
0.0
 44
0.0
 45
8.587628623206212
 50
0.0
 51
0.0
 72
 20000
 90
    32800
  1

281
     0
 71
     1
 74
     0
110
0.0
120
0.0
130
0.0
111
1.0
121
0.0
131
0.0
112
0.0
122
1.0
132
0.0
 79
     0
146
0.0
  0
VIEWPORT
  5
45AEC
330
458D3
100
AcDbEntity
 67
     1
  8
0
100
AcDbViewport
 10
5.24999976158142
 20
3.99999976158142
 30
0.0
 40
8.399999618530271
 41
6.399999618530272
 68
     2
 69
     2
 12
0.4599403508085526
 22
-0.0775736065667869
 13
0.0
 23
0.0
 14
0.25
 24
0.25
 15
0.25
 25
0.25
 16
-1.0
 26
-1.0
 36
1.0
 17
0.2142752465074508
 27
0.2125091733409132
 37
0.6519122450129526
 42
50.0
 43
0.0
 44
0.0
 45
3.2299017578659
 50
0.0
 51
0.0
 72
 20000
 90
    32800
  1

281
     0
 71
     1
 74
     0
110
0.0
120
0.0
130
0.0
111
1.0
121
0.0
131
0.0
112
0.0
122
1.0
132
0.0
 79
     1
146
0.0
  0
ENDSEC
  0
SECTION
  2
OBJECTS
  0
DICTIONARY
  5
458CB
330
0
100
AcDbDictionary
281
     1
  3
ACAD_GROUP
350
458CC
  3
ACAD_LAYOUT
350
458FB
  3
ACAD_MLINESTYLE
350
458D9
  3
ACAD_PLOTSETTINGS
350
458FC
  3
ACAD_PLOTSTYLENAME
350
458F9
  3
ACDBVARIABLEDICTIONARY
350
458E1
  3
DWGPROPS
350
45901
  0
DICTIONARY
  5
4592C
330
458D6
100
AcDbDictionary
280
     1
281
     1
  3
ACAD_LAYOUTSELFREF
360
45A0B
  0
DICTIONARY
  5
4592A
330
458D3
100
AcDbDictionary
280
     1
281
     1
  3
ACAD_LAYOUTSELFREF
360
45A0A
  0
DICTIONARY
  5
458CC
102
{ACAD_REACTORS
330
458CB
102
}
330
458CB
100
AcDbDictionary
281
     1
  0
DICTIONARY
  5
458FB
102
{ACAD_REACTORS
330
458CB
102
}
330
458CB
100
AcDbDictionary
281
     1
  3
Layout1
350
458FE
  3
Model
350
458FD
  0
DICTIONARY
  5
458D9
102
{ACAD_REACTORS
330
458CB
102
}
330
458CB
100
AcDbDictionary
281
     1
  3
STANDARD
350
458DA
  0
DICTIONARY
  5
458FC
102
{ACAD_REACTORS
330
458CB
102
}
330
458CB
100
AcDbDictionary
281
     1
  0
ACDBDICTIONARYWDFLT
  5
458F9
102
{ACAD_REACTORS
330
458CB
102
}
330
458CB
100
AcDbDictionary
281
     1
  3
Normal
350
458FA
100
AcDbDictionaryWithDefault
340
458FA
  0
DICTIONARY
  5
458E1
102
{ACAD_REACTORS
330
458CB
102
}
330
458CB
100
AcDbDictionary
281
     1
  3
DIMADEC
350
458E2
  0
XRECORD
  5
45901
102
{ACAD_REACTORS
330
458CB
102
}
330
458CB
100
AcDbXrecord
280
     1
  1
DWGPROPS COOKIE
  2

  3

  4

  6

  7

  8
colin
  9

300
=
301
=
302
=
303
=
304
=
305
=
306
=
307
=
308
=
309
=
 40
0.0005988425925926
 41
2451670.444776967
 42
2451670.44537581
  1

 90
        0
  0
XRECORD
  5
45A0B
102
{ACAD_REACTORS
330
4592C
102
}
330
4592C
100
AcDbXrecord
280
     1
340
458D6
  0
XRECORD
  5
45A0A
102
{ACAD_REACTORS
330
4592A
102
}
330
4592A
100
AcDbXrecord
280
     1
340
458D3
  0
LAYOUT
  5
458FE
102
{ACAD_REACTORS
330
458FB
102
}
330
458FB
100
AcDbPlotSettings
  1

  2
none_device
  4
Letter_(8.50_x_11.00_Inches)
  6

 40
6.349999904632568
 41
6.349999904632568
 42
6.350006103515625
 43
6.350006103515625
 44
215.8999938964843
 45
279.3999938964843
 46
0.0
 47
0.0
 48
0.0
 49
0.0
140
0.0
141
0.0
142
1.0
143
1.0
 70
   688
 72
     0
 73
     1
 74
     5
  7
Default R14 pen assignments.ctb
 75
    16
147
1.0
148
0.0
149
0.0
100
AcDbLayout
  1
Layout1
 70
     1
 71
     1
 10
-0.2500002402958907
 20
-0.2499999962453767
 11
10.74999951940821
 21
8.249999763458731
 12
0.0
 22
0.0
 32
0.0
 14
1.049999952316284
 24
0.7999999523162842
 34
0.0
 15
9.449999570846555
 25
7.199999570846556
 35
0.0
146
0.0
 13
0.0
 23
0.0
 33
0.0
 16
1.0
 26
0.0
 36
0.0
 17
0.0
 27
1.0
 37
0.0
 76
     0
330
458D3
331
45AEA
  0
LAYOUT
  5
458FD
102
{ACAD_REACTORS
330
458FB
102
}
330
458FB
100
AcDbPlotSettings
  1

  2
HP LaserJet 5000 Series PCL 6
  4

  6

 40
0.0
 41
0.0
 42
0.0
 43
0.0
 44
0.0
 45
0.0
 46
0.0
 47
0.0
 48
0.0
 49
0.0
140
0.0
141
0.0
142
1.0
143
1.0
 70
  1712
 72
     0
 73
     0
 74
     0
  7
Default R14 pen assignments.ctb
 75
     0
147
1.0
148
0.0
149
0.0
100
AcDbLayout
  1
Model
 70
     1
 71
     0
 10
0.0
 20
0.0
 11
12.0
 21
9.0
 12
0.0
 22
0.0
 32
0.0
 14
0.0
 24
0.0
 34
0.0
 15
0.0
 25
0.0
 35
0.0
146
0.0
 13
0.0
 23
0.0
 33
0.0
 16
1.0
 26
0.0
 36
0.0
 17
0.0
 27
1.0
 37
0.0
 76
     0
330
458D6
  0
MLINESTYLE
  5
458DA
102
{ACAD_REACTORS
330
458D9
102
}
330
458D9
100
AcDbMlineStyle
  2
STANDARD
 70
     0
  3

 62
   256
 51
90.0
 52
90.0
 71
     2
 49
0.5
 62
   256
  6
BYLAYER
 49
-0.5
 62
   256
  6
BYLAYER
  0
ACDBPLACEHOLDER
  5
458FA
102
{ACAD_REACTORS
330
458F9
102
}
330
458F9
  0
DICTIONARYVAR
  5
458E2
102
{ACAD_REACTORS
330
458E1
102
}
330
458E1
100
DictionaryVariables
280
     0
  1
0
  0
ENDSEC
  0
EOF
