  0
SECTION
  2
HEADER
  9
$ACADVER
  1
AC1015
  9
$ACADMAINTVER
 70
     6
  9
$DWGCODEPAGE
  3
ANSI_1252
  9
$INSBASE
 10
0.0
 20
0.0
 30
0.0
  9
$EXTMIN
 10
-0.9074303285849191
 20
-1.452000000000002
 30
-0.0000000000000002
  9
$EXTMAX
 10
1.729749723346824
 20
0.969749723346824
 30
1.370999999999999
  9
$LIMMIN
 10
0.0
 20
0.0
  9
$LIMMAX
 10
12.0
 20
9.0
  9
$ORTHOMODE
 70
     0
  9
$REGENMODE
 70
     1
  9
$FILLMODE
 70
     1
  9
$QTEXTMODE
 70
     0
  9
$MIRRTEXT
 70
     1
  9
$LTSCALE
 40
1.0
  9
$ATTMODE
 70
     0
  9
$TEXTSIZE
 40
0.2
  9
$TRACEWID
 40
0.05
  9
$TEXTSTYLE
  7
STANDARD
  9
$CLAYER
  8
0
  9
$CELTYPE
  6
BYLAYER
  9
$CECOLOR
 62
   256
  9
$CELTSCALE
 40
1.0
  9
$DISPSILH
 70
     0
  9
$DIMSCALE
 40
0.0
  9
$DIMASZ
 40
0.18
  9
$DIMEXO
 40
0.0625
  9
$DIMDLI
 40
0.375
  9
$DIMRND
 40
0.0
  9
$DIMDLE
 40
0.0
  9
$DIMEXE
 40
0.18
  9
$DIMTP
 40
0.0
  9
$DIMTM
 40
0.0
  9
$DIMTXT
 40
0.18
  9
$DIMCEN
 40
0.09
  9
$DIMTSZ
 40
0.0
  9
$DIMTOL
 70
     0
  9
$DIMLIM
 70
     0
  9
$DIMTIH
 70
     0
  9
$DIMTOH
 70
     1
  9
$DIMSE1
 70
     0
  9
$DIMSE2
 70
     0
  9
$DIMTAD
 70
     0
  9
$DIMZIN
 70
     4
  9
$DIMBLK
  1

  9
$DIMASO
 70
     1
  9
$DIMSHO
 70
     1
  9
$DIMPOST
  1

  9
$DIMAPOST
  1

  9
$DIMALT
 70
     1
  9
$DIMALTD
 70
     2
  9
$DIMALTF
 40
25.4
  9
$DIMLFAC
 40
1.0
  9
$DIMTOFL
 70
     0
  9
$DIMTVP
 40
0.0
  9
$DIMTIX
 70
     0
  9
$DIMSOXD
 70
     0
  9
$DIMSAH
 70
     0
  9
$DIMBLK1
  1

  9
$DIMBLK2
  1

  9
$DIMSTYLE
  2
ABECAD_3V
  9
$DIMCLRD
 70
     0
  9
$DIMCLRE
 70
     0
  9
$DIMCLRT
 70
     0
  9
$DIMTFAC
 40
1.5
  9
$DIMGAP
 40
0.09
  9
$DIMJUST
 70
     0
  9
$DIMSD1
 70
     0
  9
$DIMSD2
 70
     0
  9
$DIMTOLJ
 70
     1
  9
$DIMTZIN
 70
     4
  9
$DIMALTZ
 70
     4
  9
$DIMALTTZ
 70
     4
  9
$DIMUPT
 70
     1
  9
$DIMDEC
 70
     6
  9
$DIMTDEC
 70
     6
  9
$DIMALTU
 70
     2
  9
$DIMALTTD
 70
     2
  9
$DIMTXSTY
  7
STANDARD
  9
$DIMAUNIT
 70
     0
  9
$DIMADEC
 70
     0
  9
$DIMALTRND
 40
0.0
  9
$DIMAZIN
 70
     0
  9
$DIMDSEP
 70
    46
  9
$DIMATFIT
 70
     2
  9
$DIMFRAC
 70
     2
  9
$DIMLDRBLK
  1

  9
$DIMLUNIT
 70
     5
  9
$DIMLWD
 70
    -2
  9
$DIMLWE
 70
    -2
  9
$DIMTMOVE
 70
     2
  9
$LUNITS
 70
     2
  9
$LUPREC
 70
     6
  9
$SKETCHINC
 40
0.1
  9
$FILLETRAD
 40
0.0
  9
$AUNITS
 70
     0
  9
$AUPREC
 70
     0
  9
$MENU
  1
acad
  9
$ELEVATION
 40
0.0
  9
$PELEVATION
 40
0.0
  9
$THICKNESS
 40
0.0
  9
$LIMCHECK
 70
     0
  9
$CHAMFERA
 40
0.0
  9
$CHAMFERB
 40
0.0
  9
$CHAMFERC
 40
0.0
  9
$CHAMFERD
 40
0.0
  9
$SKPOLY
 70
     0
  9
$TDCREATE
 40
2452003.745956366
  9
$TDUCREATE
 40
2452003.954289699
  9
$TDUPDATE
 40
2453914.651489537
  9
$TDUUPDATE
 40
2453914.859822870
  9
$TDINDWG
 40
0.0060440162
  9
$TDUSRTIMER
 40
0.0060434375
  9
$USRTIMER
 70
     1
  9
$ANGBASE
 50
0.0
  9
$ANGDIR
 70
     0
  9
$PDMODE
 70
     3
  9
$PDSIZE
 40
0.18
  9
$PLINEWID
 40
0.0
  9
$SPLFRAME
 70
     0
  9
$SPLINETYPE
 70
     6
  9
$SPLINESEGS
 70
     8
  9
$HANDSEED
  5
630
  9
$SURFTAB1
 70
     6
  9
$SURFTAB2
 70
     6
  9
$SURFTYPE
 70
     6
  9
$SURFU
 70
     6
  9
$SURFV
 70
     6
  9
$UCSBASE
  2

  9
$UCSNAME
  2

  9
$UCSORG
 10
0.0
 20
0.0
 30
0.0
  9
$UCSXDIR
 10
1.0
 20
0.0
 30
0.0
  9
$UCSYDIR
 10
0.0
 20
1.0
 30
0.0
  9
$UCSORTHOREF
  2

  9
$UCSORTHOVIEW
 70
     0
  9
$UCSORGTOP
 10
0.0
 20
0.0
 30
0.0
  9
$UCSORGBOTTOM
 10
0.0
 20
0.0
 30
0.0
  9
$UCSORGLEFT
 10
0.0
 20
0.0
 30
0.0
  9
$UCSORGRIGHT
 10
0.0
 20
0.0
 30
0.0
  9
$UCSORGFRONT
 10
0.0
 20
0.0
 30
0.0
  9
$UCSORGBACK
 10
0.0
 20
0.0
 30
0.0
  9
$PUCSBASE
  2

  9
$PUCSNAME
  2

  9
$PUCSORG
 10
0.0
 20
0.0
 30
0.0
  9
$PUCSXDIR
 10
1.0
 20
0.0
 30
0.0
  9
$PUCSYDIR
 10
0.0
 20
1.0
 30
0.0
  9
$PUCSORTHOREF
  2

  9
$PUCSORTHOVIEW
 70
     0
  9
$PUCSORGTOP
 10
0.0
 20
0.0
 30
0.0
  9
$PUCSORGBOTTOM
 10
0.0
 20
0.0
 30
0.0
  9
$PUCSORGLEFT
 10
0.0
 20
0.0
 30
0.0
  9
$PUCSORGRIGHT
 10
0.0
 20
0.0
 30
0.0
  9
$PUCSORGFRONT
 10
0.0
 20
0.0
 30
0.0
  9
$PUCSORGBACK
 10
0.0
 20
0.0
 30
0.0
  9
$USERI1
 70
     0
  9
$USERI2
 70
     0
  9
$USERI3
 70
     0
  9
$USERI4
 70
     0
  9
$USERI5
 70
     0
  9
$USERR1
 40
0.0
  9
$USERR2
 40
0.0
  9
$USERR3
 40
0.0
  9
$USERR4
 40
0.0
  9
$USERR5
 40
0.0
  9
$WORLDVIEW
 70
     1
  9
$SHADEDGE
 70
     3
  9
$SHADEDIF
 70
    70
  9
$TILEMODE
 70
     0
  9
$MAXACTVP
 70
    16
  9
$PINSBASE
 10
0.0
 20
0.0
 30
0.0
  9
$PLIMCHECK
 70
     0
  9
$PEXTMIN
 10
0.0
 20
0.0
 30
0.0
  9
$PEXTMAX
 10
10.0
 20
7.5
 30
0.0
  9
$PLIMMIN
 10
-0.1870289046444169
 20
-0.1869378900655213
  9
$PLIMMAX
 10
10.18751784143945
 20
7.829757271310011
  9
$UNITMODE
 70
     0
  9
$VISRETAIN
 70
     0
  9
$PLINEGEN
 70
     0
  9
$PSLTSCALE
 70
     1
  9
$TREEDEPTH
 70
  3020
  9
$CMLSTYLE
  2
STANDARD
  9
$CMLJUST
 70
     0
  9
$CMLSCALE
 40
1.0
  9
$PROXYGRAPHICS
 70
     1
  9
$MEASUREMENT
 70
     0
  9
$CELWEIGHT
370
    -1
  9
$ENDCAPS
280
     0
  9
$JOINSTYLE
280
     0
  9
$LWDISPLAY
290
     0
  9
$INSUNITS
 70
     0
  9
$HYPERLINKBASE
  1

  9
$STYLESHEET
  1

  9
$XEDIT
290
     1
  9
$CEPSNTYPE
380
     0
  9
$PSTYLEMODE
290
     1
  9
$FINGERPRINTGUID
  2
{6E0CF4B5-225E-11D4-A150-00A0CC3303EC}
  9
$VERSIONGUID
  2
{D8F4EB9E-FEA7-44BB-B0F4-9066F840A318}
  9
$EXTNAMES
290
     1
  9
$PSVPSCALE
 40
0.0
  9
$OLESTARTUP
290
     0
  0
ENDSEC
  0
SECTION
  2
CLASSES
  0
CLASS
  1
DICTIONARYVAR
  2
AcDbDictionaryVar
  3
AutoCAD 2000
 90
        0
280
     0
281
     0
  0
CLASS
  1
ACDBDICTIONARYWDFLT
  2
AcDbDictionaryWithDefault
  3
AutoCAD 2000
 90
        0
280
     0
281
     0
  0
CLASS
  1
ACDBPLACEHOLDER
  2
AcDbPlaceHolder
  3
AutoCAD 2000
 90
        0
280
     0
281
     0
  0
CLASS
  1
LAYOUT
  2
AcDbLayout
  3
AutoCAD 2000
 90
        0
280
     0
281
     0
  0
CLASS
  1
LONG_TRANSACTION
  2
AcDbLongTransaction
  3
AutoCAD 2000
 90
    32768
280
     0
281
     0
  0
CLASS
  1
LWPOLYLINE
  2
AcDbPolyline
  3
AutoCAD 2000
 90
    32768
280
     0
281
     1
  0
CLASS
  1
HATCH
  2
AcDbHatch
  3
AutoCAD 2000
 90
    32768
280
     0
281
     1
  0
CLASS
  1
XRECORD
  2
AcDbXrecord
  3
AutoCAD 2000
 90
    32768
280
     0
281
     0
  0
CLASS
  1
LONG_TRANSACTION
  2
AcDbLongTransaction
  3
AutoCAD 2000
 90
    32768
280
     0
281
     0
  0
CLASS
  1
LWPOLYLINE
  2
AcDbPolyline
  3
AutoCAD 2000
 90
    32768
280
     0
281
     1
  0
CLASS
  1
HATCH
  2
AcDbHatch
  3
AutoCAD 2000
 90
    32768
280
     0
281
     1
  0
CLASS
  1
XRECORD
  2
AcDbXrecord
  3
AutoCAD 2000
 90
    32768
280
     0
281
     0
  0
ENDSEC
  0
SECTION
  2
TABLES
  0
TABLE
  2
VPORT
  5
469
330
0
100
AcDbSymbolTable
 70
     1
  0
VPORT
  5
629
330
469
100
AcDbSymbolTableRecord
100
AcDbViewportTableRecord
  2
*Active
 70
     0
 10
0.0
 20
0.0
 11
1.0
 21
1.0
 12
0.1713212503074712
 22
0.431124303404703
 13
0.0
 23
0.0
 14
1.0
 24
1.0
 15
0.0
 25
0.0
 16
-1.0
 26
-1.0
 36
1.0
 17
0.0
 27
0.0
 37
0.0
 40
2.817465046366446
 41
1.631669535283993
 42
50.0
 43
0.0
 44
0.0
 50
0.0
 51
0.0
 71
     0
 72
   100
 73
     1
 74
     1
 75
     0
 76
     0
 77
     0
 78
     0
281
     0
 65
     1
110
0.0
120
0.0
130
0.0
111
1.0
121
0.0
131
0.0
112
0.0
122
1.0
132
0.0
 79
     0
146
0.0
  0
ENDTAB
  0
TABLE
  2
LTYPE
  5
466
330
0
100
AcDbSymbolTable
 70
     1
  0
LTYPE
  5
472
330
466
100
AcDbSymbolTableRecord
100
AcDbLinetypeTableRecord
  2
BYBLOCK
 70
     0
  3

 72
    65
 73
     0
 40
0.0
  0
LTYPE
  5
473
330
466
100
AcDbSymbolTableRecord
100
AcDbLinetypeTableRecord
  2
BYLAYER
 70
     0
  3

 72
    65
 73
     0
 40
0.0
  0
LTYPE
  5
474
330
466
100
AcDbSymbolTableRecord
100
AcDbLinetypeTableRecord
  2
CONTINUOUS
 70
     0
  3
Solid line
 72
    65
 73
     0
 40
0.0
  0
ENDTAB
  0
TABLE
  2
LAYER
  5
463
330
0
100
AcDbSymbolTable
 70
     8
  0
LAYER
  5
46F
330
463
100
AcDbSymbolTableRecord
100
AcDbLayerTableRecord
  2
0
 70
     0
 62
     7
  6
CONTINUOUS
370
    -3
390
49D
  0
LAYER
  5
485
330
463
100
AcDbSymbolTableRecord
100
AcDbLayerTableRecord
  2
AREA1
 70
     0
 62
     7
  6
CONTINUOUS
370
    -3
390
49D
  0
LAYER
  5
486
330
463
100
AcDbSymbolTableRecord
100
AcDbLayerTableRecord
  2
AREA2
 70
     0
 62
     7
  6
CONTINUOUS
370
    -3
390
49D
  0
LAYER
  5
494
330
463
100
AcDbSymbolTableRecord
100
AcDbLayerTableRecord
  2
DEFPOINTS
 70
     0
 62
    -7
  6
CONTINUOUS
290
     0
370
    -3
390
49D
  0
LAYER
  5
495
330
463
100
AcDbSymbolTableRecord
100
AcDbLayerTableRecord
  2
DIMS-MTG-HOLES
 70
     0
 62
    -1
  6
CONTINUOUS
370
    -3
390
49D
  0
LAYER
  5
4E6
330
463
100
AcDbSymbolTableRecord
100
AcDbLayerTableRecord
  2
SCALE
 70
     0
 62
    -7
  6
CONTINUOUS
370
    -3
390
49D
  0
LAYER
  5
4ED
330
463
100
AcDbSymbolTableRecord
100
AcDbLayerTableRecord
  2
SNAP_POINTS
 70
     0
 62
    -1
  6
CONTINUOUS
370
    -3
390
49D
  0
LAYER
  5
4F1
330
463
100
AcDbSymbolTableRecord
100
AcDbLayerTableRecord
  2
ATTRIBUTES
 70
     0
 62
    -7
  6
CONTINUOUS
370
    -3
390
49D
  0
ENDTAB
  0
TABLE
  2
STYLE
  5
464
330
0
100
AcDbSymbolTable
 70
     1
  0
STYLE
  5
470
330
464
100
AcDbSymbolTableRecord
100
AcDbTextStyleTableRecord
  2
STANDARD
 70
     0
 40
0.0
 41
1.0
 50
0.0
 71
     0
 42
0.2
  3
txt
  4

  0
ENDTAB
  0
TABLE
  2
VIEW
  5
467
330
0
100
AcDbSymbolTable
 70
     0
  0
ENDTAB
  0
TABLE
  2
UCS
  5
468
330
0
100
AcDbSymbolTable
 70
     0
  0
ENDTAB
  0
TABLE
  2
APPID
  5
46A
330
0
100
AcDbSymbolTable
 70
     3
  0
APPID
  5
471
330
46A
100
AcDbSymbolTableRecord
100
AcDbRegAppTableRecord
  2
ACAD
 70
     0
  0
APPID
  5
47E
330
46A
100
AcDbSymbolTableRecord
100
AcDbRegAppTableRecord
  2
AVE_RENDER
 70
     0
  0
APPID
  5
56B
330
46A
100
AcDbSymbolTableRecord
100
AcDbRegAppTableRecord
  2
ACADSTEP
 70
     0
  0
ENDTAB
  0
TABLE
  2
DIMSTYLE
  5
46B
330
0
100
AcDbSymbolTable
 70
     2
100
AcDbDimStyleTable
 71
     0
  0
DIMSTYLE
105
49A
330
46B
100
AcDbSymbolTableRecord
100
AcDbDimStyleTableRecord
  2
ABECAD_3V
 70
     0
 40
0.0
 43
0.375
 73
     0
 78
     4
146
1.5
170
     1
271
     6
272
     6
276
     2
277
     5
279
     2
284
     4
285
     4
286
     4
288
     1
289
     2
340
470
  0
DIMSTYLE
105
56A
102
{ACAD_REACTORS
330
592
330
593
330
595
102
}
330
46B
100
AcDbSymbolTableRecord
100
AcDbDimStyleTableRecord
  2
ABECAD_3D
 70
     0
 41
0.09
 43
0.375
 73
     0
 78
     4
140
0.09
146
1.5
170
     1
271
     6
272
     6
276
     2
277
     5
279
     2
284
     4
285
     4
286
     4
288
     1
289
     2
340
470
  0
ENDTAB
  0
TABLE
  2
BLOCK_RECORD
  5
462
330
0
100
AcDbSymbolTable
 70
     4
  0
BLOCK_RECORD
  5
478
102
{ACAD_XDICTIONARY
360
4D2
102
}
330
462
100
AcDbSymbolTableRecord
100
AcDbBlockTableRecord
  2
*MODEL_SPACE
340
4A0
  0
BLOCK_RECORD
  5
475
102
{ACAD_XDICTIONARY
360
4D0
102
}
330
462
100
AcDbSymbolTableRecord
100
AcDbBlockTableRecord
  2
*PAPER_SPACE
340
4A1
  0
BLOCK_RECORD
  5
53F
330
462
100
AcDbSymbolTableRecord
100
AcDbBlockTableRecord
  2
1492-EB3
340
0
102
{BLKREFS
331
594
102
}
  0
BLOCK_RECORD
  5
5AA
330
462
100
AcDbSymbolTableRecord
100
AcDbBlockTableRecord
  2
*D1
340
0
  0
BLOCK_RECORD
  5
5B7
330
462
100
AcDbSymbolTableRecord
100
AcDbBlockTableRecord
  2
*D2
340
0
  0
BLOCK_RECORD
  5
5C4
330
462
100
AcDbSymbolTableRecord
100
AcDbBlockTableRecord
  2
*D3
340
0
  0
ENDTAB
  0
ENDSEC
  0
SECTION
  2
BLOCKS
  0
BLOCK
  5
48B
330
478
100
AcDbEntity
  8
0
100
AcDbBlockBegin
  2
*MODEL_SPACE
 70
     0
 10
0.0
 20
0.0
 30
0.0
  3
*MODEL_SPACE
  1

  0
ENDBLK
  5
48C
330
478
100
AcDbEntity
  8
0
100
AcDbBlockEnd
  0
BLOCK
  5
489
330
475
100
AcDbEntity
 67
     1
  8
0
100
AcDbBlockBegin
  2
*PAPER_SPACE
 70
     0
 10
0.0
 20
0.0
 30
0.0
  3
*PAPER_SPACE
  1

  0
ENDBLK
  5
48A
330
475
100
AcDbEntity
 67
     1
  8
0
100
AcDbBlockEnd
  0
BLOCK
  5
541
330
53F
100
AcDbEntity
  8
0
100
AcDbBlockBegin
  2
1492-EB3
 70
     0
 10
0.0
 20
0.0
 30
0.0
  3
1492-EB3
  1

  0
BODY
  5
540
330
53F
100
AcDbEntity
  8
0
100
AcDbModelerGeometry
 70
     1
  1
joo nim n o         
  1
h J1410(1 nl ^ \VL jqoqn QK mk K*: U*1 mh njelgeog mooi 
  1
rn fqfffffffffffffffj:rooh n:rono 
  1
=0;& {n {m {rn {rn |
  1
-:9@)+r:&:r>++-6= {rn {rn {rn {o {l {k |
  1
3*2/ {j {rn {i {o |
  1
:&:@-:961:2:1+ {rn j 8-6;  n l +-6 n k ,*-9 o l >;5 o k 8->; o f /0,+<7:<4 o k ,+03 oqomomoinmhlnjhjfijf k 1+03 lo k ;,63 o g 93>+1:,, o h /6'>-:> o k 72>' o i 8-6;>- o j 28-6; looo j *8-6; o j )8-6; o no :1;@96:3;, |
  1
):-+:'@+:2/3>+: {rn l o n g |
  1
-:9@)+r:&:r>++-6= {rn {rn {rn {m {l {k |
  1
,7:33 {h {rn {rn {g {rn {m |
  1
-:9@)+r:&:r>++-6= {rn {rn {rn {i {l {k |
  1
9><: {f {no {nn {i {rn {nm -:):-,:; ,6183: |
  1
92:,7r:&:r>++-6= {rn {nl {rn {g |
  1
9><: {nk {nj {ni {i {rn {nh 90-(>-; ,6183: |
  1
300/ {rn {rn {ng {g |
  1
/3>1:r,*-9><: {rn roqhfgioooooooooomjl roqoigjj o o o n n o o 90-(>-;@) V V V V |
  1
-:9@)+r:&:r>++-6= {rn {rn {f {g {l {k |
  1
92:,7r:&:r>++-6= {rn {nf {rn {no |
  1
9><: {mo {mn {mm {i {rn {ml 90-(>-; ,6183: |
  1
300/ {rn {rn {mk {no |
  1
/3>1:r,*-9><: {rn oqhlklooooooooooonh oqggmhkfffffffffffm roqoolooooooooooooooon oqfknhghhmjmjngjjoi oqllimogofnnijnglfi o o o rn 90-(>-;@) V V V V |
  1
<0:;8: {rn {mj {mi {mh {mg -:):-,:; {nn {rn |
  1
-:9@)+r:&:r>++-6= {rn {rn {nk {no {l {k |
  1
92:,7r:&:r>++-6= {rn {mf {rn {nj |
  1
9><: {lo {ln {lm {i {rn {ll 90-(>-; ,6183: |
  1
300/ {rn {rn {lk {nj |
  1
/3>1:r,*-9><: {rn oqhmjfffffffffffffg roqokjloooooooooooooh roqoolooooooooooooooon n o o o o rn 90-(>-;@) V V V V |
  1
<0:;8: {rn {lj {li {lh {lg 90-(>-; {ni {rn |
  1
<0:;8: {rn {lf {ng {ko {kn -:):-,:; {nn {rn |
  1
<0:;8: {rn {ng {km {li {kl -:):-,:; {nn {rn |
  1
<0:;8: {rn {lk {kk {ng {mg 90-(>-; {mm {rn |
  1
:;8: {kj {ki o {kh oqfoioooooooooooool {ng {kg 90-(>-; h *1410(1 |
  1
-:9@)+r:&:r>++-6= {rn {rn {mo {nj {l {k |
  1
92:,7r:&:r>++-6= {rn {kf {rn {mn |
  1
9><: {jo {jn {jm {i {rn {jl 90-(>-; ,6183: |
  1
300/ {rn {rn {jk {mn |
  1
/3>1:r,*-9><: {rn roqhfgjffffffffffffg o roqoolooooooooooooooon o rn o o o rn 90-(>-;@) V V V V |
  1
<0:;8: {rn {jj {mh {ji {jh 90-(>-; {mm {rn |
  1
<0:;8: {rn {ji {mk {jg {jf -:):-,:; {ni {rn |
  1
<0:;8: {rn {mk {ji {mi {kl 90-(>-; {ni {rn |
  1
<0:;8: {rn {io {in {mk {lg -:):-,:; {im {rn |
  1
:;8: {il {ik o {ij oqojfffffffffffffffg {mk {ii 90-(>-; h *1410(1 |
  1
<0:;8: {rn {ih {mj {ig {if -:):-,:; {nn {rn |
  1
<0:;8: {rn {jk {ho {mj {kn 90-(>-; {lm {rn |
  1
:;8: {hn {hm o {ki nqkjm {mj {hl 90-(>-; h *1410(1 |
  1
<0:;8: {rn {mi {ih {io {hk -:):-,:; {nn {rn |
  1
:;8: {hj {kh o {ik oqkflhkngljlhjjlloh {mi {hi 90-(>-; h *1410(1 |
  1
<0:;8: {rn {mh {jj {jk {hh -:):-,:; {mm {rn |
  1
/+36,+r:&:r>++-6= {rn {rn {rn {mg |
  1
):-+:' {rn {mg {hg |
  1
):-+:' {rn {mg {hf |
  1
,+->687+r<*-): {rn oqhmjfffffffffffffg o o o n o V V |
  1
-:9@)+r:&:r>++-6= {rn {rn {lo {mn {l {k |
  1
92:,7r:&:r>++-6= {rn {go {rn {ln |
  1
9><: {gn {gm {gl {i {rn {gk 90-(>-; ,6183: |
  1
300/ {rn {rn {gj {ln |
  1
/3>1:r,*-9><: {rn roqhmjfffffffffffffg oqfjnlooooooooooool roqoolooooooooooooooon rn o o o o n 90-(>-;@) V V V V |
  1
<0:;8: {rn {gi {ko {kk {hh 90-(>-; {lm {rn |
  1
<0:;8: {rn {kk {lk {gh {gg -:):-,:; {mm {rn |
  1
<0:;8: {rn {li {lj {lk {jh -:):-,:; {ni {rn |
  1
:;8: {gf {kh o {fo oqojfffffffffffffffg {ji {fn 90-(>-; h *1410(1 |
  1
<0:;8: {rn {fm {gh {lj {jf 90-(>-; {fl {rn |
  1
:;8: {fk {fo o {ij oqkflhkngljlhjjlloh {lj {fj 90-(>-; h *1410(1 |
  1
<0:;8: {rn {fi {lh {km {hk 90-(>-; {im {rn |
  1
<0:;8: {rn {lh {fi {fm {fh -:):-,:; {im {rn |
  1
300/ {rn {rn {fi {gm |
  1
/+36,+r:&:r>++-6= {rn {rn {rn {lg |
  1
):-+:' {rn {hk {fg |
  1
):-+:' {rn {lg {ff |
  1
,+->687+r<*-): {rn oqjiooooooooooooooj nqlhn o o o n V V |
  1
<0:;8: {rn {km {lf {noo {non -:):-,:; {nn {rn |
  1
<0:;8: {rn {gj {nom {lf {if 90-(>-; {jm {rn |
  1
:;8: {nol {nok o {hm oqfoioooooooooooool {lf {noj 90-(>-; h *1410(1 |
  1
<0:;8: {rn {ko {gi {gj {noi -:):-,:; {lm {rn |
  1
/+36,+r:&:r>++-6= {rn {rn {rn {kn |
  1
):-+:' {rn {kn {noh |
  1
,+->687+r<*-): {rn roqhmjfffffffffffffg o o n o o V V |
  1
:;8: {nog {ik o {nof nqnmooooooooooooon {km {nno 90-(>-; h *1410(1 |
  1
/+36,+r:&:r>++-6= {rn {rn {rn {kl |
  1
,+->687+r<*-): {rn oqhmjfffffffffffffg oqfoioooooooooooool o roqllimogofnnijnglgj oqfknhghhmjmjngjjoi o V V |
  1
:;8: {nnn {ki o {nnm oqojfffffffffffffffg {kk {nnl 90-(>-; h *1410(1 |
  1
/061+ {rn oqhmjfffffffffffffg o o |
  1
/061+ {rn oqhmjfffffffffffffg oqfoioooooooooooool o |
  1
-:9@)+r:&:r>++-6= {rn {rn {jo {ln {l {k |
  1
92:,7r:&:r>++-6= {rn {nnk {rn {jn |
  1
9><: {nnj {nni {im {i {rn {nnh 90-(>-; ,6183: |
  1
300/ {rn {rn {nng {jn |
  1
/3>1:r,*-9><: {rn roqjjniffffffffffffh nqlfkmj roqoolooooooooooooooon roqfknhghhmjmjngjjoi oqllimogofnnijnglfi o o o n 90-(>-;@) V V V V |
  1
<0:;8: {rn {nnf {ig {ho {noi 90-(>-; {jm {rn |
  1
<0:;8: {rn {ho {jk {nmo {nmn -:):-,:; {lm {rn |
  1
<0:;8: {rn {jg {nmo {jj {gg 90-(>-; {fl {rn |
  1
:;8: {nmm {nnm o {fo oqfoioooooooooooool {jj {nml 90-(>-; h *1410(1 |
  1
/+36,+r:&:r>++-6= {rn {rn {rn {jh |
  1
):-+:' {rn {jf {nmk |
  1
,+->687+r<*-): {rn oqhmjfffffffffffffg oqfoioooooooooooool o o o n V V |
  1
<0:;8: {rn {nmj {jg {in {fh 90-(>-; {fl {rn |
  1
300/ {rn {rn {fm {nni |
  1
/+36,+r:&:r>++-6= {rn {rn {rn {jf |
  1
,+->687+r<*-): {rn oqhmjfffffffffffffg oqfoioooooooooooool oqojfffffffffffffffg roqllimogofnnijnglgj oqfknhghhmjmjngjjoi o V V |
  1
<0:;8: {rn {in {io {nmi {nmh 90-(>-; {im {rn |
  1
:;8: {nmg {ij o {nmf nqnmooooooooooooon {in {nlo 90-(>-; h *1410(1 |
  1
/061+ {rn oqjiooooooooooooooj nqlhn o |
  1
/061+ {rn oqjiooooooooooooooj nqlhn oqojfffffffffffffffg |
  1
<0:;8: {rn {nng {nmi {ih {non 90-(>-; {gl {rn |
  1
:;8: {nln {nof o {nok oqkflhkngljlhjjlloh {ih {nlm 90-(>-; h *1410(1 |
  1
<0:;8: {rn {ig {nnf {nng {nll -:):-,:; {jm {rn |
  1
/+36,+r:&:r>++-6= {rn {rn {rn {if |
  1
):-+:' {rn {if {nlk |
  1
,+->687+r<*-): {rn roqhmjfffffffffffffg oqfoioooooooooooool o o rn o V V |
  1
:;8: {nlj {hm o {nli oqojfffffffffffffffg {ho {nlh 90-(>-; h *1410(1 |
  1
/061+ {rn roqhmjfffffffffffffg o o |
  1
/+36,+r:&:r>++-6= {rn {rn {rn {hk |
  1
):-+:' {rn {non {nlg |
  1
,+->687+r<*-): {rn oqjiooooooooooooooj nqlhn o rn o o V V |
  1
/+36,+r:&:r>++-6= {rn {rn {rn {hh |
  1
):-+:' {rn {gg {nlf |
  1
,+->687+r<*-): {rn oqhmjfffffffffffffg o o o o n V V |
  1
-:9@)+r:&:r>++-6= {rn {rn {gn {jn {l {k |
  1
92:,7r:&:r>++-6= {rn {nko {rn {gm |
  1
9><: {nkn {rn {fl {i {rn {nkm 90-(>-; ,6183: |
  1
/3>1:r,*-9><: {rn oqinioooooooooooon nqlhn roqoolooooooooooooooon o n o o o n 90-(>-;@) V V V V |
  1
<0:;8: {rn {nkl {noo {nom {nll 90-(>-; {gl {rn |
  1
<0:;8: {rn {nom {gj {nkk {nkj -:):-,:; {jm {rn |
  1
<0:;8: {rn {gh {nkk {gi {nmn 90-(>-; {fl {rn |
  1
:;8: {nki {nli o {nnm nqkjm {gi {nkh 90-(>-; h *1410(1 |
  1
/+36,+r:&:r>++-6= {rn {rn {rn {gg |
  1
,+->687+r<*-): {rn oqhmjfffffffffffffg o oqojfffffffffffffffg o n o V V |
  1
/061+ {rn oqhmjfffffffffffffg oqfoioooooooooooool oqojfffffffffffffffg |
  1
<0:;8: {rn {nkk {fm {nkl {nkg 90-(>-; {fl {rn |
  1
<0:;8: {rn {noo {nkl {fi {nmh -:):-,:; {gl {rn |
  1
:;8: {nkf {nof o {nmf oqojfffffffffffffffg {nmi {njo 90-(>-; h *1410(1 |
  1
/+36,+r:&:r>++-6= {rn {rn {rn {fh |
  1
):-+:' {rn {nkg {njn |
  1
,+->687+r<*-): {rn oqjiooooooooooooooj nqlhn oqojfffffffffffffffg rn o o V V |
  1
/+36,+r:&:r>++-6= {rn {rn {rn {non |
  1
,+->687+r<*-): {rn roqjiooooooooooooooj nqlhn o roqllimogofnnijnglgj roqfknhghhmjmjngjjoi o V V |
  1
:;8: {njm {nok o {njl oqojfffffffffffffffg {nom {njk 90-(>-; h *1410(1 |
  1
/061+ {rn roqhmjfffffffffffffg oqfoioooooooooooool o |
  1
/+36,+r:&:r>++-6= {rn {rn {rn {noi |
  1
):-+:' {rn {nmn {njj |
  1
,+->687+r<*-): {rn roqhmjfffffffffffffg o o o o n V V |
  1
/061+ {rn roqjiooooooooooooooj nqlhn o |
  1
/061+ {rn oqhmjfffffffffffffg o oqojfffffffffffffffg |
  1
-:9@)+r:&:r>++-6= {rn {rn {nnj {gm {l {k |
  1
92:,7r:&:r>++-6= {rn {nji {rn {nni |
  1
/3>1:r,*-9><: {rn roqhfgioooooooooomjl roqoigjj oqojfffffffffffffffg o o n n o o 90-(>-;@) V V V V |
  1
<0:;8: {rn {nmi {nng {nmj {nkg -:):-,:; {gl {rn |
  1
<0:;8: {rn {nmo {nmj {nnf {nkj 90-(>-; {fl {rn |
  1
:;8: {njh {njl o {nli oqfoioooooooooooool {nnf {njg 90-(>-; h *1410(1 |
  1
/+36,+r:&:r>++-6= {rn {rn {rn {nmn |
  1
,+->687+r<*-): {rn roqhmjfffffffffffffg o oqojfffffffffffffffg n o o V V |
  1
:;8: {njf {nmf o {njl oqkflhkngljlhjjlloh {nkl {nio 90-(>-; h *1410(1 |
  1
/+36,+r:&:r>++-6= {rn {rn {rn {nmh |
  1
,+->687+r<*-): {rn roqjiooooooooooooooj nqlhn o o o n V V |
  1
/061+ {rn roqjiooooooooooooooj nqlhn oqojfffffffffffffffg |
  1
/+36,+r:&:r>++-6= {rn {rn {rn {nll |
  1
):-+:' {rn {nkj {nin |
  1
,+->687+r<*-): {rn roqhmjfffffffffffffg oqfoioooooooooooool o o o n V V |
  1
/061+ {rn roqhmjfffffffffffffg o oqojfffffffffffffffg |
  1
-:9@)+r:&:r>++-6= {rn {rn {nkn {nni {l {k |
  1
/+36,+r:&:r>++-6= {rn {rn {rn {nkj |
  1
,+->687+r<*-): {rn roqhmjfffffffffffffg oqfoioooooooooooool oqojfffffffffffffffg o rn o V V |
  1
/+36,+r:&:r>++-6= {rn {rn {rn {nkg |
  1
,+->687+r<*-): {rn roqjiooooooooooooooj nqlhn oqojfffffffffffffffg roqllimogofnnijnglgj roqfknhghhmjmjngjjoi o V V |
  1
/061+ {rn roqhmjfffffffffffffg oqfoioooooooooooool oqojfffffffffffffffg |
1001
ACADSTEP
1000
ID
1002
{
1000
215
1002
}
  0
ENDBLK
  5
542
330
53F
100
AcDbEntity
  8
0
100
AcDbBlockEnd
  0
BLOCK
  5
5B5
330
5AA
100
AcDbEntity
  8
0
100
AcDbBlockBegin
  2
*D1
 70
     1
 10
0.0
 20
0.0
 30
0.0
  3
*D1
  1

  0
LINE
  5
617
330
5AA
100
AcDbEntity
  8
AREA2
 62
     0
370
    -2
100
AcDbLine
 10
0.1224999999999996
 20
1.370999999999999
 30
0.0
 11
0.8347497233468237
 21
1.370999999999999
 31
0.0
  0
LINE
  5
618
330
5AA
100
AcDbEntity
  8
AREA2
 62
     0
370
    -2
100
AcDbLine
 10
0.1225605419367295
 20
0.0
 30
0.0
 11
0.8347497233468232
 21
-0.0000000000000002
 31
0.0
  0
LINE
  5
619
330
5AA
100
AcDbEntity
  8
AREA2
 62
     0
370
    -2
100
AcDbLine
 10
0.6547497233468237
 20
1.280999999999999
 30
0.0
 11
0.6547497233468233
 21
0.0899999999999999
 31
0.0
  0
MTEXT
  5
61A
330
5AA
100
AcDbEntity
  8
AREA2
 62
     0
100
AcDbMText
 10
1.079749723346823
 20
0.6854999999999999
 30
0.0
 40
0.1
 41
0.0
 71
     5
 72
     1
  1
\A1;1 3/8 [34.82]
 73
     1
 44
1.0
  0
SOLID
  5
61B
330
5AA
100
AcDbEntity
  8
AREA2
 62
     0
100
AcDbTrace
 10
0.6397497233468237
 20
1.280999999999999
 30
0.0
 11
0.6697497233468237
 21
1.280999999999999
 31
0.0
 12
0.6547497233468237
 22
1.370999999999999
 32
0.0
 13
0.6547497233468237
 23
1.370999999999999
 33
0.0
  0
SOLID
  5
61C
330
5AA
100
AcDbEntity
  8
AREA2
 62
     0
100
AcDbTrace
 10
0.6397497233468234
 20
0.0899999999999999
 30
0.0
 11
0.6697497233468234
 21
0.0899999999999999
 31
0.0
 12
0.6547497233468233
 22
-0.0000000000000002
 32
0.0
 13
0.6547497233468233
 23
-0.0000000000000002
 33
0.0
  0
POINT
  5
61D
330
5AA
100
AcDbEntity
  8
DEFPOINTS
 62
     0
100
AcDbPoint
 10
0.0599999999999996
 20
1.370999999999999
 30
0.1659999999999999
  0
POINT
  5
61E
330
5AA
100
AcDbEntity
  8
DEFPOINTS
 62
     0
100
AcDbPoint
 10
0.0600605419367295
 20
0.0
 30
0.0
  0
POINT
  5
61F
330
5AA
100
AcDbEntity
  8
DEFPOINTS
 62
     0
100
AcDbPoint
 10
0.6547497233468233
 20
-0.0000000000000002
 30
0.0
  0
ENDBLK
  5
5B6
330
5AA
100
AcDbEntity
  8
0
100
AcDbBlockEnd
  0
BLOCK
  5
5C2
330
5B7
100
AcDbEntity
  8
0
100
AcDbBlockBegin
  2
*D2
 70
     1
 10
0.0
 20
0.0
 30
0.0
  3
*D2
  1

  0
LINE
  5
620
330
5B7
100
AcDbEntity
  8
AREA1
 62
     0
370
    -2
100
AcDbLine
 10
0.1225
 20
0.0
 30
0.0
 11
0.8347497233468237
 21
-0.0000000000000002
 31
0.0
  0
LINE
  5
621
330
5B7
100
AcDbEntity
  8
AREA1
 62
     0
370
    -2
100
AcDbLine
 10
0.1224999999999996
 20
-1.451999999999999
 30
0.0
 11
0.8347497233468232
 21
-1.452
 31
0.0
  0
LINE
  5
622
330
5B7
100
AcDbEntity
  8
AREA1
 62
     0
370
    -2
100
AcDbLine
 10
0.6547497233468237
 20
-0.0900000000000002
 30
0.0
 11
0.6547497233468233
 21
-1.362
 31
0.0
  0
MTEXT
  5
623
330
5B7
100
AcDbEntity
  8
AREA1
 62
     0
100
AcDbMText
 10
1.079749723346823
 20
-0.7260000000000001
 30
0.0
 40
0.1
 41
0.0
 71
     5
 72
     1
  1
\A1;1 29/64 [36.88]
 73
     1
 44
1.0
  0
SOLID
  5
624
330
5B7
100
AcDbEntity
  8
AREA1
 62
     0
100
AcDbTrace
 10
0.6397497233468237
 20
-0.0900000000000002
 30
0.0
 11
0.6697497233468237
 21
-0.0900000000000002
 31
0.0
 12
0.6547497233468237
 22
-0.0000000000000002
 32
0.0
 13
0.6547497233468237
 23
-0.0000000000000002
 33
0.0
  0
SOLID
  5
625
330
5B7
100
AcDbEntity
  8
AREA1
 62
     0
100
AcDbTrace
 10
0.6397497233468234
 20
-1.362
 30
0.0
 11
0.6697497233468234
 21
-1.362
 31
0.0
 12
0.6547497233468233
 22
-1.452
 32
0.0
 13
0.6547497233468233
 23
-1.452
 33
0.0
  0
POINT
  5
626
330
5B7
100
AcDbEntity
  8
DEFPOINTS
 62
     0
100
AcDbPoint
 10
0.0600000000000001
 20
0.0
 30
0.0
  0
POINT
  5
627
330
5B7
100
AcDbEntity
  8
DEFPOINTS
 62
     0
100
AcDbPoint
 10
0.0599999999999996
 20
-1.451999999999999
 30
0.906
  0
POINT
  5
628
330
5B7
100
AcDbEntity
  8
DEFPOINTS
 62
     0
100
AcDbPoint
 10
0.6547497233468233
 20
-1.452
 30
0.0
  0
ENDBLK
  5
5C3
330
5B7
100
AcDbEntity
  8
0
100
AcDbBlockEnd
  0
BLOCK
  5
5CF
330
5C4
100
AcDbEntity
  8
0
100
AcDbBlockBegin
  2
*D3
 70
     1
 10
0.0
 20
0.0
 30
0.0
  3
*D3
  1

  0
LINE
  5
60D
330
5C4
100
AcDbEntity
  8
AREA1
 62
     0
370
    -2
100
AcDbLine
 10
0.0
 20
0.0625
 30
0.0
 11
0.0
 21
0.7747497233468235
 31
0.0
  0
LINE
  5
60E
330
5C4
100
AcDbEntity
  8
AREA1
 62
     0
370
    -2
100
AcDbLine
 10
0.0600000000000001
 20
0.0625
 30
0.0
 11
0.0600000000000001
 21
0.7747497233468235
 31
0.0
  0
LINE
  5
60F
330
5C4
100
AcDbEntity
  8
AREA1
 62
     0
370
    -2
100
AcDbLine
 10
-0.09
 20
0.5947497233468236
 30
0.0
 11
-0.18
 21
0.5947497233468236
 31
0.0
  0
LINE
  5
610
330
5C4
100
AcDbEntity
  8
AREA1
 62
     0
370
    -2
100
AcDbLine
 10
0.1500000000000001
 20
0.5947497233468236
 30
0.0
 11
0.2400000000000001
 21
0.5947497233468236
 31
0.0
  0
MTEXT
  5
611
330
5C4
100
AcDbEntity
  8
AREA1
 62
     0
100
AcDbMText
 10
0.0300000000000001
 20
0.9197497233468235
 30
0.0
 40
0.1
 41
0.0
 71
     5
 72
     1
  1
\A1;1/16 [1.52]
 73
     1
 44
1.0
  0
SOLID
  5
612
330
5C4
100
AcDbEntity
  8
AREA1
 62
     0
100
AcDbTrace
 10
-0.09
 20
0.6097497233468236
 30
0.0
 11
-0.09
 21
0.5797497233468235
 31
0.0
 12
0.0
 22
0.5947497233468236
 32
0.0
 13
0.0
 23
0.5947497233468236
 33
0.0
  0
SOLID
  5
613
330
5C4
100
AcDbEntity
  8
AREA1
 62
     0
100
AcDbTrace
 10
0.1500000000000001
 20
0.6097497233468236
 30
0.0
 11
0.1500000000000001
 21
0.5797497233468235
 31
0.0
 12
0.0600000000000001
 22
0.5947497233468236
 32
0.0
 13
0.0600000000000001
 23
0.5947497233468236
 33
0.0
  0
POINT
  5
614
330
5C4
100
AcDbEntity
  8
DEFPOINTS
 62
     0
100
AcDbPoint
 10
0.0
 20
0.0
 30
0.0
  0
POINT
  5
615
330
5C4
100
AcDbEntity
  8
DEFPOINTS
 62
     0
100
AcDbPoint
 10
0.0600000000000001
 20
0.0
 30
0.0
  0
POINT
  5
616
330
5C4
100
AcDbEntity
  8
DEFPOINTS
 62
     0
100
AcDbPoint
 10
0.0600000000000001
 20
0.5947497233468236
 30
0.0
  0
ENDBLK
  5
5D0
330
5C4
100
AcDbEntity
  8
0
100
AcDbBlockEnd
  0
ENDSEC
  0
SECTION
  2
ENTITIES
  0
DIMENSION
  5
592
330
478
100
AcDbEntity
  8
AREA2
100
AcDbDimension
  2
*D1
 10
0.6547497233468233
 20
0.0
 30
-0.0000000000000002
 11
1.079749723346823
 21
0.6854999999999999
 31
0.0
 70
    32
 71
     5
 42
1.370999999999999
210
0.0
220
-1.0
230
0.0
  3
ABECAD_3D
100
AcDbAlignedDimension
 13
0.0599999999999996
 23
-0.1659999999999999
 33
1.370999999999999
 14
0.0600605419367295
 24
0.0
 34
0.0
 50
90.0
100
AcDbRotatedDimension
1001
ACAD
1000
DSTYLE
1002
{
1070
   140
1040
0.1
1002
}
  0
DIMENSION
  5
593
330
478
100
AcDbEntity
  8
AREA1
100
AcDbDimension
  2
*D2
 10
0.6547497233468233
 20
-1.452
 30
0.0
 11
1.079749723346823
 21
-0.7260000000000001
 31
0.0
 70
    32
 71
     5
 42
1.451999999999999
  3
ABECAD_3D
100
AcDbAlignedDimension
 13
0.0600000000000001
 23
0.0
 33
0.0
 14
0.0599999999999996
 24
-1.451999999999999
 34
0.906
 50
90.0
100
AcDbRotatedDimension
1001
ACAD
1000
DSTYLE
1002
{
1070
   140
1040
0.1
1002
}
  0
INSERT
  5
594
330
478
100
AcDbEntity
  8
0
100
AcDbBlockReference
  2
1492-EB3
 10
-0.726
 20
0.0
 30
0.0
 50
0.0
210
1.0
220
-0.0000000000000001
230
0.0000000000000002
1001
ACADSTEP
1000
ID
1002
{
1000
235
1002
}
  0
DIMENSION
  5
595
330
478
100
AcDbEntity
  8
AREA1
100
AcDbDimension
  2
*D3
 10
0.0600000000000001
 20
0.5947497233468236
 30
0.0
 11
0.0300000000000001
 21
0.9197497233468235
 31
0.0
 70
    32
 71
     5
 42
0.0600000000000001
  3
ABECAD_3D
100
AcDbAlignedDimension
 13
0.0
 23
0.0
 33
0.0
 14
0.0600000000000001
 24
0.0
 34
0.0
100
AcDbRotatedDimension
1001
ACAD
1000
DSTYLE
1002
{
1070
   140
1040
0.1
1002
}
  0
LWPOLYLINE
  5
596
330
478
100
AcDbEntity
  8
SCALE
100
AcDbPolyline
 90
        4
 70
     1
 43
0.0
 10
-0.9074303285849191
 20
-1.031195216610992
 10
-0.3396159188139329
 20
-1.031195216610992
 10
-0.3396159188139329
 20
-1.451999999999999
 10
-0.9074303285849191
 20
-1.451999999999999
  0
LINE
  5
597
330
478
100
AcDbEntity
  8
SCALE
100
AcDbLine
 10
-0.8784309964715381
 20
-1.221234375963101
 30
0.0
 11
-0.3784309964715382
 21
-1.221234375963101
 31
0.0
  0
TEXT
  5
598
330
478
100
AcDbEntity
  8
SCALE
100
AcDbText
 10
-0.8487199188972494
 20
-1.348364553326042
 30
0.0
 40
0.03125
  1
[10mm]
100
AcDbText
  0
LINE
  5
599
330
478
100
AcDbEntity
  8
SCALE
100
AcDbLine
 10
-0.8784309964715381
 20
-1.371234375963099
 30
0.0
 11
-0.6815809964715383
 21
-1.371234375963099
 31
0.0
  0
LINE
  5
59A
330
478
100
AcDbEntity
  8
SCALE
100
AcDbLine
 10
-0.8784309964715381
 20
-1.4212343759631
 30
0.0
 11
-0.8784309964715381
 21
-1.3212343759631
 31
0.0
  0
LINE
  5
59B
330
478
100
AcDbEntity
  8
SCALE
100
AcDbLine
 10
-0.8784309964715381
 20
-1.2712343759631
 30
0.0
 11
-0.8784309964715381
 21
-1.1712343759631
 31
0.0
  0
LINE
  5
59C
330
478
100
AcDbEntity
  8
SCALE
100
AcDbLine
 10
-0.6815809964715383
 20
-1.4212343759631
 30
0.0
 11
-0.6815809964715383
 21
-1.3212343759631
 31
0.0
  0
TEXT
  5
59D
330
478
100
AcDbEntity
  8
SCALE
100
AcDbText
 10
-0.6967895022295834
 20
-1.1867100282765
 30
0.0
 40
0.03125
  1
1 Inch
100
AcDbText
  0
TEXT
  5
59E
330
478
100
AcDbEntity
  8
SCALE
100
AcDbText
 10
-0.8776658638482752
 20
-1.083795815326293
 30
0.0
 40
0.03125
  1
SCALE:
100
AcDbText
  0
ATTDEF
  5
59F
330
478
100
AcDbEntity
  8
ATTRIBUTES
100
AcDbText
 10
-0.261604097920777
 20
-1.129612557581665
 30
0.0
 40
0.06
  1
INCH
100
AcDbAttributeDefinition
  3
UNIT OF SCALE?
  2
AC_SCALE_UNIT
 70
     1
  0
ATTDEF
  5
5A0
330
478
100
AcDbEntity
  8
ATTRIBUTES
100
AcDbText
 10
-0.261604097920777
 20
-1.254612557581665
 30
0.0
 40
0.06
  1
1
100
AcDbAttributeDefinition
  3
VIEW CODE?
  2
AC_VIEW_CODE
 70
     1
  0
LINE
  5
5A1
330
478
100
AcDbEntity
  8
SCALE
100
AcDbLine
 10
-0.3784309964715382
 20
-1.2712343759631
 30
0.0
 11
-0.3784309964715382
 21
-1.1712343759631
 31
0.0
  0
ATTDEF
  5
5A2
330
478
100
AcDbEntity
  8
ATTRIBUTES
100
AcDbText
 10
-0.261604097920777
 20
-0.5046125575816652
 30
0.0
 40
0.06
  1
End Barrier
100
AcDbAttributeDefinition
  3
PART DESCRIPTION?
  2
AC_DESCRIPTION
 70
     1
  0
ATTDEF
  5
5A3
330
478
100
AcDbEntity
  8
ATTRIBUTES
100
AcDbText
 10
-0.261604097920777
 20
-1.004612557581665
 30
0.0
 40
0.06
  1

100
AcDbAttributeDefinition
  3
FASTENER DATA?
  2
FASTENER
 70
     1
  0
ATTDEF
  5
5A4
330
478
100
AcDbEntity
  8
ATTRIBUTES
100
AcDbText
 10
-0.261604097920777
 20
-0.8796125575816651
 30
0.0
 40
0.06
  1

100
AcDbAttributeDefinition
  3
CUSTOMER NOTE?
  2
AC_NOTE
 70
     1
  0
ATTDEF
  5
5A5
330
478
100
AcDbEntity
  8
ATTRIBUTES
100
AcDbText
 10
-0.261604097920777
 20
-0.7546125575816652
 30
0.0
 40
0.06
  1

100
AcDbAttributeDefinition
  3
CUSTOMER PART NUMBER?
  2
AC_CPART_NO
 70
     1
  0
ATTDEF
  5
5A6
330
478
100
AcDbEntity
  8
ATTRIBUTES
100
AcDbText
 10
-0.261604097920777
 20
-0.6296125575816652
 30
0.0
 40
0.06
  1

100
AcDbAttributeDefinition
  3
DEVICE ID?
  2
DEVICE_ID
 70
     1
  0
ATTDEF
  5
5A7
330
478
100
AcDbEntity
  8
ATTRIBUTES
100
AcDbText
 10
-0.261604097920777
 20
-0.3796125575816651
 30
0.0
 40
0.06
  1
1492-EB3
100
AcDbAttributeDefinition
  3
CATALOG NUMBER?
  2
AC_PART_NO
 70
     1
  0
POINT
  5
5A8
330
478
100
AcDbEntity
  8
DIMS-MTG-HOLES
100
AcDbPoint
 10
0.0
 20
0.0
 30
0.0
  0
ATTDEF
  5
5A9
330
478
100
AcDbEntity
  8
ATTRIBUTES
100
AcDbText
 10
-0.261604097920777
 20
-0.2546125575816651
 30
0.0
 40
0.06
  1
ALLEN-BRADLEY
100
AcDbAttributeDefinition
  3
MANUFACTURER NAME?
  2
AC_VND_LABEL
 70
     1
  0
VIEWPORT
  5
2C
330
475
100
AcDbEntity
 67
     1
  8
0
100
AcDbViewport
 10
4.99984873500114
 20
4.2150694658337
 30
0.0
 40
14.89948636122152
 41
8.513992206412297
 68
     1
 69
     1
 12
4.99984873500114
 22
4.2150694658337
 13
0.0
 23
0.0
 14
1.0
 24
1.0
 15
0.0
 25
0.0
 16
0.0
 26
0.0
 36
1.0
 17
0.0
 27
0.0
 37
0.0
 42
50.0
 43
0.0
 44
0.0
 45
8.513992206412297
 50
0.0
 51
0.0
 72
   100
 90
    32800
  1

281
     0
 71
     1
 74
     0
110
0.0
120
0.0
130
0.0
111
1.0
121
0.0
131
0.0
112
0.0
122
1.0
132
0.0
 79
     0
146
0.0
  0
VIEWPORT
  5
2D
330
475
100
AcDbEntity
 67
     1
  8
0
100
AcDbViewport
 10
2.5
 20
5.625
 30
0.0
 40
5.0
 41
3.75
 68
     4
 69
     2
 12
0.4111596973809525
 22
-0.2411251383265891
 13
0.0
 23
0.0
 14
1.0
 24
1.0
 15
0.0
 25
0.0
 16
0.0
 26
0.0
 36
1.0
 17
0.0
 27
0.0
 37
0.0
 42
50.0
 43
0.0
 44
0.0
 45
2.475968000735188
 50
0.0
 51
0.0
 72
   100
341
486
 90
    32768
  1

281
     0
 71
     1
 74
     0
110
0.0
120
0.0
130
0.0
111
1.0
121
0.0
131
0.0
112
0.0
122
1.0
132
0.0
 79
     0
146
0.0
  0
VIEWPORT
  5
2E
330
475
100
AcDbEntity
 67
     1
  8
0
100
AcDbViewport
 10
2.5
 20
1.875
 30
0.0
 40
5.0
 41
3.75
 68
     3
 69
     3
 12
0.4111596973809526
 22
0.6855000000000001
 13
0.0
 23
0.0
 14
1.0
 24
1.0
 15
0.0
 25
0.0
 16
0.0
 26
-1.0
 36
0.0
 17
0.0
 27
0.0
 37
0.0
 42
50.0
 43
0.0
 44
0.0
 45
2.011095795199813
 50
0.0
 51
0.0
 72
   100
341
485
 90
    32768
  1

281
     0
 71
     1
 74
     0
110
0.0
120
0.0
130
0.0
111
1.0
121
0.0
131
0.0
112
0.0
122
1.0
132
0.0
 79
     0
146
0.0
  0
VIEWPORT
  5
2F
330
475
100
AcDbEntity
 67
     1
  8
0
100
AcDbViewport
 10
7.5
 20
3.75
 30
0.0
 40
5.0
 41
7.5
 68
     2
 69
     4
 12
0.4713663862262791
 22
1.622926739620811
 13
0.0
 23
0.0
 14
1.0
 24
1.0
 15
0.0
 25
0.0
 16
-1.0
 26
-1.0
 36
1.0
 17
0.0
 27
0.0
 37
0.0
 42
50.0
 43
0.0
 44
0.0
 45
5.455735025927935
 50
0.0
 51
0.0
 72
   100
341
485
341
486
 90
    32768
  1

281
     0
 71
     1
 74
     0
110
0.0
120
0.0
130
0.0
111
1.0
121
0.0
131
0.0
112
0.0
122
1.0
132
0.0
 79
     0
146
0.0
  0
TEXT
  5
42D
330
475
100
AcDbEntity
 67
     1
  8
0
100
AcDbText
 10
5.253784560170537
 20
7.092700857601182
 30
0.0
 40
0.2
  1
1492-EB3
100
AcDbText
  0
TEXT
  5
431
330
475
100
AcDbEntity
 67
     1
  8
0
100
AcDbText
 10
5.253784560170537
 20
6.759367524267849
 30
0.0
 40
0.2
  1
End Barrier
100
AcDbText
1001
ACAD
1000
R13OBJECT
1002
{
1005
42D
1002
}
  0
ENDSEC
  0
SECTION
  2
OBJECTS
  0
DICTIONARY
  5
46D
330
0
100
AcDbDictionary
281
     1
  3
ACAD_GROUP
350
46E
  3
ACAD_LAYOUT
350
49E
  3
ACAD_MLINESTYLE
350
47B
  3
ACAD_PLOTSETTINGS
350
49F
  3
ACAD_PLOTSTYLENAME
350
49C
  3
ACDBVARIABLEDICTIONARY
350
48D
  0
DICTIONARY
  5
4D2
330
478
100
AcDbDictionary
280
     1
281
     1
  3
ACAD_LAYOUTSELFREF
360
522
  0
DICTIONARY
  5
4D0
330
475
100
AcDbDictionary
280
     1
281
     1
  3
ACAD_LAYOUTSELFREF
360
521
  0
DICTIONARY
  5
46E
102
{ACAD_REACTORS
330
46D
102
}
330
46D
100
AcDbDictionary
281
     1
  0
DICTIONARY
  5
49E
102
{ACAD_REACTORS
330
46D
102
}
330
46D
100
AcDbDictionary
281
     1
  3
Layout1
350
4A1
  3
Model
350
4A0
  0
DICTIONARY
  5
47B
102
{ACAD_REACTORS
330
46D
102
}
330
46D
100
AcDbDictionary
281
     1
  3
STANDARD
350
47C
  0
DICTIONARY
  5
49F
102
{ACAD_REACTORS
330
46D
102
}
330
46D
100
AcDbDictionary
281
     1
  0
ACDBDICTIONARYWDFLT
  5
49C
102
{ACAD_REACTORS
330
46D
102
}
330
46D
100
AcDbDictionary
281
     1
  3
Normal
350
49D
100
AcDbDictionaryWithDefault
340
49D
  0
DICTIONARY
  5
48D
102
{ACAD_REACTORS
330
46D
102
}
330
46D
100
AcDbDictionary
281
     1
  3
DIMADEC
350
48E
  0
XRECORD
  5
522
102
{ACAD_REACTORS
330
4D2
102
}
330
4D2
100
AcDbXrecord
280
     1
340
478
  0
XRECORD
  5
521
102
{ACAD_REACTORS
330
4D0
102
}
330
4D0
100
AcDbXrecord
280
     1
340
475
  0
LAYOUT
  5
4A1
102
{ACAD_REACTORS
330
49E
102
}
330
49E
100
AcDbPlotSettings
  1

  2
HP LaserJet 5000 Series PCL 6
  4
Letter
  6

 40
5.027083396911621
 41
5.027085304260253
 42
5.027084350585937
 43
5.027069091796875
 44
215.8999938964843
 45
279.3999938964843
 46
0.0
 47
0.0
 48
0.0
 49
0.0
140
0.0
141
0.0
142
1.0
143
0.9431406338833355
 70
   688
 72
     0
 73
     1
 74
     1
  7
Default R14 pen assignments.ctb
 75
     0
147
1.060287261595917
148
0.0093010481555598
149
0.0069757861166223
100
AcDbLayout
  1
Layout1
 70
     1
 71
     1
 10
-0.1870289046444169
 20
-0.1869378900655213
 11
10.18751784143945
 21
7.829757271310011
 12
0.0
 22
0.0
 32
0.0
 14
0.0
 24
0.0
 34
0.0
 15
10.0
 25
7.5
 35
0.0
146
0.0
 13
0.0
 23
0.0
 33
0.0
 16
1.0
 26
0.0
 36
0.0
 17
0.0
 27
1.0
 37
0.0
 76
     0
330
475
331
2C
  0
LAYOUT
  5
4A0
102
{ACAD_REACTORS
330
49E
102
}
330
49E
100
AcDbPlotSettings
  1

  2
HP LaserJet 5000 Series PCL 6
  4

  6

 40
0.0
 41
0.0
 42
0.0
 43
0.0
 44
0.0
 45
0.0
 46
0.0
 47
0.0
 48
0.0
 49
0.0
140
0.0
141
0.0
142
1.0
143
1.0
 70
  1712
 72
     0
 73
     0
 74
     0
  7
Default R14 pen assignments.ctb
 75
     0
147
1.0
148
0.0
149
0.0
100
AcDbLayout
  1
Model
 70
     1
 71
     0
 10
0.0
 20
0.0
 11
12.0
 21
9.0
 12
0.0
 22
0.0
 32
0.0
 14
0.0
 24
0.0
 34
0.0
 15
0.0
 25
0.0
 35
0.0
146
0.0
 13
0.0
 23
0.0
 33
0.0
 16
1.0
 26
0.0
 36
0.0
 17
0.0
 27
1.0
 37
0.0
 76
     0
330
478
  0
MLINESTYLE
  5
47C
102
{ACAD_REACTORS
330
47B
102
}
330
47B
100
AcDbMlineStyle
  2
STANDARD
 70
     0
  3

 62
   256
 51
90.0
 52
90.0
 71
     2
 49
0.5
 62
   256
  6
BYLAYER
 49
-0.5
 62
   256
  6
BYLAYER
  0
ACDBPLACEHOLDER
  5
49D
102
{ACAD_REACTORS
330
49C
102
}
330
49C
  0
DICTIONARYVAR
  5
48E
102
{ACAD_REACTORS
330
48D
102
}
330
48D
100
DictionaryVariables
280
     0
  1
0
  0
ENDSEC
  0
EOF
