  0
SECTION
  2
HEADER
  9
$ACADVER
  1
AC1014
  9
$ACADMAINTVER
 70
     9
  9
$DWGCODEPAGE
  3
ANSI_1252
  9
$INSBASE
 10
-176.5392304148145
 20
78.53453268215289
 30
2.849999999999999
  9
$EXTMIN
 10
-212.9405381251813
 20
69.54943038707227
 30
0.0
  9
$EXTMAX
 10
-111.9429696926059
 20
90.92631338323386
 30
36.2
  9
$LIMMIN
 10
0.0
 20
0.0
  9
$LIMMAX
 10
12.0
 20
9.0
  9
$ORTHOMODE
 70
     0
  9
$REGENMODE
 70
     1
  9
$FILLMODE
 70
     1
  9
$QTEXTMODE
 70
     0
  9
$MIRRTEXT
 70
     1
  9
$DRAGMODE
 70
     2
  9
$LTSCALE
 40
1.0
  9
$OSMODE
 70
    37
  9
$ATTMODE
 70
     0
  9
$TEXTSIZE
 40
0.2
  9
$TRACEWID
 40
0.05
  9
$TEXTSTYLE
  7
STANDARD
  9
$CLAYER
  8
0
  9
$CELTYPE
  6
BYLAYER
  9
$CECOLOR
 62
   256
  9
$CELTSCALE
 40
1.0
  9
$DELOBJ
 70
     1
  9
$DISPSILH
 70
     0
  9
$DIMSCALE
 40
0.0
  9
$DIMASZ
 40
0.1796875
  9
$DIMEXO
 40
0.0625
  9
$DIMDLI
 40
0.375
  9
$DIMRND
 40
0.0
  9
$DIMDLE
 40
0.0
  9
$DIMEXE
 40
0.1796875
  9
$DIMTP
 40
0.0
  9
$DIMTM
 40
0.0
  9
$DIMTXT
 40
0.125
  9
$DIMCEN
 40
0.08984375
  9
$DIMTSZ
 40
0.0
  9
$DIMTOL
 70
     0
  9
$DIMLIM
 70
     0
  9
$DIMTIH
 70
     0
  9
$DIMTOH
 70
     0
  9
$DIMSE1
 70
     0
  9
$DIMSE2
 70
     0
  9
$DIMTAD
 70
     0
  9
$DIMZIN
 70
     4
  9
$DIMBLK
  1

  9
$DIMASO
 70
     1
  9
$DIMSHO
 70
     1
  9
$DIMPOST
  1

  9
$DIMAPOST
  1

  9
$DIMALT
 70
     1
  9
$DIMALTD
 70
     6
  9
$DIMALTF
 40
0.03937
  9
$DIMLFAC
 40
1.0
  9
$DIMTOFL
 70
     0
  9
$DIMTVP
 40
0.0
  9
$DIMTIX
 70
     1
  9
$DIMSOXD
 70
     0
  9
$DIMSAH
 70
     0
  9
$DIMBLK1
  1

  9
$DIMBLK2
  1

  9
$DIMSTYLE
  2
ABECAD_3V
  9
$DIMCLRD
 70
     0
  9
$DIMCLRE
 70
     0
  9
$DIMCLRT
 70
     0
  9
$DIMTFAC
 40
1.5
  9
$DIMGAP
 40
0.09375
  9
$DIMJUST
 70
     0
  9
$DIMSD1
 70
     0
  9
$DIMSD2
 70
     0
  9
$DIMTOLJ
 70
     1
  9
$DIMTZIN
 70
     4
  9
$DIMALTZ
 70
     4
  9
$DIMALTTZ
 70
     4
  9
$DIMFIT
 70
     5
  9
$DIMUPT
 70
     0
  9
$DIMUNIT
 70
     2
  9
$DIMDEC
 70
     2
  9
$DIMTDEC
 70
     2
  9
$DIMALTU
 70
     7
  9
$DIMALTTD
 70
     6
  9
$DIMTXSTY
  7
STANDARD
  9
$DIMAUNIT
 70
     0
  9
$LUNITS
 70
     2
  9
$LUPREC
 70
     6
  9
$SKETCHINC
 40
0.1
  9
$FILLETRAD
 40
0.0
  9
$AUNITS
 70
     0
  9
$AUPREC
 70
     0
  9
$MENU
  1
acad
  9
$ELEVATION
 40
0.0
  9
$PELEVATION
 40
0.0
  9
$THICKNESS
 40
0.0
  9
$LIMCHECK
 70
     0
  9
$BLIPMODE
 70
     0
  9
$CHAMFERA
 40
0.0
  9
$CHAMFERB
 40
0.0
  9
$CHAMFERC
 40
0.0
  9
$CHAMFERD
 40
0.0
  9
$SKPOLY
 70
     0
  9
$TDCREATE
 40
2451670.449415046
  9
$TDUPDATE
 40
2453137.557400833
  9
$TDINDWG
 40
0.1450048727
  9
$TDUSRTIMER
 40
0.1450048727
  9
$USRTIMER
 70
     1
  9
$ANGBASE
 50
0.0
  9
$ANGDIR
 70
     0
  9
$PDMODE
 70
     3
  9
$PDSIZE
 40
2.286
  9
$PLINEWID
 40
0.0
  9
$COORDS
 70
     1
  9
$SPLFRAME
 70
     0
  9
$SPLINETYPE
 70
     6
  9
$SPLINESEGS
 70
     8
  9
$ATTDIA
 70
     0
  9
$ATTREQ
 70
     1
  9
$HANDLING
 70
 22529
  9
$HANDSEED
  5
25B5
  9
$SURFTAB1
 70
     6
  9
$SURFTAB2
 70
     6
  9
$SURFTYPE
 70
     6
  9
$SURFU
 70
     6
  9
$SURFV
 70
     6
  9
$UCSNAME
  2

  9
$UCSORG
 10
0.0
 20
0.0
 30
0.0
  9
$UCSXDIR
 10
1.0
 20
0.0
 30
0.0
  9
$UCSYDIR
 10
0.0
 20
0.0
 30
1.0
  9
$PUCSNAME
  2

  9
$PUCSORG
 10
0.0
 20
0.0
 30
0.0
  9
$PUCSXDIR
 10
1.0
 20
0.0
 30
0.0
  9
$PUCSYDIR
 10
0.0
 20
1.0
 30
0.0
  9
$USERI1
 70
     0
  9
$USERI2
 70
     0
  9
$USERI3
 70
     0
  9
$USERI4
 70
     0
  9
$USERI5
 70
     0
  9
$USERR1
 40
0.0
  9
$USERR2
 40
0.0
  9
$USERR3
 40
0.0
  9
$USERR4
 40
0.0
  9
$USERR5
 40
0.0
  9
$WORLDVIEW
 70
     1
  9
$SHADEDGE
 70
     3
  9
$SHADEDIF
 70
    70
  9
$TILEMODE
 70
     0
  9
$MAXACTVP
 70
    16
  9
$PINSBASE
 10
0.0
 20
0.0
 30
0.0
  9
$PLIMCHECK
 70
     0
  9
$PEXTMIN
 10
0.0226429257092988
 20
0.0040681204654334
 30
0.0
  9
$PEXTMAX
 10
10.55573210096327
 20
8.074637622092751
 30
0.0
  9
$PLIMMIN
 10
-0.2112501249538632
 20
-0.2112499935420479
  9
$PLIMMAX
 10
10.78874963475024
 20
8.288749766162061
  9
$UNITMODE
 70
     0
  9
$VISRETAIN
 70
     0
  9
$PLINEGEN
 70
     0
  9
$PSLTSCALE
 70
     1
  9
$TREEDEPTH
 70
  3020
  9
$PICKSTYLE
 70
     1
  9
$CMLSTYLE
  2
STANDARD
  9
$CMLJUST
 70
     0
  9
$CMLSCALE
 40
1.0
  9
$PROXYGRAPHICS
 70
     1
  9
$MEASUREMENT
 70
     1
  0
ENDSEC
  0
SECTION
  2
CLASSES
  0
CLASS
  1
DICTIONARYVAR
  2
AcDbDictionaryVar
  3
AutoCAD 2000
 90
        0
280
     0
281
     0
  0
CLASS
  1
ACDBDICTIONARYWDFLT
  2
AcDbDictionaryWithDefault
  3
AutoCAD 2000
 90
        0
280
     0
281
     0
  0
CLASS
  1
ACDBPLACEHOLDER
  2
AcDbPlaceHolder
  3
AutoCAD 2000
 90
        0
280
     0
281
     0
  0
CLASS
  1
LAYOUT
  2
AcDbLayout
  3
AutoCAD 2000
 90
        0
280
     0
281
     0
  0
CLASS
  1
LONG_TRANSACTION
  2
AcDbLongTransaction
  3
AutoCAD 2000
 90
        0
280
     0
281
     0
  0
CLASS
  1
LWPOLYLINE
  2
AcDbPolyline
  3
AutoCAD 2000
 90
        0
280
     0
281
     1
  0
CLASS
  1
HATCH
  2
AcDbHatch
  3
AutoCAD 2000
 90
        0
280
     0
281
     1
  0
CLASS
  1
XRECORD
  2
AcDbXrecord
  3
AutoCAD 2000
 90
        0
280
     0
281
     0
  0
CLASS
  1
LONG_TRANSACTION
  2
AcDbLongTransaction
  3
AutoCAD 2000
 90
        0
280
     0
281
     0
  0
CLASS
  1
LWPOLYLINE
  2
AcDbPolyline
  3
AutoCAD 2000
 90
        0
280
     0
281
     1
  0
CLASS
  1
HATCH
  2
AcDbHatch
  3
AutoCAD 2000
 90
        0
280
     0
281
     1
  0
CLASS
  1
XRECORD
  2
AcDbXrecord
  3
AutoCAD 2000
 90
        0
280
     0
281
     0
  0
CLASS
  1
LONG_TRANSACTION
  2
AcDbLongTransaction
  3
AutoCAD 2000
 90
        0
280
     0
281
     0
  0
CLASS
  1
LWPOLYLINE
  2
AcDbPolyline
  3
AutoCAD 2000
 90
        0
280
     0
281
     1
  0
CLASS
  1
HATCH
  2
AcDbHatch
  3
AutoCAD 2000
 90
        0
280
     0
281
     1
  0
CLASS
  1
XRECORD
  2
AcDbXrecord
  3
AutoCAD 2000
 90
        0
280
     0
281
     0
  0
CLASS
  1
LONG_TRANSACTION
  2
AcDbLongTransaction
  3
AutoCAD 2000
 90
        0
280
     0
281
     0
  0
CLASS
  1
LWPOLYLINE
  2
AcDbPolyline
  3
AutoCAD 2000
 90
        0
280
     0
281
     1
  0
CLASS
  1
HATCH
  2
AcDbHatch
  3
AutoCAD 2000
 90
        0
280
     0
281
     1
  0
CLASS
  1
XRECORD
  2
AcDbXrecord
  3
AutoCAD 2000
 90
        0
280
     0
281
     0
  0
CLASS
  1
LONG_TRANSACTION
  2
AcDbLongTransaction
  3
AutoCAD 2000
 90
        0
280
     0
281
     0
  0
CLASS
  1
LWPOLYLINE
  2
AcDbPolyline
  3
AutoCAD 2000
 90
        0
280
     0
281
     1
  0
CLASS
  1
HATCH
  2
AcDbHatch
  3
AutoCAD 2000
 90
        0
280
     0
281
     1
  0
CLASS
  1
XRECORD
  2
AcDbXrecord
  3
AutoCAD 2000
 90
        0
280
     0
281
     0
  0
CLASS
  1
TABLESTYLE
  2
AcDbTableStyle
  3
ObjectDBX Classes
 90
     2047
280
     0
281
     0
  0
CLASS
  1
SORTENTSTABLE
  2
AcDbSortentsTable
  3
AutoCAD 2000
 90
        0
280
     0
281
     0
  0
CLASS
  1
ACAD_PROXY_OBJECT_WRAPPER
  2
AcDbProxyObjectWrapper
  3
AutoCAD 2000
 90
        0
280
     0
281
     0
  0
CLASS
  1
LONG_TRANSACTION
  2
AcDbLongTransaction
  3
AutoCAD 2000
 90
        0
280
     0
281
     0
  0
CLASS
  1
LWPOLYLINE
  2
AcDbPolyline
  3
AutoCAD 2000
 90
        0
280
     0
281
     1
  0
CLASS
  1
HATCH
  2
AcDbHatch
  3
AutoCAD 2000
 90
        0
280
     0
281
     1
  0
CLASS
  1
XRECORD
  2
AcDbXrecord
  3
AutoCAD 2000
 90
        0
280
     0
281
     0
  0
CLASS
  1
LONG_TRANSACTION
  2
AcDbLongTransaction
  3
AutoCAD 2000
 90
        0
280
     0
281
     0
  0
CLASS
  1
LWPOLYLINE
  2
AcDbPolyline
  3
AutoCAD 2000
 90
        0
280
     0
281
     1
  0
CLASS
  1
HATCH
  2
AcDbHatch
  3
AutoCAD 2000
 90
        0
280
     0
281
     1
  0
CLASS
  1
XRECORD
  2
AcDbXrecord
  3
AutoCAD 2000
 90
        0
280
     0
281
     0
  0
ENDSEC
  0
SECTION
  2
TABLES
  0
TABLE
  2
VPORT
  5
469
330
0
100
AcDbSymbolTable
 70
     1
  0
VPORT
  5
2508
330
469
100
AcDbSymbolTableRecord
100
AcDbViewportTableRecord
  2
*ACTIVE
 70
     0
 10
0.0
 20
0.0
 11
1.0
 21
1.0
 12
-14.30689512100492
 22
11.74588783158177
 13
0.0
 23
0.0
 14
1.0
 24
1.0
 15
0.0
 25
0.0
 16
0.0
 26
0.0
 36
1.0
 17
-138.2015330769401
 27
65.19751110535634
 37
31.31551725228996
 40
69.50968562002991
 41
1.775510204081632
 42
50.0
 43
0.0
 44
0.0
 50
0.0
 51
0.0
 71
     0
 72
   100
 73
     1
 74
     1
 75
     0
 76
     0
 77
     0
 78
     0
  0
ENDTAB
  0
TABLE
  2
LTYPE
  5
466
330
0
100
AcDbSymbolTable
 70
     1
  0
LTYPE
  5
472
330
466
100
AcDbSymbolTableRecord
100
AcDbLinetypeTableRecord
  2
BYBLOCK
 70
     0
  3

 72
    65
 73
     0
 40
0.0
  0
LTYPE
  5
473
330
466
100
AcDbSymbolTableRecord
100
AcDbLinetypeTableRecord
  2
BYLAYER
 70
     0
  3

 72
    65
 73
     0
 40
0.0
  0
LTYPE
  5
474
330
466
100
AcDbSymbolTableRecord
100
AcDbLinetypeTableRecord
  2
CONTINUOUS
 70
     0
  3
Solid line
 72
    65
 73
     0
 40
0.0
  0
ENDTAB
  0
TABLE
  2
LAYER
  5
463
102
{ACAD_XDICTIONARY
360
2443
102
}
330
0
100
AcDbSymbolTable
 70
     8
  0
LAYER
  5
46F
330
463
100
AcDbSymbolTableRecord
100
AcDbLayerTableRecord
  2
0
 70
     0
 62
     7
  6
CONTINUOUS
  0
LAYER
  5
485
330
463
100
AcDbSymbolTableRecord
100
AcDbLayerTableRecord
  2
AREA1
 70
     0
 62
     7
  6
CONTINUOUS
  0
LAYER
  5
486
330
463
100
AcDbSymbolTableRecord
100
AcDbLayerTableRecord
  2
AREA2
 70
     0
 62
     7
  6
CONTINUOUS
  0
LAYER
  5
494
330
463
100
AcDbSymbolTableRecord
100
AcDbLayerTableRecord
  2
DEFPOINTS
 70
     0
 62
    -7
  6
CONTINUOUS
  0
LAYER
  5
495
330
463
100
AcDbSymbolTableRecord
100
AcDbLayerTableRecord
  2
DIMS-MTG-HOLES
 70
     0
 62
    -1
  6
CONTINUOUS
  0
LAYER
  5
4EB
330
463
100
AcDbSymbolTableRecord
100
AcDbLayerTableRecord
  2
SCALE
 70
     0
 62
    -7
  6
CONTINUOUS
  0
LAYER
  5
560
330
463
100
AcDbSymbolTableRecord
100
AcDbLayerTableRecord
  2
ATTRIBUTES
 70
     0
 62
    -7
  6
CONTINUOUS
  0
LAYER
  5
561
330
463
100
AcDbSymbolTableRecord
100
AcDbLayerTableRecord
  2
SNAP_POINTS
 70
     0
 62
    -1
  6
CONTINUOUS
  0
ENDTAB
  0
TABLE
  2
STYLE
  5
464
330
0
100
AcDbSymbolTable
 70
     1
  0
STYLE
  5
470
330
464
100
AcDbSymbolTableRecord
100
AcDbTextStyleTableRecord
  2
STANDARD
 70
     0
 40
0.0
 41
1.0
 50
0.0
 71
     0
 42
0.2
  3
txt
  4

  0
ENDTAB
  0
TABLE
  2
VIEW
  5
467
330
0
100
AcDbSymbolTable
 70
     0
  0
ENDTAB
  0
TABLE
  2
UCS
  5
468
330
0
100
AcDbSymbolTable
 70
     0
  0
ENDTAB
  0
TABLE
  2
APPID
  5
46A
330
0
100
AcDbSymbolTable
 70
     2
  0
APPID
  5
471
330
46A
100
AcDbSymbolTableRecord
100
AcDbRegAppTableRecord
  2
ACAD
 70
     0
  0
APPID
  5
47E
330
46A
100
AcDbSymbolTableRecord
100
AcDbRegAppTableRecord
  2
AVE_RENDER
 70
     0
  0
ENDTAB
  0
TABLE
  2
DIMSTYLE
  5
46B
330
0
100
AcDbSymbolTable
 70
     3
  0
DIMSTYLE
105
47F
330
46B
100
AcDbSymbolTableRecord
100
AcDbDimStyleTableRecord
  2
STANDARD
 70
     0
  3

  4

  5

  6

  7

 40
1.0
 41
0.18
 42
0.0625
 43
0.38
 44
0.18
 45
0.0
 46
0.0
 47
0.0
 48
0.0
140
0.18
141
0.09
142
0.0
143
25.4
144
1.0
145
0.0
146
1.0
147
0.09
 71
     0
 72
     0
 73
     1
 74
     1
 75
     0
 76
     0
 77
     0
 78
     0
170
     0
171
     2
172
     0
173
     0
174
     0
175
     0
176
     0
177
     0
178
     0
270
     5
271
     6
272
     6
273
     5
274
     1
340
470
275
     0
280
     0
281
     0
282
     0
283
     1
284
     4
285
     4
286
     4
287
     5
288
     0
  0
DIMSTYLE
105
49A
330
46B
100
AcDbSymbolTableRecord
100
AcDbDimStyleTableRecord
  2
ABECAD_3V
 70
     0
  3

  4

  5

  6

  7

 40
0.0
 41
0.1796875
 42
0.0625
 43
0.375
 44
0.1796875
 45
0.0
 46
0.0
 47
0.0
 48
0.0
140
0.125
141
0.08984375
142
0.0
143
0.03937
144
1.0
145
0.0
146
1.5
147
0.09375
 71
     0
 72
     0
 73
     0
 74
     0
 75
     0
 76
     0
 77
     0
 78
     4
170
     1
171
     6
172
     0
173
     0
174
     1
175
     0
176
     0
177
     0
178
     0
270
     2
271
     2
272
     2
273
     7
274
     6
340
470
275
     0
280
     0
281
     0
282
     0
283
     1
284
     4
285
     4
286
     4
287
     5
288
     0
  0
DIMSTYLE
105
565
102
{ACAD_REACTORS
330
24AC
330
24AD
330
24AE
102
}
330
46B
100
AcDbSymbolTableRecord
100
AcDbDimStyleTableRecord
  2
ABECAD_3D
 70
     0
  3

  4

  5

  6

  7

 40
1.0
 41
4.572
 42
1.587499999999999
 43
9.525
 44
4.572
 45
0.0
 46
0.0
 47
0.0
 48
0.0
140
4.572
141
2.286
142
0.0
143
0.03937
144
1.0
145
0.0
146
1.5
147
2.286
 71
     0
 72
     0
 73
     0
 74
     1
 75
     0
 76
     0
 77
     0
 78
     4
170
     1
171
     6
172
     0
173
     0
174
     0
175
     0
176
     0
177
     0
178
     0
270
     2
271
     2
272
     2
273
     7
274
     6
340
470
275
     0
280
     0
281
     0
282
     0
283
     1
284
     4
285
     4
286
     4
287
     5
288
     1
  0
ENDTAB
  0
TABLE
  2
BLOCK_RECORD
  5
462
330
0
100
AcDbSymbolTable
 70
     3
  0
BLOCK_RECORD
  5
478
102
{ACAD_XDICTIONARY
360
4D7
102
}
330
462
100
AcDbSymbolTableRecord
100
AcDbBlockTableRecord
  2
*MODEL_SPACE
  0
BLOCK_RECORD
  5
22A3
102
{ACAD_XDICTIONARY
360
23C2
102
}
330
462
100
AcDbSymbolTableRecord
100
AcDbBlockTableRecord
  2
*PAPER_SPACE
  0
BLOCK_RECORD
  5
24B0
330
462
100
AcDbSymbolTableRecord
100
AcDbBlockTableRecord
  2
*D0
  0
BLOCK_RECORD
  5
24BD
330
462
100
AcDbSymbolTableRecord
100
AcDbBlockTableRecord
  2
*D1
  0
BLOCK_RECORD
  5
24CA
330
462
100
AcDbSymbolTableRecord
100
AcDbBlockTableRecord
  2
*D2
  0
ENDTAB
  0
ENDSEC
  0
SECTION
  2
BLOCKS
  0
BLOCK
  5
48B
330
478
100
AcDbEntity
  8
0
100
AcDbBlockBegin
  2
*MODEL_SPACE
 70
     0
 10
0.0
 20
0.0
 30
0.0
  3
*MODEL_SPACE
  1

  0
ENDBLK
  5
48C
330
478
100
AcDbEntity
  8
0
100
AcDbBlockEnd
  0
BLOCK
  5
22AA
330
22A3
100
AcDbEntity
 67
     1
  8
0
100
AcDbBlockBegin
  2
*PAPER_SPACE
 70
     0
 10
0.0
 20
0.0
 30
0.0
  3
*PAPER_SPACE
  1

  0
ENDBLK
  5
22AB
330
22A3
100
AcDbEntity
 67
     1
  8
0
100
AcDbBlockEnd
  0
BLOCK
  5
24BB
330
24B0
100
AcDbEntity
  8
0
100
AcDbBlockBegin
  2
*D0
 70
     1
 10
0.0
 20
0.0
 30
0.0
  3
*D0
  1

  0
LINE
  5
24D7
330
24B0
100
AcDbEntity
  8
AREA1
 62
     0
100
AcDbLine
 10
-118.9517304148177
 20
77.0345326820364
 30
0.0
 11
-114.3797304148145
 21
77.0345326820364
 31
0.0
  0
LINE
  5
24D8
330
24B0
100
AcDbEntity
  8
AREA1
 62
     0
100
AcDbLine
 10
-118.9517304148145
 20
78.5345326820364
 30
0.0
 11
-114.3797304148145
 21
78.5345326820364
 31
0.0
  0
LINE
  5
24D9
330
24B0
100
AcDbEntity
  8
AREA1
 62
     0
100
AcDbLine
 10
-118.9517304148145
 20
75.0345326820364
 30
0.0
 11
-118.9517304148145
 21
73.03453268203639
 31
0.0
  0
LINE
  5
24DA
330
24B0
100
AcDbEntity
  8
AREA1
 62
     0
100
AcDbLine
 10
-118.9517304148145
 20
80.53453268203639
 30
0.0
 11
-118.9517304148145
 21
82.53453268203641
 31
0.0
  0
MTEXT
  5
24DB
330
24B0
100
AcDbEntity
  8
AREA1
 62
     0
100
AcDbMText
 10
-113.0407366757038
 20
77.99479770709443
 30
0.0
 40
2.0
 41
0.0
 71
     5
 72
     1
  1
\A1;1.50 [1/16]
 11
0.0000000000000001
 21
1.0
 31
0.0
1001
ACAD
1000
MTEXTBEGIN
1070
    73
1070
     1
1070
    44
1040
1.0
1070
    74
1070
     0
1000
MTEXTEND
  0
SOLID
  5
24DC
330
24B0
100
AcDbEntity
  8
AREA1
 62
     0
100
AcDbTrace
 10
-119.2850637481478
 20
75.0345326820364
 30
0.0
 11
-118.6183970814812
 21
75.0345326820364
 31
0.0
 12
-118.9517304148145
 22
77.0345326820364
 32
0.0
 13
-118.9517304148145
 23
77.0345326820364
 33
0.0
  0
SOLID
  5
24DD
330
24B0
100
AcDbEntity
  8
AREA1
 62
     0
100
AcDbTrace
 10
-119.2850637481478
 20
80.53453268203639
 30
0.0
 11
-118.6183970814812
 21
80.53453268203639
 31
0.0
 12
-118.9517304148145
 22
78.5345326820364
 32
0.0
 13
-118.9517304148145
 23
78.5345326820364
 33
0.0
  0
POINT
  5
24DE
330
24B0
100
AcDbEntity
  8
DEFPOINTS
 62
     0
100
AcDbPoint
 10
-120.5392304148176
 20
77.0345326820364
 30
0.0000000000000004
  0
POINT
  5
24DF
330
24B0
100
AcDbEntity
  8
DEFPOINTS
 62
     0
100
AcDbPoint
 10
-120.5392304148145
 20
78.5345326820364
 30
0.0
  0
POINT
  5
24E0
330
24B0
100
AcDbEntity
  8
DEFPOINTS
 62
     0
100
AcDbPoint
 10
-118.9517304148145
 20
78.5345326820364
 30
0.0
  0
ENDBLK
  5
24BC
330
24B0
100
AcDbEntity
  8
0
100
AcDbBlockEnd
  0
BLOCK
  5
24C8
330
24BD
100
AcDbEntity
  8
0
100
AcDbBlockBegin
  2
*D1
 70
     1
 10
0.0
 20
0.0
 30
0.0
  3
*D1
  1

  0
LINE
  5
24E1
330
24BD
100
AcDbEntity
  8
AREA1
 62
     0
100
AcDbLine
 10
-176.5392304148218
 20
80.12203268215291
 30
0.0
 11
-176.5392304148218
 21
87.98430041789849
 31
0.0
  0
LINE
  5
24E2
330
24BD
100
AcDbEntity
  8
AREA1
 62
     0
100
AcDbLine
 10
-120.5392304148145
 20
80.1220326820364
 30
0.0
 11
-120.5392304148145
 21
87.98430041789849
 31
0.0
  0
LINE
  5
24E3
330
24BD
100
AcDbEntity
  8
AREA1
 62
     0
100
AcDbLine
 10
-174.5392304148218
 20
83.41230041789849
 30
0.0
 11
-165.766981551893
 21
83.41230041789849
 31
0.0
  0
LINE
  5
24E4
330
24BD
100
AcDbEntity
  8
AREA1
 62
     0
100
AcDbLine
 10
-122.5392304148145
 20
83.41230041789849
 30
0.0
 11
-135.8616482185597
 21
83.41230041789849
 31
0.0
  0
MTEXT
  5
24E5
330
24BD
100
AcDbEntity
  8
AREA1
 62
     0
100
AcDbMText
 10
-150.8143148852264
 20
83.41230041789849
 30
0.0
 40
2.0
 41
0.0
 71
     5
 72
     1
  1
\A1;56.00 [2 13/64]
1001
ACAD
1000
MTEXTBEGIN
1070
    73
1070
     1
1070
    44
1040
1.0
1070
    74
1070
     0
1000
MTEXTEND
  0
SOLID
  5
24E6
330
24BD
100
AcDbEntity
  8
AREA1
 62
     0
100
AcDbTrace
 10
-174.5392304148218
 20
83.74563375123182
 30
0.0
 11
-174.5392304148218
 21
83.07896708456516
 31
0.0
 12
-176.5392304148218
 22
83.41230041789849
 32
0.0
 13
-176.5392304148218
 23
83.41230041789849
 33
0.0
  0
SOLID
  5
24E7
330
24BD
100
AcDbEntity
  8
AREA1
 62
     0
100
AcDbTrace
 10
-122.5392304148145
 20
83.74563375123182
 30
0.0
 11
-122.5392304148145
 21
83.07896708456516
 31
0.0
 12
-120.5392304148145
 22
83.41230041789849
 32
0.0
 13
-120.5392304148145
 23
83.41230041789849
 33
0.0
  0
POINT
  5
24E8
330
24BD
100
AcDbEntity
  8
DEFPOINTS
 62
     0
100
AcDbPoint
 10
-176.5392304148218
 20
78.53453268215289
 30
-1.000587891380485
  0
POINT
  5
24E9
330
24BD
100
AcDbEntity
  8
DEFPOINTS
 62
     0
100
AcDbPoint
 10
-120.5392304148145
 20
78.5345326820364
 30
-2.85
  0
POINT
  5
24EA
330
24BD
100
AcDbEntity
  8
DEFPOINTS
 62
     0
100
AcDbPoint
 10
-120.5392304148145
 20
83.41230041789849
 30
0.0
  0
ENDBLK
  5
24C9
330
24BD
100
AcDbEntity
  8
0
100
AcDbBlockEnd
  0
BLOCK
  5
24D5
330
24CA
100
AcDbEntity
  8
0
100
AcDbBlockBegin
  2
*D2
 70
     1
 10
0.0
 20
0.0
 30
0.0
  3
*D2
  1

  0
LINE
  5
24EB
330
24CA
100
AcDbEntity
  8
AREA2
 62
     0
100
AcDbLine
 10
-130.5910702430145
 20
36.2
 30
0.0
 11
-111.9429696926059
 21
36.19999999999999
 31
0.0
  0
LINE
  5
24EC
330
24CA
100
AcDbEntity
  8
AREA2
 62
     0
100
AcDbLine
 10
-118.9517304148145
 20
2.85
 30
0.0
 11
-111.9429696926059
 21
2.849999999999998
 31
0.0
  0
LINE
  5
24ED
330
24CA
100
AcDbEntity
  8
AREA2
 62
     0
100
AcDbLine
 10
-116.5149696926059
 20
34.2
 30
0.0
 11
-116.5149696926059
 21
33.21605826643831
 31
0.0
  0
LINE
  5
24EE
330
24CA
100
AcDbEntity
  8
AREA2
 62
     0
100
AcDbLine
 10
-116.5149696926059
 20
4.849999999999998
 30
0.0
 11
-116.5149696926059
 21
5.310724933104975
 31
0.0
  0
MTEXT
  5
24EF
330
24CA
100
AcDbEntity
  8
AREA2
 62
     0
100
AcDbMText
 10
-116.5149696926059
 20
19.26339159977162
 30
0.0
 40
2.0
 41
0.0
 71
     5
 72
     1
  1
\A1;33.35 [1 5/16]
 11
0.0000000000000001
 21
1.0
 31
0.0
1001
ACAD
1000
MTEXTBEGIN
1070
    73
1070
     1
1070
    44
1040
1.0
1070
    74
1070
     0
1000
MTEXTEND
  0
SOLID
  5
24F0
330
24CA
100
AcDbEntity
  8
AREA2
 62
     0
100
AcDbTrace
 10
-116.8483030259392
 20
34.2
 30
0.0
 11
-116.1816363592726
 21
34.2
 31
0.0
 12
-116.5149696926059
 22
36.2
 32
0.0
 13
-116.5149696926059
 23
36.2
 33
0.0
  0
SOLID
  5
24F1
330
24CA
100
AcDbEntity
  8
AREA2
 62
     0
100
AcDbTrace
 10
-116.8483030259392
 20
4.849999999999998
 30
0.0
 11
-116.1816363592726
 21
4.849999999999998
 31
0.0
 12
-116.5149696926059
 22
2.849999999999999
 32
0.0
 13
-116.5149696926059
 23
2.849999999999999
 33
0.0
  0
POINT
  5
24F2
330
24CA
100
AcDbEntity
  8
DEFPOINTS
 62
     0
100
AcDbPoint
 10
-132.1785702430145
 20
36.2
 30
0.0
  0
POINT
  5
24F3
330
24CA
100
AcDbEntity
  8
DEFPOINTS
 62
     0
100
AcDbPoint
 10
-120.5392304148145
 20
2.85
 30
0.0000000000242295
  0
POINT
  5
24F4
330
24CA
100
AcDbEntity
  8
DEFPOINTS
 62
     0
100
AcDbPoint
 10
-116.5149696926059
 20
2.849999999999999
 30
0.0
  0
ENDBLK
  5
24D6
330
24CA
100
AcDbEntity
  8
0
100
AcDbBlockEnd
  0
ENDSEC
  0
SECTION
  2
ENTITIES
  0
ATTDEF
  5
2498
330
478
100
AcDbEntity
  8
ATTRIBUTES
100
AcDbText
 10
-148.8164818293328
 20
77.07854448474236
 30
2.853186970159141
 40
0.1101860314508167
  1
ALLEN-BRADLEY
 50
90.0
100
AcDbAttributeDefinition
  3
MANUFACTURER NAME?
  2
AC_VND_LABEL
 70
     1
  0
ATTDEF
  5
2499
330
478
100
AcDbEntity
  8
ATTRIBUTES
100
AcDbText
 10
-148.5869275971436
 20
77.07854448474236
 30
2.853186970159141
 40
0.1101860314508167
  1
1492-EBJ3
 50
90.0
100
AcDbAttributeDefinition
  3
CATALOG NUMBER?
  2
AC_PART_NO
 70
     1
  0
ATTDEF
  5
249A
330
478
100
AcDbEntity
  8
ATTRIBUTES
100
AcDbText
 10
-148.3573733649544
 20
77.07854448474236
 30
2.853186970159141
 40
0.1101860314508167
  1
End Barrier
 50
90.0
100
AcDbAttributeDefinition
  3
PART DESCRIPTION?
  2
AC_DESCRIPTION
 70
     1
  0
ATTDEF
  5
249B
330
478
100
AcDbEntity
  8
ATTRIBUTES
100
AcDbText
 10
-148.1278191327652
 20
77.07854448474236
 30
2.853186970159141
 40
0.1101860314508167
  1

 50
90.0
100
AcDbAttributeDefinition
  3
DEVICE ID?
  2
DEVICE_ID
 70
     1
  0
ATTDEF
  5
249C
330
478
100
AcDbEntity
  8
ATTRIBUTES
100
AcDbText
 10
-147.898264900576
 20
77.07854448474236
 30
2.853186970159141
 40
0.1101860314508167
  1

 50
90.0
100
AcDbAttributeDefinition
  3
CUSTOMER PART NUMBER?
  2
AC_CPART_NO
 70
     1
  0
ATTDEF
  5
249D
330
478
100
AcDbEntity
  8
ATTRIBUTES
100
AcDbText
 10
-147.6687106683868
 20
77.07854448474236
 30
2.853186970159141
 40
0.1101860314508167
  1

 50
90.0
100
AcDbAttributeDefinition
  3
CUSTOMER NOTE?
  2
AC_NOTE
 70
     1
  0
ATTDEF
  5
249E
330
478
100
AcDbEntity
  8
ATTRIBUTES
100
AcDbText
 10
-147.4391564361976
 20
77.07854448474236
 30
2.853186970159141
 40
0.1101860314508167
  1

 50
90.0
100
AcDbAttributeDefinition
  3
FASTENER DATA?
  2
FASTENER
 70
     1
  0
ATTDEF
  5
249F
330
478
100
AcDbEntity
  8
ATTRIBUTES
100
AcDbText
 10
-147.2096022040084
 20
77.07854448474236
 30
2.853186970159141
 40
0.1101860314508167
  1
MM
 50
90.0
100
AcDbAttributeDefinition
  3
UNIT OF SCALE?
  2
AC_SCALE_UNIT
 70
     1
  0
ATTDEF
  5
24A0
330
478
100
AcDbEntity
  8
ATTRIBUTES
100
AcDbText
 10
-146.9800479718192
 20
77.07854448474236
 30
2.853186970159141
 40
0.1101860314508167
  1
0
 50
90.0
100
AcDbAttributeDefinition
  3
VIEW CODE?
  2
AC_VIEW_CODE
 70
     1
  0
LINE
  5
24A1
330
478
100
AcDbEntity
  8
SCALE
100
AcDbLine
 10
-211.2345873966892
 20
74.99424161635144
 30
2.850000000000001
 11
-185.8345873966891
 21
74.99424161635144
 31
2.850000000000001
  0
LINE
  5
24A2
330
478
100
AcDbEntity
  8
SCALE
100
AcDbLine
 10
-185.8345873966891
 20
72.45424161635146
 30
2.850000000000001
 11
-185.8345873966891
 21
77.53424161635148
 31
2.850000000000001
  0
LINE
  5
24A3
330
478
100
AcDbEntity
  8
SCALE
100
AcDbLine
 10
-211.2345873966892
 20
72.45424161635146
 30
2.850000000000001
 11
-211.2345873966892
 21
77.53424161635148
 31
2.850000000000001
  0
LINE
  5
24A4
330
478
100
AcDbEntity
  8
SCALE
100
AcDbLine
 10
-211.2345873966891
 20
80.18066535364468
 30
2.850000000000001
 11
-211.2345873966891
 21
85.26066535364467
 31
2.850000000000001
  0
LINE
  5
24A5
330
478
100
AcDbEntity
  8
SCALE
100
AcDbLine
 10
-201.2346073966891
 20
80.18066535364468
 30
2.850000000000001
 11
-201.2346073966891
 21
85.26066535364467
 31
2.850000000000001
  0
LINE
  5
24A6
330
478
100
AcDbEntity
  8
SCALE
100
AcDbLine
 10
-211.2345873966891
 20
82.72066535364468
 30
2.850000000000001
 11
-201.2346073966891
 21
82.72066535364468
 31
2.850000000000001
  0
TEXT
  5
24A7
330
478
100
AcDbEntity
  8
SCALE
100
AcDbText
 10
-209.7252646559152
 20
83.88245234360718
 30
2.850000000000001
 40
1.587499999999999
  1
10 mm
100
AcDbText
  0
TEXT
  5
24A8
330
478
100
AcDbEntity
  8
SCALE
100
AcDbText
 10
-203.6366946636011
 20
76.74807847883077
 30
2.850000000000001
 40
1.587499999999999
  1
[1 Inch]
100
AcDbText
  0
TEXT
  5
24A9
330
478
100
AcDbEntity
  8
SCALE
100
AcDbText
 10
-211.4285033165598
 20
88.25420296849655
 30
2.850000000000001
 40
1.587499999999999
  1
SCALE:
100
AcDbText
  0
3DSOLID
  5
24AB
330
478
100
AcDbEntity
  8
0
100
AcDbModelerGeometry
 70
     1
  1
noi mno n o         
  1
=0;& {n {m {rn {rn |
  1
-:9@)+r3(;r>++-6= {rn {rn {rn {o {l {k |
  1
3*2/ {j {rn {i {o |
  1
-:961:2:1+ {rn o o o o oqmhilghifnkfhgomhl lo o o m o |
  1
):-+:'@+:2/3>+: {rn l o n g |
  1
-:9@)+r3(;r>++-6= {rn {rn {rn {m {l {k |
  1
,7:33 {h {rn {rn {g {m |
  1
-:9@)+r3(;r>++-6= {rn {rn {rn {i {l {k |
  1
9><: {f {no {nn {i {rn {nm -:):-,:; ,6183: |
  1
92:,7r3(;r>++-6= {rn {nl {rn {g |
  1
9><: {nk {nj {ni {i {rn {nh 90-(>-; ,6183: |
  1
300/ {rn {rn {ng {g |
  1
/3>1:r,*-9><: {rn rnnhqhlfmloknkhgkil hgqjlkjlmigmolojgh lhqgihj rmqogoljghgomogkjhg:ronm rn mqmmokkiokfmjolnln:roni n rmqogoljghgomogkjhg:ronm o o V V V V |
  1
-:9@)+r3(;r>++-6= {rn {rn {f {g {l {k |
  1
92:,7r3(;r>++-6= {rn {nf {rn {no |
  1
9><: {mo {mn {mm {i {rn {ml -:):-,:; ,6183: |
  1
300/ {rn {rn {mk {no |
  1
/3>1:r,*-9><: {rn rnnhqhlfmloknkhghhi hhqolkjlmigmolojgh lhqgihj rmqogoljghgomogkjhg:ronm rn mqmmokkiokfmjolnln:roni n rmqogoljghgomogkjhg:ronm o o V V V V |
  1
<0:;8: {rn {mj {mi {mh {mg n {nn {rn |
  1
-:9@)+r3(;r>++-6= {rn {rn {nk {no {l {k |
  1
92:,7r3(;r>++-6= {rn {mf {rn {nj |
  1
9><: {lo {ln {lm {i {rn {ll -:):-,:; ,6183: |
  1
300/ {rn {rn {lk {nj |
  1
<01:r,*-9><: {rn rngiqoggkikhnminklg hgqiofjlmigmnhmhh niqllngfljklmooool rmqogoljghgomogkjhg:ronm rn mqmmokkiokfmjolnln:roni rnjqoonhfjikkoflmon lqnmoflgkjlhinjfk:ronn nqmoljgfkolhifjjlk n V V o n o V V V V |
  1
<0:;8: {rn {lj {li {lh {lg n {ni {rn |
  1
<0:;8: {rn {lf {ng {ko {kn n {nn {rn |
  1
<0:;8: {rn {ng {km {lk {kl o {nn {rn |
  1
<0:;8: {rn {kk {kj {ng {mg o {ki {rn |
  1
:;8: {kh {kg {kf {ng {jo o |
  1
-:9@)+r3(;r>++-6= {rn {rn {mo {nj {l {k |
  1
92:,7r3(;r>++-6= {rn {jn {rn {mn |
  1
9><: {jm {jl {jk {i {rn {jj 90-(>-; ,6183: |
  1
300/ {rn {rn {ji {mn |
  1
/3>1:r,*-9><: {rn rnhiqjlfmloknkgnhgk hiqfjfjlmigmnjmgfh mqhjhjmflfkjhnjoni n rmqogoljghgomogkjhg:ronm o mqogoljghgomogkjhg:ronm n rmqmmokkiokfmjolnln:roni o V V V V |
  1
<0:;8: {rn {jh {jg {mi {kl n {mm {rn |
  1
<0:;8: {rn {jf {mk {io {in o {ni {rn |
  1
<0:;8: {rn {mk {im {il {ik o {ni {rn |
  1
<0:;8: {rn {jg {jh {mk {lg o {mm {rn |
  1
:;8: {ij {ii {ih {mk {ig o |
  1
<0:;8: {rn {if {mj {ho {hn n {nn {rn |
  1
<0:;8: {rn {hm {hl {mj {kn o {hk {rn |
  1
:;8: {hj {hi {kg {mj {hh o |
  1
<0:;8: {rn {mi {hg {hf {go n {nn {rn |
  1
:;8: {gn {gm {kf {mi {gl o |
  1
<0:;8: {rn {il {mh {jg {gk o {ki {rn |
  1
<0:;8: {rn {mh {il {hm {gj n {ki {rn |
  1
300/ {rn {rn {kk {gi |
  1
/+36,+r3(;r>++-6= {rn {rn {rn {mg |
  1
):-+:' {rn {mg {gh |
  1
):-+:' {rn {mg {gg |
  1
,+->687+r<*-): {rn rnikqgffgfojgiiofim hgqjlkjlmigmnmgiff liqnffffffffffjoj roqhohnoihgnngijkhig nqkhofijlghnkinlom:ronm roqhohnoihgnngijkhig V V |
  1
-:9@)+r3(;r>++-6= {rn {rn {lo {mn {l {k |
  1
92:,7r3(;r>++-6= {rn {gf {rn {ln |
  1
9><: {fo {fn {fm {i {rn {fl 90-(>-; ,6183: |
  1
300/ {rn {rn {fk {ln |
  1
/3>1:r,*-9><: {rn rnhfqllfmloknkgnhgj hiqfjfjlmigmnjghmk mqgjoooooooooooon rkqinflmkklkjlhohoj:romg rmqmmokkiokfmjolnln:roni rn mqogoljghgomogkjhg:ronm n rmqmmokkiokfmjolnln:roni o V V V V |
  1
<0:;8: {rn {io {hf {fj {fi o {lm {rn |
  1
<0:;8: {rn {lh {lk {fh {fg o {mm {rn |
  1
<0:;8: {rn {lk {lh {kk {gk n {mm {rn |
  1
<0:;8: {rn {ff {lj {noo {non n {ni {rn |
  1
<0:;8: {rn {fh {ji {lj {in n {lm {rn |
  1
:;8: {nom {ii {nol {lj {nok o |
  1
<0:;8: {rn {li {noj {noi {noh o {ni {rn |
  1
<0:;8: {rn {kj {kk {li {ik n {ki {rn |
  1
:;8: {nog {nof {ih {li {nno o |
  1
/+36,+r3(;r>++-6= {rn {rn {rn {lg |
  1
):-+:' {rn {lg {nnn |
  1
):-+:' {rn {lg {nnm |
  1
:336/,:r<*-): {rn rngiqoggkikhnminhhn hhqolkjlmigmnhmhih niqllngfljklmooool rmqogoljghgomogkjhg:ronm rn mqmmokkiokfmjolnln:roni rnjqokfffffffffffff lqnloflffikmnlhmgh:ronn o n V V |
  1
<0:;8: {rn {nnl {lf {nnk {nnj o {nn {rn |
  1
<0:;8: {rn {nni {nnh {lf {hn o {nng {rn |
  1
:;8: {nnf {nmo {hi {lf {nmn o |
  1
<0:;8: {rn {noi {ko {kj {gj o {hk {rn |
  1
<0:;8: {rn {ko {noi {nni {nmm n {hk {rn |
  1
300/ {rn {rn {hm {nml |
  1
/+36,+r3(;r>++-6= {rn {rn {rn {kn |
  1
):-+:' {rn {kn {nmk |
  1
,+->687+r<*-): {rn rnlmqnhgjhomklonkjg hgqjlkjlmigmoioimf liqmoooooooooooool rn mqogoljghgomogkjhg:ronm o V V |
  1
<0:;8: {rn {km {nnl {fk {nmj o {nn {rn |
  1
<0:;8: {rn {ji {fh {km {go o {lm {rn |
  1
:;8: {nmi {gm {nmh {km {nmg o |
  1
/+36,+r3(;r>++-6= {rn {rn {rn {kl |
  1
):-+:' {rn {go {nmf |
  1
:336/,:r<*-): {rn rngiqoggkikhnminkjj hgqjlkjlmigmnhmhih niqllngfljklmooool rmqogoljghgomogkjhg:ronm rn mqmmokkiokfmjolnln:roni rnjqokfffffffffffff lqnloflffikmnlhmgh:ronn o n V V |
  1
:;8: {nlo {kf {ih {jg {nln o |
  1
:;8: {nlm {kg {nof {hm {nll o |
  1
9><: {nlk {rn {ki {i {rn {nlj -:):-,:; ,6183: |
  1
/061+ {rn rnikqgffgfojgiinmfn hgqjlkjlmigmnmgiff liqnffffffffffgljk |
  1
/061+ {rn rnhkqgoihhkmlnfljng hgqjlkjlmigmnkfloj miqmflnniljkinoofm |
  1
-:9@)+r3(;r>++-6= {rn {rn {jm {ln {l {k |
  1
92:,7r3(;r>++-6= {rn {nli {rn {jl |
  1
9><: {nlh {nlg {nlf {i {rn {nko -:):-,:; ,6183: |
  1
300/ {rn {rn {nkn {jl |
  1
/3>1:r,*-9><: {rn rnmoqjlfmloknkgnhgk hiqfjfjlmigmolilfh mqhjhjmflfkjhnjoni n rmqogoljghgomogkjhg:ronm o mqogoljghgomogkjhg:ronm n rmqmmokkiokfmjolnln:roni o V V V V |
  1
<0:;8: {rn {nkm {fj {hg {nmj n {jk {rn |
  1
<0:;8: {rn {fk {noo {ji {fi n {jk {rn |
  1
:;8: {nkl {nmh {nol {ji {nkk o |
  1
<0:;8: {rn {hf {io {jh {fg n {lm {rn |
  1
:;8: {nkj {gm {ii {jh {nki o |
  1
<0:;8: {rn {nkh {jf {nkg {nkf n {ni {rn |
  1
<0:;8: {rn {fj {nkm {jf {non o {jk {rn |
  1
:;8: {njo {njn {nol {jf {njm o |
  1
/+36,+r3(;r>++-6= {rn {rn {rn {in |
  1
):-+:' {rn {in {njl |
  1
,+->687+r<*-): {rn rnhiqjlfmloknkgnhif hhqolkjlmigmnjmf kqiffknmnogjhoooni rkqinflmkklkjlhohoj:romg rmqmmokkiokfmjolnln:roni rn V V |
  1
<0:;8: {rn {im {nkh {njk {njj o {ni {rn |
  1
<0:;8: {rn {hl {hm {im {noh n {hk {rn |
  1
:;8: {nji {njh {nof {im {njg o |
  1
/+36,+r3(;r>++-6= {rn {rn {rn {ik |
  1
):-+:' {rn {noh {njf |
  1
,+->687+r<*-): {rn rnikqgffgfojgiinmhk hhqolkjlmigmnmgiff liqnffffffffffjoj roqhohnoihgnngijkhig nqkhoghghfnjkojoih:ronm roqhohnoihgnngijkhig V V |
  1
/061+ {rn rnhiqjlfmloknkhflkm hhqolkjlmigmnjmf kqiffknmnogjgnojjg |
  1
/061+ {rn rnhkqgoihhkmlnflgmg hhqolkjlmigmnkfloj miqmflnniljkinoofm |
  1
<0:;8: {rn {hg {if {nkn {nio o {nn {rn |
  1
<0:;8: {rn {nin {nim {if {nnj n {nlf {rn |
  1
:;8: {nil {nmo {nik {if {nij o |
  1
<0:;8: {rn {njk {ho {hl {nmm o {nng {rn |
  1
<0:;8: {rn {ho {njk {nin {nii n {nng {rn |
  1
300/ {rn {rn {nni {nlg |
  1
/+36,+r3(;r>++-6= {rn {rn {rn {hn |
  1
):-+:' {rn {hn {nih |
  1
,+->687+r<*-): {rn rnmmqmhnigijfhiikjh hgqjlkjlmigmokooof miqmflnniljkijoooh roqhohnoihgnngijkhig nqkhnmhfkojilhgih:ronm oqhohnoihgnngijkhig V V |
  1
:;8: {nig {hi {njh {nni {nif o |
  1
9><: {nho {gi {hk {i {rn {nhn -:):-,:; ,6183: |
  1
/061+ {rn rnlmqnhgjhomklonkjg hgqjlkjlmigmoioimf liqmoooooooooooool |
  1
:;8: {nhm {nhl {nmh {hg {nhk o |
  1
/+36,+r3(;r>++-6= {rn {rn {rn {go |
  1
):-+:' {rn {nmj {nhj |
  1
,+->687+r<*-): {rn rnhiqjlfmloknkgnkjh hgqjlkjlmigmnjmf kqiffknmnogjhoooni rkqinflmkklkjlhohoj:romg rmqmmokkiokfmjolnln:roni rn V V |
  1
/061+ {rn rnhiqjlfmloknkhfolm hgqjlkjlmigmnjmf kqiffknmnogjgnojjg |
  1
/+36,+r3(;r>++-6= {rn {rn {rn {gk |
  1
,+->687+r<*-): {rn rnhkqgoihhkmlnfnkjh hgqjlkjlmigmnkfloj miqmflnniljkioooom rmqogoljghgomogkjhg:ronm rn mqmmokkiokfmjolnln:roni V V |
  1
/+36,+r3(;r>++-6= {rn {rn {rn {gj |
  1
,+->687+r<*-): {rn rnikqgffgfojgiinkji hgqjlkjlmigmnmgiff liqmoooooooooooool rmqogoljghgomogkjhg:ronm rn mqmmokkiokfmjolnln:roni V V |
  1
92:,7r3(;r>++-6= {rn {nhi {rn {gi |
  1
/3>1:r,*-9><: {rn rnhjqlomnngknkngjlk hiqfjfjlmigmnjolmj mjqhfhhhmnhmllmjok oqhohnoihgnngijkhjh rnqkhnnfmgnoolmmkll:ronm roqhohnoihgnngijkhjh mqogoljghgomogkjhg:ronm n rmqmmokkiokfmjolnln:roni o V V V V |
  1
-:9@)+r3(;r>++-6= {rn {rn {fo {jl {l {k |
  1
92:,7r3(;r>++-6= {rn {nhh {rn {fn |
  1
9><: {nhg {nml {nng {i {rn {nhf -:):-,:; ,6183: |
  1
300/ {rn {rn {nnk {fn |
  1
<01:r,*-9><: {rn rnnoqfgfffinnhonkkn hgqiofjlmigmonijlj niqllngfljklmooool rmqogoljghgomogkjhg:ronm rn mqmmokkiokfmjolnln:roni njqoonhfjikkofgoji rlqnmoggjoolijjghj:ronn nqmoljgfkolhofomm n V V o n o V V V V |
  1
<0:;8: {rn {ngo {ngn {nnl {nio n {fm {rn |
  1
<0:;8: {rn {noo {fk {ngn {ngm o {jk {rn |
  1
/+36,+r3(;r>++-6= {rn {rn {rn {fi |
  1
,+->687+r<*-): {rn rnhiqjlfmloknkgnkjh hgqjlkjlmigmnjmf mqgjoooooooooooooj rmqogoljghgomogkjhg:ronm rn mqmmokkiokfmjolnln:roni V V |
  1
/+36,+r3(;r>++-6= {rn {rn {rn {fg |
  1
,+->687+r<*-): {rn rnhiqjlfmloknkhnkjj hgqjlkjlmigmnjmf kqiffknmnogjhoooni rmqogoljghgomogkjhg:ronm rn mqmmokkiokfmjolnln:roni V V |
  1
<0:;8: {rn {noj {ff {ngl {ngk n {ni {rn |
  1
<0:;8: {rn {ngn {ngo {ff {nkf o {fm {rn |
  1
:;8: {ngj {ngi {njn {ff {ngh o |
  1
/+36,+r3(;r>++-6= {rn {rn {rn {non |
  1
):-+:' {rn {non {ngg |
  1
,+->687+r<*-): {rn rnmoqjlfmloknkgnhif hhqolkjlmigmolilff mqgjoooooooooooon rn mqogoljghgomogkjhg:ronm o V V |
  1
/061+ {rn rnhiqjlfmloknkgnhif hhqolkjlmigmnjmf mqgjoooooooooooon |
  1
<0:;8: {rn {nnh {nni {noj {njj n {nng {rn |
  1
:;8: {ngf {nfo {njh {noj {nfn o |
  1
/+36,+r3(;r>++-6= {rn {rn {rn {noh |
  1
):-+:' {rn {njj {nfm |
  1
,+->687+r<*-): {rn rnlmqnhgjhomklonhh hhqolkjlmigmoioimf liqmoooooooooooool rn mqogoljghgomogkjhg:ronm o V V |
  1
/061+ {rn rnikqgffgfojgiiniok hhqolkjlmigmnmgiff liqnffffffffffgljk |
  1
:;8: {nfl {nik {nhl {nnl {nfk o |
  1
<0:;8: {rn {ngl {nnk {nnh {nii o {nlf {rn |
  1
<0:;8: {rn {nnk {ngl {ngo {nfj n {nlf {rn |
  1
/+36,+r3(;r>++-6= {rn {rn {rn {nnj |
  1
):-+:' {rn {nnj {nfi |
  1
:336/,:r<*-): {rn rnnoqfgfffinnhonkji hgqjlkjlmigmonijll niqllngfljklmooool rmqogoljghgomogkjhg:ronm rn mqmmokkiokfmjolnln:roni rnjqojoooooooooooon lqnloflffikmnlhmfl:ronn o n V V |
  1
:;8: {nfh {nmo {nfo {nin {nfg o |
  1
/061+ {rn rnmmqmhnigijfhifmln hgqjlkjlmigmokooof miqmflnniljkinnhkk |
  1
/+36,+r3(;r>++-6= {rn {rn {rn {nmm |
  1
,+->687+r<*-): {rn rnlmqnhgjhomklonkjg hgqjlkjlmigmoioinj liqmoooooooooooool rmqogoljghgomogkjhg:ronm rn mqmmokkiokfmjolnln:roni V V |
  1
92:,7r3(;r>++-6= {rn {nff {rn {nml |
  1
/3>1:r,*-9><: {rn rniiqjljfjiiolhfhgk hiqfjfjlmigmnlmofm liqmoooooooooooool rkqinflmkklkjlhohoj:romg rmqmmokkiokfmjolnln:roni rn mqogoljghgomogkjhg:ronm n rmqmmokkiokfmjolnln:roni o V V V V |
  1
/+36,+r3(;r>++-6= {rn {rn {rn {nmj |
  1
):-+:' {rn {nio {moo |
  1
,+->687+r<*-): {rn rnmoqjlfmloknkgnkjh hgqjlkjlmigmoliknk mqgjoooooooooooooj rn mqogoljghgomogkjhg:ronm o V V |
  1
/061+ {rn rnhiqjlfmloknkgnkjh hgqjlkjlmigmnjmf mqgjoooooooooooooj |
  1
-:9@)+r3(;r>++-6= {rn {rn {nlk {gi {l {k |
  1
-:9@)+r3(;r>++-6= {rn {rn {nlh {fn {l {k |
  1
92:,7r3(;r>++-6= {rn {mon {rn {nlg |
  1
/3>1:r,*-9><: {rn rnlmqihlfnkkmjmgjlj hiqfjfjlmigmoinikf liqifjlkkngmmihkfg roqhohnoihgnngijkhjh nqkhoghghfnjkojoij:ronm roqhohnoihgnngijkhjh rmqogoljghgomogkjhg:ronm rn mqmmokkiokfmjolnln:roni o V V V V |
  1
<0:;8: {rn {nkg {nkn {nim {nfj o {fm {rn |
  1
<0:;8: {rn {nkn {nkg {nkm {ngm n {fm {rn |
  1
:;8: {mom {nhl {njn {nkm {mol o |
  1
<0:;8: {rn {nim {nin {nkh {ngk o {nlf {rn |
  1
:;8: {mok {nfo {ngi {nkh {moj o |
  1
/+36,+r3(;r>++-6= {rn {rn {rn {nkf |
  1
):-+:' {rn {nkf {moi |
  1
,+->687+r<*-): {rn rnmoqjlfmloknkgnhif hhqolkjlmigmolilff kqiffknmnogjhoooni rkqinflmkklkjlhohoj:romg rmqmmokkiokfmjolnln:roni rn V V |
  1
/061+ {rn rnmoqjlfmloknkgnhif hhqolkjlmigmolilff mqgjoooooooooooon |
  1
/+36,+r3(;r>++-6= {rn {rn {rn {njj |
  1
):-+:' {rn {ngk {moh |
  1
,+->687+r<*-): {rn rnmmqmhnigijfhiihh hhqolkjlmigmokooof miqmflnniljkijoooh roqhohnoihgnngijkhig nqkhnnfmgnoolmmklj:ronm oqhohnoihgnngijkhig V V |
  1
/061+ {rn rnlmqnhgjhomklonhh hhqolkjlmigmoioimf liqmoooooooooooool |
  1
/+36,+r3(;r>++-6= {rn {rn {rn {nio |
  1
,+->687+r<*-): {rn rnmoqjlfmloknkgnkjh hgqjlkjlmigmolilff kqiffknmnogjhoooni rkqinflmkklkjlhohoj:romg rmqmmokkiokfmjolnln:roni rn V V |
  1
:;8: {mog {nik {ngi {ngo {mof o |
  1
/061+ {rn rnmoqjlfmloknkgojj hgqjlkjlmigmolilff kqiffknmnogjhhhmlk |
  1
/+36,+r3(;r>++-6= {rn {rn {rn {nii |
  1
,+->687+r<*-): {rn rnmmqmhnigijfhhnkji hgqjlkjlmigmokooof miqmflnniljkioooom rmqogoljghgomogkjhg:ronm rn mqmmokkiokfmjolnln:roni V V |
  1
-:9@)+r3(;r>++-6= {rn {rn {nho {nml {l {k |
  1
/061+ {rn rnmoqjlfmloknkgnkjh hgqjlkjlmigmolilff mqgjoooooooooooooj |
  1
-:9@)+r3(;r>++-6= {rn {rn {nhg {nlg {l {k |
  1
/+36,+r3(;r>++-6= {rn {rn {rn {ngm |
  1
,+->687+r<*-): {rn rnmoqjlfmloknkgnkjh hgqjlkjlmigmolilff mqgjoooooooooooooj rmqogoljghgomogkjhg:ronm rn mqmmokkiokfmjolnln:roni V V |
  1
/+36,+r3(;r>++-6= {rn {rn {rn {ngk |
  1
:336/,:r<*-): {rn rnnoqfgfffinnhonhig hhqolkjlmigmonijll niqllngfljklmooool rmqogoljghgomogkjhg:ronm rn mqmmokkiokfmjolnln:roni rnjqojoooooooooooon lqnloflffikmnlhmfl:ronn o n V V |
  1
/061+ {rn rnmoqjlfmloknkgogil hhqolkjlmigmolilff kqiffknmnogjhhhmlk |
  1
/061+ {rn rnmmqmhnigijfhifjkk hhqolkjlmigmokooof miqmflnniljkinnhkk |
  1
/+36,+r3(;r>++-6= {rn {rn {rn {nfj |
  1
,+->687+r<*-): {rn rnmoqjlfmloknkgnkjh hgqjlkjlmigmolilff kqiffknmnogjiooooh rmqogoljghgomogkjhg:ronm rn mqmmokkiokfmjolnln:roni V V |
  0
DIMENSION
  5
24AC
330
478
100
AcDbEntity
  8
AREA1
100
AcDbDimension
  2
*D0
 10
-118.9517304148145
 20
78.5345326820364
 30
2.85
 11
-113.0407366757038
 21
77.99479770709443
 31
2.85
 70
   160
  3
ABECAD_3D
100
AcDbAlignedDimension
 13
-120.5392304148176
 23
77.0345326820364
 33
2.850000000000001
 14
-120.5392304148145
 24
78.5345326820364
 34
2.85
 50
90.0
100
AcDbRotatedDimension
1001
ACAD
1000
DSTYLE
1002
{
1070
   140
1040
2.0
1070
    41
1040
2.0
1002
}
  0
DIMENSION
  5
24AD
330
478
100
AcDbEntity
  8
AREA1
100
AcDbDimension
  2
*D1
 10
-120.5392304148145
 20
83.41230041789849
 30
2.85
 11
-150.8143148852264
 21
83.41230041789849
 31
2.85
 70
   160
  3
ABECAD_3D
100
AcDbAlignedDimension
 13
-176.5392304148218
 23
78.53453268215289
 33
1.849412108619515
 14
-120.5392304148145
 24
78.5345326820364
 34
0.0
 50
180.0
100
AcDbRotatedDimension
1001
ACAD
1000
DSTYLE
1002
{
1070
   140
1040
2.0
1070
    41
1040
2.0
1002
}
  0
DIMENSION
  5
24AE
330
478
100
AcDbEntity
  8
AREA2
100
AcDbDimension
  2
*D2
 10
-116.5149696926059
 20
78.53453268206063
 30
2.849999999999999
 11
-116.5149696926059
 21
19.26339159977162
 31
-78.53453268206061
 70
   160
210
-0.0000000000000001
220
-1.0
230
0.0
  3
ABECAD_3D
100
AcDbAlignedDimension
 13
-132.1785702430145
 23
78.53453268206063
 33
36.2
 14
-120.5392304148145
 24
78.5345326820364
 34
2.85
 50
90.0
100
AcDbRotatedDimension
1001
ACAD
1000
DSTYLE
1002
{
1070
    41
1040
2.0
1070
   140
1040
2.0
1002
}
  0
POINT
  5
24AF
330
478
100
AcDbEntity
  8
SNAP_POINTS
100
AcDbPoint
 10
-176.5392304148145
 20
78.53453268215289
 30
2.849999999999999
  0
LWPOLYLINE
  5
2507
330
478
100
AcDbEntity
  8
SCALE
100
AcDbPolyline
 90
        4
 70
     1
 43
0.0
 38
2.85
 10
-212.9405381251813
 20
90.92631338323386
 10
-184.0955661088152
 20
90.92631338323386
 10
-184.0955661088152
 20
69.54943038707227
 10
-212.9405381251813
 20
69.54943038707227
  0
VIEWPORT
  5
22A4
102
{ACAD_XDICTIONARY
360
254D
102
}
330
22A3
100
AcDbEntity
 67
     1
  8
0
100
AcDbViewport
 10
5.289169397200103
 20
4.039398404618191
 30
0.0
 40
14.91427964544735
 41
8.149447233321367
 68
     1
 69
     1
1001
ACAD
1000
MVIEW
1002
{
1070
    16
1010
0.0
1020
0.0
1030
0.0
1010
0.0
1020
0.0
1030
1.0
1040
0.0
1040
8.149447233321367
1040
5.289169397200103
1040
4.039398404618191
1040
50.0
1040
0.0
1040
0.0
1070
     0
1070
  1000
1070
     1
1070
     1
1070
     0
1070
     0
1070
     0
1070
     0
1040
0.0
1040
0.0
1040
0.0
1040
0.5
1040
0.5
1040
0.5
1040
0.5
1070
     0
1002
{
1002
}
1002
}
  0
VIEWPORT
  5
22A5
102
{ACAD_XDICTIONARY
360
254F
102
}
330
22A3
100
AcDbEntity
 67
     1
  8
0
100
AcDbViewport
 10
2.655279694450206
 20
5.99475209634221
 30
0.0
 40
5.265273537481815
 41
4.159771051501081
 68
     2
 69
     2
1001
ACAD
1000
MVIEW
1002
{
1070
    16
1010
0.0
1020
0.0
1030
0.0
1010
0.0
1020
0.0
1030
1.0
1040
0.0
1040
57.04614950972585
1040
-144.3514018773247
1040
78.86015127872193
1040
50.0
1040
0.0
1040
0.0
1070
     0
1070
  1000
1070
     1
1070
     2
1070
     0
1070
     0
1070
     0
1070
     0
1040
0.0
1040
0.0
1040
0.0
1040
0.5
1040
0.5
1040
0.5
1040
0.5
1070
     0
1002
{
1003
AREA2
1002
}
1002
}
  0
VIEWPORT
  5
22A6
102
{ACAD_XDICTIONARY
360
2551
102
}
330
22A3
100
AcDbEntity
 67
     1
  8
0
100
AcDbViewport
 10
2.655279694450205
 20
1.959467345528551
 30
0.0
 40
5.265273537481814
 41
3.910798450126236
 68
     3
 69
     3
1001
ACAD
1000
MVIEW
1002
{
1070
    16
1010
0.0
1020
0.0
1030
0.0
1010
0.0
1020
-1.0
1030
0.0
1040
0.0
1040
53.63202713981184
1040
-144.3512632491427
1040
20.22511657442663
1040
50.0
1040
0.0
1040
0.0
1070
     0
1070
  1000
1070
     1
1070
     2
1070
     0
1070
     0
1070
     0
1070
     0
1040
0.0
1040
0.0
1040
0.0
1040
0.5
1040
0.5
1040
0.5
1040
0.5
1070
     0
1002
{
1003
AREA1
1002
}
1002
}
  0
VIEWPORT
  5
22A7
102
{ACAD_XDICTIONARY
360
2553
102
}
330
22A3
100
AcDbEntity
 67
     1
  8
0
100
AcDbViewport
 10
7.921824282077194
 20
3.60237502911014
 30
0.0
 40
5.26781563777216
 41
7.196613817289414
 68
     4
 69
     4
1001
ACAD
1000
MVIEW
1002
{
1070
    16
1010
0.0
1020
0.0
1030
0.0
1010
1.0
1020
-1.0
1030
1.0
1040
0.0
1040
106.870064224718
1040
-53.32883644037295
1040
133.9843743708318
1040
50.0
1040
0.0
1040
0.0
1070
     0
1070
  1000
1070
     1
1070
     2
1070
     0
1070
     0
1070
     0
1070
     0
1040
0.0
1040
0.0
1040
0.0
1040
0.5
1040
0.5
1040
0.5
1040
0.5
1070
     1
1002
{
1003
AREA1
1003
AREA2
1002
}
1002
}
  0
TEXT
  5
22A8
330
22A3
100
AcDbEntity
 67
     1
  8
0
100
AcDbText
 10
5.478669782259466
 20
7.727515017556658
 30
0.0
 40
0.203125
  1
1492-EBJ3
100
AcDbText
  0
TEXT
  5
22A9
330
22A3
100
AcDbEntity
 67
     1
  8
0
100
AcDbText
 10
5.478669782259466
 20
7.394181684223325
 30
0.0
 40
0.203125
  1
End Barrier
100
AcDbText
  0
ENDSEC
  0
SECTION
  2
OBJECTS
  0
DICTIONARY
  5
46D
330
0
100
AcDbDictionary
  3
ACAD_COLOR
350
981
  3
ACAD_GROUP
350
46E
  3
ACAD_LAYOUT
350
49E
  3
ACAD_MATERIAL
350
980
  3
ACAD_MLINESTYLE
350
47B
  3
ACAD_PLOTSETTINGS
350
49F
  3
ACAD_PLOTSTYLENAME
350
49C
  3
ACAD_TABLESTYLE
350
243C
  3
ACDBHEADERROUNDTRIPXREC
350
2592
  3
ACDBVARIABLEDICTIONARY
350
48D
  3
AUXHDRRNDTRIPDATA
350
253B
  3
BNS_VARIABLES
350
24FB
  3
DWGPROPS
350
2519
  0
DICTIONARY
  5
2443
330
463
100
AcDbDictionary
280
     1
  3
ACAD_LAYERSTATES
360
2444
  0
DICTIONARY
  5
4D7
330
478
100
AcDbDictionary
280
     1
  3
ACAD_LAYOUTSELFREF
360
25B3
  3
ACAD_SORTENTS
360
2506
  0
DICTIONARY
  5
23C2
330
22A3
100
AcDbDictionary
280
     1
  3
ACAD_LAYOUTSELFREF
360
25B4
  0
DICTIONARY
  5
254D
330
22A4
100
AcDbDictionary
280
     1
  3
ACAD_XREC_ROUNDTRIP
360
254E
  0
DICTIONARY
  5
254F
330
22A5
100
AcDbDictionary
280
     1
  3
ACAD_XREC_ROUNDTRIP
360
2550
  0
DICTIONARY
  5
2551
330
22A6
100
AcDbDictionary
280
     1
  3
ACAD_XREC_ROUNDTRIP
360
2552
  0
DICTIONARY
  5
2553
330
22A7
100
AcDbDictionary
280
     1
  3
ACAD_XREC_ROUNDTRIP
360
2554
  0
DICTIONARY
  5
981
102
{ACAD_REACTORS
330
46D
102
}
330
46D
100
AcDbDictionary
  0
DICTIONARY
  5
46E
102
{ACAD_REACTORS
330
46D
102
}
330
46D
100
AcDbDictionary
  0
DICTIONARY
  5
49E
102
{ACAD_REACTORS
330
46D
102
}
330
46D
100
AcDbDictionary
  0
DICTIONARY
  5
980
102
{ACAD_REACTORS
330
46D
102
}
330
46D
100
AcDbDictionary
  0
DICTIONARY
  5
47B
102
{ACAD_REACTORS
330
46D
102
}
330
46D
100
AcDbDictionary
  3
STANDARD
350
47C
  0
DICTIONARY
  5
49F
102
{ACAD_REACTORS
330
46D
102
}
330
46D
100
AcDbDictionary
  0
ACDBDICTIONARYWDFLT
  5
49C
102
{ACAD_REACTORS
330
46D
102
}
330
46D
100
AcDbDictionary
281
     1
  3
Normal
350
49D
100
AcDbDictionaryWithDefault
340
49D
  0
DICTIONARY
  5
243C
102
{ACAD_REACTORS
330
46D
102
}
330
46D
100
AcDbDictionary
  3
STANDARD
350
243D
  0
DICTIONARY
  5
2592
102
{ACAD_REACTORS
330
46D
102
}
330
46D
100
AcDbDictionary
  3
CEPSNTYPE
350
259C
  3
DIMSTYLEDATA
350
25A0
  3
FINGERPRINTGUID
350
259D
  3
HYPERLINKBASE
350
2595
  3
INSUNITS
350
259B
  3
LAYOUTDICT
350
2597
  3
LWETCUNION
350
259A
  3
PLOTSETDICT
350
2598
  3
PLOTSTYLNAMDICT
350
2599
  3
PSVPSCALE
350
259F
  3
PUCSBASE
350
25A3
  3
PUCSORGBACK
350
25A9
  3
PUCSORGBOTTOM
350
25A5
  3
PUCSORGFRONT
350
25A8
  3
PUCSORGLEFT
350
25A6
  3
PUCSORGRIGHT
350
25A7
  3
PUCSORGTOP
350
25A4
  3
PUCSORTHOREF
350
25A1
  3
PUCSORTHOVIEW
350
25A2
  3
STYLESHEET
350
2596
  3
TSTACKALIGN
350
2593
  3
TSTACKSIZE
350
2594
  3
UCSBASE
350
25AC
  3
UCSORGBACK
350
25B2
  3
UCSORGBOTTOM
350
25AE
  3
UCSORGFRONT
350
25B1
  3
UCSORGLEFT
350
25AF
  3
UCSORGRIGHT
350
25B0
  3
UCSORGTOP
350
25AD
  3
UCSORTHOREF
350
25AA
  3
UCSORTHOVIEW
350
25AB
  3
VERSIONGUID
350
259E
  0
DICTIONARY
  5
48D
102
{ACAD_REACTORS
330
46D
102
}
330
46D
100
AcDbDictionary
  3
CTABLESTYLE
350
250E
  3
DIMADEC
350
48E
  3
DIMASSOC
350
6EA
  3
PROJECTNAME
350
2277
  0
XRECORD
  5
253B
102
{ACAD_REACTORS
330
46D
102
}
330
46D
100
AcDbXrecord
310
64000000000000001A000000190027000A000F0000000000150009001500090005009308050093080000000018000000000002000000F27E000000001900000000000000000000001A0000000000000000000000000000000000000000000000EDC75360
  0
DICTIONARY
  5
24FB
102
{ACAD_REACTORS
330
46D
102
}
330
46D
100
AcDbDictionary
  3
ACET-OVERKILL-FUZZ
350
24FC
  3
ACET-OVERKILL-NO-ENDTOEND
350
24FF
  3
ACET-OVERKILL-NO-PARTIAL
350
24FE
  3
ACET-OVERKILL-NO-PLINES
350
24FD
  0
XRECORD
  5
2519
102
{ACAD_REACTORS
330
46D
102
}
330
46D
100
AcDbXrecord
  1
DWGPROPS COOKIE
  2

  3

  4

  6

  7

  8
colin
  9

300
=
301
=
302
=
303
=
304
=
305
=
306
=
307
=
308
=
309
=
 40
0.1449994328703704
 41
2451670.449415046
 42
2453117.393703009
  1

 90
        0
  0
DICTIONARY
  5
2444
102
{ACAD_REACTORS
330
2443
102
}
330
2443
100
AcDbDictionary
  0
XRECORD
  5
25B3
102
{ACAD_REACTORS
330
4D7
102
}
330
4D7
100
AcDbXrecord
340
478
  0
SORTENTSTABLE
  5
2506
102
{ACAD_REACTORS
330
4D7
102
}
330
4D7
100
AcDbSortentsTable
330
478
331
24A7
  5
24A7
331
24AD
  5
2504
331
2507
  5
24AC
331
24A4
  5
24A4
331
24A1
  5
24A1
331
249E
  5
249E
331
249B
  5
249B
331
2498
  5
2498
331
249C
  5
249C
331
24A5
  5
24A5
331
24AE
  5
2505
331
24AB
  5
2502
331
24A8
  5
24A8
331
24A2
  5
24A2
331
249F
  5
249F
331
2499
  5
2499
331
24A3
  5
24A3
331
24AC
  5
2503
331
24AF
  5
2507
331
24A9
  5
24A9
331
24A6
  5
24A6
331
24A0
  5
24A0
331
249D
  5
249D
331
249A
  5
249A
  0
XRECORD
  5
25B4
102
{ACAD_REACTORS
330
23C2
102
}
330
23C2
100
AcDbXrecord
340
22A3
  0
XRECORD
  5
254E
102
{ACAD_REACTORS
330
254D
102
}
330
254D
100
AcDbXrecord
102
SHADEPLOT
 70
     0
  0
XRECORD
  5
2550
102
{ACAD_REACTORS
330
254F
102
}
330
254F
100
AcDbXrecord
102
SHADEPLOT
 70
     0
  0
XRECORD
  5
2552
102
{ACAD_REACTORS
330
2551
102
}
330
2551
100
AcDbXrecord
102
SHADEPLOT
 70
     0
  0
XRECORD
  5
2554
102
{ACAD_REACTORS
330
2553
102
}
330
2553
100
AcDbXrecord
102
SHADEPLOT
 70
     2
  0
MLINESTYLE
  5
47C
102
{ACAD_REACTORS
330
47B
102
}
330
47B
100
AcDbMlineStyle
  2
STANDARD
 70
     0
  3

 62
   256
 51
90.0
 52
90.0
 71
     2
 49
0.5
 62
   256
  6
BYLAYER
 49
-0.5
 62
   256
  6
BYLAYER
  0
ACDBPLACEHOLDER
  5
49D
102
{ACAD_REACTORS
330
49C
102
}
330
49C
100
AcDbPlaceHolder
280
     0
  0
ACAD_PROXY_OBJECT
  5
243D
102
{ACAD_REACTORS
330
243C
102
}
330
243C
100
AcDbProxyObject
 90
      499
 91
      526
 93
     1849
310
4214DD185B99185C992420000000000000F83F0000000000003E0FC00000000000004901028000000C1008070000C3001FDFF8000000C1003FBFF000000182007F7FE00000030400FEFFC00000060801FDFF8000000C1003FBFF000000182000000000000000C2020B0000001820100E000186003FBFF000000182007F7FE0
310
0000030400FEFFC00000060801FDFF8000000C1003FBFF000000182007F7FE0000003040000000000000012404160000003040201C00030C007F7FE00000030400FEFFC00000060801FDFF8000000C1003FBFF000000182007F7FE00000030400FEFFC000000608062
340
470
340
470
340
470
 94
        0
1001
ACAD
1000
AcRTDxfName
1000
TABLESTYLE
1000
AcadProxyRoundTripData
1071
      524
1071
  2555929
1070
     0
  0
XRECORD
  5
259C
102
{ACAD_REACTORS
330
2592
102
}
330
2592
100
AcDbXrecord
 90
        0
  0
XRECORD
  5
25A0
102
{ACAD_REACTORS
330
2592
102
}
330
2592
100
AcDbXrecord
1000
DSTYLE
1002
{
1070
   276
 70
     2
1070
   279
 70
     2
1002
}
  0
XRECORD
  5
259D
102
{ACAD_REACTORS
330
2592
102
}
330
2592
100
AcDbXrecord
  1
{6E0CF4B5-225E-11D4-A150-00A0CC3303EC}
  0
XRECORD
  5
2595
102
{ACAD_REACTORS
330
2592
102
}
330
2592
100
AcDbXrecord
  1

  0
XRECORD
  5
259B
102
{ACAD_REACTORS
330
2592
102
}
330
2592
100
AcDbXrecord
 90
        0
  0
XRECORD
  5
2597
102
{ACAD_REACTORS
330
2592
102
}
330
2592
100
AcDbXrecord
340
49E
  0
XRECORD
  5
259A
102
{ACAD_REACTORS
330
2592
102
}
330
2592
100
AcDbXrecord
 90
    14877
  0
XRECORD
  5
2598
102
{ACAD_REACTORS
330
2592
102
}
330
2592
100
AcDbXrecord
340
49F
  0
XRECORD
  5
2599
102
{ACAD_REACTORS
330
2592
102
}
330
2592
100
AcDbXrecord
340
49C
  0
XRECORD
  5
259F
102
{ACAD_REACTORS
330
2592
102
}
330
2592
100
AcDbXrecord
 40
0.0
  0
XRECORD
  5
25A3
102
{ACAD_REACTORS
330
2592
102
}
330
2592
100
AcDbXrecord
340
0
  0
XRECORD
  5
25A9
102
{ACAD_REACTORS
330
2592
102
}
330
2592
100
AcDbXrecord
 10
0.0
 20
0.0
 30
0.0
  0
XRECORD
  5
25A5
102
{ACAD_REACTORS
330
2592
102
}
330
2592
100
AcDbXrecord
 10
0.0
 20
0.0
 30
0.0
  0
XRECORD
  5
25A8
102
{ACAD_REACTORS
330
2592
102
}
330
2592
100
AcDbXrecord
 10
0.0
 20
0.0
 30
0.0
  0
XRECORD
  5
25A6
102
{ACAD_REACTORS
330
2592
102
}
330
2592
100
AcDbXrecord
 10
0.0
 20
0.0
 30
0.0
  0
XRECORD
  5
25A7
102
{ACAD_REACTORS
330
2592
102
}
330
2592
100
AcDbXrecord
 10
0.0
 20
0.0
 30
0.0
  0
XRECORD
  5
25A4
102
{ACAD_REACTORS
330
2592
102
}
330
2592
100
AcDbXrecord
 10
0.0
 20
0.0
 30
0.0
  0
XRECORD
  5
25A1
102
{ACAD_REACTORS
330
2592
102
}
330
2592
100
AcDbXrecord
340
0
  0
XRECORD
  5
25A2
102
{ACAD_REACTORS
330
2592
102
}
330
2592
100
AcDbXrecord
 70
     0
  0
XRECORD
  5
2596
102
{ACAD_REACTORS
330
2592
102
}
330
2592
100
AcDbXrecord
  1

  0
XRECORD
  5
2593
102
{ACAD_REACTORS
330
2592
102
}
330
2592
100
AcDbXrecord
 90
        1
  0
XRECORD
  5
2594
102
{ACAD_REACTORS
330
2592
102
}
330
2592
100
AcDbXrecord
 90
       70
  0
XRECORD
  5
25AC
102
{ACAD_REACTORS
330
2592
102
}
330
2592
100
AcDbXrecord
340
0
  0
XRECORD
  5
25B2
102
{ACAD_REACTORS
330
2592
102
}
330
2592
100
AcDbXrecord
 10
0.0
 20
0.0
 30
0.0
  0
XRECORD
  5
25AE
102
{ACAD_REACTORS
330
2592
102
}
330
2592
100
AcDbXrecord
 10
0.0
 20
0.0
 30
0.0
  0
XRECORD
  5
25B1
102
{ACAD_REACTORS
330
2592
102
}
330
2592
100
AcDbXrecord
 10
0.0
 20
0.0
 30
0.0
  0
XRECORD
  5
25AF
102
{ACAD_REACTORS
330
2592
102
}
330
2592
100
AcDbXrecord
 10
0.0
 20
0.0
 30
0.0
  0
XRECORD
  5
25B0
102
{ACAD_REACTORS
330
2592
102
}
330
2592
100
AcDbXrecord
 10
0.0
 20
0.0
 30
0.0
  0
XRECORD
  5
25AD
102
{ACAD_REACTORS
330
2592
102
}
330
2592
100
AcDbXrecord
 10
-176.5392304148145
 20
78.53453268215289
 30
2.849999999999999
  0
XRECORD
  5
25AA
102
{ACAD_REACTORS
330
2592
102
}
330
2592
100
AcDbXrecord
340
0
  0
XRECORD
  5
25AB
102
{ACAD_REACTORS
330
2592
102
}
330
2592
100
AcDbXrecord
 70
     3
  0
XRECORD
  5
259E
102
{ACAD_REACTORS
330
2592
102
}
330
2592
100
AcDbXrecord
  1
{997AFFEE-689F-452B-A1CF-B7A282A4859D}
  0
DICTIONARYVAR
  5
250E
102
{ACAD_REACTORS
330
48D
102
}
330
48D
100
DictionaryVariables
280
     0
  1
STANDARD
  0
DICTIONARYVAR
  5
48E
102
{ACAD_REACTORS
330
48D
102
}
330
48D
100
DictionaryVariables
280
     0
  1
0
  0
DICTIONARYVAR
  5
6EA
102
{ACAD_REACTORS
330
48D
102
}
330
48D
100
DictionaryVariables
280
     0
  1
1
  0
DICTIONARYVAR
  5
2277
102
{ACAD_REACTORS
330
48D
102
}
330
48D
100
DictionaryVariables
280
     0
  1

  0
XRECORD
  5
24FC
102
{ACAD_REACTORS
330
24FB
102
}
330
24FB
100
AcDbXrecord
 40
0.000001
  0
XRECORD
  5
24FF
102
{ACAD_REACTORS
330
24FB
102
}
330
24FB
100
AcDbXrecord
 70
     0
  0
XRECORD
  5
24FE
102
{ACAD_REACTORS
330
24FB
102
}
330
24FB
100
AcDbXrecord
 70
     0
  0
XRECORD
  5
24FD
102
{ACAD_REACTORS
330
24FB
102
}
330
24FB
100
AcDbXrecord
 70
     0
  0
ENDSEC
  0
EOF
