  0
SECTION
  2
HEADER
  9
$ACADVER
  1
AC1015
  9
$ACADMAINTVER
 70
     6
  9
$DWGCODEPAGE
  3
ANSI_1252
  9
$INSBASE
 10
0.0
 20
0.0
 30
0.0
  9
$EXTMIN
 10
0.0
 20
0.0
 30
0.0
  9
$EXTMAX
 10
11.0
 20
8.5
 30
0.0
  9
$LIMMIN
 10
0.0
 20
0.0
  9
$LIMMAX
 10
11.0
 20
8.5
  9
$ORTHOMODE
 70
     0
  9
$REGENMODE
 70
     1
  9
$FILLMODE
 70
     1
  9
$QTEXTMODE
 70
     0
  9
$MIRRTEXT
 70
     1
  9
$LTSCALE
 40
1.0
  9
$ATTMODE
 70
     1
  9
$TEXTSIZE
 40
0.1
  9
$TRACEWID
 40
0.05
  9
$TEXTSTYLE
  7
Standard
  9
$CLAYER
  8
0
  9
$CELTYPE
  6
ByLayer
  9
$CECOLOR
 62
   256
  9
$CELTSCALE
 40
1.0
  9
$DISPSILH
 70
     0
  9
$DIMSCALE
 40
1.0
  9
$DIMASZ
 40
0.1
  9
$DIMEXO
 40
0.08
  9
$DIMDLI
 40
0.38
  9
$DIMRND
 40
0.0
  9
$DIMDLE
 40
0.0
  9
$DIMEXE
 40
0.1
  9
$DIMTP
 40
0.0
  9
$DIMTM
 40
0.0
  9
$DIMTXT
 40
0.1
  9
$DIMCEN
 40
0.09
  9
$DIMTSZ
 40
0.0
  9
$DIMTOL
 70
     0
  9
$DIMLIM
 70
     0
  9
$DIMTIH
 70
     1
  9
$DIMTOH
 70
     1
  9
$DIMSE1
 70
     0
  9
$DIMSE2
 70
     0
  9
$DIMTAD
 70
     0
  9
$DIMZIN
 70
     1
  9
$DIMBLK
  1

  9
$DIMASO
 70
     1
  9
$DIMSHO
 70
     1
  9
$DIMPOST
  1

  9
$DIMAPOST
  1

  9
$DIMALT
 70
     0
  9
$DIMALTD
 70
     2
  9
$DIMALTF
 40
25.4
  9
$DIMLFAC
 40
1.0
  9
$DIMTOFL
 70
     0
  9
$DIMTVP
 40
0.0
  9
$DIMTIX
 70
     0
  9
$DIMSOXD
 70
     0
  9
$DIMSAH
 70
     0
  9
$DIMBLK1
  1

  9
$DIMBLK2
  1

  9
$DIMSTYLE
  2
Standard
  9
$DIMCLRD
 70
     0
  9
$DIMCLRE
 70
     0
  9
$DIMCLRT
 70
     0
  9
$DIMTFAC
 40
1.0
  9
$DIMGAP
 40
0.1
  9
$DIMJUST
 70
     0
  9
$DIMSD1
 70
     0
  9
$DIMSD2
 70
     0
  9
$DIMTOLJ
 70
     1
  9
$DIMTZIN
 70
     1
  9
$DIMALTZ
 70
     0
  9
$DIMALTTZ
 70
     0
  9
$DIMUPT
 70
     0
  9
$DIMDEC
 70
     2
  9
$DIMTDEC
 70
     2
  9
$DIMALTU
 70
     2
  9
$DIMALTTD
 70
     2
  9
$DIMTXSTY
  7
Standard
  9
$DIMAUNIT
 70
     0
  9
$DIMADEC
 70
     1
  9
$DIMALTRND
 40
0.0
  9
$DIMAZIN
 70
     0
  9
$DIMDSEP
 70
    46
  9
$DIMATFIT
 70
     3
  9
$DIMFRAC
 70
     0
  9
$DIMLDRBLK
  1

  9
$DIMLUNIT
 70
     2
  9
$DIMLWD
 70
    -2
  9
$DIMLWE
 70
    -2
  9
$DIMTMOVE
 70
     0
  9
$LUNITS
 70
     2
  9
$LUPREC
 70
     2
  9
$SKETCHINC
 40
0.1
  9
$FILLETRAD
 40
0.5
  9
$AUNITS
 70
     0
  9
$AUPREC
 70
     1
  9
$MENU
  1
.
  9
$ELEVATION
 40
0.0
  9
$PELEVATION
 40
0.0
  9
$THICKNESS
 40
0.0
  9
$LIMCHECK
 70
     0
  9
$CHAMFERA
 40
0.0
  9
$CHAMFERB
 40
0.0
  9
$CHAMFERC
 40
0.0
  9
$CHAMFERD
 40
0.0
  9
$SKPOLY
 70
     0
  9
$TDCREATE
 40
2457830.327594607
  9
$TDUCREATE
 40
2457830.494261273
  9
$TDUPDATE
 40
2457830.32759691
  9
$TDUUPDATE
 40
2457830.494263576
  9
$TDINDWG
 40
0.0000000116
  9
$TDUSRTIMER
 40
0.0000000116
  9
$USRTIMER
 70
     1
  9
$ANGBASE
 50
0.0
  9
$ANGDIR
 70
     0
  9
$PDMODE
 70
     0
  9
$PDSIZE
 40
-1.0
  9
$PLINEWID
 40
0.0
  9
$SPLFRAME
 70
     0
  9
$SPLINETYPE
 70
     6
  9
$SPLINESEGS
 70
     8
  9
$HANDSEED
  5
45E
  9
$SURFTAB1
 70
     6
  9
$SURFTAB2
 70
     6
  9
$SURFTYPE
 70
     6
  9
$SURFU
 70
     6
  9
$SURFV
 70
     6
  9
$UCSBASE
  2

  9
$UCSNAME
  2

  9
$UCSORG
 10
0.0
 20
0.0
 30
0.0
  9
$UCSXDIR
 10
1.0
 20
0.0
 30
0.0
  9
$UCSYDIR
 10
0.0
 20
1.0
 30
0.0
  9
$UCSORTHOREF
  2

  9
$UCSORTHOVIEW
 70
     0
  9
$UCSORGTOP
 10
0.0
 20
0.0
 30
0.0
  9
$UCSORGBOTTOM
 10
0.0
 20
0.0
 30
0.0
  9
$UCSORGLEFT
 10
0.0
 20
0.0
 30
0.0
  9
$UCSORGRIGHT
 10
0.0
 20
0.0
 30
0.0
  9
$UCSORGFRONT
 10
0.0
 20
0.0
 30
0.0
  9
$UCSORGBACK
 10
0.0
 20
0.0
 30
0.0
  9
$PUCSBASE
  2

  9
$PUCSNAME
  2

  9
$PUCSORG
 10
0.0
 20
0.0
 30
0.0
  9
$PUCSXDIR
 10
1.0
 20
0.0
 30
0.0
  9
$PUCSYDIR
 10
0.0
 20
1.0
 30
0.0
  9
$PUCSORTHOREF
  2

  9
$PUCSORTHOVIEW
 70
     0
  9
$PUCSORGTOP
 10
0.0
 20
0.0
 30
0.0
  9
$PUCSORGBOTTOM
 10
0.0
 20
0.0
 30
0.0
  9
$PUCSORGLEFT
 10
0.0
 20
0.0
 30
0.0
  9
$PUCSORGRIGHT
 10
0.0
 20
0.0
 30
0.0
  9
$PUCSORGFRONT
 10
0.0
 20
0.0
 30
0.0
  9
$PUCSORGBACK
 10
0.0
 20
0.0
 30
0.0
  9
$USERI1
 70
     0
  9
$USERI2
 70
     0
  9
$USERI3
 70
     0
  9
$USERI4
 70
     0
  9
$USERI5
 70
     0
  9
$USERR1
 40
0.0
  9
$USERR2
 40
0.0
  9
$USERR3
 40
0.0
  9
$USERR4
 40
0.0
  9
$USERR5
 40
0.0
  9
$WORLDVIEW
 70
     1
  9
$SHADEDGE
 70
     3
  9
$SHADEDIF
 70
    70
  9
$TILEMODE
 70
     1
  9
$MAXACTVP
 70
    64
  9
$PINSBASE
 10
0.0
 20
0.0
 30
0.0
  9
$PLIMCHECK
 70
     0
  9
$PEXTMIN
 10
1.0000000000E+20
 20
1.0000000000E+20
 30
1.0000000000E+20
  9
$PEXTMAX
 10
-1.0000000000E+20
 20
-1.0000000000E+20
 30
-1.0000000000E+20
  9
$PLIMMIN
 10
0.0
 20
0.0
  9
$PLIMMAX
 10
12.0
 20
9.0
  9
$UNITMODE
 70
     0
  9
$VISRETAIN
 70
     1
  9
$PLINEGEN
 70
     0
  9
$PSLTSCALE
 70
     1
  9
$TREEDEPTH
 70
  3020
  9
$CMLSTYLE
  2
Standard
  9
$CMLJUST
 70
     0
  9
$CMLSCALE
 40
1.0
  9
$PROXYGRAPHICS
 70
     1
  9
$MEASUREMENT
 70
     0
  9
$CELWEIGHT
370
    -1
  9
$ENDCAPS
280
     0
  9
$JOINSTYLE
280
     0
  9
$LWDISPLAY
290
     1
  9
$INSUNITS
 70
     1
  9
$HYPERLINKBASE
  1

  9
$STYLESHEET
  1

  9
$XEDIT
290
     1
  9
$CEPSNTYPE
380
     0
  9
$PSTYLEMODE
290
     1
  9
$FINGERPRINTGUID
  2
{16067805-214F-4643-833C-F90715FB461D}
  9
$VERSIONGUID
  2
{FAEB1C32-E019-11D5-929B-00C0DF256EC4}
  9
$EXTNAMES
290
     1
  9
$PSVPSCALE
 40
0.0
  9
$OLESTARTUP
290
     0
  0
ENDSEC
  0
SECTION
  2
CLASSES
  0
CLASS
  1
ACDBDICTIONARYWDFLT
  2
AcDbDictionaryWithDefault
  3
ObjectDBX Classes
 90
        0
280
     0
281
     0
  0
CLASS
  1
VISUALSTYLE
  2
AcDbVisualStyle
  3
ObjectDBX Classes
 90
     4095
280
     0
281
     0
  0
CLASS
  1
MATERIAL
  2
AcDbMaterial
  3
ObjectDBX Classes
 90
     1153
280
     0
281
     0
  0
CLASS
  1
SCALE
  2
AcDbScale
  3
ObjectDBX Classes
 90
     1153
280
     0
281
     0
  0
CLASS
  1
TABLESTYLE
  2
AcDbTableStyle
  3
ObjectDBX Classes
 90
     4095
280
     0
281
     0
  0
CLASS
  1
MLEADERSTYLE
  2
AcDbMLeaderStyle
  3
ACDB_MLEADERSTYLE_CLASS
 90
     4095
280
     0
281
     0
  0
CLASS
  1
SUN
  2
AcDbSun
  3
SCENEOE
 90
     1153
280
     0
281
     0
  0
CLASS
  1
ACDBPLACEHOLDER
  2
AcDbPlaceHolder
  3
ObjectDBX Classes
 90
        0
280
     0
281
     0
  0
CLASS
  1
LAYOUT
  2
AcDbLayout
  3
ObjectDBX Classes
 90
        0
280
     0
281
     0
  0
ENDSEC
  0
SECTION
  2
TABLES
  0
TABLE
  2
VPORT
  5
8
330
0
100
AcDbSymbolTable
 70
     1
  0
VPORT
  5
29
330
8
100
AcDbSymbolTableRecord
100
AcDbViewportTableRecord
  2
*Active
 70
     0
 10
0.0
 20
0.0
 11
1.0
 21
1.0
 12
5.5
 22
4.25
 13
0.0
 23
0.0
 14
0.5
 24
0.5
 15
0.5
 25
0.5
 16
0.0
 26
0.0
 36
1.0
 17
0.0
 27
0.0
 37
0.0
 40
8.5
 41
1.2941176471
 42
50.0
 43
0.0
 44
0.0
 50
0.0
 51
0.0
 71
     0
 72
  2000
 73
     1
 74
     3
 75
     0
 76
     0
 77
     0
 78
     0
281
     0
 65
     1
110
0.0
120
0.0
130
0.0
111
1.0
121
0.0
131
0.0
112
0.0
122
1.0
132
0.0
 79
     0
146
0.0
  0
ENDTAB
  0
TABLE
  2
LTYPE
  5
5
330
0
100
AcDbSymbolTable
 70
     6
  0
LTYPE
  5
14
330
5
100
AcDbSymbolTableRecord
100
AcDbLinetypeTableRecord
  2
ByBlock
 70
     0
  3

 72
    65
 73
     0
 40
0.0
  0
LTYPE
  5
15
330
5
100
AcDbSymbolTableRecord
100
AcDbLinetypeTableRecord
  2
ByLayer
 70
     0
  3

 72
    65
 73
     0
 40
0.0
  0
LTYPE
  5
16
330
5
100
AcDbSymbolTableRecord
100
AcDbLinetypeTableRecord
  2
Continuous
 70
     0
  3
Solid line
 72
    65
 73
     0
 40
0.0
  0
LTYPE
  5
6E
330
5
100
AcDbSymbolTableRecord
100
AcDbLinetypeTableRecord
  2
HIDDEN
 70
     0
  3
Hidden __ __ __ __ __ __ __ __ __ __ __ __ __ __
 72
    65
 73
     2
 40
0.075
 49
0.05
 74
     0
 49
-0.025
 74
     0
  0
LTYPE
  5
6F
330
5
100
AcDbSymbolTableRecord
100
AcDbLinetypeTableRecord
  2
PHANTOM
 70
     0
  3
Phantom ______  __  __  ______  __  __  ______
 72
    65
 73
     6
 40
0.5
 49
0.25
 74
     0
 49
-0.05
 74
     0
 49
0.05
 74
     0
 49
-0.05
 74
     0
 49
0.05
 74
     0
 49
-0.05
 74
     0
  0
LTYPE
  5
70
330
5
100
AcDbSymbolTableRecord
100
AcDbLinetypeTableRecord
  2
CENTER
 70
     0
  3
Center ____ _ ____ _ ____ _ ____ _ ____ _ ____
 72
    65
 73
     4
 40
0.4
 49
0.25
 74
     0
 49
-0.05
 74
     0
 49
0.05
 74
     0
 49
-0.05
 74
     0
  0
LTYPE
  5
71
330
5
100
AcDbSymbolTableRecord
100
AcDbLinetypeTableRecord
  2
CENTERX2
 70
     0
  3
Center (2x) ________  __  ________  __  _____
 72
    65
 73
     4
 40
0.8
 49
0.5
 74
     0
 49
-0.1
 74
     0
 49
0.1
 74
     0
 49
-0.1
 74
     0
  0
LTYPE
  5
72
330
5
100
AcDbSymbolTableRecord
100
AcDbLinetypeTableRecord
  2
DOT2
 70
     0
  3
Dot (.5x) ........................................
 72
    65
 73
     2
 40
0.025
 49
0.0
 74
     0
 49
-0.025
 74
     0
  0
ENDTAB
  0
TABLE
  2
LAYER
  5
2
330
0
100
AcDbSymbolTable
 70
     8
  0
LAYER
  5
10
330
2
100
AcDbSymbolTableRecord
100
AcDbLayerTableRecord
  2
0
 70
     0
 62
     7
  6
Continuous
370
    -3
390
F
  0
LAYER
  5
73
330
2
100
AcDbSymbolTableRecord
100
AcDbLayerTableRecord
  2
NOTES
 70
     0
 62
    96
  6
Continuous
370
    -3
390
F
  0
LAYER
  5
74
330
2
100
AcDbSymbolTableRecord
100
AcDbLayerTableRecord
  2
DIMENSION
 70
     0
 62
     5
  6
Continuous
370
    -3
390
F
  0
LAYER
  5
75
330
2
100
AcDbSymbolTableRecord
100
AcDbLayerTableRecord
  2
OBJ
 70
     0
 62
     7
  6
Continuous
370
    15
390
F
  0
LAYER
  5
76
330
2
100
AcDbSymbolTableRecord
100
AcDbLayerTableRecord
  2
HIDDEN
 70
     0
 62
     7
  6
HIDDEN
370
    -3
390
F
  0
LAYER
  5
77
330
2
100
AcDbSymbolTableRecord
100
AcDbLayerTableRecord
  2
SECTION
 70
     0
 62
   190
  6
PHANTOM
370
    15
390
F
  0
LAYER
  5
78
330
2
100
AcDbSymbolTableRecord
100
AcDbLayerTableRecord
  2
CENTER
 70
     0
 62
    16
  6
CENTERX2
370
    -3
390
F
  0
LAYER
  5
79
330
2
100
AcDbSymbolTableRecord
100
AcDbLayerTableRecord
  2
PHANTOM
 70
     0
 62
   102
  6
PHANTOM
370
    -3
390
F
  0
ENDTAB
  0
TABLE
  2
STYLE
  5
3
330
0
100
AcDbSymbolTable
 70
     7
  0
STYLE
  5
11
330
3
100
AcDbSymbolTableRecord
100
AcDbTextStyleTableRecord
  2
Standard
 70
     0
 40
0.0
 41
1.0
 50
0.0
 71
     0
 42
0.1
  3
txt
  4

  0
STYLE
  5
2D1
330
3
100
AcDbSymbolTableRecord
100
AcDbTextStyleTableRecord
  2
SLDTEXTSTYLE0
 70
     0
 40
0.0
 41
0.605
 50
0.0
 71
     0
 42
0.1
  3
TXT
  4

  0
STYLE
  5
2E5
330
3
100
AcDbSymbolTableRecord
100
AcDbTextStyleTableRecord
  2
SLDTEXTSTYLE1
 70
     0
 40
0.0
 41
0.56
 50
0.0
 71
     0
 42
0.1
  3
TXT
  4

  0
STYLE
  5
2EA
330
3
100
AcDbSymbolTableRecord
100
AcDbTextStyleTableRecord
  2
SLDTEXTSTYLE2
 70
     0
 40
0.0
 41
0.528
 50
0.0
 71
     0
 42
0.1
  3
TXT
  4

  0
STYLE
  5
2F2
330
3
100
AcDbSymbolTableRecord
100
AcDbTextStyleTableRecord
  2
SLDTEXTSTYLE3
 70
     0
 40
0.0
 41
0.5375
 50
0.0
 71
     0
 42
0.1
  3
TXT
  4

  0
STYLE
  5
2F8
330
3
100
AcDbSymbolTableRecord
100
AcDbTextStyleTableRecord
  2
SLDTEXTSTYLE4
 70
     0
 40
0.0
 41
0.5484615385
 50
0.0
 71
     0
 42
0.1
  3
TXT
  4

  0
STYLE
  5
2FE
330
3
100
AcDbSymbolTableRecord
100
AcDbTextStyleTableRecord
  2
SLDTEXTSTYLE5
 70
     0
 40
0.0
 41
0.56125
 50
0.0
 71
     0
 42
0.1
  3
TXT
  4

  0
ENDTAB
  0
TABLE
  2
VIEW
  5
6
330
0
100
AcDbSymbolTable
 70
     0
  0
ENDTAB
  0
TABLE
  2
UCS
  5
7
330
0
100
AcDbSymbolTable
 70
     0
  0
ENDTAB
  0
TABLE
  2
APPID
  5
9
330
0
100
AcDbSymbolTable
 70
     1
  0
APPID
  5
12
330
9
100
AcDbSymbolTableRecord
100
AcDbRegAppTableRecord
  2
ACAD
 70
     0
  0
ENDTAB
  0
TABLE
  2
DIMSTYLE
  5
A
330
0
100
AcDbSymbolTable
 70
     3
100
AcDbDimStyleTable
  0
DIMSTYLE
105
27
330
A
100
AcDbSymbolTableRecord
100
AcDbDimStyleTableRecord
  2
Standard
 70
     0
178
     0
340
11
  0
DIMSTYLE
105
3DE
102
{ACAD_REACTORS
330
3DD
330
3F2
102
}
330
A
100
AcDbSymbolTableRecord
100
AcDbDimStyleTableRecord
  2
SLDDIMSTYLE0
 70
     0
 41
0.1
 44
0.0
 45
0.000000001
 78
    12
 79
     3
140
0.1
147
0.025
148
0.000000001
170
     1
173
     1
178
     0
271
     2
272
     2
276
     2
284
    12
340
2D1
  0
DIMSTYLE
105
41B
102
{ACAD_REACTORS
330
41A
102
}
330
A
100
AcDbSymbolTableRecord
100
AcDbDimStyleTableRecord
  2
SLDDIMSTYLE1
 70
     0
 41
0.1
 44
0.0
 45
0.000000001
 78
    12
 79
     3
140
0.1
147
0.025
148
0.000000001
170
     1
172
     1
173
     1
178
     0
271
     3
272
     3
276
     2
284
    12
289
     0
340
2D1
  0
ENDTAB
  0
TABLE
  2
BLOCK_RECORD
  5
1
330
0
100
AcDbSymbolTable
 70
    11
  0
BLOCK_RECORD
  5
1F
330
1
100
AcDbSymbolTableRecord
100
AcDbBlockTableRecord
  2
*Model_Space
340
22
  0
BLOCK_RECORD
  5
1B
330
1
100
AcDbSymbolTableRecord
100
AcDbBlockTableRecord
  2
*Paper_Space
340
1E
  0
BLOCK_RECORD
  5
23
330
1
100
AcDbSymbolTableRecord
100
AcDbBlockTableRecord
  2
*Paper_Space0
340
26
  0
BLOCK_RECORD
  5
7A
330
1
100
AcDbSymbolTableRecord
100
AcDbBlockTableRecord
  2
Logo-Marathon Special Products-EN
340
0
102
{BLKREFS
331
36F
102
}
  0
BLOCK_RECORD
  5
2D3
330
1
100
AcDbSymbolTableRecord
100
AcDbBlockTableRecord
  2
Tol-MEOutline-Inch-EN
340
0
102
{BLKREFS
331
371
102
}
  0
BLOCK_RECORD
  5
2DE
330
1
100
AcDbSymbolTableRecord
100
AcDbBlockTableRecord
  2
SW_NOTE_0
340
0
102
{BLKREFS
331
30B
102
}
  0
BLOCK_RECORD
  5
30C
330
1
100
AcDbSymbolTableRecord
100
AcDbBlockTableRecord
  2
Block10
340
0
102
{BLKREFS
331
370
102
}
  0
BLOCK_RECORD
  5
30F
330
1
100
AcDbSymbolTableRecord
100
AcDbBlockTableRecord
  2
SW_NOTE_1
340
0
102
{BLKREFS
331
31B
102
}
  0
BLOCK_RECORD
  5
31C
330
1
100
AcDbSymbolTableRecord
100
AcDbBlockTableRecord
  2
A-Format-MSP-EN
340
0
102
{BLKREFS
331
372
102
}
  0
BLOCK_RECORD
  5
348
330
1
100
AcDbSymbolTableRecord
100
AcDbBlockTableRecord
  2
SW_NOTE_2
340
0
102
{BLKREFS
331
34D
102
}
  0
BLOCK_RECORD
  5
3DF
330
1
100
AcDbSymbolTableRecord
100
AcDbBlockTableRecord
  2
_D
340
0
  0
BLOCK_RECORD
  5
3F3
330
1
100
AcDbSymbolTableRecord
100
AcDbBlockTableRecord
  2
_D_1
340
0
  0
BLOCK_RECORD
  5
41C
330
1
100
AcDbSymbolTableRecord
100
AcDbBlockTableRecord
  2
_D_2
340
0
  0
ENDTAB
  0
ENDSEC
  0
SECTION
  2
BLOCKS
  0
BLOCK
  5
20
330
1F
100
AcDbEntity
  8
0
100
AcDbBlockBegin
  2
*Model_Space
 70
     0
 10
0.0
 20
0.0
 30
0.0
  3
*Model_Space
  1

  0
ENDBLK
  5
21
330
1F
100
AcDbEntity
  8
0
100
AcDbBlockEnd
  0
BLOCK
  5
1C
330
1B
100
AcDbEntity
 67
     1
  8
0
100
AcDbBlockBegin
  2
*Paper_Space
 70
     0
 10
0.0
 20
0.0
 30
0.0
  3
*Paper_Space
  1

  0
ENDBLK
  5
1D
330
1B
100
AcDbEntity
 67
     1
  8
0
100
AcDbBlockEnd
  0
BLOCK
  5
24
330
23
100
AcDbEntity
  8
0
100
AcDbBlockBegin
  2
*Paper_Space0
 70
     0
 10
0.0
 20
0.0
 30
0.0
  3
*Paper_Space0
  1

  0
ENDBLK
  5
25
330
23
100
AcDbEntity
  8
0
100
AcDbBlockEnd
  0
BLOCK
  5
7B
330
7A
100
AcDbEntity
  8
0
100
AcDbBlockBegin
  2
Logo-Marathon Special Products-EN
 70
     0
 10
0.0
 20
0.0
 30
0.0
  3
Logo-Marathon Special Products-EN
  1

  0
LINE
  5
7D
330
7A
100
AcDbEntity
  8
0
  6
Continuous
 62
     7
370
     0
100
AcDbLine
 10
0.3017829486
 20
0.2530206013
 30
0.0
 11
0.271881397
 21
0.2530206013
 31
0.0
  0
LINE
  5
7E
330
7A
100
AcDbEntity
  8
0
  6
Continuous
 62
     7
370
     0
100
AcDbLine
 10
0.271881397
 20
0.2530206013
 30
0.0
 11
0.2801176701
 21
0.2836144406
 31
0.0
  0
LINE
  5
7F
330
7A
100
AcDbEntity
  8
0
  6
Continuous
 62
     7
370
     0
100
AcDbLine
 10
0.2801176701
 20
0.2836144406
 30
0.0
 11
0.3100226658
 21
0.2836144406
 31
0.0
  0
LINE
  5
80
330
7A
100
AcDbEntity
  8
0
  6
Continuous
 62
     7
370
     0
100
AcDbLine
 10
0.3100226658
 20
0.2836144406
 30
0.0
 11
0.3017829486
 21
0.2530206013
 31
0.0
  0
LINE
  5
81
330
7A
100
AcDbEntity
  8
0
  6
Continuous
 62
     7
370
     0
100
AcDbLine
 10
0.2621468892
 20
0.3022694727
 30
0.0
 11
0.2338824893
 21
0.1966387546
 31
0.0
  0
LINE
  5
82
330
7A
100
AcDbEntity
  8
0
  6
Continuous
 62
     7
370
     0
100
AcDbLine
 10
0.2338824893
 20
0.1966387546
 30
0.0
 11
0.2567922785
 21
0.1966387546
 31
0.0
  0
LINE
  5
83
330
7A
100
AcDbEntity
  8
0
  6
Continuous
 62
     7
370
     0
100
AcDbLine
 10
0.2567922785
 20
0.1966387546
 30
0.0
 11
0.2669469809
 21
0.2343655692
 31
0.0
  0
LINE
  5
84
330
7A
100
AcDbEntity
  8
0
  6
Continuous
 62
     7
370
     0
100
AcDbLine
 10
0.2669469809
 20
0.2343655692
 30
0.0
 11
0.2805252358
 21
0.2343655692
 31
0.0
  0
LINE
  5
85
330
7A
100
AcDbEntity
  8
0
  6
Continuous
 62
     7
370
     0
100
AcDbLine
 10
0.2805252358
 20
0.2343655692
 30
0.0
 11
0.286013023
 21
0.1966387546
 31
0.0
  0
LINE
  5
86
330
7A
100
AcDbEntity
  8
0
  6
Continuous
 62
     7
370
     0
100
AcDbLine
 10
0.286013023
 20
0.1966387546
 30
0.0
 11
0.3096116558
 21
0.1966387546
 31
0.0
  0
LINE
  5
87
330
7A
100
AcDbEntity
  8
0
  6
Continuous
 62
     7
370
     0
100
AcDbLine
 10
0.3096116558
 20
0.1966387546
 30
0.0
 11
0.3037163029
 21
0.2343655692
 31
0.0
  0
LINE
  5
88
330
7A
100
AcDbEntity
  8
0
  6
Continuous
 62
     7
370
     0
100
AcDbLine
 10
0.3037163029
 20
0.2343655692
 30
0.0
 11
0.308239709
 21
0.2343655692
 31
0.0
  0
LINE
  5
89
330
7A
100
AcDbEntity
  8
0
  6
Continuous
 62
     7
370
     0
100
AcDbLine
 10
0.3219568808
 20
0.2439657525
 30
0.0
 11
0.3349932454
 21
0.2926727336
 31
0.0
  0
LINE
  5
8A
330
7A
100
AcDbEntity
  8
0
  6
Continuous
 62
     7
370
     0
100
AcDbLine
 10
0.6014517173
 20
0.2345033379
 30
0.0
 11
0.577576399
 21
0.2345033379
 31
0.0
  0
LINE
  5
8B
330
7A
100
AcDbEntity
  8
0
  6
Continuous
 62
     7
370
     0
100
AcDbLine
 10
0.577576399
 20
0.2345033379
 30
0.0
 11
0.5992611947
 21
0.2778534122
 31
0.0
  0
LINE
  5
8C
330
7A
100
AcDbEntity
  8
0
  6
Continuous
 62
     7
370
     0
100
AcDbLine
 10
0.5992611947
 20
0.2778534122
 30
0.0
 11
0.6014517173
 21
0.2778534122
 31
0.0
  0
LINE
  5
8D
330
7A
100
AcDbEntity
  8
0
  6
Continuous
 62
     7
370
     0
100
AcDbLine
 10
0.6014517173
 20
0.2778534122
 30
0.0
 11
0.6014517173
 21
0.2345033379
 31
0.0
  0
LINE
  5
8E
330
7A
100
AcDbEntity
  8
0
  6
Continuous
 62
     7
370
     0
100
AcDbLine
 10
0.5797347755
 20
0.3022694727
 30
0.0
 11
0.5797347755
 21
0.2836144406
 31
0.0
  0
LINE
  5
8F
330
7A
100
AcDbEntity
  8
0
  6
Continuous
 62
     7
370
     0
100
AcDbLine
 10
0.5797347755
 20
0.2836144406
 30
0.0
 11
0.5347773996
 21
0.1966387546
 31
0.0
  0
LINE
  5
90
330
7A
100
AcDbEntity
  8
0
  6
Continuous
 62
     7
370
     0
100
AcDbLine
 10
0.5347773996
 20
0.1966387546
 30
0.0
 11
0.5578215133
 21
0.1966387546
 31
0.0
  0
LINE
  5
91
330
7A
100
AcDbEntity
  8
0
  6
Continuous
 62
     7
370
     0
100
AcDbLine
 10
0.5578215133
 20
0.1966387546
 30
0.0
 11
0.5681059479
 21
0.2155635838
 31
0.0
  0
LINE
  5
92
330
7A
100
AcDbEntity
  8
0
  6
Continuous
 62
     7
370
     0
100
AcDbLine
 10
0.5681059479
 20
0.2155635838
 30
0.0
 11
0.6014517173
 21
0.2155635838
 31
0.0
  0
LINE
  5
93
330
7A
100
AcDbEntity
  8
0
  6
Continuous
 62
     7
370
     0
100
AcDbLine
 10
0.6014517173
 20
0.2155635838
 30
0.0
 11
0.6014517173
 21
0.1966387546
 31
0.0
  0
LINE
  5
94
330
7A
100
AcDbEntity
  8
0
  6
Continuous
 62
     7
370
     0
100
AcDbLine
 10
0.6014517173
 20
0.1966387546
 30
0.0
 11
0.6242283301
 21
0.1966387546
 31
0.0
  0
LINE
  5
95
330
7A
100
AcDbEntity
  8
0
  6
Continuous
 62
     7
370
     0
100
AcDbLine
 10
0.6242283301
 20
0.1966387546
 30
0.0
 11
0.6242283301
 21
0.3022694727
 31
0.0
  0
LINE
  5
96
330
7A
100
AcDbEntity
  8
0
  6
Continuous
 62
     7
370
     0
100
AcDbLine
 10
0.6242283301
 20
0.3022694727
 30
0.0
 11
0.5797347755
 21
0.3022694727
 31
0.0
  0
LINE
  5
97
330
7A
100
AcDbEntity
  8
0
  6
Continuous
 62
     7
370
     0
100
AcDbLine
 10
0.6791199785
 20
0.2152949348
 30
0.0
 11
0.7024327413
 21
0.3022694727
 31
0.0
  0
LINE
  5
98
330
7A
100
AcDbEntity
  8
0
  6
Continuous
 62
     7
370
     0
100
AcDbLine
 10
0.7024327413
 20
0.3022694727
 30
0.0
 11
0.6797950452
 21
0.3022694727
 31
0.0
  0
LINE
  5
99
330
7A
100
AcDbEntity
  8
0
  6
Continuous
 62
     7
370
     0
100
AcDbLine
 10
0.6797950452
 20
0.3022694727
 30
0.0
 11
0.6515386818
 21
0.1966387546
 31
0.0
  0
LINE
  5
9A
330
7A
100
AcDbEntity
  8
0
  6
Continuous
 62
     7
370
     0
100
AcDbLine
 10
0.6515386818
 20
0.1966387546
 30
0.0
 11
0.7092155543
 21
0.1966387546
 31
0.0
  0
LINE
  5
9B
330
7A
100
AcDbEntity
  8
0
  6
Continuous
 62
     7
370
     0
100
AcDbLine
 10
0.7092155543
 20
0.1966387546
 30
0.0
 11
0.7142969238
 21
0.2152949348
 31
0.0
  0
LINE
  5
9C
330
7A
100
AcDbEntity
  8
0
  6
Continuous
 62
     7
370
     0
100
AcDbLine
 10
0.7142969238
 20
0.2152949348
 30
0.0
 11
0.6791199785
 21
0.2152949348
 31
0.0
  0
LINE
  5
9D
330
7A
100
AcDbEntity
  8
0
  6
Continuous
 62
     7
370
     0
100
AcDbLine
 10
0.5305433077
 20
0.2836144406
 30
0.0
 11
0.5354857604
 21
0.3022694727
 31
0.0
  0
LINE
  5
9E
330
7A
100
AcDbEntity
  8
0
  6
Continuous
 62
     7
370
     0
100
AcDbLine
 10
0.5354857604
 20
0.3022694727
 30
0.0
 11
0.4715231902
 21
0.3022694727
 31
0.0
  0
LINE
  5
9F
330
7A
100
AcDbEntity
  8
0
  6
Continuous
 62
     7
370
     0
100
AcDbLine
 10
0.4423012976
 20
0.1966387546
 30
0.0
 11
0.5071892144
 21
0.1966387546
 31
0.0
  0
LINE
  5
A0
330
7A
100
AcDbEntity
  8
0
  6
Continuous
 62
     7
370
     0
100
AcDbLine
 10
0.5071892144
 20
0.1966387546
 30
0.0
 11
0.5243379752
 21
0.260698911
 31
0.0
  0
LINE
  5
A1
330
7A
100
AcDbEntity
  8
0
  6
Continuous
 62
     7
370
     0
100
AcDbLine
 10
0.5243379752
 20
0.260698911
 30
0.0
 11
0.4872873754
 21
0.260698911
 31
0.0
  0
LINE
  5
A2
330
7A
100
AcDbEntity
  8
0
  6
Continuous
 62
     7
370
     0
100
AcDbLine
 10
0.4872873754
 20
0.260698911
 30
0.0
 11
0.4822140425
 21
0.2416363131
 31
0.0
  0
LINE
  5
A3
330
7A
100
AcDbEntity
  8
0
  6
Continuous
 62
     7
370
     0
100
AcDbLine
 10
0.4822140425
 20
0.2416363131
 30
0.0
 11
0.4966189097
 21
0.2416363131
 31
0.0
  0
LINE
  5
A4
330
7A
100
AcDbEntity
  8
0
  6
Continuous
 62
     7
370
     0
100
AcDbLine
 10
0.4966189097
 20
0.2416363131
 30
0.0
 11
0.4896248513
 21
0.2157013525
 31
0.0
  0
LINE
  5
A5
330
7A
100
AcDbEntity
  8
0
  6
Continuous
 62
     7
370
     0
100
AcDbLine
 10
0.4896248513
 20
0.2157013525
 30
0.0
 11
0.4597198555
 21
0.2157013525
 31
0.0
  0
LINE
  5
A6
330
7A
100
AcDbEntity
  8
0
  6
Continuous
 62
     7
370
     0
100
AcDbLine
 10
0.4597198555
 20
0.2157013525
 30
0.0
 11
0.4779684699
 21
0.2836144406
 31
0.0
  0
LINE
  5
A7
330
7A
100
AcDbEntity
  8
0
  6
Continuous
 62
     7
370
     0
100
AcDbLine
 10
0.4779684699
 20
0.2836144406
 30
0.0
 11
0.5305433077
 21
0.2836144406
 31
0.0
  0
LINE
  5
A8
330
7A
100
AcDbEntity
  8
0
  6
Continuous
 62
     7
370
     0
100
AcDbLine
 10
0.341735876
 20
0.1966387546
 30
0.0
 11
0.3990752152
 21
0.1966387546
 31
0.0
  0
LINE
  5
A9
330
7A
100
AcDbEntity
  8
0
  6
Continuous
 62
     7
370
     0
100
AcDbLine
 10
0.3990752152
 20
0.1966387546
 30
0.0
 11
0.4041439558
 21
0.2157013525
 31
0.0
  0
LINE
  5
AA
330
7A
100
AcDbEntity
  8
0
  6
Continuous
 62
     7
370
     0
100
AcDbLine
 10
0.4041439558
 20
0.2157013525
 30
0.0
 11
0.3697109616
 21
0.2157013525
 31
0.0
  0
LINE
  5
AB
330
7A
100
AcDbEntity
  8
0
  6
Continuous
 62
     7
370
     0
100
AcDbLine
 10
0.3697109616
 20
0.2157013525
 30
0.0
 11
0.3767096124
 21
0.2416363131
 31
0.0
  0
LINE
  5
AC
330
7A
100
AcDbEntity
  8
0
  6
Continuous
 62
     7
370
     0
100
AcDbLine
 10
0.3767096124
 20
0.2416363131
 30
0.0
 11
0.4074412204
 21
0.2416363131
 31
0.0
  0
LINE
  5
AD
330
7A
100
AcDbEntity
  8
0
  6
Continuous
 62
     7
370
     0
100
AcDbLine
 10
0.4074412204
 20
0.2416363131
 30
0.0
 11
0.4125191456
 21
0.260698911
 31
0.0
  0
LINE
  5
AE
330
7A
100
AcDbEntity
  8
0
  6
Continuous
 62
     7
370
     0
100
AcDbLine
 10
0.4125191456
 20
0.260698911
 30
0.0
 11
0.3817875376
 21
0.260698911
 31
0.0
  0
LINE
  5
AF
330
7A
100
AcDbEntity
  8
0
  6
Continuous
 62
     7
370
     0
100
AcDbLine
 10
0.3817875376
 20
0.260698911
 30
0.0
 11
0.3879549837
 21
0.2836144406
 31
0.0
  0
LINE
  5
B0
330
7A
100
AcDbEntity
  8
0
  6
Continuous
 62
     7
370
     0
100
AcDbLine
 10
0.3879549837
 20
0.2836144406
 30
0.0
 11
0.4224006067
 21
0.2836144406
 31
0.0
  0
LINE
  5
B1
330
7A
100
AcDbEntity
  8
0
  6
Continuous
 62
     7
370
     0
100
AcDbLine
 10
0.4224006067
 20
0.2836144406
 30
0.0
 11
0.4273350229
 21
0.3022694727
 31
0.0
  0
LINE
  5
B2
330
7A
100
AcDbEntity
  8
0
  6
Continuous
 62
     7
370
     0
100
AcDbLine
 10
0.4273350229
 20
0.3022694727
 30
0.0
 11
0.3699922394
 21
0.3022694727
 31
0.0
  0
LINE
  5
B3
330
7A
100
AcDbEntity
  8
0
  6
Continuous
 62
     7
370
     0
100
AcDbLine
 10
0.3699922394
 20
0.3022694727
 30
0.0
 11
0.341735876
 21
0.1966387546
 31
0.0
  0
LINE
  5
B4
330
7A
100
AcDbEntity
  8
0
  6
Continuous
 62
     7
370
     0
100
AcDbLine
 10
0.1847713866
 20
0.091
 30
0.0
 11
0.1
 21
0.4079082273
 31
0.0
  0
LINE
  5
B5
330
7A
100
AcDbEntity
  8
0
  6
Continuous
 62
     7
370
     0
100
AcDbLine
 10
0.1
 20
0.4079082273
 30
0.0
 11
0.7656869507
 21
0.4079082273
 31
0.0
  0
LINE
  5
B6
330
7A
100
AcDbEntity
  8
0
  6
Continuous
 62
     7
370
     0
100
AcDbLine
 10
0.7656869507
 20
0.4079082273
 30
0.0
 11
0.8504560411
 21
0.091
 31
0.0
  0
LINE
  5
B7
330
7A
100
AcDbEntity
  8
0
  6
Continuous
 62
     7
370
     0
100
AcDbLine
 10
0.8504560411
 20
0.091
 30
0.0
 11
0.1847713866
 21
0.091
 31
0.0
  0
LINE
  5
B8
330
7A
100
AcDbEntity
  8
0
  6
Continuous
 62
   179
370
     0
100
AcDbLine
 10
2.9436040152
 20
0.3561390999
 30
0.0
 11
2.9547742949
 21
0.3561390999
 31
0.0
  0
LINE
  5
B9
330
7A
100
AcDbEntity
  8
0
  6
Continuous
 62
   179
370
     0
100
AcDbLine
 10
2.9547742949
 20
0.3561390999
 30
0.0
 11
2.9547742949
 21
0.3598628459
 31
0.0
  0
LINE
  5
BA
330
7A
100
AcDbEntity
  8
0
  6
Continuous
 62
   179
370
     0
100
AcDbLine
 10
2.9547742949
 20
0.3598628459
 30
0.0
 11
2.9284197155
 21
0.3598628459
 31
0.0
  0
LINE
  5
BB
330
7A
100
AcDbEntity
  8
0
  6
Continuous
 62
   179
370
     0
100
AcDbLine
 10
2.9284197155
 20
0.3598628459
 30
0.0
 11
2.9284197155
 21
0.3561390999
 31
0.0
  0
LINE
  5
BC
330
7A
100
AcDbEntity
  8
0
  6
Continuous
 62
   179
370
     0
100
AcDbLine
 10
2.9284197155
 20
0.3561390999
 30
0.0
 11
2.9395899953
 21
0.3561390999
 31
0.0
  0
LINE
  5
BD
330
7A
100
AcDbEntity
  8
0
  6
Continuous
 62
   179
370
     0
100
AcDbLine
 10
2.9395899953
 20
0.3561390999
 30
0.0
 11
2.9395899953
 21
0.3260521519
 31
0.0
  0
LINE
  5
BE
330
7A
100
AcDbEntity
  8
0
  6
Continuous
 62
   179
370
     0
100
AcDbLine
 10
2.9395899953
 20
0.3260521519
 30
0.0
 11
2.9436040152
 21
0.3260521519
 31
0.0
  0
LINE
  5
BF
330
7A
100
AcDbEntity
  8
0
  6
Continuous
 62
   179
370
     0
100
AcDbLine
 10
2.9436040152
 20
0.3260521519
 30
0.0
 11
2.9436040152
 21
0.3561390999
 31
0.0
  0
LINE
  5
C0
330
7A
100
AcDbEntity
  8
0
  6
Continuous
 62
   179
370
     0
100
AcDbLine
 10
2.9944134599
 20
0.3260521519
 30
0.0
 11
2.9944134599
 21
0.3598628459
 31
0.0
  0
LINE
  5
C1
330
7A
100
AcDbEntity
  8
0
  6
Continuous
 62
   179
370
     0
100
AcDbLine
 10
2.9944134599
 20
0.3598628459
 30
0.0
 11
2.988584988
 21
0.3598628459
 31
0.0
  0
LINE
  5
C2
330
7A
100
AcDbEntity
  8
0
  6
Continuous
 62
   179
370
     0
100
AcDbLine
 10
2.988584988
 20
0.3598628459
 30
0.0
 11
2.9770305503
 21
0.3333588179
 31
0.0
  0
LINE
  5
C3
330
7A
100
AcDbEntity
  8
0
  6
Continuous
 62
   179
370
     0
100
AcDbLine
 10
2.9770305503
 20
0.3333588179
 30
0.0
 11
2.9769376682
 21
0.3333588179
 31
0.0
  0
LINE
  5
C4
330
7A
100
AcDbEntity
  8
0
  6
Continuous
 62
   179
370
     0
100
AcDbLine
 10
2.9769376682
 20
0.3333588179
 30
0.0
 11
2.9654674906
 21
0.3598628459
 31
0.0
  0
LINE
  5
C5
330
7A
100
AcDbEntity
  8
0
  6
Continuous
 62
   179
370
     0
100
AcDbLine
 10
2.9654674906
 20
0.3598628459
 30
0.0
 11
2.9594991508
 21
0.3598628459
 31
0.0
  0
LINE
  5
C6
330
7A
100
AcDbEntity
  8
0
  6
Continuous
 62
   179
370
     0
100
AcDbLine
 10
2.9594991508
 20
0.3598628459
 30
0.0
 11
2.9594991508
 21
0.3260521519
 31
0.0
  0
LINE
  5
C7
330
7A
100
AcDbEntity
  8
0
  6
Continuous
 62
   179
370
     0
100
AcDbLine
 10
2.9594991508
 20
0.3260521519
 30
0.0
 11
2.9635122127
 21
0.3260521519
 31
0.0
  0
LINE
  5
C8
330
7A
100
AcDbEntity
  8
0
  6
Continuous
 62
   179
370
     0
100
AcDbLine
 10
2.9635122127
 20
0.3260521519
 30
0.0
 11
2.9635122127
 21
0.3544175739
 31
0.0
  0
LINE
  5
C9
330
7A
100
AcDbEntity
  8
0
  6
Continuous
 62
   179
370
     0
100
AcDbLine
 10
2.9635122127
 20
0.3544175739
 30
0.0
 11
2.9636060967
 21
0.3544175739
 31
0.0
  0
LINE
  5
CA
330
7A
100
AcDbEntity
  8
0
  6
Continuous
 62
   179
370
     0
100
AcDbLine
 10
2.9636060967
 20
0.3544175739
 30
0.0
 11
2.9757401682
 21
0.3260521519
 31
0.0
  0
LINE
  5
CB
330
7A
100
AcDbEntity
  8
0
  6
Continuous
 62
   179
370
     0
100
AcDbLine
 10
2.9757401682
 20
0.3260521519
 30
0.0
 11
2.9781724863
 21
0.3260521519
 31
0.0
  0
LINE
  5
CC
330
7A
100
AcDbEntity
  8
0
  6
Continuous
 62
   179
370
     0
100
AcDbLine
 10
2.9781724863
 20
0.3260521519
 30
0.0
 11
2.990316094
 21
0.3544175739
 31
0.0
  0
LINE
  5
CD
330
7A
100
AcDbEntity
  8
0
  6
Continuous
 62
   179
370
     0
100
AcDbLine
 10
2.990316094
 20
0.3544175739
 30
0.0
 11
2.99040902
 21
0.3544175739
 31
0.0
  0
LINE
  5
CE
330
7A
100
AcDbEntity
  8
0
  6
Continuous
 62
   179
370
     0
100
AcDbLine
 10
2.99040902
 20
0.3544175739
 30
0.0
 11
2.99040902
 21
0.3260521519
 31
0.0
  0
LINE
  5
CF
330
7A
100
AcDbEntity
  8
0
  6
Continuous
 62
   179
370
     0
100
AcDbLine
 10
2.99040902
 20
0.3260521519
 30
0.0
 11
2.9944134599
 21
0.3260521519
 31
0.0
  0
LINE
  5
D0
330
7A
100
AcDbEntity
  8
0
  6
Continuous
 62
   179
370
     0
100
AcDbLine
 10
1.750618129
 20
0.2359867399
 30
0.0
 11
1.789934449
 21
0.2359867399
 31
0.0
  0
LINE
  5
D1
330
7A
100
AcDbEntity
  8
0
  6
Continuous
 62
   179
370
     0
100
AcDbLine
 10
1.789934449
 20
0.2359867399
 30
0.0
 11
1.789934449
 21
0.3186046599
 31
0.0
  0
LINE
  5
D2
330
7A
100
AcDbEntity
  8
0
  6
Continuous
 62
   179
370
     0
100
AcDbLine
 10
1.728436597
 20
0.3663647919
 30
0.0
 11
1.578528757
 21
0.3663647919
 31
0.0
  0
LINE
  5
D3
330
7A
100
AcDbEntity
  8
0
  6
Continuous
 62
   179
370
     0
100
AcDbLine
 10
1.578528757
 20
0.3663647919
 30
0.0
 11
1.578528757
 21
0.2359867399
 31
0.0
  0
LINE
  5
D4
330
7A
100
AcDbEntity
  8
0
  6
Continuous
 62
   179
370
     0
100
AcDbLine
 10
1.578528757
 20
0.2359867399
 30
0.0
 11
1.617826875
 21
0.2359867399
 31
0.0
  0
LINE
  5
D5
330
7A
100
AcDbEntity
  8
0
  6
Continuous
 62
   179
370
     0
100
AcDbLine
 10
1.617826875
 20
0.2359867399
 30
0.0
 11
1.617826875
 21
0.3376621539
 31
0.0
  0
LINE
  5
D6
330
7A
100
AcDbEntity
  8
0
  6
Continuous
 62
   179
370
     0
100
AcDbLine
 10
1.617826875
 20
0.3376621539
 30
0.0
 11
1.663602989
 21
0.3376621539
 31
0.0
  0
LINE
  5
D7
330
7A
100
AcDbEntity
  8
0
  6
Continuous
 62
   179
370
     0
100
AcDbLine
 10
1.663602989
 20
0.3376621539
 30
0.0
 11
1.663602989
 21
0.2359867399
 31
0.0
  0
LINE
  5
D8
330
7A
100
AcDbEntity
  8
0
  6
Continuous
 62
   179
370
     0
100
AcDbLine
 10
1.663602989
 20
0.2359867399
 30
0.0
 11
1.703461537
 21
0.2359867399
 31
0.0
  0
LINE
  5
D9
330
7A
100
AcDbEntity
  8
0
  6
Continuous
 62
   179
370
     0
100
AcDbLine
 10
1.703461537
 20
0.2359867399
 30
0.0
 11
1.703461537
 21
0.3376621539
 31
0.0
  0
LINE
  5
DA
330
7A
100
AcDbEntity
  8
0
  6
Continuous
 62
   179
370
     0
100
AcDbLine
 10
1.703461537
 20
0.3376621539
 30
0.0
 11
1.725363333
 21
0.3376621539
 31
0.0
  0
LINE
  5
DB
330
7A
100
AcDbEntity
  8
0
  6
Continuous
 62
   179
370
     0
100
AcDbLine
 10
1.750618129
 20
0.3141614559
 30
0.0
 11
1.750618129
 21
0.2359867399
 31
0.0
  0
LINE
  5
DC
330
7A
100
AcDbEntity
  8
0
  6
Continuous
 62
   179
370
     0
100
AcDbLine
 10
1.882572091
 20
0.2891816059
 30
0.0
 11
1.928601117
 21
0.2891816059
 31
0.0
  0
LINE
  5
DD
330
7A
100
AcDbEntity
  8
0
  6
Continuous
 62
   179
370
     0
100
AcDbLine
 10
1.928601117
 20
0.2891816059
 30
0.0
 11
1.928601117
 21
0.2622100739
 31
0.0
  0
LINE
  5
DE
330
7A
100
AcDbEntity
  8
0
  6
Continuous
 62
   179
370
     0
100
AcDbLine
 10
1.928601117
 20
0.2622100739
 30
0.0
 11
1.879765151
 21
0.2622100739
 31
0.0
  0
LINE
  5
DF
330
7A
100
AcDbEntity
  8
0
  6
Continuous
 62
   179
370
     0
100
AcDbLine
 10
1.863767509
 20
0.2359867399
 30
0.0
 11
1.968745149
 21
0.2359867399
 31
0.0
  0
LINE
  5
E0
330
7A
100
AcDbEntity
  8
0
  6
Continuous
 62
   179
370
     0
100
AcDbLine
 10
1.968745149
 20
0.2359867399
 30
0.0
 11
1.968745149
 21
0.3176322899
 31
0.0
  0
LINE
  5
E1
330
7A
100
AcDbEntity
  8
0
  6
Continuous
 62
   179
370
     0
100
AcDbLine
 10
1.907831677
 20
0.3663647919
 30
0.0
 11
1.827829097
 21
0.3663647919
 31
0.0
  0
LINE
  5
E2
330
7A
100
AcDbEntity
  8
0
  6
Continuous
 62
   179
370
     0
100
AcDbLine
 10
1.827829097
 20
0.3663647919
 30
0.0
 11
1.827829097
 21
0.3393836799
 31
0.0
  0
LINE
  5
E3
330
7A
100
AcDbEntity
  8
0
  6
Continuous
 62
   179
370
     0
100
AcDbLine
 10
1.827829097
 20
0.3393836799
 30
0.0
 11
1.892956811
 21
0.3393836799
 31
0.0
  0
LINE
  5
E4
330
7A
100
AcDbEntity
  8
0
  6
Continuous
 62
   179
370
     0
100
AcDbLine
 10
1.928315633
 20
0.3183709079
 30
0.0
 11
1.928315633
 21
0.3151529859
 31
0.0
  0
LINE
  5
E5
330
7A
100
AcDbEntity
  8
0
  6
Continuous
 62
   179
370
     0
100
AcDbLine
 10
1.928315633
 20
0.3151529859
 30
0.0
 11
1.876949589
 21
0.3151529859
 31
0.0
  0
LINE
  5
E6
330
7A
100
AcDbEntity
  8
0
  6
Continuous
 62
   179
370
     0
100
AcDbLine
 10
2.072895077
 20
0.3116917319
 30
0.0
 11
2.110228337
 21
0.3116917319
 31
0.0
  0
LINE
  5
E7
330
7A
100
AcDbEntity
  8
0
  6
Continuous
 62
   179
370
     0
100
AcDbLine
 10
2.110228337
 20
0.3116917319
 30
0.0
 11
2.110228337
 21
0.3334613239
 31
0.0
  0
LINE
  5
E8
330
7A
100
AcDbEntity
  8
0
  6
Continuous
 62
   179
370
     0
100
AcDbLine
 10
2.068680835
 20
0.3663647919
 30
0.0
 11
2.003000355
 21
0.3663647919
 31
0.0
  0
LINE
  5
E9
330
7A
100
AcDbEntity
  8
0
  6
Continuous
 62
   179
370
     0
100
AcDbLine
 10
2.003000355
 20
0.3663647919
 30
0.0
 11
2.003000355
 21
0.2359867399
 31
0.0
  0
LINE
  5
EA
330
7A
100
AcDbEntity
  8
0
  6
Continuous
 62
   179
370
     0
100
AcDbLine
 10
2.003000355
 20
0.2359867399
 30
0.0
 11
2.042022569
 21
0.2359867399
 31
0.0
  0
LINE
  5
EB
330
7A
100
AcDbEntity
  8
0
  6
Continuous
 62
   179
370
     0
100
AcDbLine
 10
2.042022569
 20
0.2359867399
 30
0.0
 11
2.042022569
 21
0.3413667399
 31
0.0
  0
LINE
  5
EC
330
7A
100
AcDbEntity
  8
0
  6
Continuous
 62
   179
370
     0
100
AcDbLine
 10
2.042022569
 20
0.3413667399
 30
0.0
 11
2.055779449
 21
0.3413667399
 31
0.0
  0
LINE
  5
ED
330
7A
100
AcDbEntity
  8
0
  6
Continuous
 62
   179
370
     0
100
AcDbLine
 10
2.072895077
 20
0.3285122959
 30
0.0
 11
2.072895077
 21
0.3116917319
 31
0.0
  0
LINE
  5
EE
330
7A
100
AcDbEntity
  8
0
  6
Continuous
 62
   179
370
     0
100
AcDbLine
 10
2.1927715085
 20
0.2891816059
 30
0.0
 11
2.2388053234
 21
0.2891816059
 31
0.0
  0
LINE
  5
EF
330
7A
100
AcDbEntity
  8
0
  6
Continuous
 62
   179
370
     0
100
AcDbLine
 10
2.2388053234
 20
0.2891816059
 30
0.0
 11
2.2388053234
 21
0.2622100739
 31
0.0
  0
LINE
  5
F0
330
7A
100
AcDbEntity
  8
0
  6
Continuous
 62
   179
370
     0
100
AcDbLine
 10
2.2388053234
 20
0.2622100739
 30
0.0
 11
2.1899645686
 21
0.2622100739
 31
0.0
  0
LINE
  5
F1
330
7A
100
AcDbEntity
  8
0
  6
Continuous
 62
   179
370
     0
100
AcDbLine
 10
2.173957371
 20
0.2359867399
 30
0.0
 11
2.2789445644
 21
0.2359867399
 31
0.0
  0
LINE
  5
F2
330
7A
100
AcDbEntity
  8
0
  6
Continuous
 62
   179
370
     0
100
AcDbLine
 10
2.2789445644
 20
0.2359867399
 30
0.0
 11
2.2789445644
 21
0.3176322899
 31
0.0
  0
LINE
  5
F3
330
7A
100
AcDbEntity
  8
0
  6
Continuous
 62
   179
370
     0
100
AcDbLine
 10
2.2180358839
 20
0.3663647919
 30
0.0
 11
2.138023749
 21
0.3663647919
 31
0.0
  0
LINE
  5
F4
330
7A
100
AcDbEntity
  8
0
  6
Continuous
 62
   179
370
     0
100
AcDbLine
 10
2.138023749
 20
0.3663647919
 30
0.0
 11
2.138023749
 21
0.3393836799
 31
0.0
  0
LINE
  5
F5
330
7A
100
AcDbEntity
  8
0
  6
Continuous
 62
   179
370
     0
100
AcDbLine
 10
2.138023749
 20
0.3393836799
 30
0.0
 11
2.2031466483
 21
0.3393836799
 31
0.0
  0
LINE
  5
F6
330
7A
100
AcDbEntity
  8
0
  6
Continuous
 62
   179
370
     0
100
AcDbLine
 10
2.2385246294
 20
0.3183709079
 30
0.0
 11
2.2385246294
 21
0.3151529859
 31
0.0
  0
LINE
  5
F7
330
7A
100
AcDbEntity
  8
0
  6
Continuous
 62
   179
370
     0
100
AcDbLine
 10
2.2385246294
 20
0.3151529859
 30
0.0
 11
2.1871585867
 21
0.3151529859
 31
0.0
  0
LINE
  5
F8
330
7A
100
AcDbEntity
  8
0
  6
Continuous
 62
   179
370
     0
100
AcDbLine
 10
2.37073629
 20
0.2359867399
 30
0.0
 11
2.406398827
 21
0.2359867399
 31
0.0
  0
LINE
  5
F9
330
7A
100
AcDbEntity
  8
0
  6
Continuous
 62
   179
370
     0
100
AcDbLine
 10
2.406398827
 20
0.2359867399
 30
0.0
 11
2.406398827
 21
0.2619667419
 31
0.0
  0
LINE
  5
FA
330
7A
100
AcDbEntity
  8
0
  6
Continuous
 62
   179
370
     0
100
AcDbLine
 10
2.406398827
 20
0.2619667419
 30
0.0
 11
2.3904011555
 21
0.2619667419
 31
0.0
  0
LINE
  5
FB
330
7A
100
AcDbEntity
  8
0
  6
Continuous
 62
   179
370
     0
100
AcDbLine
 10
2.3651415702
 20
0.2876947899
 30
0.0
 11
2.3651415702
 21
0.3403943699
 31
0.0
  0
LINE
  5
FC
330
7A
100
AcDbEntity
  8
0
  6
Continuous
 62
   179
370
     0
100
AcDbLine
 10
2.3651415702
 20
0.3403943699
 30
0.0
 11
2.406398827
 21
0.3403943699
 31
0.0
  0
LINE
  5
FD
330
7A
100
AcDbEntity
  8
0
  6
Continuous
 62
   179
370
     0
100
AcDbLine
 10
2.406398827
 20
0.3403943699
 30
0.0
 11
2.406398827
 21
0.3663647919
 31
0.0
  0
LINE
  5
FE
330
7A
100
AcDbEntity
  8
0
  6
Continuous
 62
   179
370
     0
100
AcDbLine
 10
2.406398827
 20
0.3663647919
 30
0.0
 11
2.3651415702
 21
0.3663647919
 31
0.0
  0
LINE
  5
FF
330
7A
100
AcDbEntity
  8
0
  6
Continuous
 62
   179
370
     0
100
AcDbLine
 10
2.3651415702
 20
0.3663647919
 30
0.0
 11
2.3651415702
 21
0.4136095199
 31
0.0
  0
LINE
  5
100
330
7A
100
AcDbEntity
  8
0
  6
Continuous
 62
   179
370
     0
100
AcDbLine
 10
2.3651415702
 20
0.4136095199
 30
0.0
 11
2.3261107352
 21
0.4136095199
 31
0.0
  0
LINE
  5
101
330
7A
100
AcDbEntity
  8
0
  6
Continuous
 62
   179
370
     0
100
AcDbLine
 10
2.3261107352
 20
0.4136095199
 30
0.0
 11
2.3261107352
 21
0.3663647919
 31
0.0
  0
LINE
  5
102
330
7A
100
AcDbEntity
  8
0
  6
Continuous
 62
   179
370
     0
100
AcDbLine
 10
2.3261107352
 20
0.3663647919
 30
0.0
 11
2.2986055979
 21
0.3663647919
 31
0.0
  0
LINE
  5
103
330
7A
100
AcDbEntity
  8
0
  6
Continuous
 62
   179
370
     0
100
AcDbLine
 10
2.2986055979
 20
0.3663647919
 30
0.0
 11
2.2986055979
 21
0.3403943699
 31
0.0
  0
LINE
  5
104
330
7A
100
AcDbEntity
  8
0
  6
Continuous
 62
   179
370
     0
100
AcDbLine
 10
2.2986055979
 20
0.3403943699
 30
0.0
 11
2.3261107352
 21
0.3403943699
 31
0.0
  0
LINE
  5
105
330
7A
100
AcDbEntity
  8
0
  6
Continuous
 62
   179
370
     0
100
AcDbLine
 10
2.3261107352
 20
0.3403943699
 30
0.0
 11
2.3261107352
 21
0.2768138259
 31
0.0
  0
LINE
  5
106
330
7A
100
AcDbEntity
  8
0
  6
Continuous
 62
   179
370
     0
100
AcDbLine
 10
2.5254187981
 20
0.2359867399
 30
0.0
 11
2.5647312851
 21
0.2359867399
 31
0.0
  0
LINE
  5
107
330
7A
100
AcDbEntity
  8
0
  6
Continuous
 62
   179
370
     0
100
AcDbLine
 10
2.5647312851
 20
0.2359867399
 30
0.0
 11
2.5647312851
 21
0.3186046599
 31
0.0
  0
LINE
  5
108
330
7A
100
AcDbEntity
  8
0
  6
Continuous
 62
   179
370
     0
100
AcDbLine
 10
2.5029661527
 20
0.3663647919
 30
0.0
 11
2.4681447696
 21
0.3663647919
 31
0.0
  0
LINE
  5
109
330
7A
100
AcDbEntity
  8
0
  6
Continuous
 62
   179
370
     0
100
AcDbLine
 10
2.4681447696
 20
0.3663647919
 30
0.0
 11
2.4681447696
 21
0.4136095199
 31
0.0
  0
LINE
  5
10A
330
7A
100
AcDbEntity
  8
0
  6
Continuous
 62
   179
370
     0
100
AcDbLine
 10
2.4681447696
 20
0.4136095199
 30
0.0
 11
2.4294137886
 21
0.4136095199
 31
0.0
  0
LINE
  5
10B
330
7A
100
AcDbEntity
  8
0
  6
Continuous
 62
   179
370
     0
100
AcDbLine
 10
2.4294137886
 20
0.4136095199
 30
0.0
 11
2.4294137886
 21
0.2359867399
 31
0.0
  0
LINE
  5
10C
330
7A
100
AcDbEntity
  8
0
  6
Continuous
 62
   179
370
     0
100
AcDbLine
 10
2.4294137886
 20
0.2359867399
 30
0.0
 11
2.4681447696
 21
0.2359867399
 31
0.0
  0
LINE
  5
10D
330
7A
100
AcDbEntity
  8
0
  6
Continuous
 62
   179
370
     0
100
AcDbLine
 10
2.4681447696
 20
0.2359867399
 30
0.0
 11
2.4681447696
 21
0.3376621539
 31
0.0
  0
LINE
  5
10E
330
7A
100
AcDbEntity
  8
0
  6
Continuous
 62
   179
370
     0
100
AcDbLine
 10
2.4681447696
 20
0.3376621539
 30
0.0
 11
2.4993171308
 21
0.3376621539
 31
0.0
  0
LINE
  5
10F
330
7A
100
AcDbEntity
  8
0
  6
Continuous
 62
   179
370
     0
100
AcDbLine
 10
2.5254187981
 20
0.3146567419
 30
0.0
 11
2.5254187981
 21
0.2359867399
 31
0.0
  0
LINE
  5
110
330
7A
100
AcDbEntity
  8
0
  6
Continuous
 62
   179
370
     0
100
AcDbLine
 10
2.8656591955
 20
0.2359867399
 30
0.0
 11
2.9046708705
 21
0.2359867399
 31
0.0
  0
LINE
  5
111
330
7A
100
AcDbEntity
  8
0
  6
Continuous
 62
   179
370
     0
100
AcDbLine
 10
2.9046708705
 20
0.2359867399
 30
0.0
 11
2.9046708705
 21
0.3186046599
 31
0.0
  0
LINE
  5
112
330
7A
100
AcDbEntity
  8
0
  6
Continuous
 62
   179
370
     0
100
AcDbLine
 10
2.8429153181
 20
0.3663647919
 30
0.0
 11
2.769362954
 21
0.3663647919
 31
0.0
  0
LINE
  5
113
330
7A
100
AcDbEntity
  8
0
  6
Continuous
 62
   179
370
     0
100
AcDbLine
 10
2.769362954
 20
0.3663647919
 30
0.0
 11
2.769362954
 21
0.2359867399
 31
0.0
  0
LINE
  5
114
330
7A
100
AcDbEntity
  8
0
  6
Continuous
 62
   179
370
     0
100
AcDbLine
 10
2.769362954
 20
0.2359867399
 30
0.0
 11
2.808393789
 21
0.2359867399
 31
0.0
  0
LINE
  5
115
330
7A
100
AcDbEntity
  8
0
  6
Continuous
 62
   179
370
     0
100
AcDbLine
 10
2.808393789
 20
0.2359867399
 30
0.0
 11
2.808393789
 21
0.3376621539
 31
0.0
  0
LINE
  5
116
330
7A
100
AcDbEntity
  8
0
  6
Continuous
 62
   179
370
     0
100
AcDbLine
 10
2.808393789
 20
0.3376621539
 30
0.0
 11
2.8398382222
 21
0.3376621539
 31
0.0
  0
LINE
  5
117
330
7A
100
AcDbEntity
  8
0
  6
Continuous
 62
   179
370
     0
100
AcDbLine
 10
2.8656591955
 20
0.3144134099
 30
0.0
 11
2.8656591955
 21
0.2359867399
 31
0.0
  0
LINE
  5
118
330
7A
100
AcDbEntity
  8
0
  6
Continuous
 62
   179
370
     0
100
AcDbLine
 10
1.750618129
 20
0.2359867399
 30
0.0
 11
1.789934449
 21
0.2359867399
 31
0.0
  0
LINE
  5
119
330
7A
100
AcDbEntity
  8
0
  6
Continuous
 62
   179
370
     0
100
AcDbLine
 10
1.789934449
 20
0.2359867399
 30
0.0
 11
1.789934449
 21
0.3186046599
 31
0.0
  0
LINE
  5
11A
330
7A
100
AcDbEntity
  8
0
  6
Continuous
 62
   179
370
     0
100
AcDbLine
 10
1.728436597
 20
0.3663647919
 30
0.0
 11
1.578528757
 21
0.3663647919
 31
0.0
  0
LINE
  5
11B
330
7A
100
AcDbEntity
  8
0
  6
Continuous
 62
   179
370
     0
100
AcDbLine
 10
1.578528757
 20
0.3663647919
 30
0.0
 11
1.578528757
 21
0.2359867399
 31
0.0
  0
LINE
  5
11C
330
7A
100
AcDbEntity
  8
0
  6
Continuous
 62
   179
370
     0
100
AcDbLine
 10
1.578528757
 20
0.2359867399
 30
0.0
 11
1.617826875
 21
0.2359867399
 31
0.0
  0
LINE
  5
11D
330
7A
100
AcDbEntity
  8
0
  6
Continuous
 62
   179
370
     0
100
AcDbLine
 10
1.617826875
 20
0.2359867399
 30
0.0
 11
1.617826875
 21
0.3376621539
 31
0.0
  0
LINE
  5
11E
330
7A
100
AcDbEntity
  8
0
  6
Continuous
 62
   179
370
     0
100
AcDbLine
 10
1.617826875
 20
0.3376621539
 30
0.0
 11
1.663602989
 21
0.3376621539
 31
0.0
  0
LINE
  5
11F
330
7A
100
AcDbEntity
  8
0
  6
Continuous
 62
   179
370
     0
100
AcDbLine
 10
1.663602989
 20
0.3376621539
 30
0.0
 11
1.663602989
 21
0.2359867399
 31
0.0
  0
LINE
  5
120
330
7A
100
AcDbEntity
  8
0
  6
Continuous
 62
   179
370
     0
100
AcDbLine
 10
1.663602989
 20
0.2359867399
 30
0.0
 11
1.703461537
 21
0.2359867399
 31
0.0
  0
LINE
  5
121
330
7A
100
AcDbEntity
  8
0
  6
Continuous
 62
   179
370
     0
100
AcDbLine
 10
1.703461537
 20
0.2359867399
 30
0.0
 11
1.703461537
 21
0.3376621539
 31
0.0
  0
LINE
  5
122
330
7A
100
AcDbEntity
  8
0
  6
Continuous
 62
   179
370
     0
100
AcDbLine
 10
1.703461537
 20
0.3376621539
 30
0.0
 11
1.725363333
 21
0.3376621539
 31
0.0
  0
LINE
  5
123
330
7A
100
AcDbEntity
  8
0
  6
Continuous
 62
   179
370
     0
100
AcDbLine
 10
1.750618129
 20
0.3141614559
 30
0.0
 11
1.750618129
 21
0.2359867399
 31
0.0
  0
LINE
  5
124
330
7A
100
AcDbEntity
  8
0
  6
Continuous
 62
   179
370
     0
100
AcDbLine
 10
1.882572091
 20
0.2891816059
 30
0.0
 11
1.928601117
 21
0.2891816059
 31
0.0
  0
LINE
  5
125
330
7A
100
AcDbEntity
  8
0
  6
Continuous
 62
   179
370
     0
100
AcDbLine
 10
1.928601117
 20
0.2891816059
 30
0.0
 11
1.928601117
 21
0.2622100739
 31
0.0
  0
LINE
  5
126
330
7A
100
AcDbEntity
  8
0
  6
Continuous
 62
   179
370
     0
100
AcDbLine
 10
1.928601117
 20
0.2622100739
 30
0.0
 11
1.879765151
 21
0.2622100739
 31
0.0
  0
LINE
  5
127
330
7A
100
AcDbEntity
  8
0
  6
Continuous
 62
   179
370
     0
100
AcDbLine
 10
2.072895077
 20
0.3116917319
 30
0.0
 11
2.110228337
 21
0.3116917319
 31
0.0
  0
LINE
  5
128
330
7A
100
AcDbEntity
  8
0
  6
Continuous
 62
   179
370
     0
100
AcDbLine
 10
2.110228337
 20
0.3116917319
 30
0.0
 11
2.110228337
 21
0.3334613239
 31
0.0
  0
LINE
  5
129
330
7A
100
AcDbEntity
  8
0
  6
Continuous
 62
   179
370
     0
100
AcDbLine
 10
2.068680835
 20
0.3663647919
 30
0.0
 11
2.003000355
 21
0.3663647919
 31
0.0
  0
LINE
  5
12A
330
7A
100
AcDbEntity
  8
0
  6
Continuous
 62
   179
370
     0
100
AcDbLine
 10
2.003000355
 20
0.3663647919
 30
0.0
 11
2.003000355
 21
0.2359867399
 31
0.0
  0
LINE
  5
12B
330
7A
100
AcDbEntity
  8
0
  6
Continuous
 62
   179
370
     0
100
AcDbLine
 10
2.003000355
 20
0.2359867399
 30
0.0
 11
2.042022569
 21
0.2359867399
 31
0.0
  0
LINE
  5
12C
330
7A
100
AcDbEntity
  8
0
  6
Continuous
 62
   179
370
     0
100
AcDbLine
 10
2.042022569
 20
0.2359867399
 30
0.0
 11
2.042022569
 21
0.3413667399
 31
0.0
  0
LINE
  5
12D
330
7A
100
AcDbEntity
  8
0
  6
Continuous
 62
   179
370
     0
100
AcDbLine
 10
2.042022569
 20
0.3413667399
 30
0.0
 11
2.055779449
 21
0.3413667399
 31
0.0
  0
LINE
  5
12E
330
7A
100
AcDbEntity
  8
0
  6
Continuous
 62
   179
370
     0
100
AcDbLine
 10
2.072895077
 20
0.3285122959
 30
0.0
 11
2.072895077
 21
0.3116917319
 31
0.0
  0
LINE
  5
12F
330
7A
100
AcDbEntity
  8
0
  6
Continuous
 62
   179
370
     0
100
AcDbLine
 10
2.1927715085
 20
0.2891816059
 30
0.0
 11
2.2388053234
 21
0.2891816059
 31
0.0
  0
LINE
  5
130
330
7A
100
AcDbEntity
  8
0
  6
Continuous
 62
   179
370
     0
100
AcDbLine
 10
2.2388053234
 20
0.2891816059
 30
0.0
 11
2.2388053234
 21
0.2622100739
 31
0.0
  0
LINE
  5
131
330
7A
100
AcDbEntity
  8
0
  6
Continuous
 62
   179
370
     0
100
AcDbLine
 10
2.2388053234
 20
0.2622100739
 30
0.0
 11
2.1899645686
 21
0.2622100739
 31
0.0
  0
LINE
  5
132
330
7A
100
AcDbEntity
  8
0
  6
Continuous
 62
   179
370
     0
100
AcDbLine
 10
2.5254187981
 20
0.2359867399
 30
0.0
 11
2.5647312851
 21
0.2359867399
 31
0.0
  0
LINE
  5
133
330
7A
100
AcDbEntity
  8
0
  6
Continuous
 62
   179
370
     0
100
AcDbLine
 10
2.5647312851
 20
0.2359867399
 30
0.0
 11
2.5647312851
 21
0.3186046599
 31
0.0
  0
LINE
  5
134
330
7A
100
AcDbEntity
  8
0
  6
Continuous
 62
   179
370
     0
100
AcDbLine
 10
2.5029661527
 20
0.3663647919
 30
0.0
 11
2.4681447696
 21
0.3663647919
 31
0.0
  0
LINE
  5
135
330
7A
100
AcDbEntity
  8
0
  6
Continuous
 62
   179
370
     0
100
AcDbLine
 10
2.4681447696
 20
0.3663647919
 30
0.0
 11
2.4681447696
 21
0.4136095199
 31
0.0
  0
LINE
  5
136
330
7A
100
AcDbEntity
  8
0
  6
Continuous
 62
   179
370
     0
100
AcDbLine
 10
2.4681447696
 20
0.4136095199
 30
0.0
 11
2.4294137886
 21
0.4136095199
 31
0.0
  0
LINE
  5
137
330
7A
100
AcDbEntity
  8
0
  6
Continuous
 62
   179
370
     0
100
AcDbLine
 10
2.4294137886
 20
0.4136095199
 30
0.0
 11
2.4294137886
 21
0.2359867399
 31
0.0
  0
LINE
  5
138
330
7A
100
AcDbEntity
  8
0
  6
Continuous
 62
   179
370
     0
100
AcDbLine
 10
2.4294137886
 20
0.2359867399
 30
0.0
 11
2.4681447696
 21
0.2359867399
 31
0.0
  0
LINE
  5
139
330
7A
100
AcDbEntity
  8
0
  6
Continuous
 62
   179
370
     0
100
AcDbLine
 10
2.4681447696
 20
0.2359867399
 30
0.0
 11
2.4681447696
 21
0.3376621539
 31
0.0
  0
LINE
  5
13A
330
7A
100
AcDbEntity
  8
0
  6
Continuous
 62
   179
370
     0
100
AcDbLine
 10
2.4681447696
 20
0.3376621539
 30
0.0
 11
2.4993171308
 21
0.3376621539
 31
0.0
  0
LINE
  5
13B
330
7A
100
AcDbEntity
  8
0
  6
Continuous
 62
   179
370
     0
100
AcDbLine
 10
2.5254187981
 20
0.3146567419
 30
0.0
 11
2.5254187981
 21
0.2359867399
 31
0.0
  0
LINE
  5
13C
330
7A
100
AcDbEntity
  8
0
  6
Continuous
 62
   179
370
     0
100
AcDbLine
 10
2.8656591955
 20
0.2359867399
 30
0.0
 11
2.9046708705
 21
0.2359867399
 31
0.0
  0
LINE
  5
13D
330
7A
100
AcDbEntity
  8
0
  6
Continuous
 62
   179
370
     0
100
AcDbLine
 10
2.9046708705
 20
0.2359867399
 30
0.0
 11
2.9046708705
 21
0.3186046599
 31
0.0
  0
LINE
  5
13E
330
7A
100
AcDbEntity
  8
0
  6
Continuous
 62
   179
370
     0
100
AcDbLine
 10
2.8429153181
 20
0.3663647919
 30
0.0
 11
2.769362954
 21
0.3663647919
 31
0.0
  0
LINE
  5
13F
330
7A
100
AcDbEntity
  8
0
  6
Continuous
 62
   179
370
     0
100
AcDbLine
 10
2.769362954
 20
0.3663647919
 30
0.0
 11
2.769362954
 21
0.2359867399
 31
0.0
  0
LINE
  5
140
330
7A
100
AcDbEntity
  8
0
  6
Continuous
 62
   179
370
     0
100
AcDbLine
 10
2.769362954
 20
0.2359867399
 30
0.0
 11
2.808393789
 21
0.2359867399
 31
0.0
  0
LINE
  5
141
330
7A
100
AcDbEntity
  8
0
  6
Continuous
 62
   179
370
     0
100
AcDbLine
 10
2.808393789
 20
0.2359867399
 30
0.0
 11
2.808393789
 21
0.3376621539
 31
0.0
  0
LINE
  5
142
330
7A
100
AcDbEntity
  8
0
  6
Continuous
 62
   179
370
     0
100
AcDbLine
 10
2.808393789
 20
0.3376621539
 30
0.0
 11
2.8398382222
 21
0.3376621539
 31
0.0
  0
LINE
  5
143
330
7A
100
AcDbEntity
  8
0
  6
Continuous
 62
   179
370
     0
100
AcDbLine
 10
2.8656591955
 20
0.3144134099
 30
0.0
 11
2.8656591955
 21
0.2359867399
 31
0.0
  0
LINE
  5
144
330
7A
100
AcDbEntity
  8
0
  6
Continuous
 62
   179
370
     0
100
AcDbLine
 10
1.863767509
 20
0.2359867399
 30
0.0
 11
1.968745149
 21
0.2359867399
 31
0.0
  0
LINE
  5
145
330
7A
100
AcDbEntity
  8
0
  6
Continuous
 62
   179
370
     0
100
AcDbLine
 10
1.968745149
 20
0.2359867399
 30
0.0
 11
1.968745149
 21
0.3176322899
 31
0.0
  0
LINE
  5
146
330
7A
100
AcDbEntity
  8
0
  6
Continuous
 62
   179
370
     0
100
AcDbLine
 10
1.907831677
 20
0.3663647919
 30
0.0
 11
1.827829097
 21
0.3663647919
 31
0.0
  0
LINE
  5
147
330
7A
100
AcDbEntity
  8
0
  6
Continuous
 62
   179
370
     0
100
AcDbLine
 10
1.827829097
 20
0.3663647919
 30
0.0
 11
1.827829097
 21
0.3393836799
 31
0.0
  0
LINE
  5
148
330
7A
100
AcDbEntity
  8
0
  6
Continuous
 62
   179
370
     0
100
AcDbLine
 10
1.827829097
 20
0.3393836799
 30
0.0
 11
1.892956811
 21
0.3393836799
 31
0.0
  0
LINE
  5
149
330
7A
100
AcDbEntity
  8
0
  6
Continuous
 62
   179
370
     0
100
AcDbLine
 10
1.928315633
 20
0.3183709079
 30
0.0
 11
1.928315633
 21
0.3151529859
 31
0.0
  0
LINE
  5
14A
330
7A
100
AcDbEntity
  8
0
  6
Continuous
 62
   179
370
     0
100
AcDbLine
 10
1.928315633
 20
0.3151529859
 30
0.0
 11
1.876949589
 21
0.3151529859
 31
0.0
  0
LINE
  5
14B
330
7A
100
AcDbEntity
  8
0
  6
Continuous
 62
   179
370
     0
100
AcDbLine
 10
2.173957371
 20
0.2359867399
 30
0.0
 11
2.2789445644
 21
0.2359867399
 31
0.0
  0
LINE
  5
14C
330
7A
100
AcDbEntity
  8
0
  6
Continuous
 62
   179
370
     0
100
AcDbLine
 10
2.2789445644
 20
0.2359867399
 30
0.0
 11
2.2789445644
 21
0.3176322899
 31
0.0
  0
LINE
  5
14D
330
7A
100
AcDbEntity
  8
0
  6
Continuous
 62
   179
370
     0
100
AcDbLine
 10
2.2180358839
 20
0.3663647919
 30
0.0
 11
2.138023749
 21
0.3663647919
 31
0.0
  0
LINE
  5
14E
330
7A
100
AcDbEntity
  8
0
  6
Continuous
 62
   179
370
     0
100
AcDbLine
 10
2.138023749
 20
0.3663647919
 30
0.0
 11
2.138023749
 21
0.3393836799
 31
0.0
  0
LINE
  5
14F
330
7A
100
AcDbEntity
  8
0
  6
Continuous
 62
   179
370
     0
100
AcDbLine
 10
2.138023749
 20
0.3393836799
 30
0.0
 11
2.2031466483
 21
0.3393836799
 31
0.0
  0
LINE
  5
150
330
7A
100
AcDbEntity
  8
0
  6
Continuous
 62
   179
370
     0
100
AcDbLine
 10
2.2385246294
 20
0.3183709079
 30
0.0
 11
2.2385246294
 21
0.3151529859
 31
0.0
  0
LINE
  5
151
330
7A
100
AcDbEntity
  8
0
  6
Continuous
 62
   179
370
     0
100
AcDbLine
 10
2.2385246294
 20
0.3151529859
 30
0.0
 11
2.1871585867
 21
0.3151529859
 31
0.0
  0
LINE
  5
152
330
7A
100
AcDbEntity
  8
0
  6
Continuous
 62
   179
370
     0
100
AcDbLine
 10
2.37073629
 20
0.2359867399
 30
0.0
 11
2.406398827
 21
0.2359867399
 31
0.0
  0
LINE
  5
153
330
7A
100
AcDbEntity
  8
0
  6
Continuous
 62
   179
370
     0
100
AcDbLine
 10
2.406398827
 20
0.2359867399
 30
0.0
 11
2.406398827
 21
0.2619667419
 31
0.0
  0
LINE
  5
154
330
7A
100
AcDbEntity
  8
0
  6
Continuous
 62
   179
370
     0
100
AcDbLine
 10
2.406398827
 20
0.2619667419
 30
0.0
 11
2.3904011555
 21
0.2619667419
 31
0.0
  0
LINE
  5
155
330
7A
100
AcDbEntity
  8
0
  6
Continuous
 62
   179
370
     0
100
AcDbLine
 10
2.3651415702
 20
0.2876947899
 30
0.0
 11
2.3651415702
 21
0.3403943699
 31
0.0
  0
LINE
  5
156
330
7A
100
AcDbEntity
  8
0
  6
Continuous
 62
   179
370
     0
100
AcDbLine
 10
2.3651415702
 20
0.3403943699
 30
0.0
 11
2.406398827
 21
0.3403943699
 31
0.0
  0
LINE
  5
157
330
7A
100
AcDbEntity
  8
0
  6
Continuous
 62
   179
370
     0
100
AcDbLine
 10
2.406398827
 20
0.3403943699
 30
0.0
 11
2.406398827
 21
0.3663647919
 31
0.0
  0
LINE
  5
158
330
7A
100
AcDbEntity
  8
0
  6
Continuous
 62
   179
370
     0
100
AcDbLine
 10
2.406398827
 20
0.3663647919
 30
0.0
 11
2.3651415702
 21
0.3663647919
 31
0.0
  0
LINE
  5
159
330
7A
100
AcDbEntity
  8
0
  6
Continuous
 62
   179
370
     0
100
AcDbLine
 10
2.3651415702
 20
0.3663647919
 30
0.0
 11
2.3651415702
 21
0.4136095199
 31
0.0
  0
LINE
  5
15A
330
7A
100
AcDbEntity
  8
0
  6
Continuous
 62
   179
370
     0
100
AcDbLine
 10
2.3651415702
 20
0.4136095199
 30
0.0
 11
2.3261107352
 21
0.4136095199
 31
0.0
  0
LINE
  5
15B
330
7A
100
AcDbEntity
  8
0
  6
Continuous
 62
   179
370
     0
100
AcDbLine
 10
2.3261107352
 20
0.4136095199
 30
0.0
 11
2.3261107352
 21
0.3663647919
 31
0.0
  0
LINE
  5
15C
330
7A
100
AcDbEntity
  8
0
  6
Continuous
 62
   179
370
     0
100
AcDbLine
 10
2.3261107352
 20
0.3663647919
 30
0.0
 11
2.2986055979
 21
0.3663647919
 31
0.0
  0
LINE
  5
15D
330
7A
100
AcDbEntity
  8
0
  6
Continuous
 62
   179
370
     0
100
AcDbLine
 10
2.2986055979
 20
0.3663647919
 30
0.0
 11
2.2986055979
 21
0.3403943699
 31
0.0
  0
LINE
  5
15E
330
7A
100
AcDbEntity
  8
0
  6
Continuous
 62
   179
370
     0
100
AcDbLine
 10
2.2986055979
 20
0.3403943699
 30
0.0
 11
2.3261107352
 21
0.3403943699
 31
0.0
  0
LINE
  5
15F
330
7A
100
AcDbEntity
  8
0
  6
Continuous
 62
   179
370
     0
100
AcDbLine
 10
2.3261107352
 20
0.3403943699
 30
0.0
 11
2.3261107352
 21
0.2768138259
 31
0.0
  0
LINE
  5
160
330
7A
100
AcDbEntity
  8
0
  6
Continuous
 62
   179
370
     0
100
AcDbLine
 10
1.578533547
 20
0.1247600659
 30
0.0
 11
2.060326117
 21
0.1247600659
 31
0.0
  0
LINE
  5
161
330
7A
100
AcDbEntity
  8
0
  6
Continuous
 62
   179
370
     0
100
AcDbLine
 10
2.060326117
 20
0.1247600659
 30
0.0
 11
2.060326117
 21
0.1377917399
 31
0.0
  0
LINE
  5
162
330
7A
100
AcDbEntity
  8
0
  6
Continuous
 62
   179
370
     0
100
AcDbLine
 10
2.060326117
 20
0.1377917399
 30
0.0
 11
1.578533547
 21
0.1377917399
 31
0.0
  0
LINE
  5
163
330
7A
100
AcDbEntity
  8
0
  6
Continuous
 62
   179
370
     0
100
AcDbLine
 10
1.578533547
 20
0.1377917399
 30
0.0
 11
1.578533547
 21
0.1247600659
 31
0.0
  0
LINE
  5
164
330
7A
100
AcDbEntity
  8
0
  6
Continuous
 62
   179
370
     0
100
AcDbLine
 10
1.578533547
 20
0.1247600659
 30
0.0
 11
2.060326117
 21
0.1247600659
 31
0.0
  0
LINE
  5
165
330
7A
100
AcDbEntity
  8
0
  6
Continuous
 62
   179
370
     0
100
AcDbLine
 10
2.060326117
 20
0.1247600659
 30
0.0
 11
2.060326117
 21
0.1377917399
 31
0.0
  0
LINE
  5
166
330
7A
100
AcDbEntity
  8
0
  6
Continuous
 62
   179
370
     0
100
AcDbLine
 10
2.060326117
 20
0.1377917399
 30
0.0
 11
1.578533547
 21
0.1377917399
 31
0.0
  0
LINE
  5
167
330
7A
100
AcDbEntity
  8
0
  6
Continuous
 62
   179
370
     0
100
AcDbLine
 10
1.578533547
 20
0.1377917399
 30
0.0
 11
1.578533547
 21
0.1247600659
 31
0.0
  0
LINE
  5
168
330
7A
100
AcDbEntity
  8
0
  6
Continuous
 62
   179
370
     0
100
AcDbLine
 10
2.080875217
 20
0.1118213179
 30
0.0
 11
2.086372221
 21
0.1229446559
 31
0.0
  0
LINE
  5
169
330
7A
100
AcDbEntity
  8
0
  6
Continuous
 62
   179
370
     0
100
AcDbLine
 10
2.131221949
 20
0.1855145099
 30
0.0
 11
2.125725903
 21
0.1742685479
 31
0.0
  0
LINE
  5
16A
330
7A
100
AcDbEntity
  8
0
  6
Continuous
 62
   179
370
     0
100
AcDbLine
 10
2.080875217
 20
0.1118213179
 30
0.0
 11
2.086372221
 21
0.1229446559
 31
0.0
  0
LINE
  5
16B
330
7A
100
AcDbEntity
  8
0
  6
Continuous
 62
   179
370
     0
100
AcDbLine
 10
2.131221949
 20
0.1855145099
 30
0.0
 11
2.125725903
 21
0.1742685479
 31
0.0
  0
LINE
  5
16C
330
7A
100
AcDbEntity
  8
0
  6
Continuous
 62
   179
370
     0
100
AcDbLine
 10
2.146466603
 20
0.1670653459
 30
0.0
 11
2.157589941
 21
0.1670653459
 31
0.0
  0
LINE
  5
16D
330
7A
100
AcDbEntity
  8
0
  6
Continuous
 62
   179
370
     0
100
AcDbLine
 10
2.157589941
 20
0.1670653459
 30
0.0
 11
2.159176389
 21
0.1605816019
 31
0.0
  0
LINE
  5
16E
330
7A
100
AcDbEntity
  8
0
  6
Continuous
 62
   179
370
     0
100
AcDbLine
 10
2.160401671
 20
0.1098660399
 30
0.0
 11
2.160401671
 21
0.0811538219
 31
0.0
  0
LINE
  5
16F
330
7A
100
AcDbEntity
  8
0
  6
Continuous
 62
   179
370
     0
100
AcDbLine
 10
2.160401671
 20
0.0811538219
 30
0.0
 11
2.146466603
 21
0.0811538219
 31
0.0
  0
LINE
  5
170
330
7A
100
AcDbEntity
  8
0
  6
Continuous
 62
   179
370
     0
100
AcDbLine
 10
2.146466603
 20
0.0811538219
 30
0.0
 11
2.146466603
 21
0.1670653459
 31
0.0
  0
LINE
  5
171
330
7A
100
AcDbEntity
  8
0
  6
Continuous
 62
   179
370
     0
100
AcDbLine
 10
2.160401671
 20
0.1517881199
 30
0.0
 11
2.160401671
 21
0.1197640959
 31
0.0
  0
LINE
  5
172
330
7A
100
AcDbEntity
  8
0
  6
Continuous
 62
   179
370
     0
100
AcDbLine
 10
2.146466603
 20
0.1670653459
 30
0.0
 11
2.157589941
 21
0.1670653459
 31
0.0
  0
LINE
  5
173
330
7A
100
AcDbEntity
  8
0
  6
Continuous
 62
   179
370
     0
100
AcDbLine
 10
2.157589941
 20
0.1670653459
 30
0.0
 11
2.159176389
 21
0.1605816019
 31
0.0
  0
LINE
  5
174
330
7A
100
AcDbEntity
  8
0
  6
Continuous
 62
   179
370
     0
100
AcDbLine
 10
2.160401671
 20
0.1098660399
 30
0.0
 11
2.160401671
 21
0.0811538219
 31
0.0
  0
LINE
  5
175
330
7A
100
AcDbEntity
  8
0
  6
Continuous
 62
   179
370
     0
100
AcDbLine
 10
2.160401671
 20
0.0811538219
 30
0.0
 11
2.146466603
 21
0.0811538219
 31
0.0
  0
LINE
  5
176
330
7A
100
AcDbEntity
  8
0
  6
Continuous
 62
   179
370
     0
100
AcDbLine
 10
2.146466603
 20
0.0811538219
 30
0.0
 11
2.146466603
 21
0.1670653459
 31
0.0
  0
LINE
  5
177
330
7A
100
AcDbEntity
  8
0
  6
Continuous
 62
   179
370
     0
100
AcDbLine
 10
2.160401671
 20
0.1517881199
 30
0.0
 11
2.160401671
 21
0.1197640959
 31
0.0
  0
LINE
  5
178
330
7A
100
AcDbEntity
  8
0
  6
Continuous
 62
   179
370
     0
100
AcDbLine
 10
2.2565426929
 20
0.1367532679
 30
0.0
 11
2.2565426929
 21
0.1322343819
 31
0.0
  0
LINE
  5
179
330
7A
100
AcDbEntity
  8
0
  6
Continuous
 62
   179
370
     0
100
AcDbLine
 10
2.2565426929
 20
0.1322343819
 30
0.0
 11
2.2218391438
 21
0.1322343819
 31
0.0
  0
LINE
  5
17A
330
7A
100
AcDbEntity
  8
0
  6
Continuous
 62
   179
370
     0
100
AcDbLine
 10
2.248721607
 20
0.1203810479
 30
0.0
 11
2.255322227
 21
0.1108479899
 31
0.0
  0
LINE
  5
17B
330
7A
100
AcDbEntity
  8
0
  6
Continuous
 62
   179
370
     0
100
AcDbLine
 10
2.2219608098
 20
0.1421324379
 30
0.0
 11
2.2422483753
 21
0.1421324379
 31
0.0
  0
LINE
  5
17C
330
7A
100
AcDbEntity
  8
0
  6
Continuous
 62
   179
370
     0
100
AcDbLine
 10
2.2565426929
 20
0.1367532679
 30
0.0
 11
2.2565426929
 21
0.1322343819
 31
0.0
  0
LINE
  5
17D
330
7A
100
AcDbEntity
  8
0
  6
Continuous
 62
   179
370
     0
100
AcDbLine
 10
2.2565426929
 20
0.1322343819
 30
0.0
 11
2.2218391438
 21
0.1322343819
 31
0.0
  0
LINE
  5
17E
330
7A
100
AcDbEntity
  8
0
  6
Continuous
 62
   179
370
     0
100
AcDbLine
 10
2.248721607
 20
0.1203810479
 30
0.0
 11
2.255322227
 21
0.1108479899
 31
0.0
  0
LINE
  5
17F
330
7A
100
AcDbEntity
  8
0
  6
Continuous
 62
   179
370
     0
100
AcDbLine
 10
2.2219608098
 20
0.1421324379
 30
0.0
 11
2.2422483753
 21
0.1421324379
 31
0.0
  0
LINE
  5
180
330
7A
100
AcDbEntity
  8
0
  6
Continuous
 62
   179
370
     0
100
AcDbLine
 10
2.3100374116
 20
0.1615645099
 30
0.0
 11
2.3028342098
 21
0.1522738259
 31
0.0
  0
LINE
  5
181
330
7A
100
AcDbEntity
  8
0
  6
Continuous
 62
   179
370
     0
100
AcDbLine
 10
2.3036944937
 20
0.1201377159
 30
0.0
 11
2.3105240756
 21
0.1109696559
 31
0.0
  0
LINE
  5
182
330
7A
100
AcDbEntity
  8
0
  6
Continuous
 62
   179
370
     0
100
AcDbLine
 10
2.3100374116
 20
0.1615645099
 30
0.0
 11
2.3028342098
 21
0.1522738259
 31
0.0
  0
LINE
  5
183
330
7A
100
AcDbEntity
  8
0
  6
Continuous
 62
   179
370
     0
100
AcDbLine
 10
2.3036944937
 20
0.1201377159
 30
0.0
 11
2.3105240756
 21
0.1109696559
 31
0.0
  0
LINE
  5
184
330
7A
100
AcDbEntity
  8
0
  6
Continuous
 62
   179
370
     0
100
AcDbLine
 10
2.3255301872
 20
0.1565493799
 30
0.0
 11
2.3174657434
 21
0.1580179939
 31
0.0
  0
LINE
  5
185
330
7A
100
AcDbEntity
  8
0
  6
Continuous
 62
   179
370
     0
100
AcDbLine
 10
2.3174657434
 20
0.1580179939
 30
0.0
 11
2.3174657434
 21
0.1670653459
 31
0.0
  0
LINE
  5
186
330
7A
100
AcDbEntity
  8
0
  6
Continuous
 62
   179
370
     0
100
AcDbLine
 10
2.3174657434
 20
0.1670653459
 30
0.0
 11
2.339338827
 21
0.1670653459
 31
0.0
  0
LINE
  5
187
330
7A
100
AcDbEntity
  8
0
  6
Continuous
 62
   179
370
     0
100
AcDbLine
 10
2.339338827
 20
0.1670653459
 30
0.0
 11
2.339338827
 21
0.1052254879
 31
0.0
  0
LINE
  5
188
330
7A
100
AcDbEntity
  8
0
  6
Continuous
 62
   179
370
     0
100
AcDbLine
 10
2.339338827
 20
0.1052254879
 30
0.0
 11
2.3255301872
 21
0.1052254879
 31
0.0
  0
LINE
  5
189
330
7A
100
AcDbEntity
  8
0
  6
Continuous
 62
   179
370
     0
100
AcDbLine
 10
2.3255301872
 20
0.1052254879
 30
0.0
 11
2.3255301872
 21
0.1565493799
 31
0.0
  0
LINE
  5
18A
330
7A
100
AcDbEntity
  8
0
  6
Continuous
 62
   179
370
     0
100
AcDbLine
 10
2.3255301872
 20
0.1565493799
 30
0.0
 11
2.3174657434
 21
0.1580179939
 31
0.0
  0
LINE
  5
18B
330
7A
100
AcDbEntity
  8
0
  6
Continuous
 62
   179
370
     0
100
AcDbLine
 10
2.3174657434
 20
0.1580179939
 30
0.0
 11
2.3174657434
 21
0.1670653459
 31
0.0
  0
LINE
  5
18C
330
7A
100
AcDbEntity
  8
0
  6
Continuous
 62
   179
370
     0
100
AcDbLine
 10
2.3174657434
 20
0.1670653459
 30
0.0
 11
2.339338827
 21
0.1670653459
 31
0.0
  0
LINE
  5
18D
330
7A
100
AcDbEntity
  8
0
  6
Continuous
 62
   179
370
     0
100
AcDbLine
 10
2.339338827
 20
0.1670653459
 30
0.0
 11
2.339338827
 21
0.1052254879
 31
0.0
  0
LINE
  5
18E
330
7A
100
AcDbEntity
  8
0
  6
Continuous
 62
   179
370
     0
100
AcDbLine
 10
2.339338827
 20
0.1052254879
 30
0.0
 11
2.3255301872
 21
0.1052254879
 31
0.0
  0
LINE
  5
18F
330
7A
100
AcDbEntity
  8
0
  6
Continuous
 62
   179
370
     0
100
AcDbLine
 10
2.3255301872
 20
0.1052254879
 30
0.0
 11
2.3255301872
 21
0.1565493799
 31
0.0
  0
LINE
  5
190
330
7A
100
AcDbEntity
  8
0
  6
Continuous
 62
   179
370
     0
100
AcDbLine
 10
2.3805030998
 20
0.1436020099
 30
0.0
 11
2.3849003197
 21
0.1436020099
 31
0.0
  0
LINE
  5
191
330
7A
100
AcDbEntity
  8
0
  6
Continuous
 62
   179
370
     0
100
AcDbLine
 10
2.3849003197
 20
0.1436020099
 30
0.0
 11
2.3849003197
 21
0.1471379879
 31
0.0
  0
LINE
  5
192
330
7A
100
AcDbEntity
  8
0
  6
Continuous
 62
   179
370
     0
100
AcDbLine
 10
2.3599769923
 20
0.1515447879
 30
0.0
 11
2.3548507344
 21
0.1614428439
 31
0.0
  0
LINE
  5
193
330
7A
100
AcDbEntity
  8
0
  6
Continuous
 62
   179
370
     0
100
AcDbLine
 10
2.398840207
 20
0.1493461779
 30
0.0
 11
2.398840207
 21
0.1052254879
 31
0.0
  0
LINE
  5
194
330
7A
100
AcDbEntity
  8
0
  6
Continuous
 62
   179
370
     0
100
AcDbLine
 10
2.398840207
 20
0.1052254879
 30
0.0
 11
2.3879687936
 21
0.1052254879
 31
0.0
  0
LINE
  5
195
330
7A
100
AcDbEntity
  8
0
  6
Continuous
 62
   179
370
     0
100
AcDbLine
 10
2.3879687936
 20
0.1052254879
 30
0.0
 11
2.3862472676
 21
0.1106046579
 31
0.0
  0
LINE
  5
196
330
7A
100
AcDbEntity
  8
0
  6
Continuous
 62
   179
370
     0
100
AcDbLine
 10
2.3849003197
 20
0.1189124339
 30
0.0
 11
2.3849003197
 21
0.1345546579
 31
0.0
  0
LINE
  5
197
330
7A
100
AcDbEntity
  8
0
  6
Continuous
 62
   179
370
     0
100
AcDbLine
 10
2.3849003197
 20
0.1345546579
 30
0.0
 11
2.3827112897
 21
0.1345546579
 31
0.0
  0
LINE
  5
198
330
7A
100
AcDbEntity
  8
0
  6
Continuous
 62
   179
370
     0
100
AcDbLine
 10
2.3805030998
 20
0.1436020099
 30
0.0
 11
2.3849003197
 21
0.1436020099
 31
0.0
  0
LINE
  5
199
330
7A
100
AcDbEntity
  8
0
  6
Continuous
 62
   179
370
     0
100
AcDbLine
 10
2.3849003197
 20
0.1436020099
 30
0.0
 11
2.3849003197
 21
0.1471379879
 31
0.0
  0
LINE
  5
19A
330
7A
100
AcDbEntity
  8
0
  6
Continuous
 62
   179
370
     0
100
AcDbLine
 10
2.3599769923
 20
0.1515447879
 30
0.0
 11
2.3548507344
 21
0.1614428439
 31
0.0
  0
LINE
  5
19B
330
7A
100
AcDbEntity
  8
0
  6
Continuous
 62
   179
370
     0
100
AcDbLine
 10
2.398840207
 20
0.1493461779
 30
0.0
 11
2.398840207
 21
0.1052254879
 31
0.0
  0
LINE
  5
19C
330
7A
100
AcDbEntity
  8
0
  6
Continuous
 62
   179
370
     0
100
AcDbLine
 10
2.398840207
 20
0.1052254879
 30
0.0
 11
2.3879687936
 21
0.1052254879
 31
0.0
  0
LINE
  5
19D
330
7A
100
AcDbEntity
  8
0
  6
Continuous
 62
   179
370
     0
100
AcDbLine
 10
2.3879687936
 20
0.1052254879
 30
0.0
 11
2.3862472676
 21
0.1106046579
 31
0.0
  0
LINE
  5
19E
330
7A
100
AcDbEntity
  8
0
  6
Continuous
 62
   179
370
     0
100
AcDbLine
 10
2.3849003197
 20
0.1189124339
 30
0.0
 11
2.3849003197
 21
0.1345546579
 31
0.0
  0
LINE
  5
19F
330
7A
100
AcDbEntity
  8
0
  6
Continuous
 62
   179
370
     0
100
AcDbLine
 10
2.3849003197
 20
0.1345546579
 30
0.0
 11
2.3827112897
 21
0.1345546579
 31
0.0
  0
LINE
  5
1A0
330
7A
100
AcDbEntity
  8
0
  6
Continuous
 62
   179
370
     0
100
AcDbLine
 10
2.4154174089
 20
0.1212327099
 30
0.0
 11
2.4154174089
 21
0.1941959059
 31
0.0
  0
LINE
  5
1A1
330
7A
100
AcDbEntity
  8
0
  6
Continuous
 62
   179
370
     0
100
AcDbLine
 10
2.4154174089
 20
0.1941959059
 30
0.0
 11
2.4293572666
 21
0.1941959059
 31
0.0
  0
LINE
  5
1A2
330
7A
100
AcDbEntity
  8
0
  6
Continuous
 62
   179
370
     0
100
AcDbLine
 10
2.4293572666
 20
0.1941959059
 30
0.0
 11
2.4293572666
 21
0.1195207639
 31
0.0
  0
LINE
  5
1A3
330
7A
100
AcDbEntity
  8
0
  6
Continuous
 62
   179
370
     0
100
AcDbLine
 10
2.4357001844
 20
0.1148802119
 30
0.0
 11
2.4374217104
 21
0.1054688199
 31
0.0
  0
LINE
  5
1A4
330
7A
100
AcDbEntity
  8
0
  6
Continuous
 62
   179
370
     0
100
AcDbLine
 10
2.4154174089
 20
0.1212327099
 30
0.0
 11
2.4154174089
 21
0.1941959059
 31
0.0
  0
LINE
  5
1A5
330
7A
100
AcDbEntity
  8
0
  6
Continuous
 62
   179
370
     0
100
AcDbLine
 10
2.4154174089
 20
0.1941959059
 30
0.0
 11
2.4293572666
 21
0.1941959059
 31
0.0
  0
LINE
  5
1A6
330
7A
100
AcDbEntity
  8
0
  6
Continuous
 62
   179
370
     0
100
AcDbLine
 10
2.4293572666
 20
0.1941959059
 30
0.0
 11
2.4293572666
 21
0.1195207639
 31
0.0
  0
LINE
  5
1A7
330
7A
100
AcDbEntity
  8
0
  6
Continuous
 62
   179
370
     0
100
AcDbLine
 10
2.4357001844
 20
0.1148802119
 30
0.0
 11
2.4374217104
 21
0.1054688199
 31
0.0
  0
LINE
  5
1A8
330
7A
100
AcDbEntity
  8
0
  6
Continuous
 62
   179
370
     0
100
AcDbLine
 10
2.4786980973
 20
0.1897891059
 30
0.0
 11
2.5033780927
 21
0.1897891059
 31
0.0
  0
LINE
  5
1A9
330
7A
100
AcDbEntity
  8
0
  6
Continuous
 62
   179
370
     0
100
AcDbLine
 10
2.5048562866
 20
0.1372399319
 30
0.0
 11
2.4934800369
 21
0.1372399319
 31
0.0
  0
LINE
  5
1AA
330
7A
100
AcDbEntity
  8
0
  6
Continuous
 62
   179
370
     0
100
AcDbLine
 10
2.4934800369
 20
0.1372399319
 30
0.0
 11
2.4934800369
 21
0.1052254879
 31
0.0
  0
LINE
  5
1AB
330
7A
100
AcDbEntity
  8
0
  6
Continuous
 62
   179
370
     0
100
AcDbLine
 10
2.4934800369
 20
0.1052254879
 30
0.0
 11
2.4786980973
 21
0.1052254879
 31
0.0
  0
LINE
  5
1AC
330
7A
100
AcDbEntity
  8
0
  6
Continuous
 62
   179
370
     0
100
AcDbLine
 10
2.4786980973
 20
0.1052254879
 30
0.0
 11
2.4786980973
 21
0.1897891059
 31
0.0
  0
LINE
  5
1AD
330
7A
100
AcDbEntity
  8
0
  6
Continuous
 62
   179
370
     0
100
AcDbLine
 10
2.5041071307
 20
0.1773283999
 30
0.0
 11
2.4934800369
 21
0.1773283999
 31
0.0
  0
LINE
  5
1AE
330
7A
100
AcDbEntity
  8
0
  6
Continuous
 62
   179
370
     0
100
AcDbLine
 10
2.4934800369
 20
0.1773283999
 30
0.0
 11
2.4934800369
 21
0.1494678439
 31
0.0
  0
LINE
  5
1AF
330
7A
100
AcDbEntity
  8
0
  6
Continuous
 62
   179
370
     0
100
AcDbLine
 10
2.4934800369
 20
0.1494678439
 30
0.0
 11
2.5039950447
 21
0.1494678439
 31
0.0
  0
LINE
  5
1B0
330
7A
100
AcDbEntity
  8
0
  6
Continuous
 62
   179
370
     0
100
AcDbLine
 10
2.4786980973
 20
0.1897891059
 30
0.0
 11
2.5033780927
 21
0.1897891059
 31
0.0
  0
LINE
  5
1B1
330
7A
100
AcDbEntity
  8
0
  6
Continuous
 62
   179
370
     0
100
AcDbLine
 10
2.5048562866
 20
0.1372399319
 30
0.0
 11
2.4934800369
 21
0.1372399319
 31
0.0
  0
LINE
  5
1B2
330
7A
100
AcDbEntity
  8
0
  6
Continuous
 62
   179
370
     0
100
AcDbLine
 10
2.4934800369
 20
0.1372399319
 30
0.0
 11
2.4934800369
 21
0.1052254879
 31
0.0
  0
LINE
  5
1B3
330
7A
100
AcDbEntity
  8
0
  6
Continuous
 62
   179
370
     0
100
AcDbLine
 10
2.4934800369
 20
0.1052254879
 30
0.0
 11
2.4786980973
 21
0.1052254879
 31
0.0
  0
LINE
  5
1B4
330
7A
100
AcDbEntity
  8
0
  6
Continuous
 62
   179
370
     0
100
AcDbLine
 10
2.4786980973
 20
0.1052254879
 30
0.0
 11
2.4786980973
 21
0.1897891059
 31
0.0
  0
LINE
  5
1B5
330
7A
100
AcDbEntity
  8
0
  6
Continuous
 62
   179
370
     0
100
AcDbLine
 10
2.5041071307
 20
0.1773283999
 30
0.0
 11
2.4934800369
 21
0.1773283999
 31
0.0
  0
LINE
  5
1B6
330
7A
100
AcDbEntity
  8
0
  6
Continuous
 62
   179
370
     0
100
AcDbLine
 10
2.4934800369
 20
0.1773283999
 30
0.0
 11
2.4934800369
 21
0.1494678439
 31
0.0
  0
LINE
  5
1B7
330
7A
100
AcDbEntity
  8
0
  6
Continuous
 62
   179
370
     0
100
AcDbLine
 10
2.4934800369
 20
0.1494678439
 30
0.0
 11
2.5039950447
 21
0.1494678439
 31
0.0
  0
LINE
  5
1B8
330
7A
100
AcDbEntity
  8
0
  6
Continuous
 62
   179
370
     0
100
AcDbLine
 10
2.5422029577
 20
0.1670653459
 30
0.0
 11
2.553317707
 21
0.1670653459
 31
0.0
  0
LINE
  5
1B9
330
7A
100
AcDbEntity
  8
0
  6
Continuous
 62
   179
370
     0
100
AcDbLine
 10
2.553317707
 20
0.1670653459
 30
0.0
 11
2.554907987
 21
0.1592442339
 31
0.0
  0
LINE
  5
1BA
330
7A
100
AcDbEntity
  8
0
  6
Continuous
 62
   179
370
     0
100
AcDbLine
 10
2.5747040649
 20
0.1676736759
 30
0.0
 11
2.5725150349
 21
0.1533783999
 31
0.0
  0
LINE
  5
1BB
330
7A
100
AcDbEntity
  8
0
  6
Continuous
 62
   179
370
     0
100
AcDbLine
 10
2.5561428154
 20
0.1499535499
 30
0.0
 11
2.5561428154
 21
0.1052254879
 31
0.0
  0
LINE
  5
1BC
330
7A
100
AcDbEntity
  8
0
  6
Continuous
 62
   179
370
     0
100
AcDbLine
 10
2.5561428154
 20
0.1052254879
 30
0.0
 11
2.5422029577
 21
0.1052254879
 31
0.0
  0
LINE
  5
1BD
330
7A
100
AcDbEntity
  8
0
  6
Continuous
 62
   179
370
     0
100
AcDbLine
 10
2.5422029577
 20
0.1052254879
 30
0.0
 11
2.5422029577
 21
0.1670653459
 31
0.0
  0
LINE
  5
1BE
330
7A
100
AcDbEntity
  8
0
  6
Continuous
 62
   179
370
     0
100
AcDbLine
 10
2.5422029577
 20
0.1670653459
 30
0.0
 11
2.553317707
 21
0.1670653459
 31
0.0
  0
LINE
  5
1BF
330
7A
100
AcDbEntity
  8
0
  6
Continuous
 62
   179
370
     0
100
AcDbLine
 10
2.553317707
 20
0.1670653459
 30
0.0
 11
2.554907987
 21
0.1592442339
 31
0.0
  0
LINE
  5
1C0
330
7A
100
AcDbEntity
  8
0
  6
Continuous
 62
   179
370
     0
100
AcDbLine
 10
2.5747040649
 20
0.1676736759
 30
0.0
 11
2.5725150349
 21
0.1533783999
 31
0.0
  0
LINE
  5
1C1
330
7A
100
AcDbEntity
  8
0
  6
Continuous
 62
   179
370
     0
100
AcDbLine
 10
2.5561428154
 20
0.1499535499
 30
0.0
 11
2.5561428154
 21
0.1052254879
 31
0.0
  0
LINE
  5
1C2
330
7A
100
AcDbEntity
  8
0
  6
Continuous
 62
   179
370
     0
100
AcDbLine
 10
2.5561428154
 20
0.1052254879
 30
0.0
 11
2.5422029577
 21
0.1052254879
 31
0.0
  0
LINE
  5
1C3
330
7A
100
AcDbEntity
  8
0
  6
Continuous
 62
   179
370
     0
100
AcDbLine
 10
2.5422029577
 20
0.1052254879
 30
0.0
 11
2.5422029577
 21
0.1670653459
 31
0.0
  0
LINE
  5
1C4
330
7A
100
AcDbEntity
  8
0
  6
Continuous
 62
   179
370
     0
100
AcDbLine
 10
2.6785311443
 20
0.1620502159
 30
0.0
 11
2.6785311443
 21
0.1941959059
 31
0.0
  0
LINE
  5
1C5
330
7A
100
AcDbEntity
  8
0
  6
Continuous
 62
   179
370
     0
100
AcDbLine
 10
2.6785311443
 20
0.1941959059
 30
0.0
 11
2.6924700439
 21
0.1941959059
 31
0.0
  0
LINE
  5
1C6
330
7A
100
AcDbEntity
  8
0
  6
Continuous
 62
   179
370
     0
100
AcDbLine
 10
2.6924700439
 20
0.1941959059
 30
0.0
 11
2.6924700439
 21
0.1052254879
 31
0.0
  0
LINE
  5
1C7
330
7A
100
AcDbEntity
  8
0
  6
Continuous
 62
   179
370
     0
100
AcDbLine
 10
2.6924700439
 20
0.1052254879
 30
0.0
 11
2.6813371262
 21
0.1052254879
 31
0.0
  0
LINE
  5
1C8
330
7A
100
AcDbEntity
  8
0
  6
Continuous
 62
   179
370
     0
100
AcDbLine
 10
2.6813371262
 20
0.1052254879
 30
0.0
 11
2.6797468462
 21
0.1113346539
 31
0.0
  0
LINE
  5
1C9
330
7A
100
AcDbEntity
  8
0
  6
Continuous
 62
   179
370
     0
100
AcDbLine
 10
2.6785311443
 20
0.1201377159
 30
0.0
 11
2.6785311443
 21
0.1521521599
 31
0.0
  0
LINE
  5
1CA
330
7A
100
AcDbEntity
  8
0
  6
Continuous
 62
   179
370
     0
100
AcDbLine
 10
2.6785311443
 20
0.1620502159
 30
0.0
 11
2.6785311443
 21
0.1941959059
 31
0.0
  0
LINE
  5
1CB
330
7A
100
AcDbEntity
  8
0
  6
Continuous
 62
   179
370
     0
100
AcDbLine
 10
2.6785311443
 20
0.1941959059
 30
0.0
 11
2.6924700439
 21
0.1941959059
 31
0.0
  0
LINE
  5
1CC
330
7A
100
AcDbEntity
  8
0
  6
Continuous
 62
   179
370
     0
100
AcDbLine
 10
2.6924700439
 20
0.1941959059
 30
0.0
 11
2.6924700439
 21
0.1052254879
 31
0.0
  0
LINE
  5
1CD
330
7A
100
AcDbEntity
  8
0
  6
Continuous
 62
   179
370
     0
100
AcDbLine
 10
2.6924700439
 20
0.1052254879
 30
0.0
 11
2.6813371262
 21
0.1052254879
 31
0.0
  0
LINE
  5
1CE
330
7A
100
AcDbEntity
  8
0
  6
Continuous
 62
   179
370
     0
100
AcDbLine
 10
2.6813371262
 20
0.1052254879
 30
0.0
 11
2.6797468462
 21
0.1113346539
 31
0.0
  0
LINE
  5
1CF
330
7A
100
AcDbEntity
  8
0
  6
Continuous
 62
   179
370
     0
100
AcDbLine
 10
2.6785311443
 20
0.1201377159
 30
0.0
 11
2.6785311443
 21
0.1521521599
 31
0.0
  0
LINE
  5
1D0
330
7A
100
AcDbEntity
  8
0
  6
Continuous
 62
   179
370
     0
100
AcDbLine
 10
2.7088049015
 20
0.1205027139
 30
0.0
 11
2.7088049015
 21
0.1670653459
 31
0.0
  0
LINE
  5
1D1
330
7A
100
AcDbEntity
  8
0
  6
Continuous
 62
   179
370
     0
100
AcDbLine
 10
2.7088049015
 20
0.1670653459
 30
0.0
 11
2.7227447591
 21
0.1670653459
 31
0.0
  0
LINE
  5
1D2
330
7A
100
AcDbEntity
  8
0
  6
Continuous
 62
   179
370
     0
100
AcDbLine
 10
2.7227447591
 20
0.1670653459
 30
0.0
 11
2.7227447591
 21
0.1238058979
 31
0.0
  0
LINE
  5
1D3
330
7A
100
AcDbEntity
  8
0
  6
Continuous
 62
   179
370
     0
100
AcDbLine
 10
2.7415675427
 20
0.1208677119
 30
0.0
 11
2.7415675427
 21
0.1670653459
 31
0.0
  0
LINE
  5
1D4
330
7A
100
AcDbEntity
  8
0
  6
Continuous
 62
   179
370
     0
100
AcDbLine
 10
2.7415675427
 20
0.1670653459
 30
0.0
 11
2.7553771123
 21
0.1670653459
 31
0.0
  0
LINE
  5
1D5
330
7A
100
AcDbEntity
  8
0
  6
Continuous
 62
   179
370
     0
100
AcDbLine
 10
2.7553771123
 20
0.1670653459
 30
0.0
 11
2.7553771123
 21
0.1052254879
 31
0.0
  0
LINE
  5
1D6
330
7A
100
AcDbEntity
  8
0
  6
Continuous
 62
   179
370
     0
100
AcDbLine
 10
2.7553771123
 20
0.1052254879
 30
0.0
 11
2.7442623966
 21
0.1052254879
 31
0.0
  0
LINE
  5
1D7
330
7A
100
AcDbEntity
  8
0
  6
Continuous
 62
   179
370
     0
100
AcDbLine
 10
2.7442623966
 20
0.1052254879
 30
0.0
 11
2.7427842026
 21
0.1120732719
 31
0.0
  0
LINE
  5
1D8
330
7A
100
AcDbEntity
  8
0
  6
Continuous
 62
   179
370
     0
100
AcDbLine
 10
2.7088049015
 20
0.1205027139
 30
0.0
 11
2.7088049015
 21
0.1670653459
 31
0.0
  0
LINE
  5
1D9
330
7A
100
AcDbEntity
  8
0
  6
Continuous
 62
   179
370
     0
100
AcDbLine
 10
2.7088049015
 20
0.1670653459
 30
0.0
 11
2.7227447591
 21
0.1670653459
 31
0.0
  0
LINE
  5
1DA
330
7A
100
AcDbEntity
  8
0
  6
Continuous
 62
   179
370
     0
100
AcDbLine
 10
2.7227447591
 20
0.1670653459
 30
0.0
 11
2.7227447591
 21
0.1238058979
 31
0.0
  0
LINE
  5
1DB
330
7A
100
AcDbEntity
  8
0
  6
Continuous
 62
   179
370
     0
100
AcDbLine
 10
2.7415675427
 20
0.1208677119
 30
0.0
 11
2.7415675427
 21
0.1670653459
 31
0.0
  0
LINE
  5
1DC
330
7A
100
AcDbEntity
  8
0
  6
Continuous
 62
   179
370
     0
100
AcDbLine
 10
2.7415675427
 20
0.1670653459
 30
0.0
 11
2.7553771123
 21
0.1670653459
 31
0.0
  0
LINE
  5
1DD
330
7A
100
AcDbEntity
  8
0
  6
Continuous
 62
   179
370
     0
100
AcDbLine
 10
2.7553771123
 20
0.1670653459
 30
0.0
 11
2.7553771123
 21
0.1052254879
 31
0.0
  0
LINE
  5
1DE
330
7A
100
AcDbEntity
  8
0
  6
Continuous
 62
   179
370
     0
100
AcDbLine
 10
2.7553771123
 20
0.1052254879
 30
0.0
 11
2.7442623966
 21
0.1052254879
 31
0.0
  0
LINE
  5
1DF
330
7A
100
AcDbEntity
  8
0
  6
Continuous
 62
   179
370
     0
100
AcDbLine
 10
2.7442623966
 20
0.1052254879
 30
0.0
 11
2.7427842026
 21
0.1120732719
 31
0.0
  0
LINE
  5
1E0
330
7A
100
AcDbEntity
  8
0
  6
Continuous
 62
   179
370
     0
100
AcDbLine
 10
2.8124078089
 20
0.1615645099
 30
0.0
 11
2.805185487
 21
0.1522738259
 31
0.0
  0
LINE
  5
1E1
330
7A
100
AcDbEntity
  8
0
  6
Continuous
 62
   179
370
     0
100
AcDbLine
 10
2.806045731
 20
0.1201377159
 30
0.0
 11
2.8128944729
 21
0.1109696559
 31
0.0
  0
LINE
  5
1E2
330
7A
100
AcDbEntity
  8
0
  6
Continuous
 62
   179
370
     0
100
AcDbLine
 10
2.8124078089
 20
0.1615645099
 30
0.0
 11
2.805185487
 21
0.1522738259
 31
0.0
  0
LINE
  5
1E3
330
7A
100
AcDbEntity
  8
0
  6
Continuous
 62
   179
370
     0
100
AcDbLine
 10
2.806045731
 20
0.1201377159
 30
0.0
 11
2.8128944729
 21
0.1109696559
 31
0.0
  0
LINE
  5
1E4
330
7A
100
AcDbEntity
  8
0
  6
Continuous
 62
   179
370
     0
100
AcDbLine
 10
2.8192182307
 20
0.1670653459
 30
0.0
 11
2.825935767
 21
0.1670653459
 31
0.0
  0
LINE
  5
1E5
330
7A
100
AcDbEntity
  8
0
  6
Continuous
 62
   179
370
     0
100
AcDbLine
 10
2.825935767
 20
0.1670653459
 30
0.0
 11
2.825935767
 21
0.1825859039
 31
0.0
  0
LINE
  5
1E6
330
7A
100
AcDbEntity
  8
0
  6
Continuous
 62
   179
370
     0
100
AcDbLine
 10
2.825935767
 20
0.1825859039
 30
0.0
 11
2.8397443382
 21
0.1852711779
 31
0.0
  0
LINE
  5
1E7
330
7A
100
AcDbEntity
  8
0
  6
Continuous
 62
   179
370
     0
100
AcDbLine
 10
2.8397443382
 20
0.1852711779
 30
0.0
 11
2.8397443382
 21
0.1670653459
 31
0.0
  0
LINE
  5
1E8
330
7A
100
AcDbEntity
  8
0
  6
Continuous
 62
   179
370
     0
100
AcDbLine
 10
2.8397443382
 20
0.1670653459
 30
0.0
 11
2.8518505839
 21
0.1670653459
 31
0.0
  0
LINE
  5
1E9
330
7A
100
AcDbEntity
  8
0
  6
Continuous
 62
   179
370
     0
100
AcDbLine
 10
2.8518505839
 20
0.1670653459
 30
0.0
 11
2.8518505839
 21
0.1563060479
 31
0.0
  0
LINE
  5
1EA
330
7A
100
AcDbEntity
  8
0
  6
Continuous
 62
   179
370
     0
100
AcDbLine
 10
2.8518505839
 20
0.1563060479
 30
0.0
 11
2.8397443382
 21
0.1563060479
 31
0.0
  0
LINE
  5
1EB
330
7A
100
AcDbEntity
  8
0
  6
Continuous
 62
   179
370
     0
100
AcDbLine
 10
2.8397443382
 20
0.1563060479
 30
0.0
 11
2.8397443382
 21
0.1205027139
 31
0.0
  0
LINE
  5
1EC
330
7A
100
AcDbEntity
  8
0
  6
Continuous
 62
   179
370
     0
100
AcDbLine
 10
2.8506339239
 20
0.1158535399
 30
0.0
 11
2.8528229539
 21
0.1061988159
 31
0.0
  0
LINE
  5
1ED
330
7A
100
AcDbEntity
  8
0
  6
Continuous
 62
   179
370
     0
100
AcDbLine
 10
2.825935767
 20
0.1179304839
 30
0.0
 11
2.825935767
 21
0.1563060479
 31
0.0
  0
LINE
  5
1EE
330
7A
100
AcDbEntity
  8
0
  6
Continuous
 62
   179
370
     0
100
AcDbLine
 10
2.825935767
 20
0.1563060479
 30
0.0
 11
2.8192182307
 21
0.1563060479
 31
0.0
  0
LINE
  5
1EF
330
7A
100
AcDbEntity
  8
0
  6
Continuous
 62
   179
370
     0
100
AcDbLine
 10
2.8192182307
 20
0.1563060479
 30
0.0
 11
2.8192182307
 21
0.1670653459
 31
0.0
  0
LINE
  5
1F0
330
7A
100
AcDbEntity
  8
0
  6
Continuous
 62
   179
370
     0
100
AcDbLine
 10
2.8192182307
 20
0.1670653459
 30
0.0
 11
2.825935767
 21
0.1670653459
 31
0.0
  0
LINE
  5
1F1
330
7A
100
AcDbEntity
  8
0
  6
Continuous
 62
   179
370
     0
100
AcDbLine
 10
2.825935767
 20
0.1670653459
 30
0.0
 11
2.825935767
 21
0.1825859039
 31
0.0
  0
LINE
  5
1F2
330
7A
100
AcDbEntity
  8
0
  6
Continuous
 62
   179
370
     0
100
AcDbLine
 10
2.825935767
 20
0.1825859039
 30
0.0
 11
2.8397443382
 21
0.1852711779
 31
0.0
  0
LINE
  5
1F3
330
7A
100
AcDbEntity
  8
0
  6
Continuous
 62
   179
370
     0
100
AcDbLine
 10
2.8397443382
 20
0.1852711779
 30
0.0
 11
2.8397443382
 21
0.1670653459
 31
0.0
  0
LINE
  5
1F4
330
7A
100
AcDbEntity
  8
0
  6
Continuous
 62
   179
370
     0
100
AcDbLine
 10
2.8397443382
 20
0.1670653459
 30
0.0
 11
2.8518505839
 21
0.1670653459
 31
0.0
  0
LINE
  5
1F5
330
7A
100
AcDbEntity
  8
0
  6
Continuous
 62
   179
370
     0
100
AcDbLine
 10
2.8518505839
 20
0.1670653459
 30
0.0
 11
2.8518505839
 21
0.1563060479
 31
0.0
  0
LINE
  5
1F6
330
7A
100
AcDbEntity
  8
0
  6
Continuous
 62
   179
370
     0
100
AcDbLine
 10
2.8518505839
 20
0.1563060479
 30
0.0
 11
2.8397443382
 21
0.1563060479
 31
0.0
  0
LINE
  5
1F7
330
7A
100
AcDbEntity
  8
0
  6
Continuous
 62
   179
370
     0
100
AcDbLine
 10
2.8397443382
 20
0.1563060479
 30
0.0
 11
2.8397443382
 21
0.1205027139
 31
0.0
  0
LINE
  5
1F8
330
7A
100
AcDbEntity
  8
0
  6
Continuous
 62
   179
370
     0
100
AcDbLine
 10
2.8506339239
 20
0.1158535399
 30
0.0
 11
2.8528229539
 21
0.1061988159
 31
0.0
  0
LINE
  5
1F9
330
7A
100
AcDbEntity
  8
0
  6
Continuous
 62
   179
370
     0
100
AcDbLine
 10
2.825935767
 20
0.1179304839
 30
0.0
 11
2.825935767
 21
0.1563060479
 31
0.0
  0
LINE
  5
1FA
330
7A
100
AcDbEntity
  8
0
  6
Continuous
 62
   179
370
     0
100
AcDbLine
 10
2.825935767
 20
0.1563060479
 30
0.0
 11
2.8192182307
 21
0.1563060479
 31
0.0
  0
LINE
  5
1FB
330
7A
100
AcDbEntity
  8
0
  6
Continuous
 62
   179
370
     0
100
AcDbLine
 10
2.8192182307
 20
0.1563060479
 30
0.0
 11
2.8192182307
 21
0.1670653459
 31
0.0
  0
LINE
  5
1FC
330
7A
100
AcDbEntity
  8
0
  6
Continuous
 62
   179
370
     0
100
AcDbLine
 10
2.8585489197
 20
0.1098660399
 30
0.0
 11
2.863431887
 21
0.1202593819
 31
0.0
  0
LINE
  5
1FD
330
7A
100
AcDbEntity
  8
0
  6
Continuous
 62
   179
370
     0
100
AcDbLine
 10
2.8998626687
 20
0.1647354899
 30
0.0
 11
2.8959521128
 21
0.1539857719
 31
0.0
  0
LINE
  5
1FE
330
7A
100
AcDbEntity
  8
0
  6
Continuous
 62
   179
370
     0
100
AcDbLine
 10
2.8585489197
 20
0.1098660399
 30
0.0
 11
2.863431887
 21
0.1202593819
 31
0.0
  0
LINE
  5
1FF
330
7A
100
AcDbEntity
  8
0
  6
Continuous
 62
   179
370
     0
100
AcDbLine
 10
2.8998626687
 20
0.1647354899
 30
0.0
 11
2.8959521128
 21
0.1539857719
 31
0.0
  0
LINE
  5
200
330
7A
100
AcDbEntity
  8
0
  6
Continuous
 62
   179
370
     0
100
AcDbLine
 10
2.9436040152
 20
0.3561390999
 30
0.0
 11
2.9547742949
 21
0.3561390999
 31
0.0
  0
LINE
  5
201
330
7A
100
AcDbEntity
  8
0
  6
Continuous
 62
   179
370
     0
100
AcDbLine
 10
2.9547742949
 20
0.3561390999
 30
0.0
 11
2.9547742949
 21
0.3598628459
 31
0.0
  0
LINE
  5
202
330
7A
100
AcDbEntity
  8
0
  6
Continuous
 62
   179
370
     0
100
AcDbLine
 10
2.9547742949
 20
0.3598628459
 30
0.0
 11
2.9284197155
 21
0.3598628459
 31
0.0
  0
LINE
  5
203
330
7A
100
AcDbEntity
  8
0
  6
Continuous
 62
   179
370
     0
100
AcDbLine
 10
2.9284197155
 20
0.3598628459
 30
0.0
 11
2.9284197155
 21
0.3561390999
 31
0.0
  0
LINE
  5
204
330
7A
100
AcDbEntity
  8
0
  6
Continuous
 62
   179
370
     0
100
AcDbLine
 10
2.9284197155
 20
0.3561390999
 30
0.0
 11
2.9395899953
 21
0.3561390999
 31
0.0
  0
LINE
  5
205
330
7A
100
AcDbEntity
  8
0
  6
Continuous
 62
   179
370
     0
100
AcDbLine
 10
2.9395899953
 20
0.3561390999
 30
0.0
 11
2.9395899953
 21
0.3260521519
 31
0.0
  0
LINE
  5
206
330
7A
100
AcDbEntity
  8
0
  6
Continuous
 62
   179
370
     0
100
AcDbLine
 10
2.9395899953
 20
0.3260521519
 30
0.0
 11
2.9436040152
 21
0.3260521519
 31
0.0
  0
LINE
  5
207
330
7A
100
AcDbEntity
  8
0
  6
Continuous
 62
   179
370
     0
100
AcDbLine
 10
2.9436040152
 20
0.3260521519
 30
0.0
 11
2.9436040152
 21
0.3561390999
 31
0.0
  0
LINE
  5
208
330
7A
100
AcDbEntity
  8
0
  6
Continuous
 62
   179
370
     0
100
AcDbLine
 10
2.9944134599
 20
0.3260521519
 30
0.0
 11
2.9944134599
 21
0.3598628459
 31
0.0
  0
LINE
  5
209
330
7A
100
AcDbEntity
  8
0
  6
Continuous
 62
   179
370
     0
100
AcDbLine
 10
2.9944134599
 20
0.3598628459
 30
0.0
 11
2.988584988
 21
0.3598628459
 31
0.0
  0
LINE
  5
20A
330
7A
100
AcDbEntity
  8
0
  6
Continuous
 62
   179
370
     0
100
AcDbLine
 10
2.988584988
 20
0.3598628459
 30
0.0
 11
2.9770305503
 21
0.3333588179
 31
0.0
  0
LINE
  5
20B
330
7A
100
AcDbEntity
  8
0
  6
Continuous
 62
   179
370
     0
100
AcDbLine
 10
2.9770305503
 20
0.3333588179
 30
0.0
 11
2.9769376682
 21
0.3333588179
 31
0.0
  0
LINE
  5
20C
330
7A
100
AcDbEntity
  8
0
  6
Continuous
 62
   179
370
     0
100
AcDbLine
 10
2.9769376682
 20
0.3333588179
 30
0.0
 11
2.9654674906
 21
0.3598628459
 31
0.0
  0
LINE
  5
20D
330
7A
100
AcDbEntity
  8
0
  6
Continuous
 62
   179
370
     0
100
AcDbLine
 10
2.9654674906
 20
0.3598628459
 30
0.0
 11
2.9594991508
 21
0.3598628459
 31
0.0
  0
LINE
  5
20E
330
7A
100
AcDbEntity
  8
0
  6
Continuous
 62
   179
370
     0
100
AcDbLine
 10
2.9594991508
 20
0.3598628459
 30
0.0
 11
2.9594991508
 21
0.3260521519
 31
0.0
  0
LINE
  5
20F
330
7A
100
AcDbEntity
  8
0
  6
Continuous
 62
   179
370
     0
100
AcDbLine
 10
2.9594991508
 20
0.3260521519
 30
0.0
 11
2.9635122127
 21
0.3260521519
 31
0.0
  0
LINE
  5
210
330
7A
100
AcDbEntity
  8
0
  6
Continuous
 62
   179
370
     0
100
AcDbLine
 10
2.9635122127
 20
0.3260521519
 30
0.0
 11
2.9635122127
 21
0.3544175739
 31
0.0
  0
LINE
  5
211
330
7A
100
AcDbEntity
  8
0
  6
Continuous
 62
   179
370
     0
100
AcDbLine
 10
2.9635122127
 20
0.3544175739
 30
0.0
 11
2.9636060967
 21
0.3544175739
 31
0.0
  0
LINE
  5
212
330
7A
100
AcDbEntity
  8
0
  6
Continuous
 62
   179
370
     0
100
AcDbLine
 10
2.9636060967
 20
0.3544175739
 30
0.0
 11
2.9757401682
 21
0.3260521519
 31
0.0
  0
LINE
  5
213
330
7A
100
AcDbEntity
  8
0
  6
Continuous
 62
   179
370
     0
100
AcDbLine
 10
2.9757401682
 20
0.3260521519
 30
0.0
 11
2.9781724863
 21
0.3260521519
 31
0.0
  0
LINE
  5
214
330
7A
100
AcDbEntity
  8
0
  6
Continuous
 62
   179
370
     0
100
AcDbLine
 10
2.9781724863
 20
0.3260521519
 30
0.0
 11
2.990316094
 21
0.3544175739
 31
0.0
  0
LINE
  5
215
330
7A
100
AcDbEntity
  8
0
  6
Continuous
 62
   179
370
     0
100
AcDbLine
 10
2.990316094
 20
0.3544175739
 30
0.0
 11
2.99040902
 21
0.3544175739
 31
0.0
  0
LINE
  5
216
330
7A
100
AcDbEntity
  8
0
  6
Continuous
 62
   179
370
     0
100
AcDbLine
 10
2.99040902
 20
0.3544175739
 30
0.0
 11
2.99040902
 21
0.3260521519
 31
0.0
  0
LINE
  5
217
330
7A
100
AcDbEntity
  8
0
  6
Continuous
 62
   179
370
     0
100
AcDbLine
 10
2.99040902
 20
0.3260521519
 30
0.0
 11
2.9944134599
 21
0.3260521519
 31
0.0
  0
SPLINE
  5
218
330
7A
100
AcDbEntity
  8
0
  6
Continuous
 62
     8
370
     0
100
AcDbSpline
210
0.0
220
0.0
230
1.0
 70
    24
 71
     2
 72
     6
 73
     3
 74
     0
 42
0.000000001
 43
0.00000001
 40
0.0
 40
0.0
 40
0.0
 40
1.0
 40
1.0
 40
1.0
 10
0.3258040721318871
 20
0.3022694726881637
 30
0.0
 10
0.3063143912348464
 20
0.3022694726881637
 30
0.0
 10
0.2621468892443862
 20
0.3022694726881637
 30
0.0
  0
SPLINE
  5
219
330
7A
100
AcDbEntity
  8
0
  6
Continuous
 62
     8
370
     0
100
AcDbSpline
210
0.0
220
0.0
230
1.0
 70
     8
 71
     3
 72
     8
 73
     4
 74
     0
 42
0.000000001
 43
0.00000001
 40
9.0
 40
9.0
 40
9.0
 40
9.0
 40
10.0
 40
10.0
 40
10.0
 40
10.0
 10
0.3082397090284547
 20
0.2343655691575114
 30
0.0
 10
0.3157802500352764
 20
0.2343655691575109
 30
0.0
 10
0.3205849339746063
 20
0.2386157340185407
 30
0.0
 10
0.3219568807625429
 20
0.2439657524551687
 30
0.0
  0
SPLINE
  5
21A
330
7A
100
AcDbEntity
  8
0
  6
Continuous
 62
     8
370
     0
100
AcDbSpline
210
0.0
220
0.0
230
1.0
 70
     8
 71
     3
 72
     8
 73
     4
 74
     0
 42
0.000000001
 43
0.00000001
 40
11.0
 40
11.0
 40
11.0
 40
11.0
 40
12.0
 40
12.0
 40
12.0
 40
12.0
 10
0.3349932454294768
 20
0.2926727336083826
 30
0.0
 10
0.3367727579996019
 20
0.2989802446150013
 30
0.0
 10
0.3329370473565158
 20
0.3022694726881637
 30
0.0
 10
0.3258040721318871
 20
0.3022694726881637
 30
0.0
  0
SPLINE
  5
21B
330
7A
100
AcDbEntity
  8
0
  6
Continuous
 62
     8
370
     0
100
AcDbSpline
210
0.0
220
0.0
230
1.0
 70
     8
 71
     3
 72
     8
 73
     4
 74
     0
 42
0.000000001
 43
0.00000001
 40
2.0
 40
2.0
 40
2.0
 40
2.0
 40
3.0
 40
3.0
 40
3.0
 40
3.0
 10
0.4715231901724635
 20
0.3022694726881637
 30
0.0
 10
0.4617794977965676
 20
0.3022694726881637
 30
0.0
 10
0.4579403429356069
 20
0.2944522461785067
 30
0.0
 10
0.4569794061477401
 20
0.2911618700327175
 30
0.0
  0
SPLINE
  5
21C
330
7A
100
AcDbEntity
  8
0
  6
Continuous
 62
     8
370
     0
100
AcDbSpline
210
0.0
220
0.0
230
1.0
 70
     8
 71
     3
 72
     8
 73
     4
 74
     0
 42
0.000000001
 43
0.00000001
 40
3.0
 40
3.0
 40
3.0
 40
3.0
 40
4.0
 40
4.0
 40
4.0
 40
4.0
 10
0.4569794061477401
 20
0.2911618700327175
 30
0.0
 10
0.4547808470691683
 20
0.2826523557296504
 30
0.0
 10
0.4373634372618535
 20
0.217760994769323
 30
0.0
 10
0.4342073856132916
 20
0.2059622523930924
 30
0.0
  0
SPLINE
  5
21D
330
7A
100
AcDbEntity
  8
0
  6
Continuous
 62
     8
370
     0
100
AcDbSpline
210
0.0
220
0.0
230
1.0
 70
     8
 71
     3
 72
     8
 73
     4
 74
     0
 42
0.000000001
 43
0.00000001
 40
4.0
 40
4.0
 40
4.0
 40
4.0
 40
5.0
 40
5.0
 40
5.0
 40
5.0
 10
0.4342073856132916
 20
0.2059622523930924
 30
0.0
 10
0.4326930778197509
 20
0.2003355484536258
 30
0.0
 10
0.4368089181835496
 20
0.1966387545982721
 30
0.0
 10
0.4423012976257872
 20
0.1966387545982721
 30
0.0
  0
SPLINE
  5
21E
330
7A
100
AcDbEntity
  8
0
  6
Continuous
 62
   179
370
     0
100
AcDbSpline
210
0.0
220
0.0
230
1.0
 70
     8
 71
     3
 72
     8
 73
     4
 74
     0
 42
0.000000001
 43
0.00000001
 40
2.0
 40
2.0
 40
2.0
 40
2.0
 40
3.0
 40
3.0
 40
3.0
 40
3.0
 10
1.789934449002563
 20
0.3186046598749023
 30
0.0
 10
1.789934449002563
 20
0.3529959018749015
 30
0.0
 10
1.771115497002565
 20
0.366364791874898
 30
0.0
 10
1.728436597002565
 20
0.366364791874898
 30
0.0
  0
SPLINE
  5
21F
330
7A
100
AcDbEntity
  8
0
  6
Continuous
 62
   179
370
     0
100
AcDbSpline
210
0.0
220
0.0
230
1.0
 70
     8
 71
     3
 72
     8
 73
     4
 74
     0
 42
0.000000001
 43
0.00000001
 40
12.0
 40
12.0
 40
12.0
 40
12.0
 40
13.0
 40
13.0
 40
13.0
 40
13.0
 10
1.725363333002561
 20
0.3376621538749038
 30
0.0
 10
1.746131815002565
 20
0.3376621538749038
 30
0.0
 10
1.750618129002569
 20
0.3329660378749023
 30
0.0
 10
1.750618129002569
 20
0.3141614558748978
 30
0.0
  0
SPLINE
  5
220
330
7A
100
AcDbEntity
  8
0
  6
Continuous
 62
   179
370
     0
100
AcDbSpline
210
0.0
220
0.0
230
1.0
 70
     8
 71
     3
 72
     8
 73
     4
 74
     0
 42
0.000000001
 43
0.00000001
 40
0.0
 40
0.0
 40
0.0
 40
0.0
 40
1.0
 40
1.0
 40
1.0
 40
1.0
 10
1.879765151002565
 20
0.2622100738749019
 30
0.0
 10
1.865442093002564
 20
0.2622100738749019
 30
0.0
 10
1.858420911002564
 20
0.2637074278748987
 30
0.0
 10
1.858420911002564
 20
0.2745778538749037
 30
0.0
  0
SPLINE
  5
221
330
7A
100
AcDbEntity
  8
0
  6
Continuous
 62
   179
370
     0
100
AcDbSpline
210
0.0
220
0.0
230
1.0
 70
     8
 71
     3
 72
     8
 73
     4
 74
     0
 42
0.000000001
 43
0.00000001
 40
1.0
 40
1.0
 40
1.0
 40
1.0
 40
2.0
 40
2.0
 40
2.0
 40
2.0
 10
1.858420911002564
 20
0.2745778538749037
 30
0.0
 10
1.858420911002564
 20
0.2861974358748991
 30
0.0
 10
1.865998691002565
 20
0.2891816058749058
 30
0.0
 10
1.882572091002562
 20
0.2891816058749058
 30
0.0
  0
SPLINE
  5
222
330
7A
100
AcDbEntity
  8
0
  6
Continuous
 62
   179
370
     0
100
AcDbSpline
210
0.0
220
0.0
230
1.0
 70
     8
 71
     3
 72
     8
 73
     4
 74
     0
 42
0.000000001
 43
0.00000001
 40
2.0
 40
2.0
 40
2.0
 40
2.0
 40
3.0
 40
3.0
 40
3.0
 40
3.0
 10
1.968745149002563
 20
0.3176322898749044
 30
0.0
 10
1.968745149002563
 20
0.3497770218748992
 30
0.0
 10
1.948252571002568
 20
0.366364791874898
 30
0.0
 10
1.907831677002562
 20
0.366364791874898
 30
0.0
  0
SPLINE
  5
223
330
7A
100
AcDbEntity
  8
0
  6
Continuous
 62
   179
370
     0
100
AcDbSpline
210
0.0
220
0.0
230
1.0
 70
     8
 71
     3
 72
     8
 73
     4
 74
     0
 42
0.000000001
 43
0.00000001
 40
6.0
 40
6.0
 40
6.0
 40
6.0
 40
7.0
 40
7.0
 40
7.0
 40
7.0
 10
1.892956811002569
 20
0.3393836798749009
 30
0.0
 10
1.917664589002569
 20
0.3393836798749009
 30
0.0
 10
1.928315633002565
 20
0.3349395178749034
 30
0.0
 10
1.928315633002565
 20
0.3183709078749001
 30
0.0
  0
SPLINE
  5
224
330
7A
100
AcDbEntity
  8
0
  6
Continuous
 62
   179
370
     0
100
AcDbSpline
210
0.0
220
0.0
230
1.0
 70
     8
 71
     3
 72
     8
 73
     4
 74
     0
 42
0.000000001
 43
0.00000001
 40
9.0
 40
9.0
 40
9.0
 40
9.0
 40
10.0
 40
10.0
 40
10.0
 40
10.0
 10
1.876949589002568
 20
0.3151529858748996
 30
0.0
 10
1.835687571002568
 20
0.3151529858748996
 30
0.0
 10
1.818000975002569
 20
0.3037671558748974
 30
0.0
 10
1.818000975002569
 20
0.2736054838749061
 30
0.0
  0
SPLINE
  5
225
330
7A
100
AcDbEntity
  8
0
  6
Continuous
 62
   179
370
     0
100
AcDbSpline
210
0.0
220
0.0
230
1.0
 70
     8
 71
     3
 72
     8
 73
     4
 74
     0
 42
0.000000001
 43
0.00000001
 40
10.0
 40
10.0
 40
10.0
 40
10.0
 40
11.0
 40
11.0
 40
11.0
 40
11.0
 10
1.818000975002569
 20
0.2736054838749061
 30
0.0
 10
1.818000975002569
 20
0.2495989618748963
 30
0.0
 10
1.834279311002569
 20
0.2359867398749041
 30
0.0
 10
1.863767509002566
 20
0.2359867398749041
 30
0.0
  0
SPLINE
  5
226
330
7A
100
AcDbEntity
  8
0
  6
Continuous
 62
   179
370
     0
100
AcDbSpline
210
0.0
220
0.0
230
1.0
 70
     8
 71
     3
 72
     8
 73
     4
 74
     0
 42
0.000000001
 43
0.00000001
 40
2.0
 40
2.0
 40
2.0
 40
2.0
 40
3.0
 40
3.0
 40
3.0
 40
3.0
 10
2.110228337002566
 20
0.333461323874902
 30
0.0
 10
2.110228337002566
 20
0.3576920178749033
 30
0.0
 10
2.099567713002567
 20
0.366364791874898
 30
0.0
 10
2.068680835002564
 20
0.366364791874898
 30
0.0
  0
SPLINE
  5
227
330
7A
100
AcDbEntity
  8
0
  6
Continuous
 62
   179
370
     0
100
AcDbSpline
210
0.0
220
0.0
230
1.0
 70
     8
 71
     3
 72
     8
 73
     4
 74
     0
 42
0.000000001
 43
0.00000001
 40
8.0
 40
8.0
 40
8.0
 40
8.0
 40
9.0
 40
9.0
 40
9.0
 40
9.0
 10
2.055779449002563
 20
0.3413667398749042
 30
0.0
 10
2.068404931002563
 20
0.3413667398749042
 30
0.0
 10
2.072895077002566
 20
0.3401414578749002
 30
0.0
 10
2.072895077002566
 20
0.3285122958749026
 30
0.0
  0
SPLINE
  5
228
330
7A
100
AcDbEntity
  8
0
  6
Continuous
 62
   179
370
     0
100
AcDbSpline
210
0.0
220
0.0
230
1.0
 70
     8
 71
     3
 72
     8
 73
     4
 74
     0
 42
0.000000001
 43
0.00000001
 40
0.0
 40
0.0
 40
0.0
 40
0.0
 40
1.0
 40
1.0
 40
1.0
 40
1.0
 10
2.189964568602105
 20
0.2622100738749019
 30
0.0
 10
2.175631955002561
 20
0.2622100738749019
 30
0.0
 10
2.168620353002563
 20
0.2637074278748987
 30
0.0
 10
2.168620353002563
 20
0.2745778538749037
 30
0.0
  0
SPLINE
  5
229
330
7A
100
AcDbEntity
  8
0
  6
Continuous
 62
   179
370
     0
100
AcDbSpline
210
0.0
220
0.0
230
1.0
 70
     8
 71
     3
 72
     8
 73
     4
 74
     0
 42
0.000000001
 43
0.00000001
 40
1.0
 40
1.0
 40
1.0
 40
1.0
 40
2.0
 40
2.0
 40
2.0
 40
2.0
 10
2.168620353002563
 20
0.2745778538749037
 30
0.0
 10
2.168620353002563
 20
0.2861974358748991
 30
0.0
 10
2.176198133002565
 20
0.2891816058749058
 30
0.0
 10
2.192771508531196
 20
0.2891816058749058
 30
0.0
  0
SPLINE
  5
22A
330
7A
100
AcDbEntity
  8
0
  6
Continuous
 62
   179
370
     0
100
AcDbSpline
210
0.0
220
0.0
230
1.0
 70
     8
 71
     3
 72
     8
 73
     4
 74
     0
 42
0.000000001
 43
0.00000001
 40
2.0
 40
2.0
 40
2.0
 40
2.0
 40
3.0
 40
3.0
 40
3.0
 40
3.0
 10
2.278944564354281
 20
0.3176322898749044
 30
0.0
 10
2.278944564354281
 20
0.3497770218748992
 30
0.0
 10
2.258451986871967
 20
0.366364791874898
 30
0.0
 10
2.218035883892964
 20
0.366364791874898
 30
0.0
  0
SPLINE
  5
22B
330
7A
100
AcDbEntity
  8
0
  6
Continuous
 62
   179
370
     0
100
AcDbSpline
210
0.0
220
0.0
230
1.0
 70
     8
 71
     3
 72
     8
 73
     4
 74
     0
 42
0.000000001
 43
0.00000001
 40
6.0
 40
6.0
 40
6.0
 40
6.0
 40
7.0
 40
7.0
 40
7.0
 40
7.0
 10
2.203146648269097
 20
0.3393836798749009
 30
0.0
 10
2.227854425644927
 20
0.3393836798749009
 30
0.0
 10
2.238524629375374
 20
0.3349395178749034
 30
0.0
 10
2.238524629375374
 20
0.3183709078749001
 30
0.0
  0
SPLINE
  5
22C
330
7A
100
AcDbEntity
  8
0
  6
Continuous
 62
   179
370
     0
100
AcDbSpline
210
0.0
220
0.0
230
1.0
 70
     8
 71
     3
 72
     8
 73
     4
 74
     0
 42
0.000000001
 43
0.00000001
 40
9.0
 40
9.0
 40
9.0
 40
9.0
 40
10.0
 40
10.0
 40
10.0
 40
10.0
 10
2.18715858667299
 20
0.3151529858748996
 30
0.0
 10
2.145887013002568
 20
0.3151529858748996
 30
0.0
 10
2.128200417002568
 20
0.3037671558748974
 30
0.0
 10
2.128200417002568
 20
0.2736054838749061
 30
0.0
  0
SPLINE
  5
22D
330
7A
100
AcDbEntity
  8
0
  6
Continuous
 62
   179
370
     0
100
AcDbSpline
210
0.0
220
0.0
230
1.0
 70
     8
 71
     3
 72
     8
 73
     4
 74
     0
 42
0.000000001
 43
0.00000001
 40
10.0
 40
10.0
 40
10.0
 40
10.0
 40
11.0
 40
11.0
 40
11.0
 40
11.0
 10
2.128200417002568
 20
0.2736054838749061
 30
0.0
 10
2.128200417002568
 20
0.2495989618748963
 30
0.0
 10
2.144478753002568
 20
0.2359867398749041
 30
0.0
 10
2.173957371002563
 20
0.2359867398749041
 30
0.0
  0
SPLINE
  5
22E
330
7A
100
AcDbEntity
  8
0
  6
Continuous
 62
   179
370
     0
100
AcDbSpline
210
0.0
220
0.0
230
1.0
 70
     8
 71
     3
 72
     8
 73
     4
 74
     0
 42
0.000000001
 43
0.00000001
 40
3.0
 40
3.0
 40
3.0
 40
3.0
 40
4.0
 40
4.0
 40
4.0
 40
4.0
 10
2.39040115553865
 20
0.2619667418748978
 30
0.0
 10
2.370473827002558
 20
0.2619667418748978
 30
0.0
 10
2.365141570176762
 20
0.2696384058748975
 30
0.0
 10
2.365141570176762
 20
0.2876947898749046
 30
0.0
  0
SPLINE
  5
22F
330
7A
100
AcDbEntity
  8
0
  6
Continuous
 62
   179
370
     0
100
AcDbSpline
210
0.0
220
0.0
230
1.0
 70
     8
 71
     3
 72
     8
 73
     4
 74
     0
 42
0.000000001
 43
0.00000001
 40
15.0
 40
15.0
 40
15.0
 40
15.0
 40
16.0
 40
16.0
 40
16.0
 40
16.0
 10
2.326110735162763
 20
0.2768138258749043
 30
0.0
 10
2.326110735162763
 20
0.2500952058749065
 30
0.0
 10
2.342389070751537
 20
0.2359867398749041
 30
0.0
 10
2.370736290035427
 20
0.2359867398749041
 30
0.0
  0
SPLINE
  5
230
330
7A
100
AcDbEntity
  8
0
  6
Continuous
 62
   179
370
     0
100
AcDbSpline
210
0.0
220
0.0
230
1.0
 70
     8
 71
     3
 72
     8
 73
     4
 74
     0
 42
0.000000001
 43
0.00000001
 40
2.0
 40
2.0
 40
2.0
 40
2.0
 40
3.0
 40
3.0
 40
3.0
 40
3.0
 10
2.564731285134702
 20
0.3186046598749023
 30
0.0
 10
2.564731285134702
 20
0.352509237874902
 30
0.0
 10
2.545907543610229
 20
0.366364791874898
 30
0.0
 10
2.50296615269502
 20
0.366364791874898
 30
0.0
  0
SPLINE
  5
231
330
7A
100
AcDbEntity
  8
0
  6
Continuous
 62
   179
370
     0
100
AcDbSpline
210
0.0
220
0.0
230
1.0
 70
     8
 71
     3
 72
     8
 73
     4
 74
     0
 42
0.000000001
 43
0.00000001
 40
10.0
 40
10.0
 40
10.0
 40
10.0
 40
11.0
 40
11.0
 40
11.0
 40
11.0
 10
2.499317130787202
 20
0.3376621538749038
 30
0.0
 10
2.519805876269612
 20
0.3376621538749038
 30
0.0
 10
2.525418798127817
 20
0.3319735498748987
 30
0.0
 10
2.525418798127817
 20
0.3146567418748978
 30
0.0
  0
SPLINE
  5
232
330
7A
100
AcDbEntity
  8
0
  6
Continuous
 62
   179
370
     0
100
AcDbSpline
210
0.0
220
0.0
230
1.0
 70
     8
 71
     3
 72
    11
 73
     7
 74
     0
 42
0.000000001
 43
0.00000001
 40
2.0
 40
2.0
 40
2.0
 40
2.0
 40
3.0
 40
3.0
 40
3.0
 40
4.0
 40
4.0
 40
4.0
 40
4.0
 10
2.629573513496648
 20
0.3010540998748991
 30
0.0
 10
2.629573513496648
 20
0.3262954838749061
 30
0.0
 10
2.644159063128187
 20
0.3403943698748978
 30
0.0
 10
2.666892402553895
 20
0.3403943698748978
 30
0.0
 10
2.69021590700256
 20
0.3403943698748978
 30
0.0
 10
2.704520725603323
 20
0.3262954838749061
 30
0.0
 10
2.704520725603323
 20
0.3010540998748991
 30
0.0
  0
SPLINE
  5
233
330
7A
100
AcDbEntity
  8
0
  6
Continuous
 62
   179
370
     0
100
AcDbSpline
210
0.0
220
0.0
230
1.0
 70
     8
 71
     3
 72
    11
 73
     7
 74
     0
 42
0.000000001
 43
0.00000001
 40
0.0
 40
0.0
 40
0.0
 40
0.0
 40
1.0
 40
1.0
 40
1.0
 40
2.0
 40
2.0
 40
2.0
 40
2.0
 10
2.704520725603323
 20
0.3010540998748991
 30
0.0
 10
2.704520725603323
 20
0.2758127158749009
 30
0.0
 10
2.689925595972026
 20
0.2617234098749021
 30
0.0
 10
2.666892402553895
 20
0.2617234098749021
 30
0.0
 10
2.643887949135035
 20
0.2617234098749021
 30
0.0
 10
2.629573513496648
 20
0.2758127158749009
 30
0.0
 10
2.629573513496648
 20
0.3010540998748991
 30
0.0
  0
SPLINE
  5
234
330
7A
100
AcDbEntity
  8
0
  6
Continuous
 62
   179
370
     0
100
AcDbSpline
210
0.0
220
0.0
230
1.0
 70
     8
 71
     3
 72
    11
 73
     7
 74
     0
 42
0.000000001
 43
0.00000001
 40
2.0
 40
2.0
 40
2.0
 40
2.0
 40
3.0
 40
3.0
 40
3.0
 40
4.0
 40
4.0
 40
4.0
 40
4.0
 10
2.588577820532287
 20
0.3010540998748991
 30
0.0
 10
2.588577820532287
 20
0.2607318798749006
 30
0.0
 10
2.618899477766297
 20
0.2337699278748986
 30
0.0
 10
2.667182676546561
 20
0.2337699278748986
 30
0.0
 10
2.715746607002568
 20
0.2337699278748986
 30
0.0
 10
2.745506838567926
 20
0.2607318798749006
 30
0.0
 10
2.745506838567926
 20
0.3010540998748991
 30
0.0
  0
SPLINE
  5
235
330
7A
100
AcDbEntity
  8
0
  6
Continuous
 62
   179
370
     0
100
AcDbSpline
210
0.0
220
0.0
230
1.0
 70
     8
 71
     3
 72
    11
 73
     7
 74
     0
 42
0.000000001
 43
0.00000001
 40
0.0
 40
0.0
 40
0.0
 40
0.0
 40
1.0
 40
1.0
 40
1.0
 40
2.0
 40
2.0
 40
2.0
 40
2.0
 10
2.745506838567926
 20
0.3010540998748991
 30
0.0
 10
2.745506838567926
 20
0.3416292318749035
 30
0.0
 10
2.715185181333915
 20
0.3685816038749037
 30
0.0
 10
2.667182676546561
 20
0.3685816038749037
 30
0.0
 10
2.618899477766297
 20
0.3685816038749037
 30
0.0
 10
2.588577820532287
 20
0.3416292318749035
 30
0.0
 10
2.588577820532287
 20
0.3010540998748991
 30
0.0
  0
SPLINE
  5
236
330
7A
100
AcDbEntity
  8
0
  6
Continuous
 62
   179
370
     0
100
AcDbSpline
210
0.0
220
0.0
230
1.0
 70
     8
 71
     3
 72
     8
 73
     4
 74
     0
 42
0.000000001
 43
0.00000001
 40
2.0
 40
2.0
 40
2.0
 40
2.0
 40
3.0
 40
3.0
 40
3.0
 40
3.0
 10
2.904670870547104
 20
0.3186046598749023
 30
0.0
 10
2.904670870547104
 20
0.3532478558749058
 30
0.0
 10
2.886708371000875
 20
0.366364791874898
 30
0.0
 10
2.842915318107181
 20
0.366364791874898
 30
0.0
  0
SPLINE
  5
237
330
7A
100
AcDbEntity
  8
0
  6
Continuous
 62
   179
370
     0
100
AcDbSpline
210
0.0
220
0.0
230
1.0
 70
     8
 71
     3
 72
     8
 73
     4
 74
     0
 42
0.000000001
 43
0.00000001
 40
8.0
 40
8.0
 40
8.0
 40
8.0
 40
9.0
 40
9.0
 40
9.0
 40
9.0
 10
2.839838222184916
 20
0.3376621538749038
 30
0.0
 10
2.862010173624804
 20
0.3376621538749038
 30
0.0
 10
2.865659195532623
 20
0.3324697938749003
 30
0.0
 10
2.865659195532623
 20
0.3144134098749021
 30
0.0
  0
SPLINE
  5
238
330
7A
100
AcDbEntity
  8
0
  6
Continuous
 62
   179
370
     0
100
AcDbSpline
210
0.0
220
0.0
230
1.0
 70
     8
 71
     3
 72
     8
 73
     4
 74
     0
 42
0.000000001
 43
0.00000001
 40
0.0
 40
0.0
 40
0.0
 40
0.0
 40
1.0
 40
1.0
 40
1.0
 40
1.0
 10
1.789934449002563
 20
0.3186046598749023
 30
0.0
 10
1.789934449002563
 20
0.3529959018749015
 30
0.0
 10
1.771115497002565
 20
0.366364791874898
 30
0.0
 10
1.728436597002565
 20
0.366364791874898
 30
0.0
  0
SPLINE
  5
239
330
7A
100
AcDbEntity
  8
0
  6
Continuous
 62
   179
370
     0
100
AcDbSpline
210
0.0
220
0.0
230
1.0
 70
     8
 71
     3
 72
     8
 73
     4
 74
     0
 42
0.000000001
 43
0.00000001
 40
0.0
 40
0.0
 40
0.0
 40
0.0
 40
1.0
 40
1.0
 40
1.0
 40
1.0
 10
1.725363333002561
 20
0.3376621538749038
 30
0.0
 10
1.746131815002565
 20
0.3376621538749038
 30
0.0
 10
1.750618129002569
 20
0.3329660378749023
 30
0.0
 10
1.750618129002569
 20
0.3141614558748978
 30
0.0
  0
SPLINE
  5
23A
330
7A
100
AcDbEntity
  8
0
  6
Continuous
 62
   179
370
     0
100
AcDbSpline
210
0.0
220
0.0
230
1.0
 70
     8
 71
     3
 72
     8
 73
     4
 74
     0
 42
0.000000001
 43
0.00000001
 40
0.0
 40
0.0
 40
0.0
 40
0.0
 40
1.0
 40
1.0
 40
1.0
 40
1.0
 10
2.110228337002566
 20
0.333461323874902
 30
0.0
 10
2.110228337002566
 20
0.3576920178749033
 30
0.0
 10
2.099567713002567
 20
0.366364791874898
 30
0.0
 10
2.068680835002564
 20
0.366364791874898
 30
0.0
  0
SPLINE
  5
23B
330
7A
100
AcDbEntity
  8
0
  6
Continuous
 62
   179
370
     0
100
AcDbSpline
210
0.0
220
0.0
230
1.0
 70
     8
 71
     3
 72
     8
 73
     4
 74
     0
 42
0.000000001
 43
0.00000001
 40
0.0
 40
0.0
 40
0.0
 40
0.0
 40
1.0
 40
1.0
 40
1.0
 40
1.0
 10
2.055779449002563
 20
0.3413667398749042
 30
0.0
 10
2.068404931002563
 20
0.3413667398749042
 30
0.0
 10
2.072895077002566
 20
0.3401414578749002
 30
0.0
 10
2.072895077002566
 20
0.3285122958749026
 30
0.0
  0
SPLINE
  5
23C
330
7A
100
AcDbEntity
  8
0
  6
Continuous
 62
   179
370
     0
100
AcDbSpline
210
0.0
220
0.0
230
1.0
 70
     8
 71
     3
 72
     8
 73
     4
 74
     0
 42
0.000000001
 43
0.00000001
 40
0.0
 40
0.0
 40
0.0
 40
0.0
 40
1.0
 40
1.0
 40
1.0
 40
1.0
 10
2.564731285134702
 20
0.3186046598749023
 30
0.0
 10
2.564731285134702
 20
0.352509237874902
 30
0.0
 10
2.545907543610229
 20
0.366364791874898
 30
0.0
 10
2.50296615269502
 20
0.366364791874898
 30
0.0
  0
SPLINE
  5
23D
330
7A
100
AcDbEntity
  8
0
  6
Continuous
 62
   179
370
     0
100
AcDbSpline
210
0.0
220
0.0
230
1.0
 70
     8
 71
     3
 72
     8
 73
     4
 74
     0
 42
0.000000001
 43
0.00000001
 40
0.0
 40
0.0
 40
0.0
 40
0.0
 40
1.0
 40
1.0
 40
1.0
 40
1.0
 10
2.499317130787202
 20
0.3376621538749038
 30
0.0
 10
2.519805876269612
 20
0.3376621538749038
 30
0.0
 10
2.525418798127817
 20
0.3319735498748987
 30
0.0
 10
2.525418798127817
 20
0.3146567418748978
 30
0.0
  0
SPLINE
  5
23E
330
7A
100
AcDbEntity
  8
0
  6
Continuous
 62
   179
370
     0
100
AcDbSpline
210
0.0
220
0.0
230
1.0
 70
     8
 71
     3
 72
     8
 73
     4
 74
     0
 42
0.000000001
 43
0.00000001
 40
0.0
 40
0.0
 40
0.0
 40
0.0
 40
1.0
 40
1.0
 40
1.0
 40
1.0
 10
2.904670870547104
 20
0.3186046598749023
 30
0.0
 10
2.904670870547104
 20
0.3532478558749058
 30
0.0
 10
2.886708371000875
 20
0.366364791874898
 30
0.0
 10
2.842915318107181
 20
0.366364791874898
 30
0.0
  0
SPLINE
  5
23F
330
7A
100
AcDbEntity
  8
0
  6
Continuous
 62
   179
370
     0
100
AcDbSpline
210
0.0
220
0.0
230
1.0
 70
     8
 71
     3
 72
     8
 73
     4
 74
     0
 42
0.000000001
 43
0.00000001
 40
0.0
 40
0.0
 40
0.0
 40
0.0
 40
1.0
 40
1.0
 40
1.0
 40
1.0
 10
2.839838222184916
 20
0.3376621538749038
 30
0.0
 10
2.862010173624804
 20
0.3376621538749038
 30
0.0
 10
2.865659195532623
 20
0.3324697938749003
 30
0.0
 10
2.865659195532623
 20
0.3144134098749021
 30
0.0
  0
SPLINE
  5
240
330
7A
100
AcDbEntity
  8
0
  6
Continuous
 62
   179
370
     0
100
AcDbSpline
210
0.0
220
0.0
230
1.0
 70
     8
 71
     3
 72
     8
 73
     4
 74
     0
 42
0.000000001
 43
0.00000001
 40
0.0
 40
0.0
 40
0.0
 40
0.0
 40
1.0
 40
1.0
 40
1.0
 40
1.0
 10
1.968745149002563
 20
0.3176322898749044
 30
0.0
 10
1.968745149002563
 20
0.3497770218748992
 30
0.0
 10
1.948252571002568
 20
0.366364791874898
 30
0.0
 10
1.907831677002562
 20
0.366364791874898
 30
0.0
  0
SPLINE
  5
241
330
7A
100
AcDbEntity
  8
0
  6
Continuous
 62
   179
370
     0
100
AcDbSpline
210
0.0
220
0.0
230
1.0
 70
     8
 71
     3
 72
     8
 73
     4
 74
     0
 42
0.000000001
 43
0.00000001
 40
0.0
 40
0.0
 40
0.0
 40
0.0
 40
1.0
 40
1.0
 40
1.0
 40
1.0
 10
1.892956811002569
 20
0.3393836798749009
 30
0.0
 10
1.917664589002569
 20
0.3393836798749009
 30
0.0
 10
1.928315633002565
 20
0.3349395178749034
 30
0.0
 10
1.928315633002565
 20
0.3183709078749001
 30
0.0
  0
SPLINE
  5
242
330
7A
100
AcDbEntity
  8
0
  6
Continuous
 62
   179
370
     0
100
AcDbSpline
210
0.0
220
0.0
230
1.0
 70
     8
 71
     3
 72
     8
 73
     4
 74
     0
 42
0.000000001
 43
0.00000001
 40
0.0
 40
0.0
 40
0.0
 40
0.0
 40
1.0
 40
1.0
 40
1.0
 40
1.0
 10
2.278944564354281
 20
0.3176322898749044
 30
0.0
 10
2.278944564354281
 20
0.3497770218748992
 30
0.0
 10
2.258451986871967
 20
0.366364791874898
 30
0.0
 10
2.218035883892964
 20
0.366364791874898
 30
0.0
  0
SPLINE
  5
243
330
7A
100
AcDbEntity
  8
0
  6
Continuous
 62
   179
370
     0
100
AcDbSpline
210
0.0
220
0.0
230
1.0
 70
     8
 71
     3
 72
     8
 73
     4
 74
     0
 42
0.000000001
 43
0.00000001
 40
0.0
 40
0.0
 40
0.0
 40
0.0
 40
1.0
 40
1.0
 40
1.0
 40
1.0
 10
2.203146648269097
 20
0.3393836798749009
 30
0.0
 10
2.227854425644927
 20
0.3393836798749009
 30
0.0
 10
2.238524629375374
 20
0.3349395178749034
 30
0.0
 10
2.238524629375374
 20
0.3183709078749001
 30
0.0
  0
SPLINE
  5
244
330
7A
100
AcDbEntity
  8
0
  6
Continuous
 62
   179
370
     0
100
AcDbSpline
210
0.0
220
0.0
230
1.0
 70
     8
 71
     3
 72
     8
 73
     4
 74
     0
 42
0.000000001
 43
0.00000001
 40
0.0
 40
0.0
 40
0.0
 40
0.0
 40
1.0
 40
1.0
 40
1.0
 40
1.0
 10
2.39040115553865
 20
0.2619667418748978
 30
0.0
 10
2.370473827002558
 20
0.2619667418748978
 30
0.0
 10
2.365141570176762
 20
0.2696384058748975
 30
0.0
 10
2.365141570176762
 20
0.2876947898749046
 30
0.0
  0
SPLINE
  5
245
330
7A
100
AcDbEntity
  8
0
  6
Continuous
 62
   179
370
     0
100
AcDbSpline
210
0.0
220
0.0
230
1.0
 70
     8
 71
     3
 72
     8
 73
     4
 74
     0
 42
0.000000001
 43
0.00000001
 40
0.0
 40
0.0
 40
0.0
 40
0.0
 40
1.0
 40
1.0
 40
1.0
 40
1.0
 10
2.326110735162763
 20
0.2768138258749043
 30
0.0
 10
2.326110735162763
 20
0.2500952058749065
 30
0.0
 10
2.342389070751537
 20
0.2359867398749041
 30
0.0
 10
2.370736290035427
 20
0.2359867398749041
 30
0.0
  0
SPLINE
  5
246
330
7A
100
AcDbEntity
  8
0
  6
Continuous
 62
   179
370
     0
100
AcDbSpline
210
0.0
220
0.0
230
1.0
 70
     8
 71
     3
 72
    11
 73
     7
 74
     0
 42
0.000000001
 43
0.00000001
 40
2.0
 40
2.0
 40
2.0
 40
2.0
 40
3.0
 40
3.0
 40
3.0
 40
4.0
 40
4.0
 40
4.0
 40
4.0
 10
2.629573513496648
 20
0.3010540998748991
 30
0.0
 10
2.629573513496648
 20
0.3262954838749061
 30
0.0
 10
2.644159063128187
 20
0.3403943698748978
 30
0.0
 10
2.666892402553895
 20
0.3403943698748978
 30
0.0
 10
2.69021590700256
 20
0.3403943698748978
 30
0.0
 10
2.704520725603323
 20
0.3262954838749061
 30
0.0
 10
2.704520725603323
 20
0.3010540998748991
 30
0.0
  0
SPLINE
  5
247
330
7A
100
AcDbEntity
  8
0
  6
Continuous
 62
   179
370
     0
100
AcDbSpline
210
0.0
220
0.0
230
1.0
 70
     8
 71
     3
 72
    11
 73
     7
 74
     0
 42
0.000000001
 43
0.00000001
 40
0.0
 40
0.0
 40
0.0
 40
0.0
 40
1.0
 40
1.0
 40
1.0
 40
2.0
 40
2.0
 40
2.0
 40
2.0
 10
2.704520725603323
 20
0.3010540998748991
 30
0.0
 10
2.704520725603323
 20
0.2758127158749009
 30
0.0
 10
2.689925595972026
 20
0.2617234098749021
 30
0.0
 10
2.666892402553895
 20
0.2617234098749021
 30
0.0
 10
2.643887949135035
 20
0.2617234098749021
 30
0.0
 10
2.629573513496648
 20
0.2758127158749009
 30
0.0
 10
2.629573513496648
 20
0.3010540998748991
 30
0.0
  0
SPLINE
  5
248
330
7A
100
AcDbEntity
  8
0
  6
Continuous
 62
   179
370
     0
100
AcDbSpline
210
0.0
220
0.0
230
1.0
 70
     8
 71
     3
 72
    11
 73
     7
 74
     0
 42
0.000000001
 43
0.00000001
 40
2.0
 40
2.0
 40
2.0
 40
2.0
 40
3.0
 40
3.0
 40
3.0
 40
4.0
 40
4.0
 40
4.0
 40
4.0
 10
2.588577820532287
 20
0.3010540998748991
 30
0.0
 10
2.588577820532287
 20
0.2607318798749006
 30
0.0
 10
2.618899477766297
 20
0.2337699278748986
 30
0.0
 10
2.667182676546561
 20
0.2337699278748986
 30
0.0
 10
2.715746607002568
 20
0.2337699278748986
 30
0.0
 10
2.745506838567926
 20
0.2607318798749006
 30
0.0
 10
2.745506838567926
 20
0.3010540998748991
 30
0.0
  0
SPLINE
  5
249
330
7A
100
AcDbEntity
  8
0
  6
Continuous
 62
   179
370
     0
100
AcDbSpline
210
0.0
220
0.0
230
1.0
 70
     8
 71
     3
 72
    11
 73
     7
 74
     0
 42
0.000000001
 43
0.00000001
 40
0.0
 40
0.0
 40
0.0
 40
0.0
 40
1.0
 40
1.0
 40
1.0
 40
2.0
 40
2.0
 40
2.0
 40
2.0
 10
2.745506838567926
 20
0.3010540998748991
 30
0.0
 10
2.745506838567926
 20
0.3416292318749035
 30
0.0
 10
2.715185181333915
 20
0.3685816038749037
 30
0.0
 10
2.667182676546561
 20
0.3685816038749037
 30
0.0
 10
2.618899477766297
 20
0.3685816038749037
 30
0.0
 10
2.588577820532287
 20
0.3416292318749035
 30
0.0
 10
2.588577820532287
 20
0.3010540998748991
 30
0.0
  0
SPLINE
  5
24A
330
7A
100
AcDbEntity
  8
0
  6
Continuous
 62
   179
370
     0
100
AcDbSpline
210
0.0
220
0.0
230
1.0
 70
     8
 71
     3
 72
     8
 73
     4
 74
     0
 42
0.000000001
 43
0.00000001
 40
1.0
 40
1.0
 40
1.0
 40
1.0
 40
2.0
 40
2.0
 40
2.0
 40
2.0
 10
2.086372221002564
 20
0.1229446558748976
 30
0.0
 10
2.092606885002568
 20
0.1184257698748971
 30
0.0
 10
2.098229387002561
 20
0.1162271598749022
 30
0.0
 10
2.105925001002565
 20
0.1162271598749022
 30
0.0
  0
SPLINE
  5
24B
330
7A
100
AcDbEntity
  8
0
  6
Continuous
 62
   179
370
     0
100
AcDbSpline
210
0.0
220
0.0
230
1.0
 70
     8
 71
     3
 72
     8
 73
     4
 74
     0
 42
0.000000001
 43
0.00000001
 40
2.0
 40
2.0
 40
2.0
 40
2.0
 40
3.0
 40
3.0
 40
3.0
 40
3.0
 10
2.105925001002565
 20
0.1162271598749022
 30
0.0
 10
2.115701391002562
 20
0.1162271598749022
 30
0.0
 10
2.119738403002564
 20
0.1207460458749027
 30
0.0
 10
2.119738403002564
 20
0.1280804938749088
 30
0.0
  0
SPLINE
  5
24C
330
7A
100
AcDbEntity
  8
0
  6
Continuous
 62
   179
370
     0
100
AcDbSpline
210
0.0
220
0.0
230
1.0
 70
     8
 71
     3
 72
     8
 73
     4
 74
     0
 42
0.000000001
 43
0.00000001
 40
3.0
 40
3.0
 40
3.0
 40
3.0
 40
4.0
 40
4.0
 40
4.0
 40
4.0
 10
2.119738403002564
 20
0.1280804938749088
 30
0.0
 10
2.119738403002564
 20
0.1366316018749012
 30
0.0
 10
2.114971395002567
 20
0.1390735438749003
 30
0.0
 10
2.106051457002569
 20
0.1422541038749035
 30
0.0
  0
SPLINE
  5
24D
330
7A
100
AcDbEntity
  8
0
  6
Continuous
 62
   179
370
     0
100
AcDbSpline
210
0.0
220
0.0
230
1.0
 70
     8
 71
     3
 72
     8
 73
     4
 74
     0
 42
0.000000001
 43
0.00000001
 40
4.0
 40
4.0
 40
4.0
 40
4.0
 40
5.0
 40
5.0
 40
5.0
 40
5.0
 10
2.106051457002569
 20
0.1422541038749035
 30
0.0
 10
2.091994723002567
 20
0.1471379878749019
 30
0.0
 10
2.084416943002565
 20
0.1526388238748932
 30
0.0
 10
2.084416943002565
 20
0.1680377158749007
 30
0.0
  0
SPLINE
  5
24E
330
7A
100
AcDbEntity
  8
0
  6
Continuous
 62
   179
370
     0
100
AcDbSpline
210
0.0
220
0.0
230
1.0
 70
     8
 71
     3
 72
     8
 73
     4
 74
     0
 42
0.000000001
 43
0.00000001
 40
5.0
 40
5.0
 40
5.0
 40
5.0
 40
6.0
 40
6.0
 40
6.0
 40
6.0
 10
2.084416943002565
 20
0.1680377158749007
 30
0.0
 10
2.084416943002565
 20
0.183801605874906
 30
0.0
 10
2.094440497002565
 20
0.1913803438749096
 30
0.0
 10
2.109592225002569
 20
0.1913803438749096
 30
0.0
  0
SPLINE
  5
24F
330
7A
100
AcDbEntity
  8
0
  6
Continuous
 62
   179
370
     0
100
AcDbSpline
210
0.0
220
0.0
230
1.0
 70
     8
 71
     3
 72
     8
 73
     4
 74
     0
 42
0.000000001
 43
0.00000001
 40
6.0
 40
6.0
 40
6.0
 40
6.0
 40
7.0
 40
7.0
 40
7.0
 40
7.0
 10
2.109592225002569
 20
0.1913803438749096
 30
0.0
 10
2.119368615002565
 20
0.1913803438749096
 30
0.0
 10
2.125356115002565
 20
0.1893033998749082
 30
0.0
 10
2.131221949002564
 20
0.1855145098749029
 30
0.0
  0
SPLINE
  5
250
330
7A
100
AcDbEntity
  8
0
  6
Continuous
 62
   179
370
     0
100
AcDbSpline
210
0.0
220
0.0
230
1.0
 70
     8
 71
     3
 72
     8
 73
     4
 74
     0
 42
0.000000001
 43
0.00000001
 40
8.0
 40
8.0
 40
8.0
 40
8.0
 40
9.0
 40
9.0
 40
9.0
 40
9.0
 10
2.125725903002564
 20
0.174268547874905
 30
0.0
 10
2.120715563002562
 20
0.1775717318748948
 30
0.0
 10
2.116683341002561
 20
0.1789186798749009
 30
0.0
 10
2.110691051002561
 20
0.1789186798749009
 30
0.0
  0
SPLINE
  5
251
330
7A
100
AcDbEntity
  8
0
  6
Continuous
 62
   179
370
     0
100
AcDbSpline
210
0.0
220
0.0
230
1.0
 70
     8
 71
     3
 72
     8
 73
     4
 74
     0
 42
0.000000001
 43
0.00000001
 40
9.0
 40
9.0
 40
9.0
 40
9.0
 40
10.0
 40
10.0
 40
10.0
 40
10.0
 10
2.110691051002561
 20
0.1789186798749009
 30
0.0
 10
2.103483059002567
 20
0.1789186798749009
 30
0.0
 10
2.099207505002561
 20
0.1757381198748977
 30
0.0
 10
2.099207505002561
 20
0.1688989578749088
 30
0.0
  0
SPLINE
  5
252
330
7A
100
AcDbEntity
  8
0
  6
Continuous
 62
   179
370
     0
100
AcDbSpline
210
0.0
220
0.0
230
1.0
 70
     8
 71
     3
 72
     8
 73
     4
 74
     0
 42
0.000000001
 43
0.00000001
 40
10.0
 40
10.0
 40
10.0
 40
10.0
 40
11.0
 40
11.0
 40
11.0
 40
11.0
 10
2.099207505002561
 20
0.1688989578749088
 30
0.0
 10
2.099207505002561
 20
0.1618068838748964
 30
0.0
 10
2.101892779002565
 20
0.1593658998749081
 30
0.0
 10
2.110817507002564
 20
0.156306047874905
 30
0.0
  0
SPLINE
  5
253
330
7A
100
AcDbEntity
  8
0
  6
Continuous
 62
   179
370
     0
100
AcDbSpline
210
0.0
220
0.0
230
1.0
 70
     8
 71
     3
 72
     8
 73
     4
 74
     0
 42
0.000000001
 43
0.00000001
 40
11.0
 40
11.0
 40
11.0
 40
11.0
 40
12.0
 40
12.0
 40
12.0
 40
12.0
 10
2.110817507002564
 20
0.156306047874905
 30
0.0
 10
2.12413466500257
 20
0.1516664538749044
 30
0.0
 10
2.135010839002569
 20
0.1470163218749084
 30
0.0
 10
2.135010839002569
 20
0.1291754878749019
 30
0.0
  0
SPLINE
  5
254
330
7A
100
AcDbEntity
  8
0
  6
Continuous
 62
   179
370
     0
100
AcDbSpline
210
0.0
220
0.0
230
1.0
 70
     8
 71
     3
 72
     8
 73
     4
 74
     0
 42
0.000000001
 43
0.00000001
 40
12.0
 40
12.0
 40
12.0
 40
12.0
 40
13.0
 40
13.0
 40
13.0
 40
13.0
 10
2.135010839002569
 20
0.1291754878749019
 30
0.0
 10
2.135010839002569
 20
0.1148802118748962
 30
0.0
 10
2.128166887002561
 20
0.1036352078749089
 30
0.0
 10
2.10715028300256
 20
0.1036352078749089
 30
0.0
  0
SPLINE
  5
255
330
7A
100
AcDbEntity
  8
0
  6
Continuous
 62
   179
370
     0
100
AcDbSpline
210
0.0
220
0.0
230
1.0
 70
     8
 71
     3
 72
     8
 73
     4
 74
     0
 42
0.000000001
 43
0.00000001
 40
13.0
 40
13.0
 40
13.0
 40
13.0
 40
14.0
 40
14.0
 40
14.0
 40
14.0
 10
2.10715028300256
 20
0.1036352078749089
 30
0.0
 10
2.096517441002566
 20
0.1036352078749089
 30
0.0
 10
2.08674105100256
 20
0.1071807658749097
 30
0.0
 10
2.080875217002563
 20
0.1118213178749037
 30
0.0
  0
SPLINE
  5
256
330
7A
100
AcDbEntity
  8
0
  6
Continuous
 62
   179
370
     0
100
AcDbSpline
210
0.0
220
0.0
230
1.0
 70
     8
 71
     3
 72
     8
 73
     4
 74
     0
 42
0.000000001
 43
0.00000001
 40
2.0
 40
2.0
 40
2.0
 40
2.0
 40
3.0
 40
3.0
 40
3.0
 40
3.0
 10
2.159176389002568
 20
0.1605816018749014
 30
0.0
 10
2.163820773002562
 20
0.1655967318748949
 30
0.0
 10
2.169321609002562
 20
0.1686460458749027
 30
0.0
 10
2.175674107002568
 20
0.1686460458749027
 30
0.0
  0
SPLINE
  5
257
330
7A
100
AcDbEntity
  8
0
  6
Continuous
 62
   179
370
     0
100
AcDbSpline
210
0.0
220
0.0
230
1.0
 70
     8
 71
     3
 72
     8
 73
     4
 74
     0
 42
0.000000001
 43
0.00000001
 40
3.0
 40
3.0
 40
3.0
 40
3.0
 40
4.0
 40
4.0
 40
4.0
 40
4.0
 10
2.175674107002568
 20
0.1686460458749027
 30
0.0
 10
2.188140536648183
 20
0.1686460458749027
 30
0.0
 10
2.196569978435238
 20
0.1618068838748964
 30
0.0
 10
2.196569978435238
 20
0.1369965998748988
 30
0.0
  0
SPLINE
  5
258
330
7A
100
AcDbEntity
  8
0
  6
Continuous
 62
   179
370
     0
100
AcDbSpline
210
0.0
220
0.0
230
1.0
 70
     8
 71
     3
 72
     8
 73
     4
 74
     0
 42
0.000000001
 43
0.00000001
 40
4.0
 40
4.0
 40
4.0
 40
4.0
 40
5.0
 40
5.0
 40
5.0
 40
5.0
 10
2.196569978435238
 20
0.1369965998748988
 30
0.0
 10
2.196569978435238
 20
0.1124382698748969
 30
0.0
 10
2.189852507002565
 20
0.1036352078749089
 30
0.0
 10
2.175674107002568
 20
0.1036352078749089
 30
0.0
  0
SPLINE
  5
259
330
7A
100
AcDbEntity
  8
0
  6
Continuous
 62
   179
370
     0
100
AcDbSpline
210
0.0
220
0.0
230
1.0
 70
     8
 71
     3
 72
     8
 73
     4
 74
     0
 42
0.000000001
 43
0.00000001
 40
5.0
 40
5.0
 40
5.0
 40
5.0
 40
6.0
 40
6.0
 40
6.0
 40
6.0
 10
2.175674107002568
 20
0.1036352078749089
 30
0.0
 10
2.169074445002567
 20
0.1036352078749089
 30
0.0
 10
2.163820773002562
 20
0.1066941018749012
 30
0.0
 10
2.160401671002564
 20
0.1098660398748957
 30
0.0
  0
SPLINE
  5
25A
330
7A
100
AcDbEntity
  8
0
  6
Continuous
 62
   179
370
     0
100
AcDbSpline
210
0.0
220
0.0
230
1.0
 70
     8
 71
     3
 72
     8
 73
     4
 74
     0
 42
0.000000001
 43
0.00000001
 40
0.0
 40
0.0
 40
0.0
 40
0.0
 40
1.0
 40
1.0
 40
1.0
 40
1.0
 10
2.181661607002569
 20
0.1362666038749036
 30
0.0
 10
2.181661607002569
 20
0.1537433978749058
 30
0.0
 10
2.179341331002562
 20
0.1572889558749066
 30
0.0
 10
2.172006883002565
 20
0.1572889558749066
 30
0.0
  0
SPLINE
  5
25B
330
7A
100
AcDbEntity
  8
0
  6
Continuous
 62
   179
370
     0
100
AcDbSpline
210
0.0
220
0.0
230
1.0
 70
     8
 71
     3
 72
     8
 73
     4
 74
     0
 42
0.000000001
 43
0.00000001
 40
1.0
 40
1.0
 40
1.0
 40
1.0
 40
2.0
 40
2.0
 40
2.0
 40
2.0
 10
2.172006883002565
 20
0.1572889558749066
 30
0.0
 10
2.166997501002566
 20
0.1572889558749066
 30
0.0
 10
2.163699107002568
 20
0.1549590998748991
 30
0.0
 10
2.160401671002564
 20
0.1517881198748978
 30
0.0
  0
SPLINE
  5
25C
330
7A
100
AcDbEntity
  8
0
  6
Continuous
 62
   179
370
     0
100
AcDbSpline
210
0.0
220
0.0
230
1.0
 70
     8
 71
     3
 72
     8
 73
     4
 74
     0
 42
0.000000001
 43
0.00000001
 40
3.0
 40
3.0
 40
3.0
 40
3.0
 40
4.0
 40
4.0
 40
4.0
 40
4.0
 10
2.160401671002564
 20
0.1197640958748944
 30
0.0
 10
2.163086945002567
 20
0.1172004878749018
 30
0.0
 10
2.166875835002564
 20
0.1151235438749004
 30
0.0
 10
2.171151389002569
 20
0.1151235438749004
 30
0.0
  0
SPLINE
  5
25D
330
7A
100
AcDbEntity
  8
0
  6
Continuous
 62
   179
370
     0
100
AcDbSpline
210
0.0
220
0.0
230
1.0
 70
     8
 71
     3
 72
     8
 73
     4
 74
     0
 42
0.000000001
 43
0.00000001
 40
4.0
 40
4.0
 40
4.0
 40
4.0
 40
5.0
 40
5.0
 40
5.0
 40
5.0
 10
2.171151389002569
 20
0.1151235438749004
 30
0.0
 10
2.178972501002566
 20
0.1151235438749004
 30
0.0
 10
2.181661607002569
 20
0.1184257698748971
 30
0.0
 10
2.181661607002569
 20
0.1362666038749036
 30
0.0
  0
SPLINE
  5
25E
330
7A
100
AcDbEntity
  8
0
  6
Continuous
 62
   179
370
     0
100
AcDbSpline
210
0.0
220
0.0
230
1.0
 70
     8
 71
     3
 72
     8
 73
     4
 74
     0
 42
0.000000001
 43
0.00000001
 40
0.0
 40
0.0
 40
0.0
 40
0.0
 40
1.0
 40
1.0
 40
1.0
 40
1.0
 10
2.20705241417043
 20
0.1362666038749036
 30
0.0
 10
2.20705241417043
 20
0.1597308978749057
 30
0.0
 10
2.2165816399297
 20
0.1686460458749027
 30
0.0
 10
2.232102197537618
 20
0.1686460458749027
 30
0.0
  0
SPLINE
  5
25F
330
7A
100
AcDbEntity
  8
0
  6
Continuous
 62
   179
370
     0
100
AcDbSpline
210
0.0
220
0.0
230
1.0
 70
     8
 71
     3
 72
     8
 73
     4
 74
     0
 42
0.000000001
 43
0.00000001
 40
1.0
 40
1.0
 40
1.0
 40
1.0
 40
2.0
 40
2.0
 40
2.0
 40
2.0
 10
2.232102197537618
 20
0.1686460458749027
 30
0.0
 10
2.248721607002568
 20
0.1686460458749027
 30
0.0
 10
2.2565426929202
 20
0.1593658998749081
 30
0.0
 10
2.2565426929202
 20
0.1367532678748947
 30
0.0
  0
SPLINE
  5
260
330
7A
100
AcDbEntity
  8
0
  6
Continuous
 62
   179
370
     0
100
AcDbSpline
210
0.0
220
0.0
230
1.0
 70
     8
 71
     3
 72
     8
 73
     4
 74
     0
 42
0.000000001
 43
0.00000001
 40
4.0
 40
4.0
 40
4.0
 40
4.0
 40
5.0
 40
5.0
 40
5.0
 40
5.0
 10
2.221839143796886
 20
0.1322343818748942
 30
0.0
 10
2.22232580778459
 20
0.1180607718748995
 30
0.0
 10
2.225749699698096
 20
0.1148802118748962
 30
0.0
 10
2.234547971475833
 20
0.1148802118748962
 30
0.0
  0
SPLINE
  5
261
330
7A
100
AcDbEntity
  8
0
  6
Continuous
 62
   179
370
     0
100
AcDbSpline
210
0.0
220
0.0
230
1.0
 70
     8
 71
     3
 72
     8
 73
     4
 74
     0
 42
0.000000001
 43
0.00000001
 40
5.0
 40
5.0
 40
5.0
 40
5.0
 40
6.0
 40
6.0
 40
6.0
 40
6.0
 10
2.234547971475833
 20
0.1148802118748962
 30
0.0
 10
2.240900469315355
 20
0.1148802118748962
 30
0.0
 10
2.244811025216567
 20
0.117443819874906
 30
0.0
 10
2.248721607002568
 20
0.1203810478749051
 30
0.0
  0
SPLINE
  5
262
330
7A
100
AcDbEntity
  8
0
  6
Continuous
 62
   179
370
     0
100
AcDbSpline
210
0.0
220
0.0
230
1.0
 70
     8
 71
     3
 72
     8
 73
     4
 74
     0
 42
0.000000001
 43
0.00000001
 40
7.0
 40
7.0
 40
7.0
 40
7.0
 40
8.0
 40
8.0
 40
8.0
 40
8.0
 10
2.255322227002562
 20
0.110847989874904
 30
0.0
 10
2.249947847002565
 20
0.1063291038749035
 30
0.0
 10
2.243590533247398
 20
0.1036352078749089
 30
0.0
 10
2.23466963747276
 20
0.1036352078749089
 30
0.0
  0
SPLINE
  5
263
330
7A
100
AcDbEntity
  8
0
  6
Continuous
 62
   179
370
     0
100
AcDbSpline
210
0.0
220
0.0
230
1.0
 70
     8
 71
     3
 72
     8
 73
     4
 74
     0
 42
0.000000001
 43
0.00000001
 40
8.0
 40
8.0
 40
8.0
 40
8.0
 40
9.0
 40
9.0
 40
9.0
 40
9.0
 10
2.23466963747276
 20
0.1036352078749089
 30
0.0
 10
2.216216667002568
 20
0.1036352078749089
 30
0.0
 10
2.20705241417043
 20
0.113046599874899
 30
0.0
 10
2.20705241417043
 20
0.1362666038749036
 30
0.0
  0
SPLINE
  5
264
330
7A
100
AcDbEntity
  8
0
  6
Continuous
 62
   179
370
     0
100
AcDbSpline
210
0.0
220
0.0
230
1.0
 70
     8
 71
     3
 72
     8
 73
     4
 74
     0
 42
0.000000001
 43
0.00000001
 40
1.0
 40
1.0
 40
1.0
 40
1.0
 40
2.0
 40
2.0
 40
2.0
 40
2.0
 10
2.242248375281304
 20
0.1421324378749103
 30
0.0
 10
2.242126709284379
 20
0.1541074378749101
 30
0.0
 10
2.23992330934004
 20
0.1582613258748955
 30
0.0
 10
2.232223863534545
 20
0.1582613258748955
 30
0.0
  0
SPLINE
  5
265
330
7A
100
AcDbEntity
  8
0
  6
Continuous
 62
   179
370
     0
100
AcDbSpline
210
0.0
220
0.0
230
1.0
 70
     8
 71
     3
 72
     8
 73
     4
 74
     0
 42
0.000000001
 43
0.00000001
 40
2.0
 40
2.0
 40
2.0
 40
2.0
 40
3.0
 40
3.0
 40
3.0
 40
3.0
 10
2.232223863534545
 20
0.1582613258748955
 30
0.0
 10
2.22599303169195
 20
0.1582613258748955
 30
0.0
 10
2.222694637775275
 20
0.1550903458748942
 30
0.0
 10
2.221960809793811
 20
0.1421324378749103
 30
0.0
  0
SPLINE
  5
266
330
7A
100
AcDbEntity
  8
0
  6
Continuous
 62
   179
370
     0
100
AcDbSpline
210
0.0
220
0.0
230
1.0
 70
     8
 71
     3
 72
     8
 73
     4
 74
     0
 42
0.000000001
 43
0.00000001
 40
0.0
 40
0.0
 40
0.0
 40
0.0
 40
1.0
 40
1.0
 40
1.0
 40
1.0
 10
2.266539422667662
 20
0.1362666038749036
 30
0.0
 10
2.266539422667662
 20
0.1594875658749016
 30
0.0
 10
2.275581026439251
 20
0.1686460458749027
 30
0.0
 10
2.291714704031681
 20
0.1686460458749027
 30
0.0
  0
SPLINE
  5
267
330
7A
100
AcDbEntity
  8
0
  6
Continuous
 62
   179
370
     0
100
AcDbSpline
210
0.0
220
0.0
230
1.0
 70
     8
 71
     3
 72
     8
 73
     4
 74
     0
 42
0.000000001
 43
0.00000001
 40
1.0
 40
1.0
 40
1.0
 40
1.0
 40
2.0
 40
2.0
 40
2.0
 40
2.0
 10
2.291714704031681
 20
0.1686460458749027
 30
0.0
 10
2.299297273840128
 20
0.1686460458749027
 30
0.0
 10
2.304779907701626
 20
0.1665691018749013
 30
0.0
 10
2.310037411568809
 20
0.161564509874903
 30
0.0
  0
SPLINE
  5
268
330
7A
100
AcDbEntity
  8
0
  6
Continuous
 62
   179
370
     0
100
AcDbSpline
210
0.0
220
0.0
230
1.0
 70
     8
 71
     3
 72
     8
 73
     4
 74
     0
 42
0.000000001
 43
0.00000001
 40
3.0
 40
3.0
 40
3.0
 40
3.0
 40
4.0
 40
4.0
 40
4.0
 40
4.0
 10
2.302834209750778
 20
0.1522738258748956
 30
0.0
 10
2.29965269183115
 20
0.1555770098749028
 30
0.0
 10
2.296841947002561
 20
0.1572889558749066
 30
0.0
 10
2.292323034016313
 20
0.1572889558749066
 30
0.0
  0
SPLINE
  5
269
330
7A
100
AcDbEntity
  8
0
  6
Continuous
 62
   179
370
     0
100
AcDbSpline
210
0.0
220
0.0
230
1.0
 70
     8
 71
     3
 72
     8
 73
     4
 74
     0
 42
0.000000001
 43
0.00000001
 40
4.0
 40
4.0
 40
4.0
 40
4.0
 40
5.0
 40
5.0
 40
5.0
 40
5.0
 10
2.292323034016313
 20
0.1572889558749066
 30
0.0
 10
2.284380256216964
 20
0.1572889558749066
 30
0.0
 10
2.281443028291164
 20
0.1539857718748994
 30
0.0
 10
2.281443028291164
 20
0.1365099358749078
 30
0.0
  0
SPLINE
  5
26A
330
7A
100
AcDbEntity
  8
0
  6
Continuous
 62
   179
370
     0
100
AcDbSpline
210
0.0
220
0.0
230
1.0
 70
     8
 71
     3
 72
     8
 73
     4
 74
     0
 42
0.000000001
 43
0.00000001
 40
5.0
 40
5.0
 40
5.0
 40
5.0
 40
6.0
 40
6.0
 40
6.0
 40
6.0
 10
2.281443028291164
 20
0.1365099358749078
 30
0.0
 10
2.281443028291164
 20
0.1191557658749098
 30
0.0
 10
2.28450192221389
 20
0.1150018778749069
 30
0.0
 10
2.292931364000945
 20
0.1150018778749069
 30
0.0
  0
SPLINE
  5
26B
330
7A
100
AcDbEntity
  8
0
  6
Continuous
 62
   179
370
     0
100
AcDbSpline
210
0.0
220
0.0
230
1.0
 70
     8
 71
     3
 72
     8
 73
     4
 74
     0
 42
0.000000001
 43
0.00000001
 40
6.0
 40
6.0
 40
6.0
 40
6.0
 40
7.0
 40
7.0
 40
7.0
 40
7.0
 10
2.292931364000945
 20
0.1150018778749069
 30
0.0
 10
2.297819107002568
 20
0.1150018778749069
 30
0.0
 10
2.300513933809393
 20
0.1172004878749018
 30
0.0
 10
2.303694493729045
 20
0.1201377158749006
 30
0.0
  0
SPLINE
  5
26C
330
7A
100
AcDbEntity
  8
0
  6
Continuous
 62
   179
370
     0
100
AcDbSpline
210
0.0
220
0.0
230
1.0
 70
     8
 71
     3
 72
     8
 73
     4
 74
     0
 42
0.000000001
 43
0.00000001
 40
8.0
 40
8.0
 40
8.0
 40
8.0
 40
9.0
 40
9.0
 40
9.0
 40
9.0
 10
2.310524075556515
 20
0.1109696558748975
 30
0.0
 10
2.306014769670431
 20
0.106450769874897
 30
0.0
 10
2.300382687812708
 20
0.1036352078749089
 30
0.0
 10
2.292079702022459
 20
0.1036352078749089
 30
0.0
  0
SPLINE
  5
26D
330
7A
100
AcDbEntity
  8
0
  6
Continuous
 62
   179
370
     0
100
AcDbSpline
210
0.0
220
0.0
230
1.0
 70
     8
 71
     3
 72
     8
 73
     4
 74
     0
 42
0.000000001
 43
0.00000001
 40
9.0
 40
9.0
 40
9.0
 40
9.0
 40
10.0
 40
10.0
 40
10.0
 40
10.0
 10
2.292079702022459
 20
0.1036352078749089
 30
0.0
 10
2.275090530451641
 20
0.1036352078749089
 30
0.0
 10
2.266539422667662
 20
0.1140199278748986
 30
0.0
 10
2.266539422667662
 20
0.1362666038749036
 30
0.0
  0
SPLINE
  5
26E
330
7A
100
AcDbEntity
  8
0
  6
Continuous
 62
   179
370
     0
100
AcDbSpline
210
0.0
220
0.0
230
1.0
 70
     8
 71
     3
 72
    11
 73
     7
 74
     0
 42
0.000000001
 43
0.00000001
 40
2.0
 40
2.0
 40
2.0
 40
2.0
 40
3.0
 40
3.0
 40
3.0
 40
4.0
 40
4.0
 40
4.0
 40
4.0
 10
2.341284496779442
 20
0.1852711778748987
 30
0.0
 10
2.341284496779442
 20
0.1802560478749049
 30
0.0
 10
2.33737394087823
 20
0.1763454918749064
 30
0.0
 10
2.332247683007731
 20
0.1763454918749064
 30
0.0
 10
2.327363827002558
 20
0.1763454918749064
 30
0.0
 10
2.323453243229897
 20
0.1802560478749049
 30
0.0
 10
2.323453243229897
 20
0.1852711778748987
 30
0.0
  0
SPLINE
  5
26F
330
7A
100
AcDbEntity
  8
0
  6
Continuous
 62
   179
370
     0
100
AcDbSpline
210
0.0
220
0.0
230
1.0
 70
     8
 71
     3
 72
    11
 73
     7
 74
     0
 42
0.000000001
 43
0.00000001
 40
0.0
 40
0.0
 40
0.0
 40
0.0
 40
1.0
 40
1.0
 40
1.0
 40
2.0
 40
2.0
 40
2.0
 40
2.0
 10
2.323453243229897
 20
0.1852711778748987
 30
0.0
 10
2.323453243229897
 20
0.190285349874899
 30
0.0
 10
2.327363827002558
 20
0.1943175718749084
 30
0.0
 10
2.332378929004415
 20
0.1943175718749084
 30
0.0
 10
2.33737394087823
 20
0.1943175718749084
 30
0.0
 10
2.341284496779442
 20
0.1904070158749099
 30
0.0
 10
2.341284496779442
 20
0.1852711778748987
 30
0.0
  0
SPLINE
  5
270
330
7A
100
AcDbEntity
  8
0
  6
Continuous
 62
   179
370
     0
100
AcDbSpline
210
0.0
220
0.0
230
1.0
 70
     8
 71
     3
 72
    11
 73
     7
 74
     0
 42
0.000000001
 43
0.00000001
 40
2.0
 40
2.0
 40
2.0
 40
2.0
 40
3.0
 40
3.0
 40
3.0
 40
4.0
 40
4.0
 40
4.0
 40
4.0
 10
2.341284496779442
 20
0.1852711778748987
 30
0.0
 10
2.341284496779442
 20
0.1802560478749049
 30
0.0
 10
2.33737394087823
 20
0.1763454918749064
 30
0.0
 10
2.332247683007731
 20
0.1763454918749064
 30
0.0
 10
2.327363827002558
 20
0.1763454918749064
 30
0.0
 10
2.323453243229897
 20
0.1802560478749049
 30
0.0
 10
2.323453243229897
 20
0.1852711778748987
 30
0.0
  0
SPLINE
  5
271
330
7A
100
AcDbEntity
  8
0
  6
Continuous
 62
   179
370
     0
100
AcDbSpline
210
0.0
220
0.0
230
1.0
 70
     8
 71
     3
 72
    11
 73
     7
 74
     0
 42
0.000000001
 43
0.00000001
 40
0.0
 40
0.0
 40
0.0
 40
0.0
 40
1.0
 40
1.0
 40
1.0
 40
2.0
 40
2.0
 40
2.0
 40
2.0
 10
2.323453243229897
 20
0.1852711778748987
 30
0.0
 10
2.323453243229897
 20
0.190285349874899
 30
0.0
 10
2.327363827002558
 20
0.1943175718749084
 30
0.0
 10
2.332378929004415
 20
0.1943175718749084
 30
0.0
 10
2.33737394087823
 20
0.1943175718749084
 30
0.0
 10
2.341284496779442
 20
0.1904070158749099
 30
0.0
 10
2.341284496779442
 20
0.1852711778748987
 30
0.0
  0
SPLINE
  5
272
330
7A
100
AcDbEntity
  8
0
  6
Continuous
 62
   179
370
     0
100
AcDbSpline
210
0.0
220
0.0
230
1.0
 70
     8
 71
     3
 72
     8
 73
     4
 74
     0
 42
0.000000001
 43
0.00000001
 40
0.0
 40
0.0
 40
0.0
 40
0.0
 40
1.0
 40
1.0
 40
1.0
 40
1.0
 10
2.352885876486366
 20
0.1231879878749017
 30
0.0
 10
2.352885876486366
 20
0.1373615978748967
 30
0.0
 10
2.361193652276494
 20
0.1436020098749027
 30
0.0
 10
2.380503099788697
 20
0.1436020098749027
 30
0.0
  0
SPLINE
  5
273
330
7A
100
AcDbEntity
  8
0
  6
Continuous
 62
   179
370
     0
100
AcDbSpline
210
0.0
220
0.0
230
1.0
 70
     8
 71
     3
 72
     8
 73
     4
 74
     0
 42
0.000000001
 43
0.00000001
 40
3.0
 40
3.0
 40
3.0
 40
3.0
 40
4.0
 40
4.0
 40
4.0
 40
4.0
 10
2.384900319677613
 20
0.1471379878749019
 30
0.0
 10
2.384900319677613
 20
0.1536217318748948
 30
0.0
 10
2.384058267002572
 20
0.1571672898748957
 30
0.0
 10
2.377079207875191
 20
0.1571672898748957
 30
0.0
  0
SPLINE
  5
274
330
7A
100
AcDbEntity
  8
0
  6
Continuous
 62
   179
370
     0
100
AcDbSpline
210
0.0
220
0.0
230
1.0
 70
     8
 71
     3
 72
     8
 73
     4
 74
     0
 42
0.000000001
 43
0.00000001
 40
4.0
 40
4.0
 40
4.0
 40
4.0
 40
5.0
 40
5.0
 40
5.0
 40
5.0
 10
2.377079207875191
 20
0.1571672898748957
 30
0.0
 10
2.37097962202928
 20
0.1571672898748957
 30
0.0
 10
2.365104208177705
 20
0.1544724358749077
 30
0.0
 10
2.35997699230723
 20
0.1515447878748934
 30
0.0
  0
SPLINE
  5
275
330
7A
100
AcDbEntity
  8
0
  6
Continuous
 62
   179
370
     0
100
AcDbSpline
210
0.0
220
0.0
230
1.0
 70
     8
 71
     3
 72
     8
 73
     4
 74
     0
 42
0.000000001
 43
0.00000001
 40
6.0
 40
6.0
 40
6.0
 40
6.0
 40
7.0
 40
7.0
 40
7.0
 40
7.0
 10
2.354850734436729
 20
0.1614428438749095
 30
0.0
 10
2.361436984270346
 20
0.1657183978749056
 30
0.0
 10
2.368659346087894
 20
0.1686460458749027
 30
0.0
 10
2.378557401837849
 20
0.1686460458749027
 30
0.0
  0
SPLINE
  5
276
330
7A
100
AcDbEntity
  8
0
  6
Continuous
 62
   179
370
     0
100
AcDbSpline
210
0.0
220
0.0
230
1.0
 70
     8
 71
     3
 72
     8
 73
     4
 74
     0
 42
0.000000001
 43
0.00000001
 40
7.0
 40
7.0
 40
7.0
 40
7.0
 40
8.0
 40
8.0
 40
8.0
 40
8.0
 10
2.378557401837849
 20
0.1686460458749027
 30
0.0
 10
2.392366013489014
 20
0.1686460458749027
 30
0.0
 10
2.398840207002568
 20
0.1632764558749066
 30
0.0
 10
2.398840207002568
 20
0.1493461778748985
 30
0.0
  0
SPLINE
  5
277
330
7A
100
AcDbEntity
  8
0
  6
Continuous
 62
   179
370
     0
100
AcDbSpline
210
0.0
220
0.0
230
1.0
 70
     8
 71
     3
 72
     8
 73
     4
 74
     0
 42
0.000000001
 43
0.00000001
 40
11.0
 40
11.0
 40
11.0
 40
11.0
 40
12.0
 40
12.0
 40
12.0
 40
12.0
 10
2.386247267643587
 20
0.1106046578748999
 30
0.0
 10
2.382823375730081
 20
0.1069374338749056
 30
0.0
 10
2.378070767002571
 20
0.1036352078749089
 30
0.0
 10
2.371335040020301
 20
0.1036352078749089
 30
0.0
  0
SPLINE
  5
278
330
7A
100
AcDbEntity
  8
0
  6
Continuous
 62
   179
370
     0
100
AcDbSpline
210
0.0
220
0.0
230
1.0
 70
     8
 71
     3
 72
     8
 73
     4
 74
     0
 42
0.000000001
 43
0.00000001
 40
12.0
 40
12.0
 40
12.0
 40
12.0
 40
13.0
 40
13.0
 40
13.0
 40
13.0
 10
2.371335040020301
 20
0.1036352078749089
 30
0.0
 10
2.359004622331794
 20
0.1036352078749089
 30
0.0
 10
2.352885876486366
 20
0.1107263238748934
 30
0.0
 10
2.352885876486366
 20
0.1231879878749017
 30
0.0
  0
SPLINE
  5
279
330
7A
100
AcDbEntity
  8
0
  6
Continuous
 62
   179
370
     0
100
AcDbSpline
210
0.0
220
0.0
230
1.0
 70
     8
 71
     3
 72
     8
 73
     4
 74
     0
 42
0.000000001
 43
0.00000001
 40
2.0
 40
2.0
 40
2.0
 40
2.0
 40
3.0
 40
3.0
 40
3.0
 40
3.0
 10
2.382711289732912
 20
0.1345546578748998
 30
0.0
 10
2.369388384069478
 20
0.1345546578748998
 30
0.0
 10
2.367068108128093
 20
0.1311307658749099
 30
0.0
 10
2.367068108128093
 20
0.1233096538748952
 30
0.0
  0
SPLINE
  5
27A
330
7A
100
AcDbEntity
  8
0
  6
Continuous
 62
   179
370
     0
100
AcDbSpline
210
0.0
220
0.0
230
1.0
 70
     8
 71
     3
 72
     8
 73
     4
 74
     0
 42
0.000000001
 43
0.00000001
 40
3.0
 40
3.0
 40
3.0
 40
3.0
 40
4.0
 40
4.0
 40
4.0
 40
4.0
 10
2.367068108128093
 20
0.1233096538748952
 30
0.0
 10
2.367068108128093
 20
0.1162271598749022
 30
0.0
 10
2.369145052075625
 20
0.1137765958748945
 30
0.0
 10
2.374403513942785
 20
0.1137765958748945
 30
0.0
  0
SPLINE
  5
27B
330
7A
100
AcDbEntity
  8
0
  6
Continuous
 62
   179
370
     0
100
AcDbSpline
210
0.0
220
0.0
230
1.0
 70
     8
 71
     3
 72
     8
 73
     4
 74
     0
 42
0.000000001
 43
0.00000001
 40
4.0
 40
4.0
 40
4.0
 40
4.0
 40
5.0
 40
5.0
 40
5.0
 40
5.0
 10
2.374403513942785
 20
0.1137765958748945
 30
0.0
 10
2.379043107825579
 20
0.1137765958748945
 30
0.0
 10
2.382467987002562
 20
0.1164704918749063
 30
0.0
 10
2.384900319677613
 20
0.1189124338749057
 30
0.0
  0
SPLINE
  5
27C
330
7A
100
AcDbEntity
  8
0
  6
Continuous
 62
   179
370
     0
100
AcDbSpline
210
0.0
220
0.0
230
1.0
 70
     8
 71
     3
 72
     8
 73
     4
 74
     0
 42
0.000000001
 43
0.00000001
 40
0.0
 40
0.0
 40
0.0
 40
0.0
 40
1.0
 40
1.0
 40
1.0
 40
1.0
 10
2.352885876486366
 20
0.1231879878749017
 30
0.0
 10
2.352885876486366
 20
0.1373615978748967
 30
0.0
 10
2.361193652276494
 20
0.1436020098749027
 30
0.0
 10
2.380503099788697
 20
0.1436020098749027
 30
0.0
  0
SPLINE
  5
27D
330
7A
100
AcDbEntity
  8
0
  6
Continuous
 62
   179
370
     0
100
AcDbSpline
210
0.0
220
0.0
230
1.0
 70
     8
 71
     3
 72
     8
 73
     4
 74
     0
 42
0.000000001
 43
0.00000001
 40
3.0
 40
3.0
 40
3.0
 40
3.0
 40
4.0
 40
4.0
 40
4.0
 40
4.0
 10
2.429357266554537
 20
0.1195207638749074
 30
0.0
 10
2.429357266554537
 20
0.115610207874909
 30
0.0
 10
2.430330594529948
 20
0.1147585458749028
 30
0.0
 10
2.433754486443453
 20
0.1147585458749028
 30
0.0
  0
SPLINE
  5
27E
330
7A
100
AcDbEntity
  8
0
  6
Continuous
 62
   179
370
     0
100
AcDbSpline
210
0.0
220
0.0
230
1.0
 70
     8
 71
     3
 72
     8
 73
     4
 74
     0
 42
0.000000001
 43
0.00000001
 40
4.0
 40
4.0
 40
4.0
 40
4.0
 40
5.0
 40
5.0
 40
5.0
 40
5.0
 10
2.433754486443453
 20
0.1147585458749028
 30
0.0
 10
2.43424115043116
 20
0.1147585458749028
 30
0.0
 10
2.434614770421721
 20
0.1147585458749028
 30
0.0
 10
2.435700184394301
 20
0.1148802118748962
 30
0.0
  0
SPLINE
  5
27F
330
7A
100
AcDbEntity
  8
0
  6
Continuous
 62
   179
370
     0
100
AcDbSpline
210
0.0
220
0.0
230
1.0
 70
     8
 71
     3
 72
     8
 73
     4
 74
     0
 42
0.000000001
 43
0.00000001
 40
6.0
 40
6.0
 40
6.0
 40
6.0
 40
7.0
 40
7.0
 40
7.0
 40
7.0
 10
2.437421710350812
 20
0.1054688198749062
 30
0.0
 10
2.435456852400448
 20
0.1047388238748935
 30
0.0
 10
2.431920874489774
 20
0.1038785398748958
 30
0.0
 10
2.428609068573437
 20
0.1038785398748958
 30
0.0
  0
SPLINE
  5
280
330
7A
100
AcDbEntity
  8
0
  6
Continuous
 62
   179
370
     0
100
AcDbSpline
210
0.0
220
0.0
230
1.0
 70
     8
 71
     3
 72
     8
 73
     4
 74
     0
 42
0.000000001
 43
0.00000001
 40
7.0
 40
7.0
 40
7.0
 40
7.0
 40
8.0
 40
8.0
 40
8.0
 40
8.0
 10
2.428609068573437
 20
0.1038785398748958
 30
0.0
 10
2.41811226283861
 20
0.1038785398748958
 30
0.0
 10
2.415417408906687
 20
0.1091360438749005
 30
0.0
 10
2.415417408906687
 20
0.1212327098748938
 30
0.0
  0
SPLINE
  5
281
330
7A
100
AcDbEntity
  8
0
  6
Continuous
 62
   179
370
     0
100
AcDbSpline
210
0.0
220
0.0
230
1.0
 70
     8
 71
     3
 72
     8
 73
     4
 74
     0
 42
0.000000001
 43
0.00000001
 40
1.0
 40
1.0
 40
1.0
 40
1.0
 40
2.0
 40
2.0
 40
2.0
 40
2.0
 10
2.503378092684613
 20
0.1897891058749059
 30
0.0
 10
2.521957544215256
 20
0.1897891058749059
 30
0.0
 10
2.531724387002561
 20
0.1820896598749022
 30
0.0
 10
2.53172438700256
 20
0.1641271598749022
 30
0.0
  0
SPLINE
  5
282
330
7A
100
AcDbEntity
  8
0
  6
Continuous
 62
   179
370
     0
100
AcDbSpline
210
0.0
220
0.0
230
1.0
 70
     8
 71
     3
 72
     8
 73
     4
 74
     0
 42
0.000000001
 43
0.00000001
 40
2.0
 40
2.0
 40
2.0
 40
2.0
 40
3.0
 40
3.0
 40
3.0
 40
3.0
 10
2.53172438700256
 20
0.1641271598749022
 30
0.0
 10
2.531724387002561
 20
0.1475125658749015
 30
0.0
 10
2.5250078161382
 20
0.1372399318749033
 30
0.0
 10
2.50485628664727
 20
0.1372399318749033
 30
0.0
  0
SPLINE
  5
283
330
7A
100
AcDbEntity
  8
0
  6
Continuous
 62
   179
370
     0
100
AcDbSpline
210
0.0
220
0.0
230
1.0
 70
     8
 71
     3
 72
     8
 73
     4
 74
     0
 42
0.000000001
 43
0.00000001
 40
0.0
 40
0.0
 40
0.0
 40
0.0
 40
1.0
 40
1.0
 40
1.0
 40
1.0
 10
2.503995044669028
 20
0.1494678438749094
 30
0.0
 10
2.51243406645584
 20
0.1494678438749094
 30
0.0
 10
2.516344622357051
 20
0.1526388238748932
 30
0.0
 10
2.516344622357051
 20
0.1631547898748959
 30
0.0
  0
SPLINE
  5
284
330
7A
100
AcDbEntity
  8
0
  6
Continuous
 62
   179
370
     0
100
AcDbSpline
210
0.0
220
0.0
230
1.0
 70
     8
 71
     3
 72
     8
 73
     4
 74
     0
 42
0.000000001
 43
0.00000001
 40
1.0
 40
1.0
 40
1.0
 40
1.0
 40
2.0
 40
2.0
 40
2.0
 40
2.0
 10
2.516344622357051
 20
0.1631547898748959
 30
0.0
 10
2.516344622357051
 20
0.1740252158749009
 30
0.0
 10
2.512677398449692
 20
0.1773283998749081
 30
0.0
 10
2.504107130666196
 20
0.1773283998749081
 30
0.0
  0
SPLINE
  5
285
330
7A
100
AcDbEntity
  8
0
  6
Continuous
 62
   179
370
     0
100
AcDbSpline
210
0.0
220
0.0
230
1.0
 70
     8
 71
     3
 72
    11
 73
     7
 74
     0
 42
0.000000001
 43
0.00000001
 40
0.0
 40
0.0
 40
0.0
 40
0.0
 40
1.0
 40
2.0
 40
3.0
 40
4.0
 40
4.0
 40
4.0
 40
4.0
 10
2.554907987002561
 20
0.1592442338748971
 30
0.0
 10
2.559061841277924
 20
0.1646138238748933
 30
0.0
 10
2.56456267713896
 20
0.1681593818748942
 30
0.0
 10
2.571036840975409
 20
0.1681593818748942
 30
0.0
 10
2.572383788941383
 20
0.1681593818748942
 30
0.0
 10
2.57386198290404
 20
0.1679160498749072
 30
0.0
 10
2.574704064882768
 20
0.1676736758748964
 30
0.0
  0
SPLINE
  5
286
330
7A
100
AcDbEntity
  8
0
  6
Continuous
 62
   179
370
     0
100
AcDbSpline
210
0.0
220
0.0
230
1.0
 70
     8
 71
     3
 72
    11
 73
     7
 74
     0
 42
0.000000001
 43
0.00000001
 40
0.0
 40
0.0
 40
0.0
 40
0.0
 40
1.0
 40
2.0
 40
3.0
 40
4.0
 40
4.0
 40
4.0
 40
4.0
 10
2.572515034938067
 20
0.1533783998749079
 30
0.0
 10
2.571167128972118
 20
0.1541074378749101
 30
0.0
 10
2.569464763015123
 20
0.1544724358749077
 30
0.0
 10
2.56749990506476
 20
0.1544724358749077
 30
0.0
 10
2.562729065185281
 20
0.1544724358749077
 30
0.0
 10
2.559678827002558
 20
0.1530038218749083
 30
0.0
 10
2.556142815351665
 20
0.1499535498749072
 30
0.0
  0
SPLINE
  5
287
330
7A
100
AcDbEntity
  8
0
  6
Continuous
 62
   179
370
     0
100
AcDbSpline
210
0.0
220
0.0
230
1.0
 70
     8
 71
     3
 72
    11
 73
     7
 74
     0
 42
0.000000001
 43
0.00000001
 40
2.0
 40
2.0
 40
2.0
 40
2.0
 40
3.0
 40
3.0
 40
3.0
 40
4.0
 40
4.0
 40
4.0
 40
4.0
 10
2.631884209438274
 20
0.1361449378749101
 30
0.0
 10
2.631884209438274
 20
0.1129249338749055
 30
0.0
 10
2.621855865691612
 20
0.1036352078749089
 30
0.0
 10
2.605857266095772
 20
0.1036352078749089
 30
0.0
 10
2.589841422500365
 20
0.1036352078749089
 30
0.0
 10
2.579830322753267
 20
0.113046599874899
 30
0.0
 10
2.579830322753267
 20
0.1362666038749036
 30
0.0
  0
SPLINE
  5
288
330
7A
100
AcDbEntity
  8
0
  6
Continuous
 62
   179
370
     0
100
AcDbSpline
210
0.0
220
0.0
230
1.0
 70
     8
 71
     3
 72
    11
 73
     7
 74
     0
 42
0.000000001
 43
0.00000001
 40
0.0
 40
0.0
 40
0.0
 40
0.0
 40
1.0
 40
1.0
 40
1.0
 40
2.0
 40
2.0
 40
2.0
 40
2.0
 10
2.579830322753267
 20
0.1362666038749036
 30
0.0
 10
2.579830322753267
 20
0.1596092318748948
 30
0.0
 10
2.589728378503221
 20
0.1686460458749027
 30
0.0
 10
2.605726978099062
 20
0.1686460458749027
 30
0.0
 10
2.621742821694468
 20
0.1686460458749027
 30
0.0
 10
2.631884209438274
 20
0.1593658998749081
 30
0.0
 10
2.631884209438274
 20
0.1361449378749101
 30
0.0
  0
SPLINE
  5
289
330
7A
100
AcDbEntity
  8
0
  6
Continuous
 62
   179
370
     0
100
AcDbSpline
210
0.0
220
0.0
230
1.0
 70
     8
 71
     3
 72
    11
 73
     7
 74
     0
 42
0.000000001
 43
0.00000001
 40
2.0
 40
2.0
 40
2.0
 40
2.0
 40
3.0
 40
3.0
 40
3.0
 40
4.0
 40
4.0
 40
4.0
 40
4.0
 10
2.594612262379844
 20
0.1361449378749101
 30
0.0
 10
2.594612262379844
 20
0.1186691018749012
 30
0.0
 10
2.597792822299496
 20
0.1141502158749007
 30
0.0
 10
2.605857266095772
 20
0.1141502158749007
 30
0.0
 10
2.613921709892046
 20
0.1141502158749007
 30
0.0
 10
2.616971981814991
 20
0.1187907678748947
 30
0.0
 10
2.616971981814991
 20
0.1362666038749036
 30
0.0
  0
SPLINE
  5
28A
330
7A
100
AcDbEntity
  8
0
  6
Continuous
 62
   179
370
     0
100
AcDbSpline
210
0.0
220
0.0
230
1.0
 70
     8
 71
     3
 72
    11
 73
     7
 74
     0
 42
0.000000001
 43
0.00000001
 40
0.0
 40
0.0
 40
0.0
 40
0.0
 40
1.0
 40
1.0
 40
1.0
 40
2.0
 40
2.0
 40
2.0
 40
2.0
 10
2.616971981814991
 20
0.1362666038749036
 30
0.0
 10
2.616971981814991
 20
0.1539857718748994
 30
0.0
 10
2.613791421895338
 20
0.1581396598749021
 30
0.0
 10
2.605726978099062
 20
0.1581396598749021
 30
0.0
 10
2.597662534302788
 20
0.1581396598749021
 30
0.0
 10
2.594612262379844
 20
0.153864105874906
 30
0.0
 10
2.594612262379844
 20
0.1361449378749101
 30
0.0
  0
SPLINE
  5
28B
330
7A
100
AcDbEntity
  8
0
  6
Continuous
 62
   179
370
     0
100
AcDbSpline
210
0.0
220
0.0
230
1.0
 70
     8
 71
     3
 72
    11
 73
     7
 74
     0
 42
0.000000001
 43
0.00000001
 40
2.0
 40
2.0
 40
2.0
 40
2.0
 40
3.0
 40
3.0
 40
3.0
 40
4.0
 40
4.0
 40
4.0
 40
4.0
 10
2.631884209438274
 20
0.1361449378749101
 30
0.0
 10
2.631884209438274
 20
0.1129249338749055
 30
0.0
 10
2.621855865691612
 20
0.1036352078749089
 30
0.0
 10
2.605857266095772
 20
0.1036352078749089
 30
0.0
 10
2.589841422500365
 20
0.1036352078749089
 30
0.0
 10
2.579830322753267
 20
0.113046599874899
 30
0.0
 10
2.579830322753267
 20
0.1362666038749036
 30
0.0
  0
SPLINE
  5
28C
330
7A
100
AcDbEntity
  8
0
  6
Continuous
 62
   179
370
     0
100
AcDbSpline
210
0.0
220
0.0
230
1.0
 70
     8
 71
     3
 72
    11
 73
     7
 74
     0
 42
0.000000001
 43
0.00000001
 40
0.0
 40
0.0
 40
0.0
 40
0.0
 40
1.0
 40
1.0
 40
1.0
 40
2.0
 40
2.0
 40
2.0
 40
2.0
 10
2.579830322753267
 20
0.1362666038749036
 30
0.0
 10
2.579830322753267
 20
0.1596092318748948
 30
0.0
 10
2.589728378503221
 20
0.1686460458749027
 30
0.0
 10
2.605726978099062
 20
0.1686460458749027
 30
0.0
 10
2.621742821694468
 20
0.1686460458749027
 30
0.0
 10
2.631884209438274
 20
0.1593658998749081
 30
0.0
 10
2.631884209438274
 20
0.1361449378749101
 30
0.0
  0
SPLINE
  5
28D
330
7A
100
AcDbEntity
  8
0
  6
Continuous
 62
   179
370
     0
100
AcDbSpline
210
0.0
220
0.0
230
1.0
 70
     8
 71
     3
 72
    11
 73
     7
 74
     0
 42
0.000000001
 43
0.00000001
 40
2.0
 40
2.0
 40
2.0
 40
2.0
 40
3.0
 40
3.0
 40
3.0
 40
4.0
 40
4.0
 40
4.0
 40
4.0
 10
2.594612262379844
 20
0.1361449378749101
 30
0.0
 10
2.594612262379844
 20
0.1186691018749012
 30
0.0
 10
2.597792822299496
 20
0.1141502158749007
 30
0.0
 10
2.605857266095772
 20
0.1141502158749007
 30
0.0
 10
2.613921709892046
 20
0.1141502158749007
 30
0.0
 10
2.616971981814991
 20
0.1187907678748947
 30
0.0
 10
2.616971981814991
 20
0.1362666038749036
 30
0.0
  0
SPLINE
  5
28E
330
7A
100
AcDbEntity
  8
0
  6
Continuous
 62
   179
370
     0
100
AcDbSpline
210
0.0
220
0.0
230
1.0
 70
     8
 71
     3
 72
    11
 73
     7
 74
     0
 42
0.000000001
 43
0.00000001
 40
0.0
 40
0.0
 40
0.0
 40
0.0
 40
1.0
 40
1.0
 40
1.0
 40
2.0
 40
2.0
 40
2.0
 40
2.0
 10
2.616971981814991
 20
0.1362666038749036
 30
0.0
 10
2.616971981814991
 20
0.1539857718748994
 30
0.0
 10
2.613791421895338
 20
0.1581396598749021
 30
0.0
 10
2.605726978099062
 20
0.1581396598749021
 30
0.0
 10
2.597662534302788
 20
0.1581396598749021
 30
0.0
 10
2.594612262379844
 20
0.153864105874906
 30
0.0
 10
2.594612262379844
 20
0.1361449378749101
 30
0.0
  0
SPLINE
  5
28F
330
7A
100
AcDbEntity
  8
0
  6
Continuous
 62
   179
370
     0
100
AcDbSpline
210
0.0
220
0.0
230
1.0
 70
     8
 71
     3
 72
     8
 73
     4
 74
     0
 42
0.000000001
 43
0.00000001
 40
0.0
 40
0.0
 40
0.0
 40
0.0
 40
1.0
 40
1.0
 40
1.0
 40
1.0
 10
2.642362813173563
 20
0.1356592318748949
 30
0.0
 10
2.642362813173563
 20
0.1602166038749035
 30
0.0
 10
2.649079387002561
 20
0.1686460458749027
 30
0.0
 10
2.663262540645592
 20
0.1686460458749027
 30
0.0
  0
SPLINE
  5
290
330
7A
100
AcDbEntity
  8
0
  6
Continuous
 62
   179
370
     0
100
AcDbSpline
210
0.0
220
0.0
230
1.0
 70
     8
 71
     3
 72
     8
 73
     4
 74
     0
 42
0.000000001
 43
0.00000001
 40
1.0
 40
1.0
 40
1.0
 40
1.0
 40
2.0
 40
2.0
 40
2.0
 40
2.0
 10
2.663262540645592
 20
0.1686460458749027
 30
0.0
 10
2.669848827002558
 20
0.1686460458749027
 30
0.0
 10
2.675106294346394
 20
0.1652317338748973
 30
0.0
 10
2.678531144259875
 20
0.1620502158749008
 30
0.0
  0
SPLINE
  5
291
330
7A
100
AcDbEntity
  8
0
  6
Continuous
 62
   179
370
     0
100
AcDbSpline
210
0.0
220
0.0
230
1.0
 70
     8
 71
     3
 72
     8
 73
     4
 74
     0
 42
0.000000001
 43
0.00000001
 40
7.0
 40
7.0
 40
7.0
 40
7.0
 40
8.0
 40
8.0
 40
8.0
 40
8.0
 10
2.679746846229163
 20
0.1113346538748951
 30
0.0
 10
2.675106294346394
 20
0.1063291038749035
 30
0.0
 10
2.669980036475894
 20
0.1036352078749089
 30
0.0
 10
2.663617958636614
 20
0.1036352078749089
 30
0.0
  0
SPLINE
  5
292
330
7A
100
AcDbEntity
  8
0
  6
Continuous
 62
   179
370
     0
100
AcDbSpline
210
0.0
220
0.0
230
1.0
 70
     8
 71
     3
 72
     8
 73
     4
 74
     0
 42
0.000000001
 43
0.00000001
 40
8.0
 40
8.0
 40
8.0
 40
8.0
 40
9.0
 40
9.0
 40
9.0
 40
9.0
 10
2.663617958636614
 20
0.1036352078749089
 30
0.0
 10
2.651156294951421
 20
0.1036352078749089
 30
0.0
 10
2.642362813173563
 20
0.1107263238748934
 30
0.0
 10
2.642362813173563
 20
0.1356592318748949
 30
0.0
  0
SPLINE
  5
293
330
7A
100
AcDbEntity
  8
0
  6
Continuous
 62
   179
370
     0
100
AcDbSpline
210
0.0
220
0.0
230
1.0
 70
     8
 71
     3
 72
     8
 73
     4
 74
     0
 42
0.000000001
 43
0.00000001
 40
1.0
 40
1.0
 40
1.0
 40
1.0
 40
2.0
 40
2.0
 40
2.0
 40
2.0
 10
2.678531144259875
 20
0.1521521598749021
 30
0.0
 10
2.675836327002557
 20
0.1547157678748947
 30
0.0
 10
2.672056980423425
 20
0.1572889558749066
 30
0.0
 10
2.667659760534508
 20
0.1572889558749066
 30
0.0
  0
SPLINE
  5
294
330
7A
100
AcDbEntity
  8
0
  6
Continuous
 62
   179
370
     0
100
AcDbSpline
210
0.0
220
0.0
230
1.0
 70
     8
 71
     3
 72
     8
 73
     4
 74
     0
 42
0.000000001
 43
0.00000001
 40
2.0
 40
2.0
 40
2.0
 40
2.0
 40
3.0
 40
3.0
 40
3.0
 40
3.0
 10
2.667659760534508
 20
0.1572889558749066
 30
0.0
 10
2.659950734729255
 20
0.1572889558749066
 30
0.0
 10
2.657275040796848
 20
0.153864105874906
 30
0.0
 10
2.657275040796849
 20
0.1361449378749101
 30
0.0
  0
SPLINE
  5
295
330
7A
100
AcDbEntity
  8
0
  6
Continuous
 62
   179
370
     0
100
AcDbSpline
210
0.0
220
0.0
230
1.0
 70
     8
 71
     3
 72
     8
 73
     4
 74
     0
 42
0.000000001
 43
0.00000001
 40
3.0
 40
3.0
 40
3.0
 40
3.0
 40
4.0
 40
4.0
 40
4.0
 40
4.0
 10
2.657275040796849
 20
0.1361449378749101
 30
0.0
 10
2.657275040796849
 20
0.1185474358749078
 30
0.0
 10
2.659595316738234
 20
0.1151235438749004
 30
0.0
 10
2.666799476556241
 20
0.1151235438749004
 30
0.0
  0
SPLINE
  5
296
330
7A
100
AcDbEntity
  8
0
  6
Continuous
 62
   179
370
     0
100
AcDbSpline
210
0.0
220
0.0
230
1.0
 70
     8
 71
     3
 72
     8
 73
     4
 74
     0
 42
0.000000001
 43
0.00000001
 40
4.0
 40
4.0
 40
4.0
 40
4.0
 40
5.0
 40
5.0
 40
5.0
 40
5.0
 10
2.666799476556241
 20
0.1151235438749004
 30
0.0
 10
2.671813648429573
 20
0.1151235438749004
 30
0.0
 10
2.675237540343078
 20
0.1169571558748974
 30
0.0
 10
2.678531144259875
 20
0.1201377158749006
 30
0.0
  0
SPLINE
  5
297
330
7A
100
AcDbEntity
  8
0
  6
Continuous
 62
   179
370
     0
100
AcDbSpline
210
0.0
220
0.0
230
1.0
 70
     8
 71
     3
 72
     8
 73
     4
 74
     0
 42
0.000000001
 43
0.00000001
 40
3.0
 40
3.0
 40
3.0
 40
3.0
 40
4.0
 40
4.0
 40
4.0
 40
4.0
 10
2.722744759142944
 20
0.1238058978749057
 30
0.0
 10
2.722744759142945
 20
0.1172004878749018
 30
0.0
 10
2.725196281081014
 20
0.1152452098748939
 30
0.0
 10
2.7297055869671
 20
0.1152452098748939
 30
0.0
  0
SPLINE
  5
298
330
7A
100
AcDbEntity
  8
0
  6
Continuous
 62
   179
370
     0
100
AcDbSpline
210
0.0
220
0.0
230
1.0
 70
     8
 71
     3
 72
     8
 73
     4
 74
     0
 42
0.000000001
 43
0.00000001
 40
4.0
 40
4.0
 40
4.0
 40
4.0
 40
5.0
 40
5.0
 40
5.0
 40
5.0
 10
2.7297055869671
 20
0.1152452098748939
 30
0.0
 10
2.733989762858873
 20
0.1152452098748939
 30
0.0
 10
2.737900318760083
 20
0.1176871518749104
 30
0.0
 10
2.741567542667442
 20
0.1208677118748961
 30
0.0
  0
SPLINE
  5
299
330
7A
100
AcDbEntity
  8
0
  6
Continuous
 62
   179
370
     0
100
AcDbSpline
210
0.0
220
0.0
230
1.0
 70
     8
 71
     3
 72
     8
 73
     4
 74
     0
 42
0.000000001
 43
0.00000001
 40
10.0
 40
10.0
 40
10.0
 40
10.0
 40
11.0
 40
11.0
 40
11.0
 40
11.0
 10
2.742784202636705
 20
0.1120732718748993
 30
0.0
 10
2.737900318760083
 20
0.1071807658749097
 30
0.0
 10
2.733129478880604
 20
0.1036352078749089
 30
0.0
 10
2.725308367078183
 20
0.1036352078749089
 30
0.0
  0
SPLINE
  5
29A
330
7A
100
AcDbEntity
  8
0
  6
Continuous
 62
   179
370
     0
100
AcDbSpline
210
0.0
220
0.0
230
1.0
 70
     8
 71
     3
 72
     8
 73
     4
 74
     0
 42
0.000000001
 43
0.00000001
 40
11.0
 40
11.0
 40
11.0
 40
11.0
 40
12.0
 40
12.0
 40
12.0
 40
12.0
 10
2.725308367078183
 20
0.1036352078749089
 30
0.0
 10
2.715896975315934
 20
0.1036352078749089
 30
0.0
 10
2.708804901495096
 20
0.109014377874907
 30
0.0
 10
2.708804901495096
 20
0.1205027138748985
 30
0.0
  0
SPLINE
  5
29B
330
7A
100
AcDbEntity
  8
0
  6
Continuous
 62
   179
370
     0
100
AcDbSpline
210
0.0
220
0.0
230
1.0
 70
     8
 71
     3
 72
     8
 73
     4
 74
     0
 42
0.000000001
 43
0.00000001
 40
0.0
 40
0.0
 40
0.0
 40
0.0
 40
1.0
 40
1.0
 40
1.0
 40
1.0
 10
2.768905029976838
 20
0.1362666038749036
 30
0.0
 10
2.768905029976838
 20
0.1594875658749016
 30
0.0
 10
2.777941843748549
 20
0.1686460458749027
 30
0.0
 10
2.794070731341099
 20
0.1686460458749027
 30
0.0
  0
SPLINE
  5
29C
330
7A
100
AcDbEntity
  8
0
  6
Continuous
 62
   179
370
     0
100
AcDbSpline
210
0.0
220
0.0
230
1.0
 70
     8
 71
     3
 72
     8
 73
     4
 74
     0
 42
0.000000001
 43
0.00000001
 40
1.0
 40
1.0
 40
1.0
 40
1.0
 40
2.0
 40
2.0
 40
2.0
 40
2.0
 10
2.794070731341099
 20
0.1686460458749027
 30
0.0
 10
2.801648511149669
 20
0.1686460458749027
 30
0.0
 10
2.807149387002561
 20
0.1665691018749013
 30
0.0
 10
2.812407808877865
 20
0.161564509874903
 30
0.0
  0
SPLINE
  5
29D
330
7A
100
AcDbEntity
  8
0
  6
Continuous
 62
   179
370
     0
100
AcDbSpline
210
0.0
220
0.0
230
1.0
 70
     8
 71
     3
 72
     8
 73
     4
 74
     0
 42
0.000000001
 43
0.00000001
 40
3.0
 40
3.0
 40
3.0
 40
3.0
 40
4.0
 40
4.0
 40
4.0
 40
4.0
 10
2.805185487002562
 20
0.1522738258748956
 30
0.0
 10
2.802023089140205
 20
0.1555770098749028
 30
0.0
 10
2.799197987002562
 20
0.1572889558749066
 30
0.0
 10
2.794688641325489
 20
0.1572889558749066
 30
0.0
  0
SPLINE
  5
29E
330
7A
100
AcDbEntity
  8
0
  6
Continuous
 62
   179
370
     0
100
AcDbSpline
210
0.0
220
0.0
230
1.0
 70
     8
 71
     3
 72
     8
 73
     4
 74
     0
 42
0.000000001
 43
0.00000001
 40
4.0
 40
4.0
 40
4.0
 40
4.0
 40
5.0
 40
5.0
 40
5.0
 40
5.0
 10
2.794688641325489
 20
0.1572889558749066
 30
0.0
 10
2.786736283526383
 20
0.1572889558749066
 30
0.0
 10
2.783817257600123
 20
0.1539857718748994
 30
0.0
 10
2.783817257600123
 20
0.1365099358749078
 30
0.0
  0
SPLINE
  5
29F
330
7A
100
AcDbEntity
  8
0
  6
Continuous
 62
   179
370
     0
100
AcDbSpline
210
0.0
220
0.0
230
1.0
 70
     8
 71
     3
 72
     8
 73
     4
 74
     0
 42
0.000000001
 43
0.00000001
 40
5.0
 40
5.0
 40
5.0
 40
5.0
 40
6.0
 40
6.0
 40
6.0
 40
6.0
 10
2.783817257600123
 20
0.1365099358749078
 30
0.0
 10
2.783817257600123
 20
0.1191557658749098
 30
0.0
 10
2.786867529523067
 20
0.1150018778749069
 30
0.0
 10
2.795287391310364
 20
0.1150018778749069
 30
0.0
  0
SPLINE
  5
2A0
330
7A
100
AcDbEntity
  8
0
  6
Continuous
 62
   179
370
     0
100
AcDbSpline
210
0.0
220
0.0
230
1.0
 70
     8
 71
     3
 72
     8
 73
     4
 74
     0
 42
0.000000001
 43
0.00000001
 40
6.0
 40
6.0
 40
6.0
 40
6.0
 40
7.0
 40
7.0
 40
7.0
 40
7.0
 10
2.795287391310364
 20
0.1150018778749069
 30
0.0
 10
2.800189477186527
 20
0.1150018778749069
 30
0.0
 10
2.802865171118932
 20
0.1172004878749018
 30
0.0
 10
2.806045731038585
 20
0.1201377158749006
 30
0.0
  0
SPLINE
  5
2A1
330
7A
100
AcDbEntity
  8
0
  6
Continuous
 62
   179
370
     0
100
AcDbSpline
210
0.0
220
0.0
230
1.0
 70
     8
 71
     3
 72
     8
 73
     4
 74
     0
 42
0.000000001
 43
0.00000001
 40
8.0
 40
8.0
 40
8.0
 40
8.0
 40
9.0
 40
9.0
 40
9.0
 40
9.0
 10
2.812894472865572
 20
0.1109696558748975
 30
0.0
 10
2.808366047002565
 20
0.106450769874897
 30
0.0
 10
2.802753085121764
 20
0.1036352078749089
 30
0.0
 10
2.794445309331637
 20
0.1036352078749089
 30
0.0
  0
SPLINE
  5
2A2
330
7A
100
AcDbEntity
  8
0
  6
Continuous
 62
   179
370
     0
100
AcDbSpline
210
0.0
220
0.0
230
1.0
 70
     8
 71
     3
 72
     8
 73
     4
 74
     0
 42
0.000000001
 43
0.00000001
 40
9.0
 40
9.0
 40
9.0
 40
9.0
 40
10.0
 40
10.0
 40
10.0
 40
10.0
 10
2.794445309331637
 20
0.1036352078749089
 30
0.0
 10
2.777455179760843
 20
0.1036352078749089
 30
0.0
 10
2.768905029976838
 20
0.1140199278748986
 30
0.0
 10
2.768905029976838
 20
0.1362666038749036
 30
0.0
  0
SPLINE
  5
2A3
330
7A
100
AcDbEntity
  8
0
  6
Continuous
 62
   179
370
     0
100
AcDbSpline
210
0.0
220
0.0
230
1.0
 70
     8
 71
     3
 72
     8
 73
     4
 74
     0
 42
0.000000001
 43
0.00000001
 40
8.0
 40
8.0
 40
8.0
 40
8.0
 40
9.0
 40
9.0
 40
9.0
 40
9.0
 10
2.839744338187286
 20
0.1205027138748985
 30
0.0
 10
2.839744338187287
 20
0.1158535398748956
 30
0.0
 10
2.841334618147112
 20
0.1143935478749051
 30
0.0
 10
2.844515178066765
 20
0.1143935478749051
 30
0.0
  0
SPLINE
  5
2A4
330
7A
100
AcDbEntity
  8
0
  6
Continuous
 62
   179
370
     0
100
AcDbSpline
210
0.0
220
0.0
230
1.0
 70
     8
 71
     3
 72
     8
 73
     4
 74
     0
 42
0.000000001
 43
0.00000001
 40
9.0
 40
9.0
 40
9.0
 40
9.0
 40
10.0
 40
10.0
 40
10.0
 40
10.0
 10
2.844515178066765
 20
0.1143935478749051
 30
0.0
 10
2.847210031998688
 20
0.1143935478749051
 30
0.0
 10
2.849155729949535
 20
0.1153668758749045
 30
0.0
 10
2.850633923912194
 20
0.1158535398748956
 30
0.0
  0
SPLINE
  5
2A5
330
7A
100
AcDbEntity
  8
0
  6
Continuous
 62
   179
370
     0
100
AcDbSpline
210
0.0
220
0.0
230
1.0
 70
     8
 71
     3
 72
     8
 73
     4
 74
     0
 42
0.000000001
 43
0.00000001
 40
11.0
 40
11.0
 40
11.0
 40
11.0
 40
12.0
 40
12.0
 40
12.0
 40
12.0
 10
2.852822953856893
 20
0.1061988158749014
 30
0.0
 10
2.850147259924487
 20
0.1048604898749041
 30
0.0
 10
2.84683545400815
 20
0.1036352078749089
 30
0.0
 10
2.842082816128213
 20
0.1036352078749089
 30
0.0
  0
SPLINE
  5
2A6
330
7A
100
AcDbEntity
  8
0
  6
Continuous
 62
   179
370
     0
100
AcDbSpline
210
0.0
220
0.0
230
1.0
 70
     8
 71
     3
 72
     8
 73
     4
 74
     0
 42
0.000000001
 43
0.00000001
 40
12.0
 40
12.0
 40
12.0
 40
12.0
 40
13.0
 40
13.0
 40
13.0
 40
13.0
 10
2.842082816128213
 20
0.1036352078749089
 30
0.0
 10
2.83254017836928
 20
0.1036352078749089
 30
0.0
 10
2.825935767002572
 20
0.1071807658749097
 30
0.0
 10
2.825935767002572
 20
0.1179304838748971
 30
0.0
  0
SPLINE
  5
2A7
330
7A
100
AcDbEntity
  8
0
  6
Continuous
 62
   179
370
     0
100
AcDbSpline
210
0.0
220
0.0
230
1.0
 70
     8
 71
     3
 72
     8
 73
     4
 74
     0
 42
0.000000001
 43
0.00000001
 40
1.0
 40
1.0
 40
1.0
 40
1.0
 40
2.0
 40
2.0
 40
2.0
 40
2.0
 10
2.863431887002561
 20
0.1202593818748941
 30
0.0
 10
2.868091557471176
 20
0.1170788218749084
 30
0.0
 10
2.87333085933882
 20
0.1151235438749004
 30
0.0
 10
2.878961983196566
 20
0.1151235438749004
 30
0.0
  0
SPLINE
  5
2A8
330
7A
100
AcDbEntity
  8
0
  6
Continuous
 62
   179
370
     0
100
AcDbSpline
210
0.0
220
0.0
230
1.0
 70
     8
 71
     3
 72
     8
 73
     4
 74
     0
 42
0.000000001
 43
0.00000001
 40
2.0
 40
2.0
 40
2.0
 40
2.0
 40
3.0
 40
3.0
 40
3.0
 40
3.0
 10
2.878961983196566
 20
0.1151235438749004
 30
0.0
 10
2.886054057017404
 20
0.1151235438749004
 30
0.0
 10
2.888617707002568
 20
0.1175654858748995
 30
0.0
 10
2.888617707002568
 20
0.1224579918749065
 30
0.0
  0
SPLINE
  5
2A9
330
7A
100
AcDbEntity
  8
0
  6
Continuous
 62
   179
370
     0
100
AcDbSpline
210
0.0
220
0.0
230
1.0
 70
     8
 71
     3
 72
     8
 73
     4
 74
     0
 42
0.000000001
 43
0.00000001
 40
3.0
 40
3.0
 40
3.0
 40
3.0
 40
4.0
 40
4.0
 40
4.0
 40
4.0
 10
2.888617707002568
 20
0.1224579918749065
 30
0.0
 10
2.888617707002568
 20
0.1280804938749088
 30
0.0
 10
2.885679479026868
 20
0.1290538218749084
 30
0.0
 10
2.876754751252325
 20
0.1316270098749029
 30
0.0
  0
SPLINE
  5
2AA
330
7A
100
AcDbEntity
  8
0
  6
Continuous
 62
   179
370
     0
100
AcDbSpline
210
0.0
220
0.0
230
1.0
 70
     8
 71
     3
 72
     8
 73
     4
 74
     0
 42
0.000000001
 43
0.00000001
 40
4.0
 40
4.0
 40
4.0
 40
4.0
 40
5.0
 40
5.0
 40
5.0
 40
5.0
 10
2.876754751252325
 20
0.1316270098749029
 30
0.0
 10
2.867960311474492
 20
0.1340679938749087
 30
0.0
 10
2.861598233635211
 20
0.1389518778749071
 30
0.0
 10
2.861598233635211
 20
0.1508052118748962
 30
0.0
  0
SPLINE
  5
2AB
330
7A
100
AcDbEntity
  8
0
  6
Continuous
 62
   179
370
     0
100
AcDbSpline
210
0.0
220
0.0
230
1.0
 70
     8
 71
     3
 72
     8
 73
     4
 74
     0
 42
0.000000001
 43
0.00000001
 40
5.0
 40
5.0
 40
5.0
 40
5.0
 40
6.0
 40
6.0
 40
6.0
 40
6.0
 10
2.861598233635211
 20
0.1508052118748962
 30
0.0
 10
2.861598233635211
 20
0.1614428438749095
 30
0.0
 10
2.86833488946503
 20
0.1686460458749027
 30
0.0
 10
2.881768923125657
 20
0.1686460458749027
 30
0.0
  0
SPLINE
  5
2AC
330
7A
100
AcDbEntity
  8
0
  6
Continuous
 62
   179
370
     0
100
AcDbSpline
210
0.0
220
0.0
230
1.0
 70
     8
 71
     3
 72
     8
 73
     4
 74
     0
 42
0.000000001
 43
0.00000001
 40
6.0
 40
6.0
 40
6.0
 40
6.0
 40
7.0
 40
7.0
 40
7.0
 40
7.0
 10
2.881768923125657
 20
0.1686460458749027
 30
0.0
 10
2.889833366921931
 20
0.1686460458749027
 30
0.0
 10
2.894960582792407
 20
0.1671870118749053
 30
0.0
 10
2.89986266866857
 20
0.164735489874904
 30
0.0
  0
SPLINE
  5
2AD
330
7A
100
AcDbEntity
  8
0
  6
Continuous
 62
   179
370
     0
100
AcDbSpline
210
0.0
220
0.0
230
1.0
 70
     8
 71
     3
 72
     8
 73
     4
 74
     0
 42
0.000000001
 43
0.00000001
 40
8.0
 40
8.0
 40
8.0
 40
8.0
 40
9.0
 40
9.0
 40
9.0
 40
9.0
 10
2.895952112767359
 20
0.1539857718748994
 30
0.0
 10
2.891180314887905
 20
0.1564277138748985
 30
0.0
 10
2.88764433697723
 20
0.1572889558749066
 30
0.0
 10
2.882872539097777
 20
0.1572889558749066
 30
0.0
  0
SPLINE
  5
2AE
330
7A
100
AcDbEntity
  8
0
  6
Continuous
 62
   179
370
     0
100
AcDbSpline
210
0.0
220
0.0
230
1.0
 70
     8
 71
     3
 72
     8
 73
     4
 74
     0
 42
0.000000001
 43
0.00000001
 40
9.0
 40
9.0
 40
9.0
 40
9.0
 40
10.0
 40
10.0
 40
10.0
 40
10.0
 10
2.882872539097777
 20
0.1572889558749066
 30
0.0
 10
2.877615035230592
 20
0.1572889558749066
 30
0.0
 10
2.874921139298646
 20
0.1553336778748987
 30
0.0
 10
2.874921139298646
 20
0.1510485438749004
 30
0.0
  0
SPLINE
  5
2AF
330
7A
100
AcDbEntity
  8
0
  6
Continuous
 62
   179
370
     0
100
AcDbSpline
210
0.0
220
0.0
230
1.0
 70
     8
 71
     3
 72
     8
 73
     4
 74
     0
 42
0.000000001
 43
0.00000001
 40
10.0
 40
10.0
 40
10.0
 40
10.0
 40
11.0
 40
11.0
 40
11.0
 40
11.0
 10
2.874921139298646
 20
0.1510485438749004
 30
0.0
 10
2.874921139298646
 20
0.1461646598749022
 30
0.0
 10
2.877128371242887
 20
0.1450610438749005
 30
0.0
 10
2.884819195048599
 20
0.142984099874899
 30
0.0
  0
SPLINE
  5
2B0
330
7A
100
AcDbEntity
  8
0
  6
Continuous
 62
   179
370
     0
100
AcDbSpline
210
0.0
220
0.0
230
1.0
 70
     8
 71
     3
 72
     8
 73
     4
 74
     0
 42
0.000000001
 43
0.00000001
 40
11.0
 40
11.0
 40
11.0
 40
11.0
 40
12.0
 40
12.0
 40
12.0
 40
12.0
 10
2.884819195048599
 20
0.142984099874899
 30
0.0
 10
2.894361832807532
 20
0.1404204918749065
 30
0.0
 10
2.902426276603808
 20
0.1366316018749012
 30
0.0
 10
2.902426276603808
 20
0.1230663218749083
 30
0.0
  0
SPLINE
  5
2B1
330
7A
100
AcDbEntity
  8
0
  6
Continuous
 62
   179
370
     0
100
AcDbSpline
210
0.0
220
0.0
230
1.0
 70
     8
 71
     3
 72
     8
 73
     4
 74
     0
 42
0.000000001
 43
0.00000001
 40
12.0
 40
12.0
 40
12.0
 40
12.0
 40
13.0
 40
13.0
 40
13.0
 40
13.0
 10
2.902426276603808
 20
0.1230663218749083
 30
0.0
 10
2.902426276603808
 20
0.1102396598749023
 30
0.0
 10
2.8952221167858
 20
0.1036352078749089
 30
0.0
 10
2.880178643165831
 20
0.1036352078749089
 30
0.0
  0
SPLINE
  5
2B2
330
7A
100
AcDbEntity
  8
0
  6
Continuous
 62
   179
370
     0
100
AcDbSpline
210
0.0
220
0.0
230
1.0
 70
     8
 71
     3
 72
     8
 73
     4
 74
     0
 42
0.000000001
 43
0.00000001
 40
13.0
 40
13.0
 40
13.0
 40
13.0
 40
14.0
 40
14.0
 40
14.0
 40
14.0
 10
2.880178643165831
 20
0.1036352078749089
 30
0.0
 10
2.871010583397434
 20
0.1036352078749089
 30
0.0
 10
2.863076427597869
 20
0.1066941018749012
 30
0.0
 10
2.858548919712242
 20
0.1098660398748957
 30
0.0
  0
HATCH
  5
2B3
330
7A
100
AcDbEntity
  8
0
  6
Continuous
 62
     7
100
AcDbHatch
 10
0.0
 20
0.0
 30
0.0
210
0.0
220
0.0
230
1.0
  2
SOLID
 70
     1
 71
     0
 91
        6
 92
        0
 93
        4
 72
     1
 10
0.184771386550176
 20
0.0909999999999986
 11
0.8504560410723899
 21
0.0909999999999986
 72
     1
 10
0.8504560410723899
 20
0.0909999999999986
 11
0.7656869506674734
 21
0.4079082272864415
 72
     1
 10
0.7656869506674734
 20
0.4079082272864415
 11
0.1000000000000061
 21
0.4079082272864415
 72
     1
 10
0.100000000000006
 20
0.4079082272864415
 11
0.184771386550176
 21
0.0909999999999986
 97
        0
 92
        0
 93
       14
 72
     4
 94
        3
 73
     1
 74
     0
 95
        8
 96
        4
 40
4.0
 40
4.0
 40
4.0
 40
4.0
 40
5.0
 40
5.0
 40
5.0
 40
5.0
 10
0.4423012976257872
 20
0.1966387545982721
 42
1.0
 10
0.4368089181835496
 20
0.1966387545982721
 42
1.0
 10
0.4326930778197509
 20
0.2003355484536258
 42
1.0
 10
0.4342073856132916
 20
0.2059622523930924
 42
1.0
 72
     4
 94
        3
 73
     1
 74
     0
 95
        8
 96
        4
 40
3.0
 40
3.0
 40
3.0
 40
3.0
 40
4.0
 40
4.0
 40
4.0
 40
4.0
 10
0.4342073856132916
 20
0.2059622523930924
 42
1.0
 10
0.4373634372618535
 20
0.217760994769323
 42
1.0
 10
0.4547808470691683
 20
0.2826523557296504
 42
1.0
 10
0.4569794061477401
 20
0.2911618700327175
 42
1.0
 72
     4
 94
        3
 73
     1
 74
     0
 95
        8
 96
        4
 40
2.0
 40
2.0
 40
2.0
 40
2.0
 40
3.0
 40
3.0
 40
3.0
 40
3.0
 10
0.4569794061477401
 20
0.2911618700327175
 42
1.0
 10
0.4579403429356069
 20
0.2944522461785067
 42
1.0
 10
0.4617794977965676
 20
0.3022694726881637
 42
1.0
 10
0.4715231901724635
 20
0.3022694726881637
 42
1.0
 72
     1
 10
0.4715231901724635
 20
0.3022694726881637
 11
0.5354857603784487
 21
0.3022694726881637
 72
     1
 10
0.5354857603784487
 20
0.3022694726881637
 11
0.5305433077240105
 21
0.2836144405901434
 72
     1
 10
0.5305433077240105
 20
0.2836144405901434
 11
0.4779684698941867
 21
0.2836144405901434
 72
     1
 10
0.4779684698941867
 20
0.2836144405901434
 11
0.4597198555057299
 21
0.2157013524784837
 72
     1
 10
0.4597198555057299
 20
0.2157013524784837
 11
0.4896248512648071
 21
0.2157013524784837
 72
     1
 10
0.4896248512648071
 20
0.2157013524784837
 11
0.496618909701704
 21
0.241636313097247
 72
     1
 10
0.496618909701704
 20
0.241636313097247
 11
0.4822140424647147
 21
0.241636313097247
 72
     1
 10
0.4822140424647147
 20
0.241636313097247
 11
0.4872873753985035
 21
0.2606989109774586
 72
     1
 10
0.4872873753985035
 20
0.2606989109774586
 11
0.5243379751810954
 21
0.2606989109774586
 72
     1
 10
0.5243379751810954
 20
0.2606989109774586
 11
0.5071892143682373
 21
0.1966387545982721
 72
     1
 10
0.5071892143682373
 20
0.1966387545982721
 11
0.4423012976257872
 21
0.1966387545982721
 97
        0
 92
        0
 93
       12
 72
     4
 94
        3
 73
     1
 74
     0
 95
        8
 96
        4
 40
11.0
 40
11.0
 40
11.0
 40
11.0
 40
12.0
 40
12.0
 40
12.0
 40
12.0
 10
0.3258040721318871
 20
0.3022694726881637
 42
1.0
 10
0.3329370473565158
 20
0.3022694726881637
 42
1.0
 10
0.3367727579996019
 20
0.2989802446150013
 42
1.0
 10
0.3349932454294768
 20
0.2926727336083826
 42
1.0
 72
     1
 10
0.3349932454294768
 20
0.2926727336083826
 11
0.3219568807625429
 21
0.2439657524551698
 72
     4
 94
        3
 73
     1
 74
     0
 95
        8
 96
        4
 40
9.0
 40
9.0
 40
9.0
 40
9.0
 40
10.0
 40
10.0
 40
10.0
 40
10.0
 10
0.3219568807625429
 20
0.2439657524551687
 42
1.0
 10
0.3205849339746063
 20
0.2386157340185407
 42
1.0
 10
0.3157802500352764
 20
0.2343655691575109
 42
1.0
 10
0.3082397090284547
 20
0.2343655691575114
 42
1.0
 72
     1
 10
0.3082397090284547
 20
0.2343655691575114
 11
0.3037163028824652
 21
0.2343655691575114
 72
     1
 10
0.3037163028824652
 20
0.2343655691575114
 11
0.3096116558163912
 21
0.1966387545982721
 72
     1
 10
0.3096116558163912
 20
0.1966387545982721
 11
0.2860130229913032
 21
0.1966387545982721
 72
     1
 10
0.2860130229913032
 20
0.1966387545982721
 11
0.2805252358395679
 21
0.2343655691575114
 72
     1
 10
0.2805252358395679
 20
0.2343655691575114
 11
0.2669469808932159
 21
0.2343655691575114
 72
     1
 10
0.2669469808932159
 20
0.2343655691575114
 11
0.2567922785172548
 21
0.1966387545982721
 72
     1
 10
0.2567922785172548
 20
0.1966387545982721
 11
0.2338824892677022
 21
0.1966387545982721
 72
     1
 10
0.2338824892677022
 20
0.1966387545982721
 11
0.2621468892443862
 21
0.3022694726881637
 72
     1
 10
0.2621468892443862
 20
0.3022694726881637
 11
0.3258040721318871
 21
0.3022694726881637
 97
        0
 92
        0
 93
       12
 72
     1
 10
0.3417358759613075
 20
0.1966387545982721
 11
0.3699922394296123
 21
0.3022694726881642
 72
     1
 10
0.3699922394296123
 20
0.3022694726881642
 11
0.4273350228747055
 21
0.302269472688003
 72
     1
 10
0.4273350228747055
 20
0.302269472688003
 11
0.422400606728666
 21
0.283614440590051
 72
     1
 10
0.422400606728666
 20
0.283614440590051
 11
0.3879549837342022
 21
0.283614440590051
 72
     1
 10
0.3879549837342022
 20
0.283614440590051
 11
0.3817875375879645
 21
0.2606989109774586
 72
     1
 10
0.3817875375879645
 20
0.2606989109774586
 11
0.4125191456376792
 21
0.2606989109774575
 72
     1
 10
0.4125191456376792
 20
0.2606989109774575
 11
0.4074412204133858
 21
0.241636313097247
 72
     1
 10
0.4074412204133858
 20
0.241636313097247
 11
0.3767096123636712
 21
0.241636313097247
 72
     1
 10
0.3767096123636712
 20
0.241636313097247
 11
0.3697109616362697
 21
0.2157013524784837
 72
     1
 10
0.3697109616362697
 20
0.2157013524784837
 11
0.4041439558318431
 21
0.2157013524784837
 72
     1
 10
0.4041439558318431
 20
0.2157013524784837
 11
0.3990752151885545
 21
0.1966387545982721
 72
     1
 10
0.3990752151885545
 20
0.1966387545982721
 11
0.3417358759613075
 21
0.1966387545982721
 97
        0
 92
        0
 93
        6
 72
     1
 10
0.6791199785304199
 20
0.2152949347689207
 11
0.7142969237875663
 21
0.2152949347689191
 72
     1
 10
0.7142969237875663
 20
0.2152949347689191
 11
0.7092155543453939
 21
0.1966387545982721
 72
     1
 10
0.7092155543453939
 20
0.1966387545982721
 11
0.6515386817661348
 21
0.1966387545982721
 72
     1
 10
0.6515386817661348
 20
0.1966387545982721
 11
0.6797950452344419
 21
0.3022694726881637
 72
     1
 10
0.6797950452344419
 20
0.3022694726881637
 11
0.7024327412716587
 21
0.3022694726881637
 72
     1
 10
0.7024327412716587
 20
0.3022694726881637
 11
0.6791199785304199
 21
0.2152949347689207
 97
        0
 92
        0
 93
        9
 72
     1
 10
0.579734775525348
 20
0.3022694726881637
 11
0.6242283301416888
 21
0.3022694726881637
 72
     1
 10
0.6242283301416888
 20
0.3022694726881637
 11
0.6242283301416888
 21
0.1966387545982737
 72
     1
 10
0.6242283301416888
 20
0.1966387545982737
 11
0.6014517173166046
 21
0.1966387545982737
 72
     1
 10
0.6014517173166046
 20
0.1966387545982737
 11
0.6014517173166091
 21
0.2155635837633774
 72
     1
 10
0.6014517173166091
 20
0.2155635837633774
 11
0.5681059478977484
 21
0.2155635837633763
 72
     1
 10
0.5681059478977484
 20
0.2155635837633763
 11
0.5578215133150622
 21
0.1966387545982721
 72
     1
 10
0.5578215133150622
 20
0.1966387545982721
 11
0.534777399568276
 21
0.1966387545982721
 72
     1
 10
0.534777399568276
 20
0.1966387545982721
 11
0.579734775525348
 21
0.2836144405901434
 72
     1
 10
0.579734775525348
 20
0.2836144405901434
 11
0.579734775525348
 21
0.3022694726881637
 97
        0
 75
     0
 76
     1
 98
        1
 10
0.0
 20
0.0
  0
HATCH
  5
2B4
330
7A
100
AcDbEntity
  8
0
  6
Continuous
 62
     7
100
AcDbHatch
 10
0.0
 20
0.0
 30
0.0
210
0.0
220
0.0
230
1.0
  2
SOLID
 70
     1
 71
     0
 91
        1
 92
        0
 93
        4
 72
     1
 10
0.6014517173166046
 20
0.2345033378726182
 11
0.6014517173166046
 21
0.2778534121534457
 72
     1
 10
0.6014517173166046
 20
0.2778534121534457
 11
0.5992611947464164
 21
0.2778534121534457
 72
     1
 10
0.5992611947464164
 20
0.2778534121534457
 11
0.5775763989886807
 21
0.2345033378726182
 72
     1
 10
0.5775763989886807
 20
0.2345033378726182
 11
0.6014517173166046
 21
0.2345033378726182
 97
        0
 75
     0
 76
     1
 98
        1
 10
0.0
 20
0.0
  0
HATCH
  5
2B5
330
7A
100
AcDbEntity
  8
0
  6
Continuous
 62
     7
100
AcDbHatch
 10
0.0
 20
0.0
 30
0.0
210
0.0
220
0.0
230
1.0
  2
SOLID
 70
     1
 71
     0
 91
        1
 92
        0
 93
        4
 72
     1
 10
0.3017829485804734
 20
0.2530206012555333
 11
0.3100226658164565
 21
0.2836144405901434
 72
     1
 10
0.3100226658164565
 20
0.2836144405901434
 11
0.2801176700573794
 21
0.2836144405901434
 72
     1
 10
0.2801176700573794
 20
0.2836144405901434
 11
0.2718813970392729
 21
0.2530206012555333
 72
     1
 10
0.2718813970392729
 20
0.2530206012555333
 11
0.3017829485804734
 21
0.2530206012555333
 97
        0
 75
     0
 76
     1
 98
        1
 10
0.0
 20
0.0
  0
HATCH
  5
2B6
330
7A
100
AcDbEntity
  8
0
  6
Continuous
 62
     7
100
AcDbHatch
 10
0.0
 20
0.0
 30
0.0
210
0.0
220
0.0
230
1.0
  2
SOLID
 70
     1
 71
     0
 91
        1
 92
        0
 93
       14
 72
     1
 10
1.703461537002565
 20
0.3376621538749036
 11
1.725363333002561
 21
0.3376621538749036
 72
     4
 94
        3
 73
     1
 74
     0
 95
        8
 96
        4
 40
12.0
 40
12.0
 40
12.0
 40
12.0
 40
13.0
 40
13.0
 40
13.0
 40
13.0
 10
1.725363333002561
 20
0.3376621538749038
 42
1.0
 10
1.746131815002565
 20
0.3376621538749038
 42
1.0
 10
1.750618129002569
 20
0.3329660378749023
 42
1.0
 10
1.750618129002569
 20
0.3141614558748978
 42
1.0
 72
     1
 10
1.750618129002569
 20
0.3141614558748978
 11
1.750618129002569
 21
0.2359867398749038
 72
     1
 10
1.750618129002569
 20
0.2359867398749038
 11
1.789934449002563
 21
0.2359867398749038
 72
     1
 10
1.789934449002563
 20
0.2359867398749038
 11
1.789934449002563
 21
0.318604659874902
 72
     4
 94
        3
 73
     1
 74
     0
 95
        8
 96
        4
 40
2.0
 40
2.0
 40
2.0
 40
2.0
 40
3.0
 40
3.0
 40
3.0
 40
3.0
 10
1.789934449002563
 20
0.3186046598749023
 42
1.0
 10
1.789934449002563
 20
0.3529959018749015
 42
1.0
 10
1.771115497002565
 20
0.366364791874898
 42
1.0
 10
1.728436597002565
 20
0.366364791874898
 42
1.0
 72
     1
 10
1.728436597002565
 20
0.3663647918748977
 11
1.578528757002564
 21
0.3663647918748977
 72
     1
 10
1.578528757002564
 20
0.3663647918748977
 11
1.578528757002564
 21
0.2359867398749038
 72
     1
 10
1.578528757002564
 20
0.2359867398749038
 11
1.617826875002565
 21
0.2359867398749038
 72
     1
 10
1.617826875002565
 20
0.2359867398749038
 11
1.617826875002565
 21
0.3376621538749036
 72
     1
 10
1.617826875002565
 20
0.3376621538749036
 11
1.663602989002564
 21
0.3376621538749036
 72
     1
 10
1.663602989002564
 20
0.3376621538749036
 11
1.663602989002564
 21
0.2359867398749038
 72
     1
 10
1.663602989002564
 20
0.2359867398749038
 11
1.703461537002565
 21
0.2359867398749038
 72
     1
 10
1.703461537002565
 20
0.2359867398749038
 11
1.703461537002565
 21
0.3376621538749036
 97
        0
 75
     0
 76
     1
 98
        1
 10
0.0
 20
0.0
  0
HATCH
  5
2B7
330
7A
100
AcDbEntity
  8
0
  6
Continuous
 62
     7
100
AcDbHatch
 10
0.0
 20
0.0
 30
0.0
210
0.0
220
0.0
230
1.0
  2
SOLID
 70
     1
 71
     0
 91
        2
 92
        0
 93
       11
 72
     4
 94
        3
 73
     1
 74
     0
 95
        8
 96
        4
 40
9.0
 40
9.0
 40
9.0
 40
9.0
 40
10.0
 40
10.0
 40
10.0
 40
10.0
 10
1.876949589002568
 20
0.3151529858748996
 42
1.0
 10
1.835687571002568
 20
0.3151529858748996
 42
1.0
 10
1.818000975002569
 20
0.3037671558748974
 42
1.0
 10
1.818000975002569
 20
0.2736054838749061
 42
1.0
 72
     4
 94
        3
 73
     1
 74
     0
 95
        8
 96
        4
 40
10.0
 40
10.0
 40
10.0
 40
10.0
 40
11.0
 40
11.0
 40
11.0
 40
11.0
 10
1.818000975002569
 20
0.2736054838749061
 42
1.0
 10
1.818000975002569
 20
0.2495989618748963
 42
1.0
 10
1.834279311002569
 20
0.2359867398749041
 42
1.0
 10
1.863767509002566
 20
0.2359867398749041
 42
1.0
 72
     1
 10
1.863767509002566
 20
0.2359867398749038
 11
1.968745149002563
 21
0.2359867398749038
 72
     1
 10
1.968745149002563
 20
0.2359867398749038
 11
1.968745149002563
 21
0.3176322898749044
 72
     4
 94
        3
 73
     1
 74
     0
 95
        8
 96
        4
 40
2.0
 40
2.0
 40
2.0
 40
2.0
 40
3.0
 40
3.0
 40
3.0
 40
3.0
 10
1.968745149002563
 20
0.3176322898749044
 42
1.0
 10
1.968745149002563
 20
0.3497770218748992
 42
1.0
 10
1.948252571002568
 20
0.366364791874898
 42
1.0
 10
1.907831677002562
 20
0.366364791874898
 42
1.0
 72
     1
 10
1.907831677002562
 20
0.3663647918748977
 11
1.827829097002565
 21
0.3663647918748977
 72
     1
 10
1.827829097002565
 20
0.3663647918748977
 11
1.827829097002565
 21
0.3393836798749009
 72
     1
 10
1.827829097002565
 20
0.3393836798749009
 11
1.892956811002569
 21
0.3393836798749009
 72
     4
 94
        3
 73
     1
 74
     0
 95
        8
 96
        4
 40
6.0
 40
6.0
 40
6.0
 40
6.0
 40
7.0
 40
7.0
 40
7.0
 40
7.0
 10
1.892956811002569
 20
0.3393836798749009
 42
1.0
 10
1.917664589002569
 20
0.3393836798749009
 42
1.0
 10
1.928315633002565
 20
0.3349395178749034
 42
1.0
 10
1.928315633002565
 20
0.3183709078749001
 42
1.0
 72
     1
 10
1.928315633002565
 20
0.3183709078749001
 11
1.928315633002565
 21
0.3151529858748993
 72
     1
 10
1.928315633002565
 20
0.3151529858748993
 11
1.876949589002568
 21
0.3151529858748993
 97
        0
 92
        0
 93
        5
 72
     4
 94
        3
 73
     1
 74
     0
 95
        8
 96
        4
 40
0.0
 40
0.0
 40
0.0
 40
0.0
 40
1.0
 40
1.0
 40
1.0
 40
1.0
 10
1.879765151002565
 20
0.2622100738749019
 42
1.0
 10
1.865442093002564
 20
0.2622100738749019
 42
1.0
 10
1.858420911002564
 20
0.2637074278748987
 42
1.0
 10
1.858420911002564
 20
0.2745778538749037
 42
1.0
 72
     4
 94
        3
 73
     1
 74
     0
 95
        8
 96
        4
 40
1.0
 40
1.0
 40
1.0
 40
1.0
 40
2.0
 40
2.0
 40
2.0
 40
2.0
 10
1.858420911002564
 20
0.2745778538749037
 42
1.0
 10
1.858420911002564
 20
0.2861974358748991
 42
1.0
 10
1.865998691002565
 20
0.2891816058749058
 42
1.0
 10
1.882572091002562
 20
0.2891816058749058
 42
1.0
 72
     1
 10
1.882572091002562
 20
0.2891816058749058
 11
1.928601117002567
 21
0.2891816058749058
 72
     1
 10
1.928601117002567
 20
0.2891816058749058
 11
1.928601117002567
 21
0.2622100738749016
 72
     1
 10
1.928601117002567
 20
0.2622100738749016
 11
1.879765151002565
 21
0.2622100738749016
 97
        0
 75
     0
 76
     1
 98
        1
 10
0.0
 20
0.0
  0
HATCH
  5
2B8
330
7A
100
AcDbEntity
  8
0
  6
Continuous
 62
     7
100
AcDbHatch
 10
0.0
 20
0.0
 30
0.0
210
0.0
220
0.0
230
1.0
  2
SOLID
 70
     1
 71
     0
 91
        1
 92
        0
 93
       10
 72
     1
 10
2.042022569002565
 20
0.3413667398749039
 11
2.055779449002563
 21
0.3413667398749039
 72
     4
 94
        3
 73
     1
 74
     0
 95
        8
 96
        4
 40
8.0
 40
8.0
 40
8.0
 40
8.0
 40
9.0
 40
9.0
 40
9.0
 40
9.0
 10
2.055779449002563
 20
0.3413667398749042
 42
1.0
 10
2.068404931002563
 20
0.3413667398749042
 42
1.0
 10
2.072895077002566
 20
0.3401414578749002
 42
1.0
 10
2.072895077002566
 20
0.3285122958749026
 42
1.0
 72
     1
 10
2.072895077002566
 20
0.3285122958749023
 11
2.072895077002566
 21
0.3116917318749034
 72
     1
 10
2.072895077002566
 20
0.3116917318749034
 11
2.110228337002566
 21
0.3116917318749034
 72
     1
 10
2.110228337002566
 20
0.3116917318749034
 11
2.110228337002566
 21
0.3334613238749017
 72
     4
 94
        3
 73
     1
 74
     0
 95
        8
 96
        4
 40
2.0
 40
2.0
 40
2.0
 40
2.0
 40
3.0
 40
3.0
 40
3.0
 40
3.0
 10
2.110228337002566
 20
0.333461323874902
 42
1.0
 10
2.110228337002566
 20
0.3576920178749033
 42
1.0
 10
2.099567713002567
 20
0.366364791874898
 42
1.0
 10
2.068680835002564
 20
0.366364791874898
 42
1.0
 72
     1
 10
2.068680835002564
 20
0.3663647918748977
 11
2.003000355002565
 21
0.3663647918748977
 72
     1
 10
2.003000355002565
 20
0.3663647918748977
 11
2.003000355002565
 21
0.2359867398749038
 72
     1
 10
2.003000355002565
 20
0.2359867398749038
 11
2.042022569002565
 21
0.2359867398749038
 72
     1
 10
2.042022569002565
 20
0.2359867398749038
 11
2.042022569002565
 21
0.3413667398749039
 97
        0
 75
     0
 76
     1
 98
        1
 10
0.0
 20
0.0
  0
HATCH
  5
2B9
330
7A
100
AcDbEntity
  8
0
  6
Continuous
 62
     7
100
AcDbHatch
 10
0.0
 20
0.0
 30
0.0
210
0.0
220
0.0
230
1.0
  2
SOLID
 70
     1
 71
     0
 91
        2
 92
        0
 93
       11
 72
     4
 94
        3
 73
     1
 74
     0
 95
        8
 96
        4
 40
9.0
 40
9.0
 40
9.0
 40
9.0
 40
10.0
 40
10.0
 40
10.0
 40
10.0
 10
2.18715858667299
 20
0.3151529858748996
 42
1.0
 10
2.145887013002568
 20
0.3151529858748996
 42
1.0
 10
2.128200417002568
 20
0.3037671558748974
 42
1.0
 10
2.128200417002568
 20
0.2736054838749061
 42
1.0
 72
     4
 94
        3
 73
     1
 74
     0
 95
        8
 96
        4
 40
10.0
 40
10.0
 40
10.0
 40
10.0
 40
11.0
 40
11.0
 40
11.0
 40
11.0
 10
2.128200417002568
 20
0.2736054838749061
 42
1.0
 10
2.128200417002568
 20
0.2495989618748963
 42
1.0
 10
2.144478753002568
 20
0.2359867398749041
 42
1.0
 10
2.173957371002563
 20
0.2359867398749041
 42
1.0
 72
     1
 10
2.173957371002563
 20
0.2359867398749038
 11
2.278944564354281
 21
0.2359867398749038
 72
     1
 10
2.278944564354281
 20
0.2359867398749038
 11
2.278944564354281
 21
0.3176322898749044
 72
     4
 94
        3
 73
     1
 74
     0
 95
        8
 96
        4
 40
2.0
 40
2.0
 40
2.0
 40
2.0
 40
3.0
 40
3.0
 40
3.0
 40
3.0
 10
2.278944564354281
 20
0.3176322898749044
 42
1.0
 10
2.278944564354281
 20
0.3497770218748992
 42
1.0
 10
2.258451986871967
 20
0.366364791874898
 42
1.0
 10
2.218035883892964
 20
0.366364791874898
 42
1.0
 72
     1
 10
2.218035883892964
 20
0.3663647918748977
 11
2.138023749002563
 21
0.3663647918748977
 72
     1
 10
2.138023749002563
 20
0.3663647918748977
 11
2.138023749002563
 21
0.3393836798749009
 72
     1
 10
2.138023749002563
 20
0.3393836798749009
 11
2.203146648269097
 21
0.3393836798749009
 72
     4
 94
        3
 73
     1
 74
     0
 95
        8
 96
        4
 40
6.0
 40
6.0
 40
6.0
 40
6.0
 40
7.0
 40
7.0
 40
7.0
 40
7.0
 10
2.203146648269097
 20
0.3393836798749009
 42
1.0
 10
2.227854425644927
 20
0.3393836798749009
 42
1.0
 10
2.238524629375374
 20
0.3349395178749034
 42
1.0
 10
2.238524629375374
 20
0.3183709078749001
 42
1.0
 72
     1
 10
2.238524629375374
 20
0.3183709078749001
 11
2.238524629375374
 21
0.3151529858748993
 72
     1
 10
2.238524629375374
 20
0.3151529858748993
 11
2.18715858667299
 21
0.3151529858748993
 97
        0
 92
        0
 93
        5
 72
     4
 94
        3
 73
     1
 74
     0
 95
        8
 96
        4
 40
0.0
 40
0.0
 40
0.0
 40
0.0
 40
1.0
 40
1.0
 40
1.0
 40
1.0
 10
2.189964568602105
 20
0.2622100738749019
 42
1.0
 10
2.175631955002561
 20
0.2622100738749019
 42
1.0
 10
2.168620353002563
 20
0.2637074278748987
 42
1.0
 10
2.168620353002563
 20
0.2745778538749037
 42
1.0
 72
     4
 94
        3
 73
     1
 74
     0
 95
        8
 96
        4
 40
1.0
 40
1.0
 40
1.0
 40
1.0
 40
2.0
 40
2.0
 40
2.0
 40
2.0
 10
2.168620353002563
 20
0.2745778538749037
 42
1.0
 10
2.168620353002563
 20
0.2861974358748991
 42
1.0
 10
2.176198133002565
 20
0.2891816058749058
 42
1.0
 10
2.192771508531196
 20
0.2891816058749058
 42
1.0
 72
     1
 10
2.192771508531196
 20
0.2891816058749058
 11
2.238805323368283
 21
0.2891816058749058
 72
     1
 10
2.238805323368283
 20
0.2891816058749058
 11
2.238805323368283
 21
0.2622100738749016
 72
     1
 10
2.238805323368283
 20
0.2622100738749016
 11
2.189964568602105
 21
0.2622100738749016
 97
        0
 75
     0
 76
     1
 98
        1
 10
0.0
 20
0.0
  0
HATCH
  5
2BA
330
7A
100
AcDbEntity
  8
0
  6
Continuous
 62
     7
100
AcDbHatch
 10
0.0
 20
0.0
 30
0.0
210
0.0
220
0.0
230
1.0
  2
SOLID
 70
     1
 71
     0
 91
        1
 92
        0
 93
       16
 72
     1
 10
2.326110735162763
 20
0.3403943698748976
 11
2.326110735162763
 21
0.2768138258749043
 72
     4
 94
        3
 73
     1
 74
     0
 95
        8
 96
        4
 40
15.0
 40
15.0
 40
15.0
 40
15.0
 40
16.0
 40
16.0
 40
16.0
 40
16.0
 10
2.326110735162763
 20
0.2768138258749043
 42
1.0
 10
2.326110735162763
 20
0.2500952058749065
 42
1.0
 10
2.342389070751537
 20
0.2359867398749041
 42
1.0
 10
2.370736290035427
 20
0.2359867398749041
 42
1.0
 72
     1
 10
2.370736290035427
 20
0.2359867398749038
 11
2.406398827002558
 21
0.2359867398749038
 72
     1
 10
2.406398827002558
 20
0.2359867398749038
 11
2.406398827002558
 21
0.2619667418748978
 72
     1
 10
2.406398827002558
 20
0.2619667418748978
 11
2.39040115553865
 21
0.2619667418748978
 72
     4
 94
        3
 73
     1
 74
     0
 95
        8
 96
        4
 40
3.0
 40
3.0
 40
3.0
 40
3.0
 40
4.0
 40
4.0
 40
4.0
 40
4.0
 10
2.39040115553865
 20
0.2619667418748978
 42
1.0
 10
2.370473827002558
 20
0.2619667418748978
 42
1.0
 10
2.365141570176762
 20
0.2696384058748975
 42
1.0
 10
2.365141570176762
 20
0.2876947898749046
 42
1.0
 72
     1
 10
2.365141570176762
 20
0.2876947898749043
 11
2.365141570176762
 21
0.3403943698748976
 72
     1
 10
2.365141570176762
 20
0.3403943698748976
 11
2.406398827002558
 21
0.3403943698748976
 72
     1
 10
2.406398827002558
 20
0.3403943698748976
 11
2.406398827002558
 21
0.3663647918748977
 72
     1
 10
2.406398827002558
 20
0.3663647918748977
 11
2.365141570176762
 21
0.3663647918748977
 72
     1
 10
2.365141570176762
 20
0.3663647918748977
 11
2.365141570176762
 21
0.4136095198749055
 72
     1
 10
2.365141570176762
 20
0.4136095198749055
 11
2.326110735162763
 21
0.4136095198749055
 72
     1
 10
2.326110735162763
 20
0.4136095198749055
 11
2.326110735162763
 21
0.3663647918748977
 72
     1
 10
2.326110735162763
 20
0.3663647918748977
 11
2.298605597857601
 21
0.3663647918748977
 72
     1
 10
2.298605597857601
 20
0.3663647918748977
 11
2.298605597857601
 21
0.3403943698748976
 72
     1
 10
2.298605597857601
 20
0.3403943698748976
 11
2.326110735162763
 21
0.3403943698748976
 97
        0
 75
     0
 76
     1
 98
        1
 10
0.0
 20
0.0
  0
HATCH
  5
2BB
330
7A
100
AcDbEntity
  8
0
  6
Continuous
 62
     7
100
AcDbHatch
 10
0.0
 20
0.0
 30
0.0
210
0.0
220
0.0
230
1.0
  2
SOLID
 70
     1
 71
     0
 91
        1
 92
        0
 93
       12
 72
     1
 10
2.468144769574681
 20
0.3376621538749036
 11
2.499317130787202
 21
0.3376621538749036
 72
     4
 94
        3
 73
     1
 74
     0
 95
        8
 96
        4
 40
10.0
 40
10.0
 40
10.0
 40
10.0
 40
11.0
 40
11.0
 40
11.0
 40
11.0
 10
2.499317130787202
 20
0.3376621538749038
 42
1.0
 10
2.519805876269612
 20
0.3376621538749038
 42
1.0
 10
2.525418798127817
 20
0.3319735498748987
 42
1.0
 10
2.525418798127817
 20
0.3146567418748978
 42
1.0
 72
     1
 10
2.525418798127817
 20
0.3146567418748978
 11
2.525418798127817
 21
0.2359867398749038
 72
     1
 10
2.525418798127817
 20
0.2359867398749038
 11
2.564731285134702
 21
0.2359867398749038
 72
     1
 10
2.564731285134702
 20
0.2359867398749038
 11
2.564731285134702
 21
0.318604659874902
 72
     4
 94
        3
 73
     1
 74
     0
 95
        8
 96
        4
 40
2.0
 40
2.0
 40
2.0
 40
2.0
 40
3.0
 40
3.0
 40
3.0
 40
3.0
 10
2.564731285134702
 20
0.3186046598749023
 42
1.0
 10
2.564731285134702
 20
0.352509237874902
 42
1.0
 10
2.545907543610229
 20
0.366364791874898
 42
1.0
 10
2.50296615269502
 20
0.366364791874898
 42
1.0
 72
     1
 10
2.50296615269502
 20
0.3663647918748977
 11
2.468144769574681
 21
0.3663647918748977
 72
     1
 10
2.468144769574681
 20
0.3663647918748977
 11
2.468144769574681
 21
0.4136095198749055
 72
     1
 10
2.468144769574681
 20
0.4136095198749055
 11
2.429413788553109
 21
0.4136095198749055
 72
     1
 10
2.429413788553109
 20
0.4136095198749055
 11
2.429413788553109
 21
0.2359867398749038
 72
     1
 10
2.429413788553109
 20
0.2359867398749038
 11
2.468144769574681
 21
0.2359867398749038
 72
     1
 10
2.468144769574681
 20
0.2359867398749038
 11
2.468144769574681
 21
0.3376621538749036
 97
        0
 75
     0
 76
     1
 98
        1
 10
0.0
 20
0.0
  0
HATCH
  5
2BC
330
7A
100
AcDbEntity
  8
0
  6
Continuous
 62
     7
100
AcDbHatch
 10
0.0
 20
0.0
 30
0.0
210
0.0
220
0.0
230
1.0
  2
SOLID
 70
     1
 71
     0
 91
        2
 92
        0
 93
        2
 72
     4
 94
        3
 73
     1
 74
     0
 95
       11
 96
        7
 40
2.0
 40
2.0
 40
2.0
 40
2.0
 40
3.0
 40
3.0
 40
3.0
 40
4.0
 40
4.0
 40
4.0
 40
4.0
 10
2.588577820532287
 20
0.3010540998748991
 42
1.0
 10
2.588577820532287
 20
0.2607318798749006
 42
1.0
 10
2.618899477766297
 20
0.2337699278748986
 42
1.0
 10
2.667182676546561
 20
0.2337699278748986
 42
1.0
 10
2.715746607002568
 20
0.2337699278748986
 42
1.0
 10
2.745506838567926
 20
0.2607318798749006
 42
1.0
 10
2.745506838567926
 20
0.3010540998748991
 42
1.0
 72
     4
 94
        3
 73
     1
 74
     0
 95
       11
 96
        7
 40
0.0
 40
0.0
 40
0.0
 40
0.0
 40
1.0
 40
1.0
 40
1.0
 40
2.0
 40
2.0
 40
2.0
 40
2.0
 10
2.745506838567926
 20
0.3010540998748991
 42
1.0
 10
2.745506838567926
 20
0.3416292318749035
 42
1.0
 10
2.715185181333915
 20
0.3685816038749037
 42
1.0
 10
2.667182676546561
 20
0.3685816038749037
 42
1.0
 10
2.618899477766297
 20
0.3685816038749037
 42
1.0
 10
2.588577820532287
 20
0.3416292318749035
 42
1.0
 10
2.588577820532287
 20
0.3010540998748991
 42
1.0
 97
        0
 92
        0
 93
        2
 72
     4
 94
        3
 73
     1
 74
     0
 95
       11
 96
        7
 40
2.0
 40
2.0
 40
2.0
 40
2.0
 40
3.0
 40
3.0
 40
3.0
 40
4.0
 40
4.0
 40
4.0
 40
4.0
 10
2.629573513496648
 20
0.3010540998748991
 42
1.0
 10
2.629573513496648
 20
0.3262954838749061
 42
1.0
 10
2.644159063128187
 20
0.3403943698748978
 42
1.0
 10
2.666892402553895
 20
0.3403943698748978
 42
1.0
 10
2.69021590700256
 20
0.3403943698748978
 42
1.0
 10
2.704520725603323
 20
0.3262954838749061
 42
1.0
 10
2.704520725603323
 20
0.3010540998748991
 42
1.0
 72
     4
 94
        3
 73
     1
 74
     0
 95
       11
 96
        7
 40
0.0
 40
0.0
 40
0.0
 40
0.0
 40
1.0
 40
1.0
 40
1.0
 40
2.0
 40
2.0
 40
2.0
 40
2.0
 10
2.704520725603323
 20
0.3010540998748991
 42
1.0
 10
2.704520725603323
 20
0.2758127158749009
 42
1.0
 10
2.689925595972026
 20
0.2617234098749021
 42
1.0
 10
2.666892402553895
 20
0.2617234098749021
 42
1.0
 10
2.643887949135035
 20
0.2617234098749021
 42
1.0
 10
2.629573513496648
 20
0.2758127158749009
 42
1.0
 10
2.629573513496648
 20
0.3010540998748991
 42
1.0
 97
        0
 75
     0
 76
     1
 98
        1
 10
0.0
 20
0.0
  0
HATCH
  5
2BD
330
7A
100
AcDbEntity
  8
0
  6
Continuous
 62
     7
100
AcDbHatch
 10
0.0
 20
0.0
 30
0.0
210
0.0
220
0.0
230
1.0
  2
SOLID
 70
     1
 71
     0
 91
        1
 92
        0
 93
       10
 72
     1
 10
2.808393788979267
 20
0.3376621538749036
 11
2.839838222184915
 21
0.3376621538749036
 72
     4
 94
        3
 73
     1
 74
     0
 95
        8
 96
        4
 40
8.0
 40
8.0
 40
8.0
 40
8.0
 40
9.0
 40
9.0
 40
9.0
 40
9.0
 10
2.839838222184915
 20
0.3376621538749038
 42
1.0
 10
2.862010173624803
 20
0.3376621538749038
 42
1.0
 10
2.865659195532624
 20
0.3324697938749003
 42
1.0
 10
2.865659195532624
 20
0.3144134098749021
 42
1.0
 72
     1
 10
2.865659195532624
 20
0.3144134098749021
 11
2.865659195532624
 21
0.2359867398749038
 72
     1
 10
2.865659195532624
 20
0.2359867398749038
 11
2.904670870547103
 21
0.2359867398749038
 72
     1
 10
2.904670870547103
 20
0.2359867398749038
 11
2.904670870547103
 21
0.318604659874902
 72
     4
 94
        3
 73
     1
 74
     0
 95
        8
 96
        4
 40
2.0
 40
2.0
 40
2.0
 40
2.0
 40
3.0
 40
3.0
 40
3.0
 40
3.0
 10
2.904670870547103
 20
0.3186046598749023
 42
1.0
 10
2.904670870547103
 20
0.3532478558749058
 42
1.0
 10
2.886708371000876
 20
0.366364791874898
 42
1.0
 10
2.84291531810718
 20
0.366364791874898
 42
1.0
 72
     1
 10
2.84291531810718
 20
0.3663647918748977
 11
2.76936295396527
 21
0.3663647918748977
 72
     1
 10
2.76936295396527
 20
0.3663647918748977
 11
2.76936295396527
 21
0.2359867398749038
 72
     1
 10
2.76936295396527
 20
0.2359867398749038
 11
2.808393788979267
 21
0.2359867398749038
 72
     1
 10
2.808393788979267
 20
0.2359867398749038
 11
2.808393788979267
 21
0.3376621538749036
 97
        0
 75
     0
 76
     1
 98
        1
 10
0.0
 20
0.0
  0
HATCH
  5
2BE
330
7A
100
AcDbEntity
  8
0
  6
Continuous
 62
     7
100
AcDbHatch
 10
0.0
 20
0.0
 30
0.0
210
0.0
220
0.0
230
1.0
  2
SOLID
 70
     1
 71
     0
 91
        1
 92
        0
 93
        8
 72
     1
 10
2.939589995257795
 20
0.3260521518749104
 11
2.94360401515639
 21
0.3260521518749104
 72
     1
 10
2.94360401515639
 20
0.3260521518749104
 11
2.94360401515639
 21
0.356139099874899
 72
     1
 10
2.94360401515639
 20
0.356139099874899
 11
2.954774294874206
 21
0.356139099874899
 72
     1
 10
2.954774294874206
 20
0.356139099874899
 11
2.954774294874206
 21
0.3598628458749027
 72
     1
 10
2.954774294874206
 20
0.3598628458749027
 11
2.928419715539979
 21
0.3598628458749027
 72
     1
 10
2.928419715539979
 20
0.3598628458749027
 11
2.928419715539979
 21
0.356139099874899
 72
     1
 10
2.928419715539979
 20
0.356139099874899
 11
2.939589995257795
 21
0.356139099874899
 72
     1
 10
2.939589995257795
 20
0.356139099874899
 11
2.939589995257795
 21
0.3260521518749104
 97
        0
 75
     0
 76
     1
 98
        1
 10
0.0
 20
0.0
  0
HATCH
  5
2BF
330
7A
100
AcDbEntity
  8
0
  6
Continuous
 62
     7
100
AcDbHatch
 10
0.0
 20
0.0
 30
0.0
210
0.0
220
0.0
230
1.0
  2
SOLID
 70
     1
 71
     0
 91
        1
 92
        0
 93
       16
 72
     1
 10
2.990409019973997
 20
0.354417573874893
 11
2.990409019973997
 21
0.3260521518749104
 72
     1
 10
2.990409019973997
 20
0.3260521518749104
 11
2.994413459872836
 21
0.3260521518749104
 72
     1
 10
2.994413459872836
 20
0.3260521518749104
 11
2.994413459872836
 21
0.3598628458749027
 72
     1
 10
2.994413459872836
 20
0.3598628458749027
 11
2.988584988020075
 21
0.3598628458749027
 72
     1
 10
2.988584988020075
 20
0.3598628458749027
 11
2.977030550311965
 21
0.3333588178749037
 72
     1
 10
2.977030550311965
 20
0.3333588178749037
 11
2.976937668189239
 21
0.3333588178749035
 72
     1
 10
2.976937668189239
 20
0.3333588178749035
 11
2.965467490604073
 21
0.3598628458749029
 72
     1
 10
2.965467490604073
 20
0.3598628458749029
 11
2.959499150754845
 21
0.3598628458749027
 72
     1
 10
2.959499150754845
 20
0.3598628458749027
 11
2.959499150754845
 21
0.3260521518749104
 72
     1
 10
2.959499150754845
 20
0.3260521518749104
 11
2.963512212653465
 21
0.3260521518749104
 72
     1
 10
2.963512212653465
 20
0.3260521518749104
 11
2.963512212653465
 21
0.354417573874893
 72
     1
 10
2.963512212653465
 20
0.354417573874893
 11
2.963606096651093
 21
0.354417573874893
 72
     1
 10
2.963606096651093
 20
0.354417573874893
 11
2.975740168189238
 21
0.3260521518749104
 72
     1
 10
2.975740168189238
 20
0.3260521518749104
 11
2.978172486283117
 21
0.3260521518749104
 72
     1
 10
2.978172486283117
 20
0.3260521518749104
 11
2.990316093976343
 21
0.354417573874894
 72
     1
 10
2.990316093976343
 20
0.354417573874894
 11
2.990409019973997
 21
0.354417573874893
 97
        0
 75
     0
 76
     1
 98
        1
 10
0.0
 20
0.0
  0
HATCH
  5
2C0
330
7A
100
AcDbEntity
  8
0
  6
Continuous
 62
     7
100
AcDbHatch
 10
0.0
 20
0.0
 30
0.0
210
0.0
220
0.0
230
1.0
  2
SOLID
 70
     1
 71
     0
 91
        1
 92
        0
 93
       14
 72
     4
 94
        3
 73
     1
 74
     0
 95
        8
 96
        4
 40
13.0
 40
13.0
 40
13.0
 40
13.0
 40
14.0
 40
14.0
 40
14.0
 40
14.0
 10
2.858548919712241
 20
0.1098660398748957
 42
1.0
 10
2.86307642759787
 20
0.1066941018749012
 42
1.0
 10
2.871010583397435
 20
0.1036352078749089
 42
1.0
 10
2.88017864316583
 20
0.1036352078749089
 42
1.0
 72
     4
 94
        3
 73
     1
 74
     0
 95
        8
 96
        4
 40
12.0
 40
12.0
 40
12.0
 40
12.0
 40
13.0
 40
13.0
 40
13.0
 40
13.0
 10
2.88017864316583
 20
0.1036352078749089
 42
1.0
 10
2.895222116785799
 20
0.1036352078749089
 42
1.0
 10
2.90242627660381
 20
0.1102396598749023
 42
1.0
 10
2.90242627660381
 20
0.1230663218749083
 42
1.0
 72
     4
 94
        3
 73
     1
 74
     0
 95
        8
 96
        4
 40
11.0
 40
11.0
 40
11.0
 40
11.0
 40
12.0
 40
12.0
 40
12.0
 40
12.0
 10
2.90242627660381
 20
0.1230663218749083
 42
1.0
 10
2.90242627660381
 20
0.1366316018749012
 42
1.0
 10
2.894361832807532
 20
0.1404204918749065
 42
1.0
 10
2.884819195048601
 20
0.142984099874899
 42
1.0
 72
     4
 94
        3
 73
     1
 74
     0
 95
        8
 96
        4
 40
10.0
 40
10.0
 40
10.0
 40
10.0
 40
11.0
 40
11.0
 40
11.0
 40
11.0
 10
2.884819195048601
 20
0.142984099874899
 42
1.0
 10
2.877128371242885
 20
0.1450610438749005
 42
1.0
 10
2.874921139298646
 20
0.1461646598749022
 42
1.0
 10
2.874921139298646
 20
0.1510485438749004
 42
1.0
 72
     4
 94
        3
 73
     1
 74
     0
 95
        8
 96
        4
 40
9.0
 40
9.0
 40
9.0
 40
9.0
 40
10.0
 40
10.0
 40
10.0
 40
10.0
 10
2.874921139298646
 20
0.1510485438749004
 42
1.0
 10
2.874921139298646
 20
0.1553336778748987
 42
1.0
 10
2.877615035230592
 20
0.1572889558749066
 42
1.0
 10
2.882872539097778
 20
0.1572889558749066
 42
1.0
 72
     4
 94
        3
 73
     1
 74
     0
 95
        8
 96
        4
 40
8.0
 40
8.0
 40
8.0
 40
8.0
 40
9.0
 40
9.0
 40
9.0
 40
9.0
 10
2.882872539097778
 20
0.1572889558749066
 42
1.0
 10
2.88764433697723
 20
0.1572889558749066
 42
1.0
 10
2.891180314887905
 20
0.1564277138748985
 42
1.0
 10
2.895952112767358
 20
0.1539857718748994
 42
1.0
 72
     1
 10
2.895952112767358
 20
0.1539857718748997
 11
2.89986266866857
 21
0.1647354898749043
 72
     4
 94
        3
 73
     1
 74
     0
 95
        8
 96
        4
 40
6.0
 40
6.0
 40
6.0
 40
6.0
 40
7.0
 40
7.0
 40
7.0
 40
7.0
 10
2.89986266866857
 20
0.164735489874904
 42
1.0
 10
2.894960582792407
 20
0.1671870118749053
 42
1.0
 10
2.889833366921931
 20
0.1686460458749027
 42
1.0
 10
2.881768923125656
 20
0.1686460458749027
 42
1.0
 72
     4
 94
        3
 73
     1
 74
     0
 95
        8
 96
        4
 40
5.0
 40
5.0
 40
5.0
 40
5.0
 40
6.0
 40
6.0
 40
6.0
 40
6.0
 10
2.881768923125656
 20
0.1686460458749027
 42
1.0
 10
2.86833488946503
 20
0.1686460458749027
 42
1.0
 10
2.861598233635211
 20
0.1614428438749095
 42
1.0
 10
2.861598233635211
 20
0.1508052118748962
 42
1.0
 72
     4
 94
        3
 73
     1
 74
     0
 95
        8
 96
        4
 40
4.0
 40
4.0
 40
4.0
 40
4.0
 40
5.0
 40
5.0
 40
5.0
 40
5.0
 10
2.861598233635211
 20
0.1508052118748962
 42
1.0
 10
2.861598233635211
 20
0.1389518778749071
 42
1.0
 10
2.867960311474491
 20
0.1340679938749087
 42
1.0
 10
2.876754751252325
 20
0.1316270098749029
 42
1.0
 72
     4
 94
        3
 73
     1
 74
     0
 95
        8
 96
        4
 40
3.0
 40
3.0
 40
3.0
 40
3.0
 40
4.0
 40
4.0
 40
4.0
 40
4.0
 10
2.876754751252325
 20
0.1316270098749029
 42
1.0
 10
2.885679479026868
 20
0.1290538218749084
 42
1.0
 10
2.888617707002568
 20
0.1280804938749088
 42
1.0
 10
2.888617707002568
 20
0.1224579918749065
 42
1.0
 72
     4
 94
        3
 73
     1
 74
     0
 95
        8
 96
        4
 40
2.0
 40
2.0
 40
2.0
 40
2.0
 40
3.0
 40
3.0
 40
3.0
 40
3.0
 10
2.888617707002568
 20
0.1224579918749065
 42
1.0
 10
2.888617707002568
 20
0.1175654858748995
 42
1.0
 10
2.886054057017404
 20
0.1151235438749004
 42
1.0
 10
2.878961983196566
 20
0.1151235438749004
 42
1.0
 72
     4
 94
        3
 73
     1
 74
     0
 95
        8
 96
        4
 40
1.0
 40
1.0
 40
1.0
 40
1.0
 40
2.0
 40
2.0
 40
2.0
 40
2.0
 10
2.878961983196566
 20
0.1151235438749004
 42
1.0
 10
2.87333085933882
 20
0.1151235438749004
 42
1.0
 10
2.868091557471177
 20
0.1170788218749084
 42
1.0
 10
2.863431887002562
 20
0.1202593818748941
 42
1.0
 72
     1
 10
2.863431887002562
 20
0.1202593818748941
 11
2.858548919712241
 21
0.1098660398748957
 97
        0
 75
     0
 76
     1
 98
        1
 10
0.0
 20
0.0
  0
HATCH
  5
2C1
330
7A
100
AcDbEntity
  8
0
  6
Continuous
 62
     7
100
AcDbHatch
 10
0.0
 20
0.0
 30
0.0
210
0.0
220
0.0
230
1.0
  2
SOLID
 70
     1
 71
     0
 91
        1
 92
        0
 93
       16
 72
     4
 94
        3
 73
     1
 74
     0
 95
        8
 96
        4
 40
12.0
 40
12.0
 40
12.0
 40
12.0
 40
13.0
 40
13.0
 40
13.0
 40
13.0
 10
2.825935767002571
 20
0.1179304838748971
 42
1.0
 10
2.825935767002571
 20
0.1071807658749097
 42
1.0
 10
2.832540178369281
 20
0.1036352078749089
 42
1.0
 10
2.842082816128213
 20
0.1036352078749089
 42
1.0
 72
     4
 94
        3
 73
     1
 74
     0
 95
        8
 96
        4
 40
11.0
 40
11.0
 40
11.0
 40
11.0
 40
12.0
 40
12.0
 40
12.0
 40
12.0
 10
2.842082816128213
 20
0.1036352078749089
 42
1.0
 10
2.846835454008151
 20
0.1036352078749089
 42
1.0
 10
2.850147259924486
 20
0.1048604898749041
 42
1.0
 10
2.852822953856893
 20
0.1061988158749014
 42
1.0
 72
     1
 10
2.852822953856893
 20
0.1061988158749017
 11
2.850633923912195
 21
0.1158535398748956
 72
     4
 94
        3
 73
     1
 74
     0
 95
        8
 96
        4
 40
9.0
 40
9.0
 40
9.0
 40
9.0
 40
10.0
 40
10.0
 40
10.0
 40
10.0
 10
2.850633923912195
 20
0.1158535398748956
 42
1.0
 10
2.849155729949536
 20
0.1153668758749045
 42
1.0
 10
2.847210031998688
 20
0.1143935478749051
 42
1.0
 10
2.844515178066766
 20
0.1143935478749051
 42
1.0
 72
     4
 94
        3
 73
     1
 74
     0
 95
        8
 96
        4
 40
8.0
 40
8.0
 40
8.0
 40
8.0
 40
9.0
 40
9.0
 40
9.0
 40
9.0
 10
2.844515178066766
 20
0.1143935478749051
 42
1.0
 10
2.841334618147113
 20
0.1143935478749051
 42
1.0
 10
2.839744338187287
 20
0.1158535398748956
 42
1.0
 10
2.839744338187287
 20
0.1205027138748985
 42
1.0
 72
     1
 10
2.839744338187287
 20
0.1205027138748985
 11
2.839744338187287
 21
0.156306047874905
 72
     1
 10
2.839744338187287
 20
0.156306047874905
 11
2.851850583881459
 21
0.156306047874905
 72
     1
 10
2.851850583881459
 20
0.156306047874905
 11
2.851850583881459
 21
0.1670653458748941
 72
     1
 10
2.851850583881459
 20
0.1670653458748941
 11
2.839744338187287
 21
0.1670653458748941
 72
     1
 10
2.839744338187287
 20
0.1670653458748941
 11
2.839744338187285
 21
0.1852711778748982
 72
     1
 10
2.839744338187285
 20
0.1852711778748982
 11
2.825935767002571
 21
0.182585903874895
 72
     1
 10
2.825935767002571
 20
0.182585903874895
 11
2.825935767002571
 21
0.1670653458748941
 72
     1
 10
2.825935767002571
 20
0.1670653458748941
 11
2.81921823070582
 21
0.1670653458748941
 72
     1
 10
2.81921823070582
 20
0.1670653458748941
 11
2.81921823070582
 21
0.156306047874905
 72
     1
 10
2.81921823070582
 20
0.156306047874905
 11
2.825935767002571
 21
0.156306047874905
 72
     1
 10
2.825935767002571
 20
0.156306047874905
 11
2.825935767002571
 21
0.1179304838748971
 97
        0
 75
     0
 76
     1
 98
        1
 10
0.0
 20
0.0
  0
HATCH
  5
2C2
330
7A
100
AcDbEntity
  8
0
  6
Continuous
 62
     7
100
AcDbHatch
 10
0.0
 20
0.0
 30
0.0
210
0.0
220
0.0
230
1.0
  2
SOLID
 70
     1
 71
     0
 91
        1
 92
        0
 93
       10
 72
     4
 94
        3
 73
     1
 74
     0
 95
        8
 96
        4
 40
9.0
 40
9.0
 40
9.0
 40
9.0
 40
10.0
 40
10.0
 40
10.0
 40
10.0
 10
2.768905029976838
 20
0.1362666038749036
 42
1.0
 10
2.768905029976838
 20
0.1140199278748986
 42
1.0
 10
2.777455179760843
 20
0.1036352078749089
 42
1.0
 10
2.794445309331638
 20
0.1036352078749089
 42
1.0
 72
     4
 94
        3
 73
     1
 74
     0
 95
        8
 96
        4
 40
8.0
 40
8.0
 40
8.0
 40
8.0
 40
9.0
 40
9.0
 40
9.0
 40
9.0
 10
2.794445309331638
 20
0.1036352078749089
 42
1.0
 10
2.802753085121766
 20
0.1036352078749089
 42
1.0
 10
2.808366047002565
 20
0.106450769874897
 42
1.0
 10
2.812894472865572
 20
0.1109696558748975
 42
1.0
 72
     1
 10
2.812894472865572
 20
0.1109696558748975
 11
2.806045731038586
 21
0.1201377158749006
 72
     4
 94
        3
 73
     1
 74
     0
 95
        8
 96
        4
 40
6.0
 40
6.0
 40
6.0
 40
6.0
 40
7.0
 40
7.0
 40
7.0
 40
7.0
 10
2.806045731038586
 20
0.1201377158749006
 42
1.0
 10
2.802865171118933
 20
0.1172004878749018
 42
1.0
 10
2.800189477186526
 20
0.1150018778749069
 42
1.0
 10
2.795287391310365
 20
0.1150018778749069
 42
1.0
 72
     4
 94
        3
 73
     1
 74
     0
 95
        8
 96
        4
 40
5.0
 40
5.0
 40
5.0
 40
5.0
 40
6.0
 40
6.0
 40
6.0
 40
6.0
 10
2.795287391310365
 20
0.1150018778749069
 42
1.0
 10
2.786867529523067
 20
0.1150018778749069
 42
1.0
 10
2.783817257600125
 20
0.1191557658749098
 42
1.0
 10
2.783817257600125
 20
0.1365099358749078
 42
1.0
 72
     4
 94
        3
 73
     1
 74
     0
 95
        8
 96
        4
 40
4.0
 40
4.0
 40
4.0
 40
4.0
 40
5.0
 40
5.0
 40
5.0
 40
5.0
 10
2.783817257600125
 20
0.1365099358749078
 42
1.0
 10
2.783817257600125
 20
0.1539857718748994
 42
1.0
 10
2.786736283526383
 20
0.1572889558749066
 42
1.0
 10
2.794688641325488
 20
0.1572889558749066
 42
1.0
 72
     4
 94
        3
 73
     1
 74
     0
 95
        8
 96
        4
 40
3.0
 40
3.0
 40
3.0
 40
3.0
 40
4.0
 40
4.0
 40
4.0
 40
4.0
 10
2.794688641325488
 20
0.1572889558749066
 42
1.0
 10
2.799197987002562
 20
0.1572889558749066
 42
1.0
 10
2.802023089140206
 20
0.1555770098749028
 42
1.0
 10
2.805185487002563
 20
0.1522738258748956
 42
1.0
 72
     1
 10
2.805185487002563
 20
0.1522738258748956
 11
2.812407808877865
 21
0.161564509874903
 72
     4
 94
        3
 73
     1
 74
     0
 95
        8
 96
        4
 40
1.0
 40
1.0
 40
1.0
 40
1.0
 40
2.0
 40
2.0
 40
2.0
 40
2.0
 10
2.812407808877865
 20
0.161564509874903
 42
1.0
 10
2.807149387002562
 20
0.1665691018749013
 42
1.0
 10
2.80164851114967
 20
0.1686460458749027
 42
1.0
 10
2.794070731341099
 20
0.1686460458749027
 42
1.0
 72
     4
 94
        3
 73
     1
 74
     0
 95
        8
 96
        4
 40
0.0
 40
0.0
 40
0.0
 40
0.0
 40
1.0
 40
1.0
 40
1.0
 40
1.0
 10
2.794070731341099
 20
0.1686460458749027
 42
1.0
 10
2.77794184374855
 20
0.1686460458749027
 42
1.0
 10
2.768905029976838
 20
0.1594875658749016
 42
1.0
 10
2.768905029976838
 20
0.1362666038749036
 42
1.0
 97
        0
 75
     0
 76
     1
 98
        1
 10
0.0
 20
0.0
  0
HATCH
  5
2C3
330
7A
100
AcDbEntity
  8
0
  6
Continuous
 62
     7
100
AcDbHatch
 10
0.0
 20
0.0
 30
0.0
210
0.0
220
0.0
230
1.0
  2
SOLID
 70
     1
 71
     0
 91
        1
 92
        0
 93
       12
 72
     4
 94
        3
 73
     1
 74
     0
 95
        8
 96
        4
 40
11.0
 40
11.0
 40
11.0
 40
11.0
 40
12.0
 40
12.0
 40
12.0
 40
12.0
 10
2.708804901495096
 20
0.1205027138748985
 42
1.0
 10
2.708804901495096
 20
0.109014377874907
 42
1.0
 10
2.715896975315934
 20
0.1036352078749089
 42
1.0
 10
2.725308367078183
 20
0.1036352078749089
 42
1.0
 72
     4
 94
        3
 73
     1
 74
     0
 95
        8
 96
        4
 40
10.0
 40
10.0
 40
10.0
 40
10.0
 40
11.0
 40
11.0
 40
11.0
 40
11.0
 10
2.725308367078183
 20
0.1036352078749089
 42
1.0
 10
2.733129478880604
 20
0.1036352078749089
 42
1.0
 10
2.737900318760083
 20
0.1071807658749097
 42
1.0
 10
2.742784202636705
 20
0.1120732718748993
 42
1.0
 72
     1
 10
2.742784202636704
 20
0.1120732718748996
 11
2.744262396599364
 21
0.1052254878749015
 72
     1
 10
2.744262396599364
 20
0.1052254878749015
 11
2.755377112318582
 21
0.1052254878749015
 72
     1
 10
2.755377112318582
 20
0.1052254878749015
 11
2.755377112318582
 21
0.1670653458748941
 72
     1
 10
2.755377112318582
 20
0.1670653458748941
 11
2.741567542667442
 21
0.1670653458748941
 72
     1
 10
2.741567542667442
 20
0.1670653458748941
 11
2.741567542667442
 21
0.1208677118748959
 72
     4
 94
        3
 73
     1
 74
     0
 95
        8
 96
        4
 40
4.0
 40
4.0
 40
4.0
 40
4.0
 40
5.0
 40
5.0
 40
5.0
 40
5.0
 10
2.741567542667442
 20
0.1208677118748961
 42
1.0
 10
2.737900318760083
 20
0.1176871518749104
 42
1.0
 10
2.733989762858873
 20
0.1152452098748939
 42
1.0
 10
2.7297055869671
 20
0.1152452098748939
 42
1.0
 72
     4
 94
        3
 73
     1
 74
     0
 95
        8
 96
        4
 40
3.0
 40
3.0
 40
3.0
 40
3.0
 40
4.0
 40
4.0
 40
4.0
 40
4.0
 10
2.7297055869671
 20
0.1152452098748939
 42
1.0
 10
2.725196281081014
 20
0.1152452098748939
 42
1.0
 10
2.722744759142945
 20
0.1172004878749018
 42
1.0
 10
2.722744759142944
 20
0.1238058978749057
 42
1.0
 72
     1
 10
2.722744759142944
 20
0.1238058978749055
 11
2.722744759142944
 21
0.1670653458748941
 72
     1
 10
2.722744759142944
 20
0.1670653458748941
 11
2.708804901495096
 21
0.1670653458748941
 72
     1
 10
2.708804901495096
 20
0.1670653458748941
 11
2.708804901495096
 21
0.1205027138748985
 97
        0
 75
     0
 76
     1
 98
        1
 10
0.0
 20
0.0
  0
HATCH
  5
2C4
330
7A
100
AcDbEntity
  8
0
  6
Continuous
 62
     7
100
AcDbHatch
 10
0.0
 20
0.0
 30
0.0
210
0.0
220
0.0
230
1.0
  2
SOLID
 70
     1
 71
     0
 91
        2
 92
        0
 93
        9
 72
     4
 94
        3
 73
     1
 74
     0
 95
        8
 96
        4
 40
8.0
 40
8.0
 40
8.0
 40
8.0
 40
9.0
 40
9.0
 40
9.0
 40
9.0
 10
2.642362813173563
 20
0.1356592318748949
 42
1.0
 10
2.642362813173563
 20
0.1107263238748934
 42
1.0
 10
2.651156294951421
 20
0.1036352078749089
 42
1.0
 10
2.663617958636614
 20
0.1036352078749089
 42
1.0
 72
     4
 94
        3
 73
     1
 74
     0
 95
        8
 96
        4
 40
7.0
 40
7.0
 40
7.0
 40
7.0
 40
8.0
 40
8.0
 40
8.0
 40
8.0
 10
2.663617958636614
 20
0.1036352078749089
 42
1.0
 10
2.669980036475894
 20
0.1036352078749089
 42
1.0
 10
2.675106294346394
 20
0.1063291038749035
 42
1.0
 10
2.679746846229163
 20
0.1113346538748951
 42
1.0
 72
     1
 10
2.679746846229164
 20
0.1113346538748951
 11
2.68133712618899
 21
0.1052254878749015
 72
     1
 10
2.68133712618899
 20
0.1052254878749015
 11
2.692470043907748
 21
0.1052254878749015
 72
     1
 10
2.692470043907748
 20
0.1052254878749015
 11
2.692470043907748
 21
0.1941959058748974
 72
     1
 10
2.692470043907748
 20
0.1941959058748974
 11
2.678531144259875
 21
0.1941959058748974
 72
     1
 10
2.678531144259875
 20
0.1941959058748974
 11
2.678531144259875
 21
0.1620502158749005
 72
     4
 94
        3
 73
     1
 74
     0
 95
        8
 96
        4
 40
1.0
 40
1.0
 40
1.0
 40
1.0
 40
2.0
 40
2.0
 40
2.0
 40
2.0
 10
2.678531144259875
 20
0.1620502158749008
 42
1.0
 10
2.675106294346394
 20
0.1652317338748973
 42
1.0
 10
2.669848827002558
 20
0.1686460458749027
 42
1.0
 10
2.663262540645592
 20
0.1686460458749027
 42
1.0
 72
     4
 94
        3
 73
     1
 74
     0
 95
        8
 96
        4
 40
0.0
 40
0.0
 40
0.0
 40
0.0
 40
1.0
 40
1.0
 40
1.0
 40
1.0
 10
2.663262540645592
 20
0.1686460458749027
 42
1.0
 10
2.649079387002561
 20
0.1686460458749027
 42
1.0
 10
2.642362813173563
 20
0.1602166038749035
 42
1.0
 10
2.642362813173563
 20
0.1356592318748949
 42
1.0
 97
        0
 92
        0
 93
        5
 72
     4
 94
        3
 73
     1
 74
     0
 95
        8
 96
        4
 40
4.0
 40
4.0
 40
4.0
 40
4.0
 40
5.0
 40
5.0
 40
5.0
 40
5.0
 10
2.678531144259875
 20
0.1201377158749006
 42
1.0
 10
2.675237540343078
 20
0.1169571558748974
 42
1.0
 10
2.671813648429573
 20
0.1151235438749004
 42
1.0
 10
2.666799476556241
 20
0.1151235438749004
 42
1.0
 72
     4
 94
        3
 73
     1
 74
     0
 95
        8
 96
        4
 40
3.0
 40
3.0
 40
3.0
 40
3.0
 40
4.0
 40
4.0
 40
4.0
 40
4.0
 10
2.666799476556241
 20
0.1151235438749004
 42
1.0
 10
2.659595316738234
 20
0.1151235438749004
 42
1.0
 10
2.657275040796849
 20
0.1185474358749078
 42
1.0
 10
2.657275040796849
 20
0.1361449378749101
 42
1.0
 72
     4
 94
        3
 73
     1
 74
     0
 95
        8
 96
        4
 40
2.0
 40
2.0
 40
2.0
 40
2.0
 40
3.0
 40
3.0
 40
3.0
 40
3.0
 10
2.657275040796849
 20
0.1361449378749101
 42
1.0
 10
2.657275040796848
 20
0.153864105874906
 42
1.0
 10
2.659950734729255
 20
0.1572889558749066
 42
1.0
 10
2.667659760534508
 20
0.1572889558749066
 42
1.0
 72
     4
 94
        3
 73
     1
 74
     0
 95
        8
 96
        4
 40
1.0
 40
1.0
 40
1.0
 40
1.0
 40
2.0
 40
2.0
 40
2.0
 40
2.0
 10
2.667659760534508
 20
0.1572889558749066
 42
1.0
 10
2.672056980423425
 20
0.1572889558749066
 42
1.0
 10
2.675836327002557
 20
0.1547157678748947
 42
1.0
 10
2.678531144259875
 20
0.1521521598749021
 42
1.0
 72
     1
 10
2.678531144259875
 20
0.1521521598749021
 11
2.678531144259875
 21
0.1201377158749006
 97
        0
 75
     0
 76
     1
 98
        1
 10
0.0
 20
0.0
  0
HATCH
  5
2C5
330
7A
100
AcDbEntity
  8
0
  6
Continuous
 62
     7
100
AcDbHatch
 10
0.0
 20
0.0
 30
0.0
210
0.0
220
0.0
230
1.0
  2
SOLID
 70
     1
 71
     0
 91
        2
 92
        0
 93
        2
 72
     4
 94
        3
 73
     1
 74
     0
 95
       11
 96
        7
 40
0.0
 40
0.0
 40
0.0
 40
0.0
 40
1.0
 40
1.0
 40
1.0
 40
2.0
 40
2.0
 40
2.0
 40
2.0
 10
2.631884209438274
 20
0.1361449378749101
 42
1.0
 10
2.631884209438274
 20
0.1593658998749081
 42
1.0
 10
2.621742821694468
 20
0.1686460458749027
 42
1.0
 10
2.605726978099062
 20
0.1686460458749027
 42
1.0
 10
2.589728378503221
 20
0.1686460458749027
 42
1.0
 10
2.579830322753267
 20
0.1596092318748948
 42
1.0
 10
2.579830322753267
 20
0.1362666038749036
 42
1.0
 72
     4
 94
        3
 73
     1
 74
     0
 95
       11
 96
        7
 40
2.0
 40
2.0
 40
2.0
 40
2.0
 40
3.0
 40
3.0
 40
3.0
 40
4.0
 40
4.0
 40
4.0
 40
4.0
 10
2.579830322753267
 20
0.1362666038749036
 42
1.0
 10
2.579830322753267
 20
0.113046599874899
 42
1.0
 10
2.589841422500365
 20
0.1036352078749089
 42
1.0
 10
2.605857266095772
 20
0.1036352078749089
 42
1.0
 10
2.621855865691612
 20
0.1036352078749089
 42
1.0
 10
2.631884209438274
 20
0.1129249338749055
 42
1.0
 10
2.631884209438274
 20
0.1361449378749101
 42
1.0
 97
        0
 92
        0
 93
        2
 72
     4
 94
        3
 73
     1
 74
     0
 95
       11
 96
        7
 40
0.0
 40
0.0
 40
0.0
 40
0.0
 40
1.0
 40
1.0
 40
1.0
 40
2.0
 40
2.0
 40
2.0
 40
2.0
 10
2.594612262379844
 20
0.1361449378749101
 42
1.0
 10
2.594612262379844
 20
0.153864105874906
 42
1.0
 10
2.597662534302788
 20
0.1581396598749021
 42
1.0
 10
2.605726978099062
 20
0.1581396598749021
 42
1.0
 10
2.613791421895338
 20
0.1581396598749021
 42
1.0
 10
2.616971981814991
 20
0.1539857718748994
 42
1.0
 10
2.616971981814991
 20
0.1362666038749036
 42
1.0
 72
     4
 94
        3
 73
     1
 74
     0
 95
       11
 96
        7
 40
2.0
 40
2.0
 40
2.0
 40
2.0
 40
3.0
 40
3.0
 40
3.0
 40
4.0
 40
4.0
 40
4.0
 40
4.0
 10
2.616971981814991
 20
0.1362666038749036
 42
1.0
 10
2.616971981814991
 20
0.1187907678748947
 42
1.0
 10
2.613921709892046
 20
0.1141502158749007
 42
1.0
 10
2.605857266095772
 20
0.1141502158749007
 42
1.0
 10
2.597792822299496
 20
0.1141502158749007
 42
1.0
 10
2.594612262379844
 20
0.1186691018749012
 42
1.0
 10
2.594612262379844
 20
0.1361449378749101
 42
1.0
 97
        0
 75
     0
 76
     1
 98
        1
 10
0.0
 20
0.0
  0
HATCH
  5
2C6
330
7A
100
AcDbEntity
  8
0
  6
Continuous
 62
     7
100
AcDbHatch
 10
0.0
 20
0.0
 30
0.0
210
0.0
220
0.0
230
1.0
  2
SOLID
 70
     1
 71
     0
 91
        1
 92
        0
 93
        8
 72
     4
 94
        3
 73
     1
 74
     0
 95
       11
 96
        7
 40
0.0
 40
0.0
 40
0.0
 40
0.0
 40
1.0
 40
2.0
 40
3.0
 40
4.0
 40
4.0
 40
4.0
 40
4.0
 10
2.556142815351665
 20
0.1499535498749072
 42
1.0
 10
2.559678827002558
 20
0.1530038218749083
 42
1.0
 10
2.562729065185281
 20
0.1544724358749077
 42
1.0
 10
2.56749990506476
 20
0.1544724358749077
 42
1.0
 10
2.569464763015123
 20
0.1544724358749077
 42
1.0
 10
2.571167128972118
 20
0.1541074378749101
 42
1.0
 10
2.572515034938067
 20
0.1533783998749079
 42
1.0
 72
     1
 10
2.572515034938067
 20
0.1533783998749079
 11
2.574704064882768
 21
0.1676736758748964
 72
     4
 94
        3
 73
     1
 74
     0
 95
       11
 96
        7
 40
0.0
 40
0.0
 40
0.0
 40
0.0
 40
1.0
 40
2.0
 40
3.0
 40
4.0
 40
4.0
 40
4.0
 40
4.0
 10
2.574704064882768
 20
0.1676736758748964
 42
1.0
 10
2.57386198290404
 20
0.1679160498749072
 42
1.0
 10
2.572383788941383
 20
0.1681593818748942
 42
1.0
 10
2.571036840975409
 20
0.1681593818748942
 42
1.0
 10
2.56456267713896
 20
0.1681593818748942
 42
1.0
 10
2.559061841277924
 20
0.1646138238748933
 42
1.0
 10
2.554907987002561
 20
0.1592442338748971
 42
1.0
 72
     1
 10
2.554907987002563
 20
0.1592442338748971
 11
2.553317707002568
 21
0.1670653458748941
 72
     1
 10
2.553317707002568
 20
0.1670653458748941
 11
2.542202957703815
 21
0.1670653458748941
 72
     1
 10
2.542202957703815
 20
0.1670653458748941
 11
2.542202957703815
 21
0.1052254878749015
 72
     1
 10
2.542202957703815
 20
0.1052254878749015
 11
2.556142815351665
 21
0.1052254878749015
 72
     1
 10
2.556142815351665
 20
0.1052254878749015
 11
2.556142815351665
 21
0.1499535498749072
 97
        0
 75
     0
 76
     1
 98
        1
 10
0.0
 20
0.0
  0
HATCH
  5
2C7
330
7A
100
AcDbEntity
  8
0
  6
Continuous
 62
     7
100
AcDbHatch
 10
0.0
 20
0.0
 30
0.0
210
0.0
220
0.0
230
1.0
  2
SOLID
 70
     1
 71
     0
 91
        2
 92
        0
 93
        7
 72
     4
 94
        3
 73
     1
 74
     0
 95
        8
 96
        4
 40
2.0
 40
2.0
 40
2.0
 40
2.0
 40
3.0
 40
3.0
 40
3.0
 40
3.0
 10
2.50485628664727
 20
0.1372399318749033
 42
1.0
 10
2.5250078161382
 20
0.1372399318749033
 42
1.0
 10
2.531724387002561
 20
0.1475125658749015
 42
1.0
 10
2.53172438700256
 20
0.1641271598749022
 42
1.0
 72
     4
 94
        3
 73
     1
 74
     0
 95
        8
 96
        4
 40
1.0
 40
1.0
 40
1.0
 40
1.0
 40
2.0
 40
2.0
 40
2.0
 40
2.0
 10
2.53172438700256
 20
0.1641271598749022
 42
1.0
 10
2.531724387002561
 20
0.1820896598749022
 42
1.0
 10
2.521957544215256
 20
0.1897891058749059
 42
1.0
 10
2.503378092684613
 20
0.1897891058749059
 42
1.0
 72
     1
 10
2.503378092684613
 20
0.1897891058749057
 11
2.478698097308083
 21
0.1897891058749057
 72
     1
 10
2.478698097308083
 20
0.1897891058749057
 11
2.478698097308083
 21
0.1052254878749015
 72
     1
 10
2.478698097308083
 20
0.1052254878749015
 11
2.493480036934659
 21
0.1052254878749015
 72
     1
 10
2.493480036934659
 20
0.1052254878749015
 11
2.493480036934659
 21
0.137239931874903
 72
     1
 10
2.493480036934659
 20
0.137239931874903
 11
2.50485628664727
 21
0.137239931874903
 97
        0
 92
        0
 93
        5
 72
     4
 94
        3
 73
     1
 74
     0
 95
        8
 96
        4
 40
1.0
 40
1.0
 40
1.0
 40
1.0
 40
2.0
 40
2.0
 40
2.0
 40
2.0
 10
2.504107130666196
 20
0.1773283998749081
 42
1.0
 10
2.512677398449692
 20
0.1773283998749081
 42
1.0
 10
2.516344622357051
 20
0.1740252158749009
 42
1.0
 10
2.516344622357051
 20
0.1631547898748959
 42
1.0
 72
     4
 94
        3
 73
     1
 74
     0
 95
        8
 96
        4
 40
0.0
 40
0.0
 40
0.0
 40
0.0
 40
1.0
 40
1.0
 40
1.0
 40
1.0
 10
2.516344622357051
 20
0.1631547898748959
 42
1.0
 10
2.516344622357051
 20
0.1526388238748932
 42
1.0
 10
2.51243406645584
 20
0.1494678438749094
 42
1.0
 10
2.503995044669028
 20
0.1494678438749094
 42
1.0
 72
     1
 10
2.503995044669028
 20
0.1494678438749092
 11
2.493480036934659
 21
0.1494678438749092
 72
     1
 10
2.493480036934659
 20
0.1494678438749092
 11
2.493480036934659
 21
0.1773283998749078
 72
     1
 10
2.493480036934659
 20
0.1773283998749078
 11
2.504107130666196
 21
0.1773283998749078
 97
        0
 75
     0
 76
     1
 98
        1
 10
0.0
 20
0.0
  0
HATCH
  5
2C8
330
7A
100
AcDbEntity
  8
0
  6
Continuous
 62
     7
100
AcDbHatch
 10
0.0
 20
0.0
 30
0.0
210
0.0
220
0.0
230
1.0
  2
SOLID
 70
     1
 71
     0
 91
        1
 92
        0
 93
        8
 72
     4
 94
        3
 73
     1
 74
     0
 95
        8
 96
        4
 40
7.0
 40
7.0
 40
7.0
 40
7.0
 40
8.0
 40
8.0
 40
8.0
 40
8.0
 10
2.415417408906687
 20
0.1212327098748938
 42
1.0
 10
2.415417408906687
 20
0.1091360438749005
 42
1.0
 10
2.41811226283861
 20
0.1038785398748958
 42
1.0
 10
2.428609068573437
 20
0.1038785398748958
 42
1.0
 72
     4
 94
        3
 73
     1
 74
     0
 95
        8
 96
        4
 40
6.0
 40
6.0
 40
6.0
 40
6.0
 40
7.0
 40
7.0
 40
7.0
 40
7.0
 10
2.428609068573437
 20
0.1038785398748958
 42
1.0
 10
2.431920874489774
 20
0.1038785398748958
 42
1.0
 10
2.435456852400448
 20
0.1047388238748935
 42
1.0
 10
2.437421710350812
 20
0.1054688198749062
 42
1.0
 72
     1
 10
2.437421710350811
 20
0.1054688198749059
 11
2.4357001843943
 21
0.1148802118748965
 72
     4
 94
        3
 73
     1
 74
     0
 95
        8
 96
        4
 40
4.0
 40
4.0
 40
4.0
 40
4.0
 40
5.0
 40
5.0
 40
5.0
 40
5.0
 10
2.435700184394301
 20
0.1148802118748962
 42
1.0
 10
2.434614770421721
 20
0.1147585458749028
 42
1.0
 10
2.43424115043116
 20
0.1147585458749028
 42
1.0
 10
2.433754486443453
 20
0.1147585458749028
 42
1.0
 72
     4
 94
        3
 73
     1
 74
     0
 95
        8
 96
        4
 40
3.0
 40
3.0
 40
3.0
 40
3.0
 40
4.0
 40
4.0
 40
4.0
 40
4.0
 10
2.433754486443453
 20
0.1147585458749028
 42
1.0
 10
2.430330594529948
 20
0.1147585458749028
 42
1.0
 10
2.429357266554537
 20
0.115610207874909
 42
1.0
 10
2.429357266554537
 20
0.1195207638749074
 42
1.0
 72
     1
 10
2.429357266554537
 20
0.1195207638749072
 11
2.429357266554537
 21
0.1941959058748974
 72
     1
 10
2.429357266554537
 20
0.1941959058748974
 11
2.415417408906687
 21
0.1941959058748974
 72
     1
 10
2.415417408906687
 20
0.1941959058748974
 11
2.415417408906687
 21
0.1212327098748938
 97
        0
 75
     0
 76
     1
 98
        1
 10
0.0
 20
0.0
  0
HATCH
  5
2C9
330
7A
100
AcDbEntity
  8
0
  6
Continuous
 62
     7
100
AcDbHatch
 10
0.0
 20
0.0
 30
0.0
210
0.0
220
0.0
230
1.0
  2
SOLID
 70
     1
 71
     0
 91
        2
 92
        0
 93
       13
 72
     4
 94
        3
 73
     1
 74
     0
 95
        8
 96
        4
 40
12.0
 40
12.0
 40
12.0
 40
12.0
 40
13.0
 40
13.0
 40
13.0
 40
13.0
 10
2.352885876486366
 20
0.1231879878749017
 42
1.0
 10
2.352885876486366
 20
0.1107263238748934
 42
1.0
 10
2.359004622331794
 20
0.1036352078749089
 42
1.0
 10
2.371335040020301
 20
0.1036352078749089
 42
1.0
 72
     4
 94
        3
 73
     1
 74
     0
 95
        8
 96
        4
 40
11.0
 40
11.0
 40
11.0
 40
11.0
 40
12.0
 40
12.0
 40
12.0
 40
12.0
 10
2.371335040020301
 20
0.1036352078749089
 42
1.0
 10
2.378070767002571
 20
0.1036352078749089
 42
1.0
 10
2.382823375730081
 20
0.1069374338749056
 42
1.0
 10
2.386247267643587
 20
0.1106046578748999
 42
1.0
 72
     1
 10
2.386247267643586
 20
0.1106046578749002
 11
2.387968793600098
 21
0.1052254878749015
 72
     1
 10
2.387968793600098
 20
0.1052254878749015
 11
2.398840207002568
 21
0.1052254878749015
 72
     1
 10
2.398840207002568
 20
0.1052254878749015
 11
2.398840207002568
 21
0.1493461778748982
 72
     4
 94
        3
 73
     1
 74
     0
 95
        8
 96
        4
 40
7.0
 40
7.0
 40
7.0
 40
7.0
 40
8.0
 40
8.0
 40
8.0
 40
8.0
 10
2.398840207002568
 20
0.1493461778748985
 42
1.0
 10
2.398840207002568
 20
0.1632764558749066
 42
1.0
 10
2.392366013489014
 20
0.1686460458749027
 42
1.0
 10
2.378557401837849
 20
0.1686460458749027
 42
1.0
 72
     4
 94
        3
 73
     1
 74
     0
 95
        8
 96
        4
 40
6.0
 40
6.0
 40
6.0
 40
6.0
 40
7.0
 40
7.0
 40
7.0
 40
7.0
 10
2.378557401837849
 20
0.1686460458749027
 42
1.0
 10
2.368659346087894
 20
0.1686460458749027
 42
1.0
 10
2.361436984270346
 20
0.1657183978749056
 42
1.0
 10
2.354850734436729
 20
0.1614428438749095
 42
1.0
 72
     1
 10
2.354850734436729
 20
0.1614428438749095
 11
2.35997699230723
 21
0.1515447878748934
 72
     4
 94
        3
 73
     1
 74
     0
 95
        8
 96
        4
 40
4.0
 40
4.0
 40
4.0
 40
4.0
 40
5.0
 40
5.0
 40
5.0
 40
5.0
 10
2.35997699230723
 20
0.1515447878748934
 42
1.0
 10
2.365104208177705
 20
0.1544724358749077
 42
1.0
 10
2.37097962202928
 20
0.1571672898748957
 42
1.0
 10
2.377079207875191
 20
0.1571672898748957
 42
1.0
 72
     4
 94
        3
 73
     1
 74
     0
 95
        8
 96
        4
 40
3.0
 40
3.0
 40
3.0
 40
3.0
 40
4.0
 40
4.0
 40
4.0
 40
4.0
 10
2.377079207875191
 20
0.1571672898748957
 42
1.0
 10
2.384058267002572
 20
0.1571672898748957
 42
1.0
 10
2.384900319677613
 20
0.1536217318748948
 42
1.0
 10
2.384900319677613
 20
0.1471379878749019
 42
1.0
 72
     1
 10
2.384900319677613
 20
0.1471379878749019
 11
2.384900319677613
 21
0.1436020098749027
 72
     1
 10
2.384900319677613
 20
0.1436020098749027
 11
2.380503099788697
 21
0.1436020098749027
 72
     4
 94
        3
 73
     1
 74
     0
 95
        8
 96
        4
 40
0.0
 40
0.0
 40
0.0
 40
0.0
 40
1.0
 40
1.0
 40
1.0
 40
1.0
 10
2.380503099788697
 20
0.1436020098749027
 42
1.0
 10
2.361193652276494
 20
0.1436020098749027
 42
1.0
 10
2.352885876486366
 20
0.1373615978748967
 42
1.0
 10
2.352885876486366
 20
0.1231879878749017
 42
1.0
 97
        0
 92
        0
 93
        5
 72
     4
 94
        3
 73
     1
 74
     0
 95
        8
 96
        4
 40
4.0
 40
4.0
 40
4.0
 40
4.0
 40
5.0
 40
5.0
 40
5.0
 40
5.0
 10
2.384900319677613
 20
0.1189124338749057
 42
1.0
 10
2.382467987002562
 20
0.1164704918749063
 42
1.0
 10
2.379043107825579
 20
0.1137765958748945
 42
1.0
 10
2.374403513942785
 20
0.1137765958748945
 42
1.0
 72
     4
 94
        3
 73
     1
 74
     0
 95
        8
 96
        4
 40
3.0
 40
3.0
 40
3.0
 40
3.0
 40
4.0
 40
4.0
 40
4.0
 40
4.0
 10
2.374403513942785
 20
0.1137765958748945
 42
1.0
 10
2.369145052075625
 20
0.1137765958748945
 42
1.0
 10
2.367068108128093
 20
0.1162271598749022
 42
1.0
 10
2.367068108128093
 20
0.1233096538748952
 42
1.0
 72
     4
 94
        3
 73
     1
 74
     0
 95
        8
 96
        4
 40
2.0
 40
2.0
 40
2.0
 40
2.0
 40
3.0
 40
3.0
 40
3.0
 40
3.0
 10
2.367068108128093
 20
0.1233096538748952
 42
1.0
 10
2.367068108128093
 20
0.1311307658749099
 42
1.0
 10
2.369388384069478
 20
0.1345546578748998
 42
1.0
 10
2.382711289732912
 20
0.1345546578748998
 42
1.0
 72
     1
 10
2.382711289732912
 20
0.1345546578748998
 11
2.384900319677613
 21
0.1345546578748998
 72
     1
 10
2.384900319677613
 20
0.1345546578748998
 11
2.384900319677613
 21
0.1189124338749054
 97
        0
 75
     0
 76
     1
 98
        1
 10
0.0
 20
0.0
  0
HATCH
  5
2CA
330
7A
100
AcDbEntity
  8
0
  6
Continuous
 62
     7
100
AcDbHatch
 10
0.0
 20
0.0
 30
0.0
210
0.0
220
0.0
230
1.0
  2
SOLID
 70
     1
 71
     0
 91
        1
 92
        0
 93
        6
 72
     1
 10
2.32553018717743
 20
0.1565493798749092
 11
2.32553018717743
 21
0.1052254878749015
 72
     1
 10
2.32553018717743
 20
0.1052254878749015
 11
2.339338827002559
 21
0.1052254878749015
 72
     1
 10
2.339338827002559
 20
0.1052254878749015
 11
2.339338827002559
 21
0.1670653458748941
 72
     1
 10
2.339338827002559
 20
0.1670653458748941
 11
2.317465743381154
 21
0.1670653458748941
 72
     1
 10
2.317465743381154
 20
0.1670653458748941
 11
2.317465743381154
 21
0.1580179938749088
 72
     1
 10
2.317465743381154
 20
0.1580179938749088
 11
2.32553018717743
 21
0.1565493798749092
 97
        0
 75
     0
 76
     1
 98
        1
 10
0.0
 20
0.0
  0
HATCH
  5
2CB
330
7A
100
AcDbEntity
  8
0
  6
Continuous
 62
     7
100
AcDbHatch
 10
0.0
 20
0.0
 30
0.0
210
0.0
220
0.0
230
1.0
  2
SOLID
 70
     1
 71
     0
 91
        1
 92
        0
 93
        2
 72
     4
 94
        3
 73
     1
 74
     0
 95
       11
 96
        7
 40
0.0
 40
0.0
 40
0.0
 40
0.0
 40
1.0
 40
1.0
 40
1.0
 40
2.0
 40
2.0
 40
2.0
 40
2.0
 10
2.341284496779442
 20
0.1852711778748987
 42
1.0
 10
2.341284496779442
 20
0.1904070158749099
 42
1.0
 10
2.33737394087823
 20
0.1943175718749084
 42
1.0
 10
2.332378929004415
 20
0.1943175718749084
 42
1.0
 10
2.327363827002558
 20
0.1943175718749084
 42
1.0
 10
2.323453243229897
 20
0.190285349874899
 42
1.0
 10
2.323453243229897
 20
0.1852711778748987
 42
1.0
 72
     4
 94
        3
 73
     1
 74
     0
 95
       11
 96
        7
 40
2.0
 40
2.0
 40
2.0
 40
2.0
 40
3.0
 40
3.0
 40
3.0
 40
4.0
 40
4.0
 40
4.0
 40
4.0
 10
2.323453243229897
 20
0.1852711778748987
 42
1.0
 10
2.323453243229897
 20
0.1802560478749049
 42
1.0
 10
2.327363827002558
 20
0.1763454918749064
 42
1.0
 10
2.332247683007731
 20
0.1763454918749064
 42
1.0
 10
2.33737394087823
 20
0.1763454918749064
 42
1.0
 10
2.341284496779442
 20
0.1802560478749049
 42
1.0
 10
2.341284496779442
 20
0.1852711778748987
 42
1.0
 97
        0
 75
     0
 76
     1
 98
        1
 10
0.0
 20
0.0
  0
HATCH
  5
2CC
330
7A
100
AcDbEntity
  8
0
  6
Continuous
 62
     7
100
AcDbHatch
 10
0.0
 20
0.0
 30
0.0
210
0.0
220
0.0
230
1.0
  2
SOLID
 70
     1
 71
     0
 91
        1
 92
        0
 93
       10
 72
     4
 94
        3
 73
     1
 74
     0
 95
        8
 96
        4
 40
9.0
 40
9.0
 40
9.0
 40
9.0
 40
10.0
 40
10.0
 40
10.0
 40
10.0
 10
2.266539422667662
 20
0.1362666038749036
 42
1.0
 10
2.266539422667662
 20
0.1140199278748986
 42
1.0
 10
2.275090530451641
 20
0.1036352078749089
 42
1.0
 10
2.292079702022459
 20
0.1036352078749089
 42
1.0
 72
     4
 94
        3
 73
     1
 74
     0
 95
        8
 96
        4
 40
8.0
 40
8.0
 40
8.0
 40
8.0
 40
9.0
 40
9.0
 40
9.0
 40
9.0
 10
2.292079702022459
 20
0.1036352078749089
 42
1.0
 10
2.300382687812708
 20
0.1036352078749089
 42
1.0
 10
2.306014769670431
 20
0.106450769874897
 42
1.0
 10
2.310524075556515
 20
0.1109696558748975
 42
1.0
 72
     1
 10
2.310524075556516
 20
0.1109696558748975
 11
2.303694493729047
 21
0.1201377158749006
 72
     4
 94
        3
 73
     1
 74
     0
 95
        8
 96
        4
 40
6.0
 40
6.0
 40
6.0
 40
6.0
 40
7.0
 40
7.0
 40
7.0
 40
7.0
 10
2.303694493729045
 20
0.1201377158749006
 42
1.0
 10
2.300513933809393
 20
0.1172004878749018
 42
1.0
 10
2.297819107002568
 20
0.1150018778749069
 42
1.0
 10
2.292931364000945
 20
0.1150018778749069
 42
1.0
 72
     4
 94
        3
 73
     1
 74
     0
 95
        8
 96
        4
 40
5.0
 40
5.0
 40
5.0
 40
5.0
 40
6.0
 40
6.0
 40
6.0
 40
6.0
 10
2.292931364000945
 20
0.1150018778749069
 42
1.0
 10
2.28450192221389
 20
0.1150018778749069
 42
1.0
 10
2.281443028291164
 20
0.1191557658749098
 42
1.0
 10
2.281443028291164
 20
0.1365099358749078
 42
1.0
 72
     4
 94
        3
 73
     1
 74
     0
 95
        8
 96
        4
 40
4.0
 40
4.0
 40
4.0
 40
4.0
 40
5.0
 40
5.0
 40
5.0
 40
5.0
 10
2.281443028291164
 20
0.1365099358749078
 42
1.0
 10
2.281443028291164
 20
0.1539857718748994
 42
1.0
 10
2.284380256216964
 20
0.1572889558749066
 42
1.0
 10
2.292323034016313
 20
0.1572889558749066
 42
1.0
 72
     4
 94
        3
 73
     1
 74
     0
 95
        8
 96
        4
 40
3.0
 40
3.0
 40
3.0
 40
3.0
 40
4.0
 40
4.0
 40
4.0
 40
4.0
 10
2.292323034016313
 20
0.1572889558749066
 42
1.0
 10
2.296841947002561
 20
0.1572889558749066
 42
1.0
 10
2.29965269183115
 20
0.1555770098749028
 42
1.0
 10
2.302834209750778
 20
0.1522738258748956
 42
1.0
 72
     1
 10
2.302834209750778
 20
0.1522738258748956
 11
2.310037411568809
 21
0.161564509874903
 72
     4
 94
        3
 73
     1
 74
     0
 95
        8
 96
        4
 40
1.0
 40
1.0
 40
1.0
 40
1.0
 40
2.0
 40
2.0
 40
2.0
 40
2.0
 10
2.310037411568809
 20
0.161564509874903
 42
1.0
 10
2.304779907701626
 20
0.1665691018749013
 42
1.0
 10
2.299297273840128
 20
0.1686460458749027
 42
1.0
 10
2.291714704031681
 20
0.1686460458749027
 42
1.0
 72
     4
 94
        3
 73
     1
 74
     0
 95
        8
 96
        4
 40
0.0
 40
0.0
 40
0.0
 40
0.0
 40
1.0
 40
1.0
 40
1.0
 40
1.0
 10
2.291714704031681
 20
0.1686460458749027
 42
1.0
 10
2.275581026439251
 20
0.1686460458749027
 42
1.0
 10
2.266539422667662
 20
0.1594875658749016
 42
1.0
 10
2.266539422667662
 20
0.1362666038749036
 42
1.0
 97
        0
 75
     0
 76
     1
 98
        1
 10
0.0
 20
0.0
  0
HATCH
  5
2CD
330
7A
100
AcDbEntity
  8
0
  6
Continuous
 62
     7
100
AcDbHatch
 10
0.0
 20
0.0
 30
0.0
210
0.0
220
0.0
230
1.0
  2
SOLID
 70
     1
 71
     0
 91
        2
 92
        0
 93
        9
 72
     4
 94
        3
 73
     1
 74
     0
 95
        8
 96
        4
 40
8.0
 40
8.0
 40
8.0
 40
8.0
 40
9.0
 40
9.0
 40
9.0
 40
9.0
 10
2.20705241417043
 20
0.1362666038749036
 42
1.0
 10
2.20705241417043
 20
0.113046599874899
 42
1.0
 10
2.216216667002568
 20
0.1036352078749089
 42
1.0
 10
2.23466963747276
 20
0.1036352078749089
 42
1.0
 72
     4
 94
        3
 73
     1
 74
     0
 95
        8
 96
        4
 40
7.0
 40
7.0
 40
7.0
 40
7.0
 40
8.0
 40
8.0
 40
8.0
 40
8.0
 10
2.23466963747276
 20
0.1036352078749089
 42
1.0
 10
2.243590533247398
 20
0.1036352078749089
 42
1.0
 10
2.249947847002565
 20
0.1063291038749035
 42
1.0
 10
2.255322227002562
 20
0.110847989874904
 42
1.0
 72
     1
 10
2.255322227002563
 20
0.110847989874904
 11
2.248721607002569
 21
0.1203810478749051
 72
     4
 94
        3
 73
     1
 74
     0
 95
        8
 96
        4
 40
5.0
 40
5.0
 40
5.0
 40
5.0
 40
6.0
 40
6.0
 40
6.0
 40
6.0
 10
2.248721607002568
 20
0.1203810478749051
 42
1.0
 10
2.244811025216567
 20
0.117443819874906
 42
1.0
 10
2.240900469315355
 20
0.1148802118748962
 42
1.0
 10
2.234547971475833
 20
0.1148802118748962
 42
1.0
 72
     4
 94
        3
 73
     1
 74
     0
 95
        8
 96
        4
 40
4.0
 40
4.0
 40
4.0
 40
4.0
 40
5.0
 40
5.0
 40
5.0
 40
5.0
 10
2.234547971475833
 20
0.1148802118748962
 42
1.0
 10
2.225749699698096
 20
0.1148802118748962
 42
1.0
 10
2.22232580778459
 20
0.1180607718748995
 42
1.0
 10
2.221839143796886
 20
0.1322343818748942
 42
1.0
 72
     1
 10
2.221839143796886
 20
0.1322343818748939
 11
2.2565426929202
 21
0.1322343818748939
 72
     1
 10
2.2565426929202
 20
0.1322343818748939
 11
2.2565426929202
 21
0.1367532678748947
 72
     4
 94
        3
 73
     1
 74
     0
 95
        8
 96
        4
 40
1.0
 40
1.0
 40
1.0
 40
1.0
 40
2.0
 40
2.0
 40
2.0
 40
2.0
 10
2.2565426929202
 20
0.1367532678748947
 42
1.0
 10
2.2565426929202
 20
0.1593658998749081
 42
1.0
 10
2.248721607002568
 20
0.1686460458749027
 42
1.0
 10
2.232102197537618
 20
0.1686460458749027
 42
1.0
 72
     4
 94
        3
 73
     1
 74
     0
 95
        8
 96
        4
 40
0.0
 40
0.0
 40
0.0
 40
0.0
 40
1.0
 40
1.0
 40
1.0
 40
1.0
 10
2.232102197537618
 20
0.1686460458749027
 42
1.0
 10
2.2165816399297
 20
0.1686460458749027
 42
1.0
 10
2.20705241417043
 20
0.1597308978749057
 42
1.0
 10
2.20705241417043
 20
0.1362666038749036
 42
1.0
 97
        0
 92
        0
 93
        3
 72
     4
 94
        3
 73
     1
 74
     0
 95
        8
 96
        4
 40
2.0
 40
2.0
 40
2.0
 40
2.0
 40
3.0
 40
3.0
 40
3.0
 40
3.0
 10
2.221960809793811
 20
0.1421324378749103
 42
1.0
 10
2.222694637775275
 20
0.1550903458748942
 42
1.0
 10
2.22599303169195
 20
0.1582613258748955
 42
1.0
 10
2.232223863534545
 20
0.1582613258748955
 42
1.0
 72
     4
 94
        3
 73
     1
 74
     0
 95
        8
 96
        4
 40
1.0
 40
1.0
 40
1.0
 40
1.0
 40
2.0
 40
2.0
 40
2.0
 40
2.0
 10
2.232223863534545
 20
0.1582613258748955
 42
1.0
 10
2.23992330934004
 20
0.1582613258748955
 42
1.0
 10
2.242126709284379
 20
0.1541074378749101
 42
1.0
 10
2.242248375281304
 20
0.1421324378749103
 42
1.0
 72
     1
 10
2.242248375281304
 20
0.1421324378749103
 11
2.221960809793811
 21
0.1421324378749103
 97
        0
 75
     0
 76
     1
 98
        1
 10
0.0
 20
0.0
  0
HATCH
  5
2CE
330
7A
100
AcDbEntity
  8
0
  6
Continuous
 62
     7
100
AcDbHatch
 10
0.0
 20
0.0
 30
0.0
210
0.0
220
0.0
230
1.0
  2
SOLID
 70
     1
 71
     0
 91
        2
 92
        0
 93
        9
 72
     4
 94
        3
 73
     1
 74
     0
 95
        8
 96
        4
 40
5.0
 40
5.0
 40
5.0
 40
5.0
 40
6.0
 40
6.0
 40
6.0
 40
6.0
 10
2.160401671002564
 20
0.1098660398748957
 42
1.0
 10
2.163820773002562
 20
0.1066941018749012
 42
1.0
 10
2.169074445002567
 20
0.1036352078749089
 42
1.0
 10
2.175674107002568
 20
0.1036352078749089
 42
1.0
 72
     4
 94
        3
 73
     1
 74
     0
 95
        8
 96
        4
 40
4.0
 40
4.0
 40
4.0
 40
4.0
 40
5.0
 40
5.0
 40
5.0
 40
5.0
 10
2.175674107002568
 20
0.1036352078749089
 42
1.0
 10
2.189852507002565
 20
0.1036352078749089
 42
1.0
 10
2.196569978435238
 20
0.1124382698748969
 42
1.0
 10
2.196569978435238
 20
0.1369965998748988
 42
1.0
 72
     4
 94
        3
 73
     1
 74
     0
 95
        8
 96
        4
 40
3.0
 40
3.0
 40
3.0
 40
3.0
 40
4.0
 40
4.0
 40
4.0
 40
4.0
 10
2.196569978435238
 20
0.1369965998748988
 42
1.0
 10
2.196569978435238
 20
0.1618068838748964
 42
1.0
 10
2.188140536648183
 20
0.1686460458749027
 42
1.0
 10
2.175674107002568
 20
0.1686460458749027
 42
1.0
 72
     4
 94
        3
 73
     1
 74
     0
 95
        8
 96
        4
 40
2.0
 40
2.0
 40
2.0
 40
2.0
 40
3.0
 40
3.0
 40
3.0
 40
3.0
 10
2.175674107002568
 20
0.1686460458749027
 42
1.0
 10
2.169321609002562
 20
0.1686460458749027
 42
1.0
 10
2.163820773002562
 20
0.1655967318748949
 42
1.0
 10
2.159176389002568
 20
0.1605816018749014
 42
1.0
 72
     1
 10
2.159176389002568
 20
0.1605816018749014
 11
2.157589941002566
 21
0.1670653458748941
 72
     1
 10
2.157589941002566
 20
0.1670653458748941
 11
2.146466603002564
 21
0.1670653458748941
 72
     1
 10
2.146466603002564
 20
0.1670653458748941
 11
2.146466603002564
 21
0.0811538218749084
 72
     1
 10
2.146466603002564
 20
0.0811538218749084
 11
2.160401671002564
 21
0.0811538218749084
 72
     1
 10
2.160401671002564
 20
0.0811538218749084
 11
2.160401671002564
 21
0.1098660398748957
 97
        0
 92
        0
 93
        5
 72
     4
 94
        3
 73
     1
 74
     0
 95
        8
 96
        4
 40
4.0
 40
4.0
 40
4.0
 40
4.0
 40
5.0
 40
5.0
 40
5.0
 40
5.0
 10
2.181661607002569
 20
0.1362666038749036
 42
1.0
 10
2.181661607002569
 20
0.1184257698748971
 42
1.0
 10
2.178972501002566
 20
0.1151235438749004
 42
1.0
 10
2.171151389002569
 20
0.1151235438749004
 42
1.0
 72
     4
 94
        3
 73
     1
 74
     0
 95
        8
 96
        4
 40
3.0
 40
3.0
 40
3.0
 40
3.0
 40
4.0
 40
4.0
 40
4.0
 40
4.0
 10
2.171151389002569
 20
0.1151235438749004
 42
1.0
 10
2.166875835002564
 20
0.1151235438749004
 42
1.0
 10
2.163086945002567
 20
0.1172004878749018
 42
1.0
 10
2.160401671002564
 20
0.1197640958748944
 42
1.0
 72
     1
 10
2.160401671002564
 20
0.1197640958748941
 11
2.160401671002564
 21
0.1517881198748975
 72
     4
 94
        3
 73
     1
 74
     0
 95
        8
 96
        4
 40
1.0
 40
1.0
 40
1.0
 40
1.0
 40
2.0
 40
2.0
 40
2.0
 40
2.0
 10
2.160401671002564
 20
0.1517881198748978
 42
1.0
 10
2.163699107002568
 20
0.1549590998748991
 42
1.0
 10
2.166997501002566
 20
0.1572889558749066
 42
1.0
 10
2.172006883002565
 20
0.1572889558749066
 42
1.0
 72
     4
 94
        3
 73
     1
 74
     0
 95
        8
 96
        4
 40
0.0
 40
0.0
 40
0.0
 40
0.0
 40
1.0
 40
1.0
 40
1.0
 40
1.0
 10
2.172006883002565
 20
0.1572889558749066
 42
1.0
 10
2.179341331002562
 20
0.1572889558749066
 42
1.0
 10
2.181661607002569
 20
0.1537433978749058
 42
1.0
 10
2.181661607002569
 20
0.1362666038749036
 42
1.0
 97
        0
 75
     0
 76
     1
 98
        1
 10
0.0
 20
0.0
  0
HATCH
  5
2CF
330
7A
100
AcDbEntity
  8
0
  6
Continuous
 62
     7
100
AcDbHatch
 10
0.0
 20
0.0
 30
0.0
210
0.0
220
0.0
230
1.0
  2
SOLID
 70
     1
 71
     0
 91
        1
 92
        0
 93
       14
 72
     4
 94
        3
 73
     1
 74
     0
 95
        8
 96
        4
 40
13.0
 40
13.0
 40
13.0
 40
13.0
 40
14.0
 40
14.0
 40
14.0
 40
14.0
 10
2.080875217002563
 20
0.1118213178749037
 42
1.0
 10
2.08674105100256
 20
0.1071807658749097
 42
1.0
 10
2.096517441002566
 20
0.1036352078749089
 42
1.0
 10
2.10715028300256
 20
0.1036352078749089
 42
1.0
 72
     4
 94
        3
 73
     1
 74
     0
 95
        8
 96
        4
 40
12.0
 40
12.0
 40
12.0
 40
12.0
 40
13.0
 40
13.0
 40
13.0
 40
13.0
 10
2.10715028300256
 20
0.1036352078749089
 42
1.0
 10
2.128166887002561
 20
0.1036352078749089
 42
1.0
 10
2.135010839002569
 20
0.1148802118748962
 42
1.0
 10
2.135010839002569
 20
0.1291754878749019
 42
1.0
 72
     4
 94
        3
 73
     1
 74
     0
 95
        8
 96
        4
 40
11.0
 40
11.0
 40
11.0
 40
11.0
 40
12.0
 40
12.0
 40
12.0
 40
12.0
 10
2.135010839002569
 20
0.1291754878749019
 42
1.0
 10
2.135010839002569
 20
0.1470163218749084
 42
1.0
 10
2.12413466500257
 20
0.1516664538749044
 42
1.0
 10
2.110817507002564
 20
0.156306047874905
 42
1.0
 72
     4
 94
        3
 73
     1
 74
     0
 95
        8
 96
        4
 40
10.0
 40
10.0
 40
10.0
 40
10.0
 40
11.0
 40
11.0
 40
11.0
 40
11.0
 10
2.110817507002564
 20
0.156306047874905
 42
1.0
 10
2.101892779002565
 20
0.1593658998749081
 42
1.0
 10
2.099207505002561
 20
0.1618068838748964
 42
1.0
 10
2.099207505002561
 20
0.1688989578749088
 42
1.0
 72
     4
 94
        3
 73
     1
 74
     0
 95
        8
 96
        4
 40
9.0
 40
9.0
 40
9.0
 40
9.0
 40
10.0
 40
10.0
 40
10.0
 40
10.0
 10
2.099207505002561
 20
0.1688989578749088
 42
1.0
 10
2.099207505002561
 20
0.1757381198748977
 42
1.0
 10
2.103483059002567
 20
0.1789186798749009
 42
1.0
 10
2.110691051002561
 20
0.1789186798749009
 42
1.0
 72
     4
 94
        3
 73
     1
 74
     0
 95
        8
 96
        4
 40
8.0
 40
8.0
 40
8.0
 40
8.0
 40
9.0
 40
9.0
 40
9.0
 40
9.0
 10
2.110691051002561
 20
0.1789186798749009
 42
1.0
 10
2.116683341002561
 20
0.1789186798749009
 42
1.0
 10
2.120715563002562
 20
0.1775717318748948
 42
1.0
 10
2.125725903002564
 20
0.174268547874905
 42
1.0
 72
     1
 10
2.125725903002564
 20
0.1742685478749047
 11
2.131221949002564
 21
0.1855145098749032
 72
     4
 94
        3
 73
     1
 74
     0
 95
        8
 96
        4
 40
6.0
 40
6.0
 40
6.0
 40
6.0
 40
7.0
 40
7.0
 40
7.0
 40
7.0
 10
2.131221949002564
 20
0.1855145098749029
 42
1.0
 10
2.125356115002565
 20
0.1893033998749082
 42
1.0
 10
2.119368615002565
 20
0.1913803438749096
 42
1.0
 10
2.109592225002569
 20
0.1913803438749096
 42
1.0
 72
     4
 94
        3
 73
     1
 74
     0
 95
        8
 96
        4
 40
5.0
 40
5.0
 40
5.0
 40
5.0
 40
6.0
 40
6.0
 40
6.0
 40
6.0
 10
2.109592225002569
 20
0.1913803438749096
 42
1.0
 10
2.094440497002565
 20
0.1913803438749096
 42
1.0
 10
2.084416943002565
 20
0.183801605874906
 42
1.0
 10
2.084416943002565
 20
0.1680377158749007
 42
1.0
 72
     4
 94
        3
 73
     1
 74
     0
 95
        8
 96
        4
 40
4.0
 40
4.0
 40
4.0
 40
4.0
 40
5.0
 40
5.0
 40
5.0
 40
5.0
 10
2.084416943002565
 20
0.1680377158749007
 42
1.0
 10
2.084416943002565
 20
0.1526388238748932
 42
1.0
 10
2.091994723002567
 20
0.1471379878749019
 42
1.0
 10
2.106051457002569
 20
0.1422541038749035
 42
1.0
 72
     4
 94
        3
 73
     1
 74
     0
 95
        8
 96
        4
 40
3.0
 40
3.0
 40
3.0
 40
3.0
 40
4.0
 40
4.0
 40
4.0
 40
4.0
 10
2.106051457002569
 20
0.1422541038749035
 42
1.0
 10
2.114971395002567
 20
0.1390735438749003
 42
1.0
 10
2.119738403002564
 20
0.1366316018749012
 42
1.0
 10
2.119738403002564
 20
0.1280804938749088
 42
1.0
 72
     4
 94
        3
 73
     1
 74
     0
 95
        8
 96
        4
 40
2.0
 40
2.0
 40
2.0
 40
2.0
 40
3.0
 40
3.0
 40
3.0
 40
3.0
 10
2.119738403002564
 20
0.1280804938749088
 42
1.0
 10
2.119738403002564
 20
0.1207460458749027
 42
1.0
 10
2.115701391002562
 20
0.1162271598749022
 42
1.0
 10
2.105925001002565
 20
0.1162271598749022
 42
1.0
 72
     4
 94
        3
 73
     1
 74
     0
 95
        8
 96
        4
 40
1.0
 40
1.0
 40
1.0
 40
1.0
 40
2.0
 40
2.0
 40
2.0
 40
2.0
 10
2.105925001002565
 20
0.1162271598749022
 42
1.0
 10
2.098229387002561
 20
0.1162271598749022
 42
1.0
 10
2.092606885002568
 20
0.1184257698748971
 42
1.0
 10
2.086372221002564
 20
0.1229446558748976
 42
1.0
 72
     1
 10
2.086372221002564
 20
0.1229446558748976
 11
2.080875217002563
 21
0.1118213178749034
 97
        0
 75
     0
 76
     1
 98
        1
 10
0.0
 20
0.0
  0
HATCH
  5
2D0
330
7A
100
AcDbEntity
  8
0
  6
Continuous
 62
     7
100
AcDbHatch
 10
0.0
 20
0.0
 30
0.0
210
0.0
220
0.0
230
1.0
  2
SOLID
 70
     1
 71
     0
 91
        1
 92
        0
 93
        4
 72
     1
 10
2.060326117002568
 20
0.1377917398749039
 11
1.578533547002565
 21
0.1377917398749039
 72
     1
 10
1.578533547002565
 20
0.1377917398749039
 11
1.578533547002565
 21
0.1247600658749012
 72
     1
 10
1.578533547002565
 20
0.1247600658749012
 11
2.060326117002568
 21
0.1247600658749012
 72
     1
 10
2.060326117002568
 20
0.1247600658749012
 11
2.060326117002568
 21
0.1377917398749039
 97
        0
 75
     0
 76
     1
 98
        1
 10
0.0
 20
0.0
  0
MTEXT
  5
2D2
330
7A
100
AcDbEntity
  8
0
  6
Continuous
 62
     7
370
     0
100
AcDbMText
 10
0.8060616741
 20
0.4103669684
 30
0.0
 40
0.05
 41
0.0
 71
     1
 72
     1
  1
TM
  7
SLDTEXTSTYLE0
 73
     1
 44
1.0
  0
ENDBLK
  5
7C
330
7A
100
AcDbEntity
  8
0
100
AcDbBlockEnd
  0
BLOCK
  5
2D4
330
2D3
100
AcDbEntity
  8
0
100
AcDbBlockBegin
  2
Tol-MEOutline-Inch-EN
 70
     0
 10
0.0
 20
0.0
 30
0.0
  3
Tol-MEOutline-Inch-EN
  1

  0
LINE
  5
2D6
330
2D3
100
AcDbEntity
  8
0
  6
Continuous
 62
     7
370
     0
100
AcDbLine
 10
7.7418117772
 20
8.5937836087
 30
0.0
 11
7.8022080913
 21
8.4889288967
 31
0.0
  0
LINE
  5
2D7
330
2D3
100
AcDbEntity
  8
0
  6
Continuous
 62
     7
370
     0
100
AcDbLine
 10
6.3047948565
 20
9.9095300113
 30
0.0
 11
8.3547948565
 21
9.9095300113
 31
0.0
  0
LINE
  5
2D8
330
2D3
100
AcDbEntity
  8
0
  6
Continuous
 62
     7
370
     0
100
AcDbLine
 10
6.3047948565
 20
9.9095300113
 30
0.0
 11
6.3047948565
 21
8.3395300113
 31
0.0
  0
LINE
  5
2D9
330
2D3
100
AcDbEntity
  8
0
  6
Continuous
 62
     7
370
     0
100
AcDbLine
 10
6.3047948565
 20
8.3395300113
 30
0.0
 11
8.3547948565
 21
8.3395300113
 31
0.0
  0
LINE
  5
2DA
330
2D3
100
AcDbEntity
  8
0
  6
Continuous
 62
     7
370
     0
100
AcDbLine
 10
7.8022080913
 20
8.4889288967
 30
0.0
 11
7.9236509811
 21
8.6985229901
 31
0.0
  0
LINE
  5
2DB
330
2D3
100
AcDbEntity
  8
0
  6
Continuous
 62
     7
370
     0
100
AcDbLine
 10
8.1922080913
 20
8.4889288967
 30
0.0
 11
8.3136509811
 21
8.6985229901
 31
0.0
  0
LINE
  5
2DC
330
2D3
100
AcDbEntity
  8
0
  6
Continuous
 62
     7
370
     0
100
AcDbLine
 10
8.1318117772
 20
8.5937836087
 30
0.0
 11
8.1922080913
 21
8.4889288967
 31
0.0
  0
LINE
  5
2DD
330
2D3
100
AcDbEntity
  8
0
  6
Continuous
 62
     7
370
     0
100
AcDbLine
 10
8.3547948565
 20
9.9095300113
 30
0.0
 11
8.3547948565
 21
8.3395300113
 31
0.0
  0
INSERT
  5
30B
330
2D3
100
AcDbEntity
  8
0
  6
Continuous
 62
     7
370
     0
100
AcDbBlockReference
  2
SW_NOTE_0
 10
6.3605615566
 20
9.7805984023
 30
0.0
  0
ENDBLK
  5
2D5
330
2D3
100
AcDbEntity
  8
0
100
AcDbBlockEnd
  0
BLOCK
  5
2DF
330
2DE
100
AcDbEntity
  8
0
100
AcDbBlockBegin
  2
SW_NOTE_0
 70
     0
 10
0.0
 20
0.0
 30
0.0
  3
SW_NOTE_0
  1

  0
MTEXT
  5
2E1
330
2DE
100
AcDbEntity
  8
0
  6
Continuous
 62
     0
370
     0
100
AcDbMText
 10
0.0
 20
0.1031254192
 30
0.0
 40
0.08
 41
0.0
 71
     1
 72
     1
  1
TOLERANCES UNLESS
  7
SLDTEXTSTYLE0
 73
     1
 44
1.0
  0
MTEXT
  5
2E2
330
2DE
100
AcDbEntity
  8
0
  6
Continuous
 62
     0
370
     0
100
AcDbMText
 10
0.0
 20
-0.016244661
 30
0.0
 40
0.08
 41
0.0
 71
     1
 72
     1
  1
OTHERWISE SPECIFIED:
  7
SLDTEXTSTYLE0
 73
     1
 44
1.0
  0
MTEXT
  5
2E3
330
2DE
100
AcDbEntity
  8
0
  6
Continuous
 62
     0
370
     0
100
AcDbMText
 10
0.0305555547
 20
-0.1356147412
 30
0.0
 40
0.08
 41
0.0
 71
     1
 72
     1
  1
\LDEC.
  7
SLDTEXTSTYLE0
 73
     1
 44
1.0
  0
MTEXT
  5
2E4
330
2DE
100
AcDbEntity
  8
0
  6
Continuous
 62
     0
370
     0
100
AcDbMText
 10
0.4764444261
 20
-0.1356147412
 30
0.0
 40
0.08
 41
0.0
 71
     1
 72
     1
  1
\L INCH
  7
SLDTEXTSTYLE0
 73
     1
 44
1.0
  0
MTEXT
  5
2E6
330
2DE
100
AcDbEntity
  8
0
  6
Continuous
 62
     0
370
     0
100
AcDbMText
 10
1.0505555506
 20
-0.1356147412
 30
0.0
 40
0.08
 41
0.0
 71
     1
 72
     1
  1
\L   mm
  7
SLDTEXTSTYLE1
 73
     1
 44
1.0
  0
MTEXT
  5
2E7
330
2DE
100
AcDbEntity
  8
0
  6
Continuous
 62
     0
370
     0
100
AcDbMText
 10
1.5392221921
 20
-0.1356147412
 30
0.0
 40
0.08
 41
0.0
 71
     1
 72
     1
  1
\LANGLE
  7
SLDTEXTSTYLE0
 73
     1
 44
1.0
  0
MTEXT
  5
2E8
330
2DE
100
AcDbEntity
  8
0
  6
Continuous
 62
     0
370
     0
100
AcDbMText
 10
0.18
 20
-0.2549848214
 30
0.0
 40
0.08
 41
0.0
 71
     1
 72
     1
  1
.X
  7
SLDTEXTSTYLE0
 73
     1
 44
1.0
  0
MTEXT
  5
2E9
330
2DE
100
AcDbEntity
  8
0
  6
Continuous
 62
     0
370
     0
100
AcDbMText
 10
0.5622222052
 20
-0.2549848214
 30
0.0
 40
0.08
 41
0.0
 71
     1
 72
     1
  1
%%p
  7
SLDTEXTSTYLE0
 73
     1
 44
1.0
  0
MTEXT
  5
2EB
330
2DE
100
AcDbEntity
  8
0
  6
Continuous
 62
     0
370
     0
100
AcDbMText
 10
0.6358888675
 20
-0.2549848214
 30
0.0
 40
0.08
 41
0.0
 71
     1
 72
     1
  1
0.1           [
  7
SLDTEXTSTYLE2
 73
     1
 44
1.0
  0
MTEXT
  5
2EC
330
2DE
100
AcDbEntity
  8
0
  6
Continuous
 62
     0
370
     0
100
AcDbMText
 10
1.1553333002
 20
-0.2549848214
 30
0.0
 40
0.08
 41
0.0
 71
     1
 72
     1
  1
%%p
  7
SLDTEXTSTYLE0
 73
     1
 44
1.0
  0
MTEXT
  5
2ED
330
2DE
100
AcDbEntity
  8
0
  6
Continuous
 62
     0
370
     0
100
AcDbMText
 10
1.2289999625
 20
-0.2549848214
 30
0.0
 40
0.08
 41
0.0
 71
     1
 72
     1
  1
2.5]
  7
SLDTEXTSTYLE0
 73
     1
 44
1.0
  0
MTEXT
  5
2EE
330
2DE
100
AcDbEntity
  8
0
  6
Continuous
 62
     0
370
     0
100
AcDbMText
 10
1.5345554594
 20
-0.2549848214
 30
0.0
 40
0.08
 41
0.0
 71
     1
 72
     1
  1
%%p
  7
SLDTEXTSTYLE0
 73
     1
 44
1.0
  0
MTEXT
  5
2EF
330
2DE
100
AcDbEntity
  8
0
  6
Continuous
 62
     0
370
     0
100
AcDbMText
 10
1.608222195
 20
-0.2549848214
 30
0.0
 40
0.08
 41
0.0
 71
     1
 72
     1
  1
7' 30"
  7
SLDTEXTSTYLE0
 73
     1
 44
1.0
  0
MTEXT
  5
2F0
330
2DE
100
AcDbEntity
  8
0
  6
Continuous
 62
     0
370
     0
100
AcDbMText
 10
0.12
 20
-0.3743549016
 30
0.0
 40
0.08
 41
0.0
 71
     1
 72
     1
  1
.XX
  7
SLDTEXTSTYLE0
 73
     1
 44
1.0
  0
MTEXT
  5
2F1
330
2DE
100
AcDbEntity
  8
0
  6
Continuous
 62
     0
370
     0
100
AcDbMText
 10
0.5133333433
 20
-0.3743549016
 30
0.0
 40
0.08
 41
0.0
 71
     1
 72
     1
  1
%%p
  7
SLDTEXTSTYLE0
 73
     1
 44
1.0
  0
MTEXT
  5
2F3
330
2DE
100
AcDbEntity
  8
0
  6
Continuous
 62
     0
370
     0
100
AcDbMText
 10
0.5870000056
 20
-0.3743549016
 30
0.0
 40
0.08
 41
0.0
 71
     1
 72
     1
  1
0.03         [
  7
SLDTEXTSTYLE3
 73
     1
 44
1.0
  0
MTEXT
  5
2F4
330
2DE
100
AcDbEntity
  8
0
  6
Continuous
 62
     0
370
     0
100
AcDbMText
 10
1.1064444383
 20
-0.3743549016
 30
0.0
 40
0.08
 41
0.0
 71
     1
 72
     1
  1
%%p
  7
SLDTEXTSTYLE0
 73
     1
 44
1.0
  0
MTEXT
  5
2F5
330
2DE
100
AcDbEntity
  8
0
  6
Continuous
 62
     0
370
     0
100
AcDbMText
 10
1.1801111006
 20
-0.3743549016
 30
0.0
 40
0.08
 41
0.0
 71
     1
 72
     1
  1
0.76]
  7
SLDTEXTSTYLE0
 73
     1
 44
1.0
  0
MTEXT
  5
2F6
330
2DE
100
AcDbEntity
  8
0
  6
Continuous
 62
     0
370
     0
100
AcDbMText
 10
0.06
 20
-0.4937249818
 30
0.0
 40
0.08
 41
0.0
 71
     1
 72
     1
  1
.XXX
  7
SLDTEXTSTYLE0
 73
     1
 44
1.0
  0
MTEXT
  5
2F7
330
2DE
100
AcDbEntity
  8
0
  6
Continuous
 62
     0
370
     0
100
AcDbMText
 10
0.4644444447
 20
-0.4937249818
 30
0.0
 40
0.08
 41
0.0
 71
     1
 72
     1
  1
%%p
  7
SLDTEXTSTYLE0
 73
     1
 44
1.0
  0
MTEXT
  5
2F9
330
2DE
100
AcDbEntity
  8
0
  6
Continuous
 62
     0
370
     0
100
AcDbMText
 10
0.538111107
 20
-0.4937249818
 30
0.0
 40
0.08
 41
0.0
 71
     1
 72
     1
  1
0.005       [
  7
SLDTEXTSTYLE4
 73
     1
 44
1.0
  0
MTEXT
  5
2FA
330
2DE
100
AcDbEntity
  8
0
  6
Continuous
 62
     0
370
     0
100
AcDbMText
 10
1.057555503
 20
-0.4937249818
 30
0.0
 40
0.08
 41
0.0
 71
     1
 72
     1
  1
%%p
  7
SLDTEXTSTYLE0
 73
     1
 44
1.0
  0
MTEXT
  5
2FB
330
2DE
100
AcDbEntity
  8
0
  6
Continuous
 62
     0
370
     0
100
AcDbMText
 10
1.1312222387
 20
-0.4937249818
 30
0.0
 40
0.08
 41
0.0
 71
     1
 72
     1
  1
0.127]
  7
SLDTEXTSTYLE0
 73
     1
 44
1.0
  0
MTEXT
  5
2FC
330
2DE
100
AcDbEntity
  8
0
  6
Continuous
 62
     0
370
     0
100
AcDbMText
 10
0.0
 20
-0.613095062
 30
0.0
 40
0.08
 41
0.0
 71
     1
 72
     1
  1
.XXXX
  7
SLDTEXTSTYLE0
 73
     1
 44
1.0
  0
MTEXT
  5
2FD
330
2DE
100
AcDbEntity
  8
0
  6
Continuous
 62
     0
370
     0
100
AcDbMText
 10
0.4155555461
 20
-0.613095062
 30
0.0
 40
0.08
 41
0.0
 71
     1
 72
     1
  1
%%p
  7
SLDTEXTSTYLE0
 73
     1
 44
1.0
  0
MTEXT
  5
2FF
330
2DE
100
AcDbEntity
  8
0
  6
Continuous
 62
     0
370
     0
100
AcDbMText
 10
0.4892222085
 20
-0.613095062
 30
0.0
 40
0.08
 41
0.0
 71
     1
 72
     1
  1
0.0005     [
  7
SLDTEXTSTYLE5
 73
     1
 44
1.0
  0
MTEXT
  5
300
330
2DE
100
AcDbEntity
  8
0
  6
Continuous
 62
     0
370
     0
100
AcDbMText
 10
1.0086666411
 20
-0.613095062
 30
0.0
 40
0.08
 41
0.0
 71
     1
 72
     1
  1
%%p
  7
SLDTEXTSTYLE0
 73
     1
 44
1.0
  0
MTEXT
  5
301
330
2DE
100
AcDbEntity
  8
0
  6
Continuous
 62
     0
370
     0
100
AcDbMText
 10
1.0823333035
 20
-0.613095062
 30
0.0
 40
0.08
 41
0.0
 71
     1
 72
     1
  1
0.0127]
  7
SLDTEXTSTYLE0
 73
     1
 44
1.0
  0
MTEXT
  5
302
330
2DE
100
AcDbEntity
  8
0
  6
Continuous
 62
     0
370
     0
100
AcDbMText
 10
0.0
 20
-0.7324651422
 30
0.0
 40
0.08
 41
0.0
 71
     1
 72
     1
  1
REMOVE BURRS & BREAK SHARP
  7
SLDTEXTSTYLE0
 73
     1
 44
1.0
  0
MTEXT
  5
303
330
2DE
100
AcDbEntity
  8
0
  6
Continuous
 62
     0
370
     0
100
AcDbMText
 10
0.0
 20
-0.8518352224
 30
0.0
 40
0.08
 41
0.0
 71
     1
 72
     1
  1
EDGES:  .003/.015 [.076/.381] X 45
  7
SLDTEXTSTYLE0
 73
     1
 44
1.0
  0
MTEXT
  5
304
330
2DE
100
AcDbEntity
  8
0
  6
Continuous
 62
     0
370
     0
100
AcDbMText
 10
1.7414444427
 20
-0.8518352224
 30
0.0
 40
0.08
 41
0.0
 71
     1
 72
     1
  1
%%d
  7
SLDTEXTSTYLE0
 73
     1
 44
1.0
  0
MTEXT
  5
305
330
2DE
100
AcDbEntity
  8
0
  6
Continuous
 62
     0
370
     0
100
AcDbMText
 10
0.0
 20
-0.9712053026
 30
0.0
 40
0.08
 41
0.0
 71
     1
 72
     1
  1
CORNER FILLETS:  R.02 [.51]
  7
SLDTEXTSTYLE0
 73
     1
 44
1.0
  0
MTEXT
  5
306
330
2DE
100
AcDbEntity
  8
0
  6
Continuous
 62
     0
370
     0
100
AcDbMText
 10
0.0
 20
-1.0905753828
 30
0.0
 40
0.08
 41
0.0
 71
     1
 72
     1
  1
MACHINED SURFACES:
  7
SLDTEXTSTYLE0
 73
     1
 44
1.0
  0
MTEXT
  5
307
330
2DE
100
AcDbEntity
  8
0
  6
Continuous
 62
     0
370
     0
100
AcDbMText
 10
1.337333311
 20
-1.1005493934
 30
0.0
 40
0.07
 41
0.0
 71
     1
 72
     1
  1
200
  7
SLDTEXTSTYLE0
 73
     1
 44
1.0
  0
MTEXT
  5
308
330
2DE
100
AcDbEntity
  8
0
  6
Continuous
 62
     0
370
     0
100
AcDbMText
 10
1.7421943407
 20
-1.1005493934
 30
0.0
 40
0.07
 41
0.0
 71
     1
 72
     1
  1
5.1
  7
SLDTEXTSTYLE0
 73
     1
 44
1.0
  0
MTEXT
  5
309
330
2DE
100
AcDbEntity
  8
0
  6
Continuous
 62
     0
370
     0
100
AcDbMText
 10
1.05
 20
-1.2099454629
 30
0.0
 40
0.08
 41
0.0
 71
     1
 72
     1
  1
INCH       mm
  7
SLDTEXTSTYLE4
 73
     1
 44
1.0
  0
MTEXT
  5
30A
330
2DE
100
AcDbEntity
  8
0
  6
Continuous
 62
     0
370
     0
100
AcDbMText
 10
0.0
 20
-1.3293155431
 30
0.0
 40
0.08
 41
0.0
 71
     1
 72
     1
  1
mm SHOWN IN  [BRACKETS]
  7
SLDTEXTSTYLE0
 73
     1
 44
1.0
  0
ENDBLK
  5
2E0
330
2DE
100
AcDbEntity
  8
0
100
AcDbBlockEnd
  0
BLOCK
  5
30D
330
30C
100
AcDbEntity
  8
0
100
AcDbBlockBegin
  2
Block10
 70
     0
 10
0.0
 20
0.0
 30
0.0
  3
Block10
  1

  0
INSERT
  5
31B
330
30C
100
AcDbEntity
  8
0
  6
Continuous
 62
     7
370
     0
100
AcDbBlockReference
  2
SW_NOTE_1
 10
0.5453245846
 20
0.7301865626
 30
0.0
  0
ENDBLK
  5
30E
330
30C
100
AcDbEntity
  8
0
100
AcDbBlockEnd
  0
BLOCK
  5
310
330
30F
100
AcDbEntity
  8
0
100
AcDbBlockBegin
  2
SW_NOTE_1
 70
     0
 10
0.0
 20
0.0
 30
0.0
  3
SW_NOTE_1
  1

  0
MTEXT
  5
312
330
30F
100
AcDbEntity
  8
0
  6
Continuous
 62
     0
370
     0
100
AcDbMText
 10
1.109375
 20
0.064453387
 30
0.0
 40
0.05
 41
0.0
 71
     2
 72
     1
  1
COPYRIGHT REGAL BELOIT AMERICA, INC. ALL RIGHTS RESERVED.
  7
SLDTEXTSTYLE0
 73
     1
 44
1.0
  0
MTEXT
  5
313
330
30F
100
AcDbEntity
  8
0
  6
Continuous
 62
     0
370
     0
100
AcDbMText
 10
1.0968055103
 20
-0.0249166939
 30
0.0
 40
0.05
 41
0.0
 71
     2
 72
     1
  1
PROPRIETARY AND CONFIDENTIAL INFORMATION - THIS DOCUMENT IS THE PROPERTY OF
  7
SLDTEXTSTYLE0
 73
     1
 44
1.0
  0
MTEXT
  5
314
330
30F
100
AcDbEntity
  8
0
  6
Continuous
 62
     0
370
     0
100
AcDbMText
 10
1.1049478221
 20
-0.1142867749
 30
0.0
 40
0.05
 41
0.0
 71
     2
 72
     1
  1
REGAL BELOIT AMERICA, INC. ("OWNER") AND CONTAINS OWNER'S PROPRIETARY
  7
SLDTEXTSTYLE0
 73
     1
 44
1.0
  0
MTEXT
  5
315
330
30F
100
AcDbEntity
  8
0
  6
Continuous
 62
     0
370
     0
100
AcDbMText
 10
1.0980901728
 20
-0.2036568558
 30
0.0
 40
0.05
 41
0.0
 71
     2
 72
     1
  1
INFORMATION. ANY PERSON, CORPORATION OR OTHER FIRM RECEIVING IT IS DEEMED,
  7
SLDTEXTSTYLE0
 73
     1
 44
1.0
  0
MTEXT
  5
316
330
30F
100
AcDbEntity
  8
0
  6
Continuous
 62
     0
370
     0
100
AcDbMText
 10
1.100225469
 20
-0.2930269367
 30
0.0
 40
0.05
 41
0.0
 71
     2
 72
     1
  1
BY RECEIVING IT, TO AGREE THAT IT, AND/OR ANY PART OF IT, SHALL NOT BE DISCLOSED
  7
SLDTEXTSTYLE0
 73
     1
 44
1.0
  0
MTEXT
  5
317
330
30F
100
AcDbEntity
  8
0
  6
Continuous
 62
     0
370
     0
100
AcDbMText
 10
1.0993574465
 20
-0.3823970176
 30
0.0
 40
0.05
 41
0.0
 71
     2
 72
     1
  1
TO ANY PERSON, CORPORATION OR OTHER ENTITY, DUPLICATED, AND/OR USED, EXCEPT
  7
SLDTEXTSTYLE0
 73
     1
 44
1.0
  0
MTEXT
  5
318
330
30F
100
AcDbEntity
  8
0
  6
Continuous
 62
     0
370
     0
100
AcDbMText
 10
1.1051386546
 20
-0.4717670985
 30
0.0
 40
0.05
 41
0.0
 71
     2
 72
     1
  1
AS EXPRESSLY APPROVED IN WRITING IN ADVANCE BY OWNER. THIS DOCUMENT SHALL
  7
SLDTEXTSTYLE0
 73
     1
 44
1.0
  0
MTEXT
  5
319
330
30F
100
AcDbEntity
  8
0
  6
Continuous
 62
     0
370
     0
100
AcDbMText
 10
1.1064756011
 20
-0.5611371795
 30
0.0
 40
0.05
 41
0.0
 71
     2
 72
     1
  1
BE RETURNED TO OWNER UPON REQUEST. IT MAY BE SUBJECT TO CERTAIN
  7
SLDTEXTSTYLE0
 73
     1
 44
1.0
  0
MTEXT
  5
31A
330
30F
100
AcDbEntity
  8
0
  6
Continuous
 62
     0
370
     0
100
AcDbMText
 10
1.1061285626
 20
-0.6505072604
 30
0.0
 40
0.05
 41
0.0
 71
     2
 72
     1
  1
RESTRICTIONS UNDER APPLICABLE EXPORT CONTROL LAWS AND REGULATIONS.
  7
SLDTEXTSTYLE0
 73
     1
 44
1.0
  0
ENDBLK
  5
311
330
30F
100
AcDbEntity
  8
0
100
AcDbBlockEnd
  0
BLOCK
  5
31D
330
31C
100
AcDbEntity
  8
0
100
AcDbBlockBegin
  2
A-Format-MSP-EN
 70
     2
 10
0.0
 20
0.0
 30
0.0
  3
A-Format-MSP-EN
  1

  0
CIRCLE
  5
31F
330
31C
100
AcDbEntity
  8
0
  6
Continuous
 62
     7
370
     0
100
AcDbCircle
 10
6.6580812996
 20
0.4142579204
 30
0.0
 40
0.0848259995590639
  0
CIRCLE
  5
320
330
31C
100
AcDbEntity
  8
0
  6
Continuous
 62
     7
370
     0
100
AcDbCircle
 10
6.6580812996
 20
0.4142579204
 30
0.0
 40
0.0424129902637
  0
LINE
  5
321
330
31C
100
AcDbEntity
  8
0
  6
Continuous
 62
     7
370
     0
100
AcDbLine
 10
9.3499999878
 20
0.8200000071
 30
0.0
 11
9.3499999878
 21
0.5700000071
 31
0.0
  0
LINE
  5
322
330
31C
100
AcDbEntity
  8
0
  6
Continuous
 62
     7
370
     0
100
AcDbLine
 10
10.2299999878
 20
0.5700000071
 30
0.0
 11
10.2299999878
 21
0.2500000071
 31
0.0
  0
LINE
  5
323
330
31C
100
AcDbEntity
  8
0
  6
Continuous
 62
     7
370
     0
100
AcDbLine
 10
3.6099999878
 20
0.2500000071
 30
0.0
 11
3.6099999878
 21
1.8200000071
 31
0.0
  0
LINE
  5
324
330
31C
100
AcDbEntity
  8
0
  6
Continuous
 62
     7
370
     0
100
AcDbLine
 10
7.3799999878
 20
0.5700000071
 30
0.0
 11
7.3799999878
 21
0.2500000071
 31
0.0
  0
LINE
  5
325
330
31C
100
AcDbEntity
  8
0
  6
Continuous
 62
     7
370
     0
100
AcDbLine
 10
1.2999999878
 20
1.8200000071
 30
0.0
 11
1.2999999878
 21
1.3200000071
 31
0.0
  0
LINE
  5
326
330
31C
100
AcDbEntity
  8
0
  6
Continuous
 62
     7
370
     0
100
AcDbLine
 10
2.7099999878
 20
1.8200000071
 30
0.0
 11
2.7099999878
 21
1.3200000071
 31
0.0
  0
LINE
  5
327
330
31C
100
AcDbEntity
  8
0
  6
Continuous
 62
     7
370
     0
100
AcDbLine
 10
0.2499999878
 20
1.8200000071
 30
0.0
 11
0.2499999878
 21
0.2500000071
 31
0.0
  0
LINE
  5
328
330
31C
100
AcDbEntity
  8
0
  6
Continuous
 62
     7
370
     0
100
AcDbLine
 10
0.2499999878
 20
1.8200000071
 30
0.0
 11
10.7499999878
 21
1.8200000071
 31
0.0
  0
LINE
  5
329
330
31C
100
AcDbEntity
  8
0
  6
Continuous
 62
     7
370
     0
100
AcDbLine
 10
0.2499999878
 20
1.5700000071
 30
0.0
 11
3.6099999878
 21
1.5700000071
 31
0.0
  0
LINE
  5
32A
330
31C
100
AcDbEntity
  8
0
  6
Continuous
 62
     7
370
     0
100
AcDbLine
 10
0.2499999878
 20
1.3200000071
 30
0.0
 11
3.6099999878
 21
1.3200000071
 31
0.0
  0
LINE
  5
32B
330
31C
100
AcDbEntity
  8
0
  6
Continuous
 62
     7
370
     0
100
AcDbLine
 10
0.2499999878
 20
1.0700000071
 30
0.0
 11
3.6099999878
 21
1.0700000071
 31
0.0
  0
LINE
  5
32C
330
31C
100
AcDbEntity
  8
0
  6
Continuous
 62
     7
370
     0
100
AcDbLine
 10
5.6599999878
 20
1.0700000071
 30
0.0
 11
7.0699999878
 21
1.0700000071
 31
0.0
  0
LINE
  5
32D
330
31C
100
AcDbEntity
  8
0
  6
Continuous
 62
     7
370
     0
100
AcDbLine
 10
6.9945494934
 20
0.49908392
 30
0.0
 11
6.9945494934
 21
0.3294319208
 31
0.0
  0
LINE
  5
32E
330
31C
100
AcDbEntity
  8
0
  6
Continuous
 62
     7
370
     0
100
AcDbLine
 10
6.8249057648
 20
0.4566709107
 30
0.0
 11
6.8249057648
 21
0.3718449301
 31
0.0
  0
LINE
  5
32F
330
31C
100
AcDbEntity
  8
0
  6
CENTER
 62
     7
370
     0
100
AcDbLine
 10
6.6580812996
 20
0.385368084
 30
0.0
 11
6.6580812996
 21
0.4431477568
 31
0.0
  0
LINE
  5
330
330
31C
100
AcDbEntity
  8
0
  6
Continuous
 62
     7
370
     0
100
AcDbLine
 10
6.8249057648
 20
0.3718449301
 30
0.0
 11
6.9945494934
 21
0.3294319208
 31
0.0
  0
LINE
  5
331
330
31C
100
AcDbEntity
  8
0
  6
CENTER
 62
     7
370
     0
100
AcDbLine
 10
6.7136277043
 20
0.4142579204
 30
0.0
 11
7.0200055633
 21
0.4142579204
 31
0.0
  0
LINE
  5
332
330
31C
100
AcDbEntity
  8
0
  6
CENTER
 62
     7
370
     0
100
AcDbLine
 10
6.6580812996
 20
0.3068466337
 30
0.0
 11
6.6580812996
 21
0.3587115156
 31
0.0
  0
LINE
  5
333
330
31C
100
AcDbEntity
  8
0
  6
CENTER
 62
     7
370
     0
100
AcDbLine
 10
6.6291914631
 20
0.4142579204
 30
0.0
 11
6.686971136
 21
0.4142579204
 31
0.0
  0
LINE
  5
334
330
31C
100
AcDbEntity
  8
0
  6
CENTER
 62
     7
370
     0
100
AcDbLine
 10
6.5562900859
 20
0.4142579204
 30
0.0
 11
6.6025348948
 21
0.4142579204
 31
0.0
  0
LINE
  5
335
330
31C
100
AcDbEntity
  8
0
  6
Continuous
 62
     7
370
     0
100
AcDbLine
 10
6.9945494934
 20
0.49908392
 30
0.0
 11
6.8249057648
 21
0.4566709107
 31
0.0
  0
LINE
  5
336
330
31C
100
AcDbEntity
  8
0
  6
CENTER
 62
     7
370
     0
100
AcDbLine
 10
6.6577883828
 20
0.4698043251
 30
0.0
 11
6.6577883828
 21
0.5216692071
 31
0.0
  0
LINE
  5
337
330
31C
100
AcDbEntity
  8
0
  6
Continuous
 62
     7
370
     0
100
AcDbLine
 10
0.2499999878
 20
0.2500000071
 30
0.0
 11
10.7499999878
 21
0.2500000071
 31
0.0
  0
LINE
  5
338
330
31C
100
AcDbEntity
  8
0
  6
Continuous
 62
     7
370
     0
100
AcDbLine
 10
7.0699999878
 20
1.3200000071
 30
0.0
 11
10.7499999878
 21
1.3200000071
 31
0.0
  0
LINE
  5
339
330
31C
100
AcDbEntity
  8
0
  6
Continuous
 62
     7
370
     0
100
AcDbLine
 10
7.0699999878
 20
0.8200000071
 30
0.0
 11
10.7499999878
 21
0.8200000071
 31
0.0
  0
LINE
  5
33A
330
31C
100
AcDbEntity
  8
0
  6
Continuous
 62
     7
370
     0
100
AcDbLine
 10
7.2996430555
 20
0.2500000071
 30
0.0
 11
10.7499999878
 21
0.2500000071
 31
0.0
  0
LINE
  5
33B
330
31C
100
AcDbEntity
  8
0
  6
Continuous
 62
     7
370
     0
100
AcDbLine
 10
5.6599999878
 20
0.5700000071
 30
0.0
 11
10.7499999878
 21
0.5700000071
 31
0.0
  0
LINE
  5
33C
330
31C
100
AcDbEntity
  8
0
  6
Continuous
 62
     7
370
     0
100
AcDbLine
 10
7.0699999878
 20
0.2500000071
 30
0.0
 11
7.0699999878
 21
1.8200000071
 31
0.0
  0
LINE
  5
33D
330
31C
100
AcDbEntity
  8
0
  6
Continuous
 62
     7
370
     0
100
AcDbLine
 10
5.6599999878
 20
0.8200000071
 30
0.0
 11
7.0699999878
 21
0.8200000071
 31
0.0
  0
LINE
  5
33E
330
31C
100
AcDbEntity
  8
0
  6
Continuous
 62
     7
370
     0
100
AcDbLine
 10
5.6599999878
 20
1.5700000071
 30
0.0
 11
7.0699999878
 21
1.5700000071
 31
0.0
  0
LINE
  5
33F
330
31C
100
AcDbEntity
  8
0
  6
Continuous
 62
     7
370
     0
100
AcDbLine
 10
5.6599999878
 20
0.2500000071
 30
0.0
 11
5.6599999878
 21
1.8200000071
 31
0.0
  0
LINE
  5
340
330
31C
100
AcDbEntity
  8
0
  6
Continuous
 62
     7
370
     0
100
AcDbLine
 10
5.6599999878
 20
1.3200000071
 30
0.0
 11
7.0699999878
 21
1.3200000071
 31
0.0
  0
LINE
  5
341
330
31C
100
AcDbEntity
  8
0
  6
Continuous
 62
     7
370
     0
100
AcDbLine
 10
0.2499999878
 20
0.2500000071
 30
0.0
 11
0.2499999878
 21
8.2500000071
 31
0.0
  0
LINE
  5
342
330
31C
100
AcDbEntity
  8
0
  6
Continuous
 62
     7
370
     0
100
AcDbLine
 10
0.2499999878
 20
8.2500000071
 30
0.0
 11
10.7499999878
 21
8.2500000071
 31
0.0
  0
LINE
  5
343
330
31C
100
AcDbEntity
  8
0
  6
Continuous
 62
     7
370
     0
100
AcDbLine
 10
10.7499999878
 20
0.2500000071
 30
0.0
 11
10.7499999878
 21
8.2500000071
 31
0.0
  0
MTEXT
  5
344
330
31C
100
AcDbEntity
  8
0
  6
Continuous
 62
     7
370
     0
100
AcDbMText
 10
5.6929687696
 20
1.2902814488
 30
0.0
 40
0.07
 41
0.0
 71
     1
 72
     1
  1
APPROVED BY
  7
SLDTEXTSTYLE0
 73
     1
 44
1.0
  0
MTEXT
  5
345
330
31C
100
AcDbEntity
  8
0
  6
Continuous
 62
     7
370
     0
100
AcDbMText
 10
5.683023693
 20
1.5437876813
 30
0.0
 40
0.07
 41
0.0
 71
     1
 72
     1
  1
DATE
  7
SLDTEXTSTYLE0
 73
     1
 44
1.0
  0
MTEXT
  5
346
330
31C
100
AcDbEntity
  8
0
  6
Continuous
 62
     7
370
     0
100
AcDbMText
 10
5.6931670834
 20
1.0413610836
 30
0.0
 40
0.07
 41
0.0
 71
     1
 72
     1
  1
DATE
  7
SLDTEXTSTYLE0
 73
     1
 44
1.0
  0
MTEXT
  5
347
330
31C
100
AcDbEntity
  8
0
  6
Continuous
 62
     7
370
     0
100
AcDbMText
 10
5.6830924977
 20
1.7935142218
 30
0.0
 40
0.07
 41
0.0
 71
     1
 72
     1
  1
DRAWN BY
  7
SLDTEXTSTYLE0
 73
     1
 44
1.0
  0
INSERT
  5
34D
330
31C
100
AcDbEntity
  8
0
  6
Continuous
 62
     7
370
     0
100
AcDbBlockReference
  2
SW_NOTE_2
 10
5.7852181464
 20
0.4151217386
 30
0.0
  0
MTEXT
  5
34E
330
31C
100
AcDbEntity
  8
0
  6
Continuous
 62
     7
370
     0
100
AcDbMText
 10
7.0952055202
 20
1.2909808177
 30
0.0
 40
0.07
 41
0.0
 71
     1
 72
     1
  1
DESCRIPTION
  7
SLDTEXTSTYLE0
 73
     1
 44
1.0
  0
MTEXT
  5
34F
330
31C
100
AcDbEntity
  8
0
  6
Continuous
 62
     7
370
     0
100
AcDbMText
 10
7.0943134661
 20
0.543713732
 30
0.0
 40
0.07
 41
0.0
 71
     1
 72
     1
  1
SIZE
  7
SLDTEXTSTYLE0
 73
     1
 44
1.0
  0
MTEXT
  5
350
330
31C
100
AcDbEntity
  8
0
  6
Continuous
 62
     7
370
     0
100
AcDbMText
 10
7.4055509551
 20
0.543713732
 30
0.0
 40
0.07
 41
0.0
 71
     1
 72
     1
  1
DRAWING NUMBER
  7
SLDTEXTSTYLE0
 73
     1
 44
1.0
  0
MTEXT
  5
351
330
31C
100
AcDbEntity
  8
0
  6
Continuous
 62
     7
370
     0
100
AcDbMText
 10
10.2544276206
 20
0.5394299068
 30
0.0
 40
0.07
 41
0.0
 71
     1
 72
     1
  1
SHEET
  7
SLDTEXTSTYLE0
 73
     1
 44
1.0
  0
MTEXT
  5
352
330
31C
100
AcDbEntity
  8
0
  6
Continuous
 62
     7
370
     0
100
AcDbMText
 10
7.0954870923
 20
0.7899140373
 30
0.0
 40
0.07
 41
0.0
 71
     1
 72
     1
  1
MATERIAL
  7
SLDTEXTSTYLE0
 73
     1
 44
1.0
  0
MTEXT
  5
353
330
31C
100
AcDbEntity
  8
0
  6
Continuous
 62
     7
370
     0
100
AcDbMText
 10
5.6834443798
 20
0.7922384041
 30
0.0
 40
0.07
 41
0.0
 71
     1
 72
     1
  1
REFERENCE
  7
SLDTEXTSTYLE0
 73
     1
 44
1.0
  0
MTEXT
  5
354
330
31C
100
AcDbEntity
  8
0
  6
Continuous
 62
     7
370
     0
100
AcDbMText
 10
0.2745468555
 20
1.7925507158
 30
0.0
 40
0.07
 41
0.0
 71
     1
 72
     1
  1
DRAWING REVISION
  7
SLDTEXTSTYLE0
 73
     1
 44
1.0
  0
MTEXT
  5
355
330
31C
100
AcDbEntity
  8
0
  6
Continuous
 62
     7
370
     0
100
AcDbMText
 10
1.3232542498
 20
1.7939124017
 30
0.0
 40
0.07
 41
0.0
 71
     1
 72
     1
  1
REVISION BY
  7
SLDTEXTSTYLE0
 73
     1
 44
1.0
  0
MTEXT
  5
356
330
31C
100
AcDbEntity
  8
0
  6
Continuous
 62
     7
370
     0
100
AcDbMText
 10
2.7282414931
 20
1.7947257146
 30
0.0
 40
0.07
 41
0.0
 71
     1
 72
     1
  1
DATE
  7
SLDTEXTSTYLE0
 73
     1
 44
1.0
  0
MTEXT
  5
357
330
31C
100
AcDbEntity
  8
0
  6
Continuous
 62
     7
370
     0
100
AcDbMText
 10
1.3313251224
 20
1.5415642783
 30
0.0
 40
0.07
 41
0.0
 71
     1
 72
     1
  1
APPROVED BY
  7
SLDTEXTSTYLE0
 73
     1
 44
1.0
  0
MTEXT
  5
358
330
31C
100
AcDbEntity
  8
0
  6
Continuous
 62
     7
370
     0
100
AcDbMText
 10
2.7316300003
 20
1.5423493124
 30
0.0
 40
0.07
 41
0.0
 71
     1
 72
     1
  1
DATE
  7
SLDTEXTSTYLE0
 73
     1
 44
1.0
  0
MTEXT
  5
359
330
31C
100
AcDbEntity
  8
0
  6
Continuous
 62
     7
370
     0
100
AcDbMText
 10
0.2739923671
 20
1.2922766875
 30
0.0
 40
0.07
 41
0.0
 71
     1
 72
     1
  1
ECO DESCRIPTION
  7
SLDTEXTSTYLE0
 73
     1
 44
1.0
  0
MTEXT
  5
35A
330
31C
100
AcDbEntity
  8
0
  6
Continuous
 62
     7
370
     0
100
AcDbMText
 10
0.2745468555
 20
1.5415642783
 30
0.0
 40
0.07
 41
0.0
 71
     1
 72
     1
  1
ECO
  7
SLDTEXTSTYLE0
 73
     1
 44
1.0
  0
MTEXT
  5
35B
330
31C
100
AcDbEntity
  8
0
  6
Continuous
 62
     7
370
     0
100
AcDbMText
 10
9.3774881544
 20
0.7899140373
 30
0.0
 40
0.07
 41
0.0
 71
     1
 72
     1
  1
PROCESS/FINISH
  7
SLDTEXTSTYLE0
 73
     1
 44
1.0
  0
MTEXT
  5
35C
330
31C
100
AcDbEntity
  8
DIMENSION
100
AcDbMText
 10
8.4862899687
 20
0.4433747577
 30
0.0
 40
0.125
 41
0.0
 71
     1
 72
     1
  1
5413153
  7
SLDTEXTSTYLE0
 73
     1
 44
1.0
  0
ATTDEF
  5
35D
330
31C
100
AcDbEntity
  8
0
  6
Continuous
 62
     7
370
     0
100
AcDbText
 10
7.6880053145
 20
0.6080090182
 30
0.0
 40
0.09
  1
LEXAN LUX7430C
 41
0.605
  7
SLDTEXTSTYLE0
 11
7.6880053145
 21
0.5762156126
 31
0.0
100
AcDbAttributeDefinition
  3

  2
AUTOATTR2
 70
     0
 74
     1
  0
ATTDEF
  5
35E
330
31C
100
AcDbEntity
  8
0
  6
Continuous
 62
     7
370
     0
100
AcDbText
 10
7.1506405918
 20
0.2895123776
 30
0.0
 40
0.15
  1
A
 41
0.605
  7
SLDTEXTSTYLE0
 11
7.1506405918
 21
0.2365233683
 31
0.0
100
AcDbAttributeDefinition
  3

  2
AUTOATTR7
 70
     0
 74
     1
  0
ATTDEF
  5
35F
330
31C
100
AcDbEntity
  8
0
  6
Continuous
 62
     7
370
     0
100
AcDbText
 10
10.303325273
 20
0.3232013666
 30
0.0
 40
0.09
  1
1 OF 1
 41
0.605
  7
SLDTEXTSTYLE0
 11
10.303325273
 21
0.291407961
 31
0.0
100
AcDbAttributeDefinition
  3

  2
AUTOATTR3
 70
     0
 74
     1
  0
ATTDEF
  5
360
330
31C
100
AcDbEntity
  8
0
  6
Continuous
 62
     7
370
     0
100
AcDbText
 10
6.0276430718
 20
1.6085689007
 30
0.0
 40
0.09
  1
I. SHAFFER
 41
0.605
  7
SLDTEXTSTYLE0
 11
6.0276430718
 21
1.5767754952
 31
0.0
100
AcDbAttributeDefinition
  3

  2
AUTOATTR6
 70
     0
 74
     1
  0
ATTDEF
  5
361
330
31C
100
AcDbEntity
  8
0
  6
Continuous
 62
     7
370
     0
100
AcDbText
 10
6.1270806031
 20
1.3574631387
 30
0.0
 40
0.09
  1
02/26/16
 41
0.605
  7
SLDTEXTSTYLE0
 11
6.1270806031
 21
1.3256697331
 31
0.0
100
AcDbAttributeDefinition
  3

  2
AUTOATTR8
 70
     0
 74
     1
  0
ATTDEF
  5
362
330
31C
100
AcDbEntity
  8
0
  6
Continuous
 62
     7
370
     0
100
AcDbText
 10
0.0
 20
0.0
 30
0.0
 40
1.0
  1

100
AcDbAttributeDefinition
  3

  2
AUTOATTR9
 70
     0
  0
ATTDEF
  5
363
330
31C
100
AcDbEntity
  8
0
  6
Continuous
 62
     7
370
     0
100
AcDbText
 10
0.0
 20
0.0
 30
0.0
 40
1.0
  1

100
AcDbAttributeDefinition
  3

  2
AUTOATTR10
 70
     0
  0
ATTDEF
  5
364
330
31C
100
AcDbEntity
  8
0
  6
Continuous
 62
     7
370
     0
100
AcDbText
 10
0.0
 20
0.0
 30
0.0
 40
1.0
  1

100
AcDbAttributeDefinition
  3

  2
AUTOATTR11
 70
     0
  0
ATTDEF
  5
365
330
31C
100
AcDbEntity
  8
0
  6
Continuous
 62
     7
370
     0
100
AcDbText
 10
0.739448135
 20
1.6073610165
 30
0.0
 40
0.09
  1
A
 41
0.605
  7
SLDTEXTSTYLE0
 11
0.739448135
 21
1.5755676109
 31
0.0
100
AcDbAttributeDefinition
  3

  2
AUTOATTR12
 70
     0
 74
     1
  0
ATTDEF
  5
366
330
31C
100
AcDbEntity
  8
0
  6
Continuous
 62
     7
370
     0
100
AcDbText
 10
0.0
 20
0.0
 30
0.0
 40
1.0
  1

100
AcDbAttributeDefinition
  3

  2
AUTOATTR13
 70
     0
  0
ATTDEF
  5
367
330
31C
100
AcDbEntity
  8
0
  6
Continuous
 62
     7
370
     0
100
AcDbText
 10
1.9051266938
 20
1.6073610165
 30
0.0
 40
0.09
  1
IPS
 41
0.605
  7
SLDTEXTSTYLE0
 11
1.9051266938
 21
1.5755676109
 31
0.0
100
AcDbAttributeDefinition
  3

  2
AUTOATTR14
 70
     0
 74
     1
  0
ATTDEF
  5
368
330
31C
100
AcDbEntity
  8
0
  6
Continuous
 62
     7
370
     0
100
AcDbText
 10
0.0
 20
0.0
 30
0.0
 40
1.0
  1

100
AcDbAttributeDefinition
  3

  2
AUTOATTR15
 70
     0
  0
ATTDEF
  5
369
330
31C
100
AcDbEntity
  8
0
  6
Continuous
 62
     7
370
     0
100
AcDbText
 10
2.9233131602
 20
1.6073610165
 30
0.0
 40
0.09
  1
02/26/16
 41
0.605
  7
SLDTEXTSTYLE0
 11
2.9233131602
 21
1.5755676109
 31
0.0
100
AcDbAttributeDefinition
  3

  2
AUTOATTR16
 70
     0
 74
     1
  0
ATTDEF
  5
36A
330
31C
100
AcDbEntity
  8
0
  6
Continuous
 62
     7
370
     0
100
AcDbText
 10
0.0
 20
0.0
 30
0.0
 40
1.0
  1

100
AcDbAttributeDefinition
  3

  2
AUTOATTR17
 70
     0
  0
ATTDEF
  5
36B
330
31C
100
AcDbEntity
  8
0
  6
Continuous
 62
     7
370
     0
100
AcDbText
 10
0.0
 20
0.0
 30
0.0
 40
1.0
  1

100
AcDbAttributeDefinition
  3

  2
AUTOATTR18
 70
     0
  0
ATTDEF
  5
36C
330
31C
100
AcDbEntity
  8
0
  6
Continuous
 62
     7
370
     0
100
AcDbText
 10
7.5712572202
 20
1.0416416311
 30
0.0
 40
0.15
  1
MODEL-MSP-ACCY-COVER
 41
0.605
  7
SLDTEXTSTYLE0
 11
7.5712572202
 21
0.9886526218
 31
0.0
100
AcDbAttributeDefinition
  3

  2
AUTOATTR0
 70
     0
 74
     1
  0
ATTDEF
  5
36D
330
31C
100
AcDbEntity
  8
0
  6
Continuous
 62
     7
370
     0
100
AcDbText
 10
0.0
 20
0.0
 30
0.0
 40
1.0
  1

100
AcDbAttributeDefinition
  3

  2
AUTOATTR19
 70
     0
  0
ATTDEF
  5
36E
330
31C
100
AcDbEntity
  8
0
  6
Continuous
 62
     7
370
     0
100
AcDbText
 10
8.6779515825
 20
0.8860238422
 30
0.0
 40
0.09
  1
CC141X
 41
0.605
  7
SLDTEXTSTYLE0
 11
8.6779515825
 21
0.8542304367
 31
0.0
100
AcDbAttributeDefinition
  3

  2
AUTOATTR5
 70
     0
 74
     1
  0
INSERT
  5
36F
330
31C
100
AcDbEntity
  8
0
  6
Continuous
 62
     7
100
AcDbBlockReference
  2
Logo-Marathon Special Products-EN
 10
7.07
 20
1.32
 30
0.0
  0
INSERT
  5
370
330
31C
100
AcDbEntity
  8
0
  6
Continuous
 62
     7
100
AcDbBlockReference
  2
Block10
 10
0.25
 20
0.25
 30
0.0
  0
INSERT
  5
371
330
31C
100
AcDbEntity
  8
0
  6
Continuous
 62
     7
100
AcDbBlockReference
  2
Tol-MEOutline-Inch-EN
 10
-2.6947948565
 20
-8.0895300113
 30
0.0
  0
ENDBLK
  5
31E
330
31C
100
AcDbEntity
  8
0
100
AcDbBlockEnd
  0
BLOCK
  5
349
330
348
100
AcDbEntity
  8
0
100
AcDbBlockBegin
  2
SW_NOTE_2
 70
     0
 10
0.0
 20
0.0
 30
0.0
  3
SW_NOTE_2
  1

  0
MTEXT
  5
34B
330
348
100
AcDbEntity
  8
0
  6
Continuous
 62
     0
370
     0
100
AcDbMText
 10
0.0
 20
0.0902347418
 30
0.0
 40
0.07
 41
0.0
 71
     1
 72
     1
  1
THIRD ANGLE
  7
SLDTEXTSTYLE0
 73
     1
 44
1.0
  0
MTEXT
  5
34C
330
348
100
AcDbEntity
  8
0
  6
Continuous
 62
     0
370
     0
100
AcDbMText
 10
0.0
 20
-0.0191353356
 30
0.0
 40
0.07
 41
0.0
 71
     1
 72
     1
  1
PROJECTION
  7
SLDTEXTSTYLE0
 73
     1
 44
1.0
  0
ENDBLK
  5
34A
330
348
100
AcDbEntity
  8
0
100
AcDbBlockEnd
  0
BLOCK
  5
3E0
330
3DF
100
AcDbEntity
  8
0
100
AcDbBlockBegin
  2
_D
 70
     0
 10
0.0
 20
0.0
 30
0.0
  3
_D
  1

  0
SOLID
  5
3E2
330
3DF
100
AcDbEntity
  8
DIMENSION
100
AcDbTrace
 10
4.0598469538
 20
7.0944930639
 30
0.0
 11
4.0448469538
 21
6.9944930639
 31
0.0
 12
4.0748469538
 22
6.9944930639
 32
0.0
 13
4.0748469538
 23
6.9944930639
 33
0.0
  0
SOLID
  5
3E3
330
3DF
100
AcDbEntity
  8
DIMENSION
100
AcDbTrace
 10
4.0598469538
 20
4.7879115283
 30
0.0
 11
4.0748469538
 21
4.8879115283
 31
0.0
 12
4.0448469538
 22
4.8879115283
 32
0.0
 13
4.0448469538
 23
4.8879115283
 33
0.0
  0
LINE
  5
3E4
330
3DF
100
AcDbEntity
  8
DIMENSION
100
AcDbLine
 10
3.859326104
 20
5.9734534627
 30
0.0
 11
3.8364094363
 21
5.9734534627
 31
0.0
  0
LINE
  5
3E5
330
3DF
100
AcDbEntity
  8
DIMENSION
100
AcDbLine
 10
3.8364094363
 20
5.9734534627
 30
0.0
 11
3.8364094363
 21
5.8199812373
 31
0.0
  0
LINE
  5
3E6
330
3DF
100
AcDbEntity
  8
DIMENSION
100
AcDbLine
 10
3.8364094363
 20
5.8199812373
 30
0.0
 11
3.859326104
 21
5.8199812373
 31
0.0
  0
LINE
  5
3E7
330
3DF
100
AcDbEntity
  8
DIMENSION
100
AcDbLine
 10
4.2603677624
 20
5.9734534627
 30
0.0
 11
4.2832844302
 21
5.9734534627
 31
0.0
  0
LINE
  5
3E8
330
3DF
100
AcDbEntity
  8
DIMENSION
100
AcDbLine
 10
4.2832844302
 20
5.9734534627
 30
0.0
 11
4.2832844302
 21
5.8199812373
 31
0.0
  0
LINE
  5
3E9
330
3DF
100
AcDbEntity
  8
DIMENSION
100
AcDbLine
 10
4.2832844302
 20
5.8199812373
 30
0.0
 11
4.2603677624
 21
5.8199812373
 31
0.0
  0
LINE
  5
3EA
330
3DF
100
AcDbEntity
  8
DIMENSION
100
AcDbLine
 10
3.2640075921
 20
7.0944930639
 30
0.0
 11
4.1598469538
 21
7.0944930639
 31
0.0
  0
LINE
  5
3EB
330
3DF
100
AcDbEntity
  8
DIMENSION
100
AcDbLine
 10
3.2640075921
 20
4.7879115283
 30
0.0
 11
4.1598469538
 21
4.7879115283
 31
0.0
  0
LINE
  5
3EC
330
3DF
100
AcDbEntity
  8
DIMENSION
100
AcDbLine
 10
4.0598469538
 20
7.0944930639
 30
0.0
 11
4.0598469538
 21
6.1501201393
 31
0.0
  0
LINE
  5
3ED
330
3DF
100
AcDbEntity
  8
DIMENSION
100
AcDbLine
 10
4.0598469538
 20
4.7879115283
 30
0.0
 11
4.0598469538
 21
5.7970645878
 31
0.0
  0
MTEXT
  5
3EE
330
3DF
100
AcDbEntity
  8
DIMENSION
100
AcDbMText
 10
3.8185274915
 20
6.1255546924
 30
0.0
 40
0.1
 41
0.0
 71
     1
 72
     1
  1

  7
SLDTEXTSTYLE0
 73
     1
 44
1.0
  0
MTEXT
  5
3EF
330
3DF
100
AcDbEntity
  8
DIMENSION
100
AcDbMText
 10
3.926166385
 20
6.1252769044
 30
0.0
 40
0.1
 41
0.0
 71
     1
 72
     1
  1
2.31
  7
SLDTEXTSTYLE0
 73
     1
 44
1.0
  0
MTEXT
  5
3F0
330
3DF
100
AcDbEntity
  8
DIMENSION
100
AcDbMText
 10
3.8879719387
 20
5.9488880158
 30
0.0
 40
0.1
 41
0.0
 71
     1
 72
     1
  1
58.59
  7
SLDTEXTSTYLE0
 73
     1
 44
1.0
  0
MTEXT
  5
3F1
330
3DF
100
AcDbEntity
  8
DIMENSION
100
AcDbMText
 10
4.3379719608
 20
6.1255546924
 30
0.0
 40
0.1
 41
0.0
 71
     1
 72
     1
  1

  7
SLDTEXTSTYLE0
 73
     1
 44
1.0
  0
ENDBLK
  5
3E1
330
3DF
100
AcDbEntity
  8
0
100
AcDbBlockEnd
  0
BLOCK
  5
3F4
330
3F3
100
AcDbEntity
  8
0
100
AcDbBlockBegin
  2
_D_1
 70
     0
 10
0.0
 20
0.0
 30
0.0
  3
_D_1
  1

  0
SOLID
  5
3F6
330
3F3
100
AcDbEntity
  8
DIMENSION
100
AcDbTrace
 10
1.0910466023
 20
7.4742466686
 30
0.0
 11
1.1910466023
 21
7.4592466686
 31
0.0
 12
1.1910466023
 22
7.4892466686
 32
0.0
 13
1.1910466023
 23
7.4892466686
 33
0.0
  0
SOLID
  5
3F7
330
3F3
100
AcDbEntity
  8
DIMENSION
100
AcDbTrace
 10
3.1847991555
 20
7.4742466686
 30
0.0
 11
3.0847991555
 21
7.4892466686
 31
0.0
 12
3.0847991555
 22
7.4592466686
 32
0.0
 13
3.0847991555
 23
7.4592466686
 33
0.0
  0
LINE
  5
3F8
330
3F3
100
AcDbEntity
  8
DIMENSION
100
AcDbLine
 10
1.985175212
 20
7.4741077677
 30
0.0
 11
1.9622585442
 21
7.4741077677
 31
0.0
  0
LINE
  5
3F9
330
3F3
100
AcDbEntity
  8
DIMENSION
100
AcDbLine
 10
1.9622585442
 20
7.4741077677
 30
0.0
 11
1.9622585442
 21
7.3206355423
 31
0.0
  0
LINE
  5
3FA
330
3F3
100
AcDbEntity
  8
DIMENSION
100
AcDbLine
 10
1.9622585442
 20
7.3206355423
 30
0.0
 11
1.985175212
 21
7.3206355423
 31
0.0
  0
LINE
  5
3FB
330
3F3
100
AcDbEntity
  8
DIMENSION
100
AcDbLine
 10
2.3862168704
 20
7.4741077677
 30
0.0
 11
2.4091335381
 21
7.4741077677
 31
0.0
  0
LINE
  5
3FC
330
3F3
100
AcDbEntity
  8
DIMENSION
100
AcDbLine
 10
2.4091335381
 20
7.4741077677
 30
0.0
 11
2.4091335381
 21
7.3206355423
 31
0.0
  0
LINE
  5
3FD
330
3F3
100
AcDbEntity
  8
DIMENSION
100
AcDbLine
 10
2.4091335381
 20
7.3206355423
 30
0.0
 11
2.3862168704
 21
7.3206355423
 31
0.0
  0
LINE
  5
3FE
330
3F3
100
AcDbEntity
  8
DIMENSION
100
AcDbLine
 10
1.0910466023
 20
7.1792466686
 30
0.0
 11
1.0910466023
 21
7.5742466686
 31
0.0
  0
LINE
  5
3FF
330
3F3
100
AcDbEntity
  8
DIMENSION
100
AcDbLine
 10
3.1847991555
 20
7.1792466686
 30
0.0
 11
3.1847991555
 21
7.5742466686
 31
0.0
  0
LINE
  5
400
330
3F3
100
AcDbEntity
  8
DIMENSION
100
AcDbLine
 10
1.0910466023
 20
7.4742466686
 30
0.0
 11
1.8840075108
 21
7.4742466686
 31
0.0
  0
LINE
  5
401
330
3F3
100
AcDbEntity
  8
DIMENSION
100
AcDbLine
 10
3.1847991555
 20
7.4742466686
 30
0.0
 11
2.4873846128
 21
7.4742466686
 31
0.0
  0
MTEXT
  5
402
330
3F3
100
AcDbEntity
  8
DIMENSION
100
AcDbMText
 10
1.9443765994
 20
7.6262089975
 30
0.0
 40
0.1
 41
0.0
 71
     1
 72
     1
  1

  7
SLDTEXTSTYLE0
 73
     1
 44
1.0
  0
MTEXT
  5
403
330
3F3
100
AcDbEntity
  8
DIMENSION
100
AcDbMText
 10
2.052015493
 20
7.6259312095
 30
0.0
 40
0.1
 41
0.0
 71
     1
 72
     1
  1
2.09
  7
SLDTEXTSTYLE0
 73
     1
 44
1.0
  0
MTEXT
  5
404
330
3F3
100
AcDbEntity
  8
DIMENSION
100
AcDbMText
 10
2.0138210467
 20
7.4495423209
 30
0.0
 40
0.1
 41
0.0
 71
     1
 72
     1
  1
53.18
  7
SLDTEXTSTYLE0
 73
     1
 44
1.0
  0
MTEXT
  5
405
330
3F3
100
AcDbEntity
  8
DIMENSION
100
AcDbMText
 10
2.4638210687
 20
7.6262089975
 30
0.0
 40
0.1
 41
0.0
 71
     1
 72
     1
  1

  7
SLDTEXTSTYLE0
 73
     1
 44
1.0
  0
ENDBLK
  5
3F5
330
3F3
100
AcDbEntity
  8
0
100
AcDbBlockEnd
  0
BLOCK
  5
41D
330
41C
100
AcDbEntity
  8
0
100
AcDbBlockBegin
  2
_D_2
 70
     0
 10
0.0
 20
0.0
 30
0.0
  3
_D_2
  1

  0
SOLID
  5
41F
330
41C
100
AcDbEntity
  8
DIMENSION
100
AcDbTrace
 10
7.1108655285
 20
7.5802267351
 30
0.0
 11
7.2108655285
 21
7.5652267351
 31
0.0
 12
7.2108655285
 22
7.5952267351
 32
0.0
 13
7.2108655285
 23
7.5952267351
 33
0.0
  0
SOLID
  5
420
330
41C
100
AcDbEntity
  8
DIMENSION
100
AcDbTrace
 10
6.8958655285
 20
7.5802267351
 30
0.0
 11
6.7958655285
 21
7.5952267351
 31
0.0
 12
6.7958655285
 22
7.5652267351
 32
0.0
 13
6.7958655285
 23
7.5652267351
 33
0.0
  0
LINE
  5
421
330
41C
100
AcDbEntity
  8
DIMENSION
100
AcDbLine
 10
7.4480368206
 20
7.5800878342
 30
0.0
 11
7.4251201529
 21
7.5800878342
 31
0.0
  0
LINE
  5
422
330
41C
100
AcDbEntity
  8
DIMENSION
100
AcDbLine
 10
7.4251201529
 20
7.5800878342
 30
0.0
 11
7.4251201529
 21
7.4266156088
 31
0.0
  0
LINE
  5
423
330
41C
100
AcDbEntity
  8
DIMENSION
100
AcDbLine
 10
7.4251201529
 20
7.4266156088
 30
0.0
 11
7.4480368206
 21
7.4266156088
 31
0.0
  0
LINE
  5
424
330
41C
100
AcDbEntity
  8
DIMENSION
100
AcDbLine
 10
7.7726896048
 20
7.5800878342
 30
0.0
 11
7.7956062726
 21
7.5800878342
 31
0.0
  0
LINE
  5
425
330
41C
100
AcDbEntity
  8
DIMENSION
100
AcDbLine
 10
7.7956062726
 20
7.5800878342
 30
0.0
 11
7.7956062726
 21
7.4266156088
 31
0.0
  0
LINE
  5
426
330
41C
100
AcDbEntity
  8
DIMENSION
100
AcDbLine
 10
7.7956062726
 20
7.4266156088
 30
0.0
 11
7.7726896048
 21
7.4266156088
 31
0.0
  0
LINE
  5
427
330
41C
100
AcDbEntity
  8
DIMENSION
100
AcDbLine
 10
7.1108655285
 20
7.1792466686
 30
0.0
 11
7.1108655285
 21
7.6802267351
 31
0.0
  0
LINE
  5
428
330
41C
100
AcDbEntity
  8
DIMENSION
100
AcDbLine
 10
6.8958655285
 20
7.0501972455
 30
0.0
 11
6.8958655285
 21
7.6802267351
 31
0.0
  0
LINE
  5
429
330
41C
100
AcDbEntity
  8
DIMENSION
100
AcDbLine
 10
7.1108655285
 20
7.5802267351
 30
0.0
 11
7.3468691194
 21
7.5802267351
 31
0.0
  0
LINE
  5
42A
330
41C
100
AcDbEntity
  8
DIMENSION
100
AcDbLine
 10
6.8958655285
 20
7.5802267351
 30
0.0
 11
6.7158655285
 21
7.5802267351
 31
0.0
  0
MTEXT
  5
42B
330
41C
100
AcDbEntity
  8
DIMENSION
100
AcDbMText
 10
7.4072382081
 20
7.732189064
 30
0.0
 40
0.1
 41
0.0
 71
     1
 72
     1
  1

  7
SLDTEXTSTYLE0
 73
     1
 44
1.0
  0
MTEXT
  5
42C
330
41C
100
AcDbEntity
  8
DIMENSION
100
AcDbMText
 10
7.4766826462
 20
7.7319112759
 30
0.0
 40
0.1
 41
0.0
 71
     1
 72
     1
  1
.215
  7
SLDTEXTSTYLE0
 73
     1
 44
1.0
  0
MTEXT
  5
42D
330
41C
100
AcDbEntity
  8
DIMENSION
100
AcDbMText
 10
7.4766826553
 20
7.5555223873
 30
0.0
 40
0.1
 41
0.0
 71
     1
 72
     1
  1
5.46
  7
SLDTEXTSTYLE0
 73
     1
 44
1.0
  0
MTEXT
  5
42E
330
41C
100
AcDbEntity
  8
DIMENSION
100
AcDbMText
 10
7.8502937665
 20
7.732189064
 30
0.0
 40
0.1
 41
0.0
 71
     1
 72
     1
  1

  7
SLDTEXTSTYLE0
 73
     1
 44
1.0
  0
ENDBLK
  5
41E
330
41C
100
AcDbEntity
  8
0
100
AcDbBlockEnd
  0
ENDSEC
  0
SECTION
  2
ENTITIES
  0
INSERT
  5
372
330
1F
100
AcDbEntity
  8
0
  6
Continuous
 62
     7
100
AcDbBlockReference
 66
     1
  2
A-Format-MSP-EN
 10
0.0
 20
0.0
 30
0.0
  0
ATTRIB
  5
373
330
372
100
AcDbEntity
  8
0
  6
Continuous
 62
     7
370
     0
100
AcDbText
 10
7.6880053145
 20
0.6080090182
 30
0.0
 40
0.09
  1
LEXAN LUX7430C
 41
0.605
  7
SLDTEXTSTYLE0
 11
7.6880053145
 21
0.5762156126
 31
0.0
100
AcDbAttribute
  2
AUTOATTR2
 70
     0
 74
     1
  0
ATTRIB
  5
374
330
372
100
AcDbEntity
  8
0
  6
Continuous
 62
     7
370
     0
100
AcDbText
 10
7.1506405918
 20
0.2895123776
 30
0.0
 40
0.15
  1
A
 41
0.605
  7
SLDTEXTSTYLE0
 11
7.1506405918
 21
0.2365233683
 31
0.0
100
AcDbAttribute
  2
AUTOATTR7
 70
     0
 74
     1
  0
ATTRIB
  5
375
330
372
100
AcDbEntity
  8
0
  6
Continuous
 62
     7
370
     0
100
AcDbText
 10
10.303325273
 20
0.3232013666
 30
0.0
 40
0.09
  1
1 OF 1
 41
0.605
  7
SLDTEXTSTYLE0
 11
10.303325273
 21
0.291407961
 31
0.0
100
AcDbAttribute
  2
AUTOATTR3
 70
     0
 74
     1
  0
ATTRIB
  5
376
330
372
100
AcDbEntity
  8
0
  6
Continuous
 62
     7
370
     0
100
AcDbText
 10
6.0276430718
 20
1.6085689007
 30
0.0
 40
0.09
  1
I. SHAFFER
 41
0.605
  7
SLDTEXTSTYLE0
 11
6.0276430718
 21
1.5767754952
 31
0.0
100
AcDbAttribute
  2
AUTOATTR6
 70
     0
 74
     1
  0
ATTRIB
  5
377
330
372
100
AcDbEntity
  8
0
  6
Continuous
 62
     7
370
     0
100
AcDbText
 10
6.1270806031
 20
1.3574631387
 30
0.0
 40
0.09
  1
02/26/16
 41
0.605
  7
SLDTEXTSTYLE0
 11
6.1270806031
 21
1.3256697331
 31
0.0
100
AcDbAttribute
  2
AUTOATTR8
 70
     0
 74
     1
  0
ATTRIB
  5
378
330
372
100
AcDbEntity
  8
0
  6
Continuous
 62
     7
370
     0
100
AcDbText
 10
6.3759544836
 20
1.1063573721
 30
0.0
 40
0.09
  1

 41
0.605
  7
SLDTEXTSTYLE0
 11
6.3759544836
 21
1.0745639665
 31
0.0
100
AcDbAttribute
  2
AUTOATTR9
 70
     0
 74
     1
  0
ATTRIB
  5
379
330
372
100
AcDbEntity
  8
0
  6
Continuous
 62
     7
370
     0
100
AcDbText
 10
6.3759582845
 20
0.8552516101
 30
0.0
 40
0.09
  1

 41
0.605
  7
SLDTEXTSTYLE0
 11
6.3759582845
 21
0.8234582045
 31
0.0
100
AcDbAttribute
  2
AUTOATTR10
 70
     0
 74
     1
  0
ATTRIB
  5
37A
330
372
100
AcDbEntity
  8
0
  6
Continuous
 62
     7
370
     0
100
AcDbText
 10
10.0567819024
 20
0.6080090136
 30
0.0
 40
0.09
  1

 41
0.605
  7
SLDTEXTSTYLE0
 11
10.0567819024
 21
0.5762156081
 31
0.0
100
AcDbAttribute
  2
AUTOATTR11
 70
     0
 74
     1
  0
ATTRIB
  5
37B
330
372
100
AcDbEntity
  8
0
  6
Continuous
 62
     7
370
     0
100
AcDbText
 10
0.739448135
 20
1.6073610165
 30
0.0
 40
0.09
  1
A
 41
0.605
  7
SLDTEXTSTYLE0
 11
0.739448135
 21
1.5755676109
 31
0.0
100
AcDbAttribute
  2
AUTOATTR12
 70
     0
 74
     1
  0
ATTRIB
  5
37C
330
372
100
AcDbEntity
  8
0
  6
Continuous
 62
     7
370
     0
100
AcDbText
 10
0.7889341494
 20
1.3580119593
 30
0.0
 40
0.09
  1

 41
0.605
  7
SLDTEXTSTYLE0
 11
0.7889341494
 21
1.3262185537
 31
0.0
100
AcDbAttribute
  2
AUTOATTR13
 70
     0
 74
     1
  0
ATTRIB
  5
37D
330
372
100
AcDbEntity
  8
0
  6
Continuous
 62
     7
370
     0
100
AcDbText
 10
1.9051266938
 20
1.6073610165
 30
0.0
 40
0.09
  1
IPS
 41
0.605
  7
SLDTEXTSTYLE0
 11
1.9051266938
 21
1.5755676109
 31
0.0
100
AcDbAttribute
  2
AUTOATTR14
 70
     0
 74
     1
  0
ATTRIB
  5
37E
330
372
100
AcDbEntity
  8
0
  6
Continuous
 62
     7
370
     0
100
AcDbText
 10
2.0130785264
 20
1.3580119593
 30
0.0
 40
0.09
  1

 41
0.605
  7
SLDTEXTSTYLE0
 11
2.0130785264
 21
1.3262185537
 31
0.0
100
AcDbAttribute
  2
AUTOATTR15
 70
     0
 74
     1
  0
ATTRIB
  5
37F
330
372
100
AcDbEntity
  8
0
  6
Continuous
 62
     7
370
     0
100
AcDbText
 10
2.9233131602
 20
1.6073610165
 30
0.0
 40
0.09
  1
02/26/16
 41
0.605
  7
SLDTEXTSTYLE0
 11
2.9233131602
 21
1.5755676109
 31
0.0
100
AcDbAttribute
  2
AUTOATTR16
 70
     0
 74
     1
  0
ATTRIB
  5
380
330
372
100
AcDbEntity
  8
0
  6
Continuous
 62
     7
370
     0
100
AcDbText
 10
3.1722164042
 20
1.3580119593
 30
0.0
 40
0.09
  1

 41
0.605
  7
SLDTEXTSTYLE0
 11
3.1722164042
 21
1.3262185537
 31
0.0
100
AcDbAttribute
  2
AUTOATTR17
 70
     0
 74
     1
  0
ATTRIB
  5
381
330
372
100
AcDbEntity
  8
0
  6
Continuous
 62
     7
370
     0
100
AcDbText
 10
1.9379664461
 20
1.1062881538
 30
0.0
 40
0.09
  1

 41
0.605
  7
SLDTEXTSTYLE0
 11
1.9379664461
 21
1.0744947482
 31
0.0
100
AcDbAttribute
  2
AUTOATTR18
 70
     0
 74
     1
  0
ATTRIB
  5
382
330
372
100
AcDbEntity
  8
0
  6
Continuous
 62
     7
370
     0
100
AcDbText
 10
7.5712572202
 20
1.0416416311
 30
0.0
 40
0.15
  1
MODEL-MSP-ACCY-COVER
 41
0.605
  7
SLDTEXTSTYLE0
 11
7.5712572202
 21
0.9886526218
 31
0.0
100
AcDbAttribute
  2
AUTOATTR0
 70
     0
 74
     1
  0
ATTRIB
  5
383
330
372
100
AcDbEntity
  8
0
  6
Continuous
 62
     7
370
     0
100
AcDbText
 10
6.3728326637
 20
0.6080090136
 30
0.0
 40
0.09
  1

 41
0.605
  7
SLDTEXTSTYLE0
 11
6.3728326637
 21
0.5762156081
 31
0.0
100
AcDbAttribute
  2
AUTOATTR19
 70
     0
 74
     1
  0
ATTRIB
  5
384
330
372
100
AcDbEntity
  8
0
  6
Continuous
 62
     7
370
     0
100
AcDbText
 10
8.6779515825
 20
0.8860238422
 30
0.0
 40
0.09
  1
CC141X
 41
0.605
  7
SLDTEXTSTYLE0
 11
8.6779515825
 21
0.8542304367
 31
0.0
100
AcDbAttribute
  2
AUTOATTR5
 70
     0
 74
     1
  0
SEQEND
  5
385
330
372
100
AcDbEntity
  8
0
  6
Continuous
 62
     7
  0
POINT
  5
386
330
1F
100
AcDbEntity
  8
0
  6
Continuous
 62
     7
370
     0
100
AcDbPoint
 10
0.0
 20
0.0
 30
0.0
  0
LINE
  5
387
330
1F
100
AcDbEntity
  8
0
  6
Continuous
 62
     7
370
    15
100
AcDbLine
 10
1.1879228911
 20
6.0556103153
 30
0.0
 11
1.1873119948
 21
6.0432674312
 31
0.0
  0
ELLIPSE
  5
388
330
1F
100
AcDbEntity
  8
0
  6
Continuous
 62
     7
370
    15
100
AcDbEllipse
 10
1.1673112366
 20
6.0432366525
 30
0.0
 11
0.001003928877210569
 21
0.02028445394257261
 31
0.0
210
0.0
220
0.0
230
1.0
 40
0.9847713852
 41
4.762604614297679
 42
5.345029462369401
  0
SPLINE
  5
389
330
1F
100
AcDbEntity
  8
0
  6
Continuous
 62
     7
370
    15
100
AcDbSpline
210
0.0
220
0.0
230
1.0
 70
     8
 71
     3
 72
    10
 73
     6
 74
     0
 42
0.000000001
 43
0.00000001
 40
0.0
 40
0.0
 40
0.0
 40
0.0
 40
0.5
 40
0.5
 40
1.0
 40
1.0
 40
1.0
 40
1.0
 10
1.184014498923991
 20
6.054433061125877
 30
0.0
 10
1.181946460027749
 20
6.057618055347099
 30
0.0
 10
1.178871178174079
 20
6.060151495515052
 30
0.0
 10
1.172392305190817
 20
6.062618590710946
 30
0.0
 10
1.169316934818493
 20
6.06250058394046
 30
0.0
 10
1.167262352315469
 20
6.061945097761317
 30
0.0
  0
LINE
  5
38A
330
1F
100
AcDbEntity
  8
0
  6
Continuous
 62
     7
370
    15
100
AcDbLine
 10
1.1672623431
 20
6.0619450963
 30
0.0
 11
1.1679524385
 21
6.0758880769
 31
0.0
  0
ELLIPSE
  5
38B
330
1F
100
AcDbEntity
  8
0
  6
Continuous
 62
     7
370
    15
100
AcDbEllipse
 10
1.1679221173
 20
6.0555795412
 30
0.0
 11
0.001003928877210569
 21
0.02028445394257261
 31
0.0
210
0.0
220
0.0
230
1.0
 40
0.9847713852
 41
4.762604614297591
 42
6.331885593525962
  0
LINE
  5
38C
330
1F
100
AcDbEntity
  8
0
  6
Continuous
 62
     7
370
    15
100
AcDbLine
 10
3.1127047092
 20
5.8400183058
 30
0.0
 11
3.1118304393
 21
5.8223551682
 31
0.0
  0
LINE
  5
38D
330
1F
100
AcDbEntity
  8
0
  6
Continuous
 62
     7
370
    15
100
AcDbLine
 10
3.1622683766
 20
5.8312022927
 30
0.0
 11
3.1127047092
 21
5.8400183058
 31
0.0
  0
LINE
  5
38E
330
1F
100
AcDbEntity
  8
0
  6
Continuous
 62
     7
370
    15
100
AcDbLine
 10
3.1622683766
 20
5.8312022927
 30
0.0
 11
3.1841446306
 21
5.8312022927
 31
0.0
  0
LINE
  5
38F
330
1F
100
AcDbEntity
  8
0
  6
Continuous
 62
     7
370
    15
100
AcDbLine
 10
3.1841446306
 20
5.8312022927
 30
0.0
 11
3.1829229114
 21
5.8065165153
 31
0.0
  0
LINE
  5
390
330
1F
100
AcDbEntity
  8
0
  6
Continuous
 62
     7
370
    15
100
AcDbLine
 10
3.1829229114
 20
5.8065165153
 30
0.0
 11
3.1078933648
 21
5.8065165153
 31
0.0
  0
LINE
  5
391
330
1F
100
AcDbEntity
  8
0
  6
Continuous
 62
     7
370
    15
100
AcDbLine
 10
3.1085834235
 20
5.8204594959
 30
0.0
 11
3.1078933648
 21
5.8065165153
 31
0.0
  0
ELLIPSE
  5
392
330
1F
100
AcDbEntity
  8
0
  6
Continuous
 62
     7
370
    15
100
AcDbEllipse
 10
3.0918312588
 20
5.8223859471
 30
0.0
 11
0.01999999999999957
 21
0.0
 31
0.0
210
0.0
220
0.0
230
1.0
 40
0.1763269807
 41
5.705277390737113
 42
6.274458660919843
  0
LINE
  5
393
330
1F
100
AcDbEntity
  8
0
  6
Continuous
 62
     7
370
    15
100
AcDbLine
 10
3.1840076455
 20
7.0944930665
 30
0.0
 11
3.1829229114
 21
6.9701972157
 31
0.0
  0
LINE
  5
394
330
1F
100
AcDbEntity
  8
0
  6
Continuous
 62
     7
370
    15
100
AcDbLine
 10
3.1847991964
 20
7.0992466983
 30
0.0
 11
3.1840076455
 21
7.0944930665
 31
0.0
  0
LINE
  5
395
330
1F
100
AcDbEntity
  8
0
  6
Continuous
 62
     7
370
    15
100
AcDbLine
 10
3.1847991964
 20
7.0992466983
 30
0.0
 11
3.1847991964
 21
4.7831578939
 31
0.0
  0
LINE
  5
396
330
1F
100
AcDbEntity
  8
0
  6
Continuous
 62
     7
370
    15
100
AcDbLine
 10
3.1847991964
 20
4.7831578939
 30
0.0
 11
3.1840076455
 21
4.7879115257
 31
0.0
  0
LINE
  5
397
330
1F
100
AcDbEntity
  8
0
  6
Continuous
 62
     7
370
    15
100
AcDbLine
 10
3.1840076455
 20
4.7879115257
 30
0.0
 11
3.1829229114
 21
4.9122073765
 31
0.0
  0
LINE
  5
398
330
1F
100
AcDbEntity
  8
0
  6
Continuous
 62
     7
370
    15
100
AcDbLine
 10
3.1829229114
 20
4.9122073765
 30
0.0
 11
3.1829229114
 21
5.8065165153
 31
0.0
  0
LINE
  5
399
330
1F
100
AcDbEntity
  8
0
  6
Continuous
 62
     7
370
    15
100
AcDbLine
 10
3.1841446306
 20
6.0512022995
 30
0.0
 11
3.1841446306
 21
5.8312022927
 31
0.0
  0
LINE
  5
39A
330
1F
100
AcDbEntity
  8
0
  6
Continuous
 62
     7
370
    15
100
AcDbLine
 10
3.1841446306
 20
6.0512022995
 30
0.0
 11
3.1829229114
 21
6.0758880769
 31
0.0
  0
LINE
  5
39B
330
1F
100
AcDbEntity
  8
0
  6
Continuous
 62
     7
370
    15
100
AcDbLine
 10
3.1829229114
 20
6.0758880769
 30
0.0
 11
3.1829229114
 21
6.9701972157
 31
0.0
  0
LINE
  5
39C
330
1F
100
AcDbEntity
  8
0
  6
Continuous
 62
     7
370
    15
100
AcDbLine
 10
3.1622683766
 20
6.0512022995
 30
0.0
 11
3.1841446306
 21
6.0512022995
 31
0.0
  0
LINE
  5
39D
330
1F
100
AcDbEntity
  8
0
  6
Continuous
 62
     7
370
    15
100
AcDbLine
 10
3.1127047092
 20
6.0423862864
 30
0.0
 11
3.1622683766
 21
6.0512022995
 31
0.0
  0
LINE
  5
39E
330
1F
100
AcDbEntity
  8
0
  6
Continuous
 62
     7
370
    15
100
AcDbLine
 10
3.1127047092
 20
6.0423862864
 30
0.0
 11
3.1118304393
 21
6.060049424
 31
0.0
  0
ELLIPSE
  5
39F
330
1F
100
AcDbEntity
  8
0
  6
Continuous
 62
     7
370
    15
100
AcDbEllipse
 10
3.0918312588
 20
6.0600186451
 30
0.0
 11
0.01999999999999957
 21
0.0
 31
0.0
210
0.0
220
0.0
230
1.0
 40
0.1763269807
 41
0.008726646259818
 42
0.5779079164427208
  0
LINE
  5
3A0
330
1F
100
AcDbEntity
  8
0
  6
Continuous
 62
     7
370
    15
100
AcDbLine
 10
3.1078933648
 20
6.0758880769
 30
0.0
 11
3.1085834235
 21
6.0619450963
 31
0.0
  0
LINE
  5
3A1
330
1F
100
AcDbEntity
  8
0
  6
Continuous
 62
     7
370
    15
100
AcDbLine
 10
3.1078933648
 20
6.0758880769
 30
0.0
 11
3.1829229114
 21
6.0758880769
 31
0.0
  0
LINE
  5
3A2
330
1F
100
AcDbEntity
  8
0
  6
Continuous
 62
     7
370
    15
100
AcDbLine
 10
1.1631410574
 20
6.0423862864
 30
0.0
 11
1.164015254
 21
6.060049424
 31
0.0
  0
LINE
  5
3A3
330
1F
100
AcDbEntity
  8
0
  6
Continuous
 62
     7
370
    15
100
AcDbLine
 10
1.11357739
 20
6.0512022995
 30
0.0
 11
1.1631410574
 21
6.0423862864
 31
0.0
  0
LINE
  5
3A4
330
1F
100
AcDbEntity
  8
0
  6
Continuous
 62
     7
370
    15
100
AcDbLine
 10
1.11357739
 20
6.0512022995
 30
0.0
 11
1.0917010994
 21
6.0512022995
 31
0.0
  0
LINE
  5
3A5
330
1F
100
AcDbEntity
  8
0
  6
Continuous
 62
     7
370
    15
100
AcDbLine
 10
1.0917010994
 20
6.0512022995
 30
0.0
 11
1.0929228919
 21
6.0758880769
 31
0.0
  0
LINE
  5
3A6
330
1F
100
AcDbEntity
  8
0
  6
Continuous
 62
     7
370
    15
100
AcDbLine
 10
1.1679524385
 20
6.0758880769
 30
0.0
 11
1.0929228919
 21
6.0758880769
 31
0.0
  0
ELLIPSE
  5
3A7
330
1F
100
AcDbEntity
  8
0
  6
Continuous
 62
     7
370
    15
100
AcDbEllipse
 10
1.1840144989
 20
6.0600186451
 30
0.0
 11
0.02000000000000002
 21
0.0
 31
0.0
210
0.0
220
0.0
230
1.0
 40
0.1763269807
 41
2.563684737147496
 42
3.132866007329974
  0
LINE
  5
3A8
330
1F
100
AcDbEntity
  8
0
  6
Continuous
 62
     7
370
    15
100
AcDbLine
 10
1.0929228919
 20
4.9122073765
 30
0.0
 11
3.1829229114
 21
4.9122073765
 31
0.0
  0
LINE
  5
3A9
330
1F
100
AcDbEntity
  8
0
  6
Continuous
 62
     7
370
    15
100
AcDbLine
 10
1.0929228919
 20
4.9122073765
 30
0.0
 11
1.0929228919
 21
5.8065165153
 31
0.0
  0
LINE
  5
3AA
330
1F
100
AcDbEntity
  8
0
  6
Continuous
 62
     7
370
    15
100
AcDbLine
 10
1.0929228919
 20
5.8065165153
 30
0.0
 11
1.1679524385
 21
5.8065165153
 31
0.0
  0
ELLIPSE
  5
3AB
330
1F
100
AcDbEntity
  8
0
  6
Continuous
 62
     7
370
    15
100
AcDbEllipse
 10
1.1679221173
 20
5.826825051
 30
0.0
 11
-0.001003928877210569
 21
0.02028445394257261
 31
0.0
210
0.0
220
0.0
230
1.0
 40
0.9847713852
 41
3.092892367243417
 42
4.662173346471729
  0
LINE
  5
3AC
330
1F
100
AcDbEntity
  8
0
  6
Continuous
 62
     7
370
    15
100
AcDbLine
 10
1.1879228911
 20
5.8267942769
 30
0.0
 11
1.1879228911
 21
6.0556103153
 31
0.0
  0
LINE
  5
3AD
330
1F
100
AcDbEntity
  8
0
  6
Continuous
 62
     7
370
    15
100
AcDbLine
 10
1.0929228919
 20
6.0758880769
 30
0.0
 11
1.0929228919
 21
6.9701972157
 31
0.0
  0
LINE
  5
3AE
330
1F
100
AcDbEntity
  8
0
  6
Continuous
 62
     7
370
    15
100
AcDbLine
 10
1.0929228919
 20
6.9701972157
 30
0.0
 11
3.1829229114
 21
6.9701972157
 31
0.0
  0
ELLIPSE
  5
3AF
330
1F
100
AcDbEntity
  8
0
  6
Continuous
 62
     7
370
    15
100
AcDbEllipse
 10
3.1079236405
 20
6.0555795412
 30
0.0
 11
0.001003928877210125
 21
-0.02028445394257438
 31
0.0
210
0.0
220
0.0
230
1.0
 40
0.9847713852
 41
3.09289236724344
 42
4.662173346471801
  0
LINE
  5
3B0
330
1F
100
AcDbEntity
  8
0
  6
Continuous
 62
     7
370
    15
100
AcDbLine
 10
3.0879228755
 20
5.8267942769
 30
0.0
 11
3.0879228755
 21
6.0556103153
 31
0.0
  0
ELLIPSE
  5
3B1
330
1F
100
AcDbEntity
  8
0
  6
Continuous
 62
     7
370
    15
100
AcDbEllipse
 10
3.1079236405
 20
5.826825051
 30
0.0
 11
-0.001003928877210125
 21
-0.02028445394257438
 31
0.0
210
0.0
220
0.0
230
1.0
 40
0.9847713852
 41
4.76260461429765
 42
6.331885593525917
  0
LINE
  5
3B2
330
1F
100
AcDbEntity
  8
0
  6
Continuous
 62
     7
370
    15
100
AcDbLine
 10
1.0917010994
 20
6.0512022995
 30
0.0
 11
1.0917010994
 21
5.8312022927
 31
0.0
  0
LINE
  5
3B3
330
1F
100
AcDbEntity
  8
0
  6
Continuous
 62
     7
370
    15
100
AcDbLine
 10
1.0917010994
 20
5.8312022927
 30
0.0
 11
1.0929228919
 21
5.8065165153
 31
0.0
  0
LINE
  5
3B4
330
1F
100
AcDbEntity
  8
0
  6
Continuous
 62
     7
370
    15
100
AcDbLine
 10
1.0918381578
 20
4.7879115257
 30
0.0
 11
1.0929228919
 21
4.9122073765
 31
0.0
  0
LINE
  5
3B5
330
1F
100
AcDbEntity
  8
0
  6
Continuous
 62
     7
370
    15
100
AcDbLine
 10
1.0910466069
 20
4.7831578939
 30
0.0
 11
1.0918381578
 21
4.7879115257
 31
0.0
  0
LINE
  5
3B6
330
1F
100
AcDbEntity
  8
0
  6
Continuous
 62
     7
370
    15
100
AcDbLine
 10
1.0910466069
 20
7.0992466983
 30
0.0
 11
1.0910466069
 21
4.7831578939
 31
0.0
  0
LINE
  5
3B7
330
1F
100
AcDbEntity
  8
0
  6
Continuous
 62
     7
370
    15
100
AcDbLine
 10
1.0910466069
 20
7.0992466983
 30
0.0
 11
1.0918381578
 21
7.0944930665
 31
0.0
  0
LINE
  5
3B8
330
1F
100
AcDbEntity
  8
0
  6
Continuous
 62
     7
370
    15
100
AcDbLine
 10
1.0918381578
 20
7.0944930665
 30
0.0
 11
1.0929228919
 21
6.9701972157
 31
0.0
  0
LINE
  5
3B9
330
1F
100
AcDbEntity
  8
0
  6
Continuous
 62
     7
370
    15
100
AcDbLine
 10
3.0879228755
 20
5.8267942769
 30
0.0
 11
3.0885337351
 21
5.839137161
 31
0.0
  0
ELLIPSE
  5
3BA
330
1F
100
AcDbEntity
  8
0
  6
Continuous
 62
     7
370
    15
100
AcDbEllipse
 10
3.1085345212
 20
5.8391679397
 30
0.0
 11
-0.001003928877210125
 21
-0.02028445394257261
 31
0.0
210
0.0
220
0.0
230
1.0
 40
0.9847713852
 41
4.762604614297615
 42
5.345029462369419
  0
SPLINE
  5
3BB
330
1F
100
AcDbEntity
  8
0
  6
Continuous
 62
     7
370
    15
100
AcDbSpline
210
0.0
220
0.0
230
1.0
 70
     8
 71
     3
 72
    10
 73
     6
 74
     0
 42
0.000000001
 43
0.00000001
 40
0.0
 40
0.0
 40
0.0
 40
0.0
 40
0.5
 40
0.5
 40
1.0
 40
1.0
 40
1.0
 40
1.0
 10
3.091831258840872
 20
5.827971531064715
 30
0.0
 10
3.093899297737114
 20
5.824786536843494
 30
0.0
 10
3.096974579590783
 20
5.82225309667554
 30
0.0
 10
3.103453452574046
 20
5.819786001479645
 30
0.0
 10
3.10652882294637
 20
5.819904008250131
 30
0.0
 10
3.108583405449394
 20
5.820459494429275
 30
0.0
  0
SPLINE
  5
3BC
330
1F
100
AcDbEntity
  8
0
  6
Continuous
 62
     7
370
    15
100
AcDbSpline
210
0.0
220
0.0
230
1.0
 70
     8
 71
     3
 72
    10
 73
     6
 74
     0
 42
0.000000001
 43
0.00000001
 40
0.0
 40
0.0
 40
0.0
 40
0.0
 40
0.5
 40
0.5
 40
1.0
 40
1.0
 40
1.0
 40
1.0
 10
3.108583405449394
 20
6.061945097761319
 30
0.0
 10
3.106531206256979
 20
6.06249993957787
 30
0.0
 10
3.103480983101536
 20
6.062622748160216
 30
0.0
 10
3.096996225147541
 20
6.060166016065184
 30
0.0
 10
3.093902055754546
 20
6.057622302979768
 30
0.0
 10
3.091831258840874
 20
6.054433061125876
 30
0.0
  0
ELLIPSE
  5
3BD
330
1F
100
AcDbEntity
  8
0
  6
Continuous
 62
     7
370
    15
100
AcDbEllipse
 10
3.1085345212
 20
6.0432366525
 30
0.0
 11
0.001003928877211014
 21
-0.0202844539425735
 31
0.0
210
0.0
220
0.0
230
1.0
 40
0.9847713852
 41
4.079748498399967
 42
4.66217334647171
  0
LINE
  5
3BE
330
1F
100
AcDbEntity
  8
0
  6
Continuous
 62
     7
370
    15
100
AcDbLine
 10
3.0885337351
 20
6.0432674312
 30
0.0
 11
3.0879228755
 21
6.0556103153
 31
0.0
  0
LINE
  5
3BF
330
1F
100
AcDbEntity
  8
0
  6
Continuous
 62
     7
370
    15
100
AcDbLine
 10
1.1679524385
 20
5.8065165153
 30
0.0
 11
1.1672623431
 21
5.8204594959
 31
0.0
  0
SPLINE
  5
3C0
330
1F
100
AcDbEntity
  8
0
  6
Continuous
 62
     7
370
    15
100
AcDbSpline
210
0.0
220
0.0
230
1.0
 70
     8
 71
     3
 72
    10
 73
     6
 74
     0
 42
0.000000001
 43
0.00000001
 40
0.0
 40
0.0
 40
0.0
 40
0.0
 40
0.5
 40
0.5
 40
1.0
 40
1.0
 40
1.0
 40
1.0
 10
1.167262352315469
 20
5.820459494429275
 30
0.0
 10
1.169314551507884
 20
5.819904652612722
 30
0.0
 10
1.172364774663327
 20
5.819781844030376
 30
0.0
 10
1.178849532617321
 20
5.822238576125408
 30
0.0
 10
1.181943702010317
 20
5.824782289210825
 30
0.0
 10
1.184014498923989
 20
5.827971531064717
 30
0.0
  0
ELLIPSE
  5
3C1
330
1F
100
AcDbEntity
  8
0
  6
Continuous
 62
     7
370
    15
100
AcDbEllipse
 10
1.1673112366
 20
5.8391679397
 30
0.0
 11
-0.001003928877210347
 21
0.02028445394257439
 31
0.0
210
0.0
220
0.0
230
1.0
 40
0.9847713852
 41
4.0797484984001
 42
4.662173346471791
  0
LINE
  5
3C2
330
1F
100
AcDbEntity
  8
0
  6
Continuous
 62
     7
370
    15
100
AcDbLine
 10
1.1873119948
 20
5.839137161
 30
0.0
 11
1.1879228911
 21
5.8267942769
 31
0.0
  0
LINE
  5
3C3
330
1F
100
AcDbEntity
  8
0
  6
Continuous
 62
     7
370
    15
100
AcDbLine
 10
1.11357739
 20
5.8312022927
 30
0.0
 11
1.0917010994
 21
5.8312022927
 31
0.0
  0
LINE
  5
3C4
330
1F
100
AcDbEntity
  8
0
  6
Continuous
 62
     7
370
    15
100
AcDbLine
 10
1.1631410574
 20
5.8400183058
 30
0.0
 11
1.11357739
 21
5.8312022927
 31
0.0
  0
LINE
  5
3C5
330
1F
100
AcDbEntity
  8
0
  6
Continuous
 62
     7
370
    15
100
AcDbLine
 10
1.1631410574
 20
5.8400183058
 30
0.0
 11
1.164015254
 21
5.8223551682
 31
0.0
  0
ELLIPSE
  5
3C6
330
1F
100
AcDbEntity
  8
0
  6
Continuous
 62
     7
370
    15
100
AcDbEllipse
 10
1.1840144989
 20
5.8223859471
 30
0.0
 11
0.02000000000000002
 21
0.0
 31
0.0
210
0.0
220
0.0
230
1.0
 40
0.1763269807
 41
3.150319299849696
 42
3.719500570032377
  0
LINE
  5
3C7
330
1F
100
AcDbEntity
  8
0
  6
Continuous
 62
     7
370
    15
100
AcDbLine
 10
3.0885337351
 20
5.839137161
 30
0.0
 11
3.0885337351
 21
6.0432674312
 31
0.0
  0
LINE
  5
3C8
330
1F
100
AcDbEntity
  8
0
  6
Continuous
 62
     7
370
    15
100
AcDbLine
 10
1.0918381578
 20
7.0944930665
 30
0.0
 11
3.1840076455
 21
7.0944930665
 31
0.0
  0
LINE
  5
3C9
330
1F
100
AcDbEntity
  8
0
  6
Continuous
 62
     7
370
    15
100
AcDbLine
 10
1.1873119948
 20
5.839137161
 30
0.0
 11
1.1873119948
 21
6.0432674312
 31
0.0
  0
LINE
  5
3CA
330
1F
100
AcDbEntity
  8
0
  6
Continuous
 62
     7
370
    15
100
AcDbLine
 10
1.0918381578
 20
4.7879115257
 30
0.0
 11
3.1840076455
 21
4.7879115257
 31
0.0
  0
LINE
  5
3CB
330
1F
100
AcDbEntity
  8
0
  6
Continuous
 62
     7
370
    15
100
AcDbLine
 10
1.1477902581
 20
7.0992466983
 30
0.0
 11
1.0910466069
 21
7.0992466983
 31
0.0
  0
LINE
  5
3CC
330
1F
100
AcDbEntity
  8
0
  6
Continuous
 62
     7
370
    15
100
AcDbLine
 10
1.1630537917
 20
7.098460574
 30
0.0
 11
1.1477902581
 21
7.0992466983
 31
0.0
  0
LINE
  5
3CD
330
1F
100
AcDbEntity
  8
0
  6
Continuous
 62
     7
370
    15
100
AcDbLine
 10
1.1633393484
 20
7.0967456938
 30
0.0
 11
3.1125064182
 21
7.0967456938
 31
0.0
  0
LINE
  5
3CE
330
1F
100
AcDbEntity
  8
0
  6
Continuous
 62
     7
370
    15
100
AcDbLine
 10
3.1279228134
 20
7.0992466983
 30
0.0
 11
3.1127908016
 21
7.0984536074
 31
0.0
  0
LINE
  5
3CF
330
1F
100
AcDbEntity
  8
0
  6
Continuous
 62
     7
370
    15
100
AcDbLine
 10
3.1279228134
 20
7.0992466983
 30
0.0
 11
3.1847991964
 21
7.0992466983
 31
0.0
  0
LINE
  5
3D0
330
1F
100
AcDbEntity
  8
0
  6
Continuous
 62
     7
370
    15
100
AcDbLine
 10
3.1125064182
 20
7.0967456938
 30
0.0
 11
3.1127908016
 21
7.0984536074
 31
0.0
  0
LINE
  5
3D1
330
1F
100
AcDbEntity
  8
0
  6
Continuous
 62
     7
370
    15
100
AcDbLine
 10
1.1633393484
 20
7.0967456938
 30
0.0
 11
1.1630537917
 21
7.098460574
 31
0.0
  0
LINE
  5
3D2
330
1F
100
AcDbEntity
  8
0
  6
Continuous
 62
     7
370
    15
100
AcDbLine
 10
1.1633393484
 20
4.7856588984
 30
0.0
 11
3.1125064182
 21
4.7856588984
 31
0.0
  0
LINE
  5
3D3
330
1F
100
AcDbEntity
  8
0
  6
Continuous
 62
     7
370
    15
100
AcDbLine
 10
1.1477902581
 20
4.7831578939
 30
0.0
 11
1.1630537917
 21
4.7839440182
 31
0.0
  0
LINE
  5
3D4
330
1F
100
AcDbEntity
  8
0
  6
Continuous
 62
     7
370
    15
100
AcDbLine
 10
1.1477902581
 20
4.7831578939
 30
0.0
 11
1.0910466069
 21
4.7831578939
 31
0.0
  0
LINE
  5
3D5
330
1F
100
AcDbEntity
  8
0
  6
Continuous
 62
     7
370
    15
100
AcDbLine
 10
3.1279228134
 20
4.7831578939
 30
0.0
 11
3.1847991964
 21
4.7831578939
 31
0.0
  0
LINE
  5
3D6
330
1F
100
AcDbEntity
  8
0
  6
Continuous
 62
     7
370
    15
100
AcDbLine
 10
3.1127908016
 20
4.7839509848
 30
0.0
 11
3.1279228134
 21
4.7831578939
 31
0.0
  0
LINE
  5
3D7
330
1F
100
AcDbEntity
  8
0
  6
Continuous
 62
     7
370
    15
100
AcDbLine
 10
3.1125064182
 20
4.7856588984
 30
0.0
 11
3.1127908016
 21
4.7839509848
 31
0.0
  0
LINE
  5
3D8
330
1F
100
AcDbEntity
  8
0
  6
Continuous
 62
     7
370
    15
100
AcDbLine
 10
1.1633393484
 20
4.7856588984
 30
0.0
 11
1.1630537917
 21
4.7839440182
 31
0.0
  0
LINE
  5
3D9
330
1F
100
AcDbEntity
  8
0
  6
Continuous
 62
     7
370
    15
100
AcDbLine
 10
3.1622683766
 20
6.0512022995
 30
0.0
 11
3.1622683766
 21
5.8312022927
 31
0.0
  0
LINE
  5
3DA
330
1F
100
AcDbEntity
  8
0
  6
Continuous
 62
     7
370
    15
100
AcDbLine
 10
3.1127047092
 20
5.8400183058
 30
0.0
 11
3.1127047092
 21
6.0423862864
 31
0.0
  0
LINE
  5
3DB
330
1F
100
AcDbEntity
  8
0
  6
Continuous
 62
     7
370
    15
100
AcDbLine
 10
1.11357739
 20
5.8312022927
 30
0.0
 11
1.11357739
 21
6.0512022995
 31
0.0
  0
LINE
  5
3DC
330
1F
100
AcDbEntity
  8
0
  6
Continuous
 62
     7
370
    15
100
AcDbLine
 10
1.1631410574
 20
6.0423862864
 30
0.0
 11
1.1631410574
 21
5.8400183058
 31
0.0
  0
DIMENSION
  5
3DD
330
1F
100
AcDbEntity
  8
DIMENSION
100
AcDbDimension
  2
_D
 10
4.0598469538
 20
4.7879115283
 30
0.0
 11
4.0598469538
 21
5.9735923636
 31
0.0
 70
   160
  1
<>
 71
     2
 42
-1.0
  3
SLDDIMSTYLE0
100
AcDbAlignedDimension
 13
3.1840075921
 23
7.0944930639
 33
0.0
 14
3.1840075921
 24
4.7879115283
 34
0.0
 50
90.0
100
AcDbRotatedDimension
  0
DIMENSION
  5
3F2
330
1F
100
AcDbEntity
  8
DIMENSION
100
AcDbDimension
  2
_D_1
 10
3.1847991555
 20
7.4742466686
 30
0.0
 11
2.1856960618
 21
7.4742466686
 31
0.0
 70
   160
  1
<>
 71
     2
 42
-1.0
  3
SLDDIMSTYLE0
100
AcDbAlignedDimension
 13
1.0910466023
 23
7.0992466686
 33
0.0
 14
3.1847991555
 24
7.0992466686
 34
0.0
100
AcDbRotatedDimension
  0
LINE
  5
406
330
1F
100
AcDbEntity
  8
0
  6
Continuous
 62
     7
370
    15
100
AcDbLine
 10
7.0201613458
 20
7.0944930665
 30
0.0
 11
6.8958655271
 21
6.9701972157
 31
0.0
  0
LINE
  5
407
330
1F
100
AcDbEntity
  8
0
  6
Continuous
 62
     7
370
    15
100
AcDbLine
 10
7.1108655326
 20
4.7831578939
 30
0.0
 11
7.0201613458
 21
4.7879115257
 31
0.0
  0
LINE
  5
408
330
1F
100
AcDbEntity
  8
0
  6
Continuous
 62
     7
370
    15
100
AcDbLine
 10
7.0201613458
 20
4.7879115257
 30
0.0
 11
6.8958655271
 21
4.9122073765
 31
0.0
  0
LINE
  5
409
330
1F
100
AcDbEntity
  8
0
  6
Continuous
 62
     7
370
    15
100
AcDbLine
 10
6.8958655271
 20
4.9122073765
 30
0.0
 11
6.8958655271
 21
5.8065165153
 31
0.0
  0
LINE
  5
40A
330
1F
100
AcDbEntity
  8
0
  6
Continuous
 62
     7
370
    15
100
AcDbLine
 10
7.0358655298
 20
5.8312022927
 30
0.0
 11
6.8958655271
 21
5.8065165153
 31
0.0
  0
LINE
  5
40B
330
1F
100
AcDbEntity
  8
0
  6
Continuous
 62
     7
370
    15
100
AcDbLine
 10
7.0358655298
 20
6.0512022995
 30
0.0
 11
7.0358655298
 21
5.8312022927
 31
0.0
  0
LINE
  5
40C
330
1F
100
AcDbEntity
  8
0
  6
Continuous
 62
     7
370
    15
100
AcDbLine
 10
7.0358655298
 20
6.0512022995
 30
0.0
 11
6.8958655271
 21
6.0758880769
 31
0.0
  0
LINE
  5
40D
330
1F
100
AcDbEntity
  8
0
  6
Continuous
 62
     7
370
    15
100
AcDbLine
 10
6.8958655271
 20
6.0758880769
 30
0.0
 11
6.8958655271
 21
6.9701972157
 31
0.0
  0
LINE
  5
40E
330
1F
100
AcDbEntity
  8
0
  6
Continuous
 62
     7
370
    15
100
AcDbLine
 10
7.1108655326
 20
7.0992466983
 30
0.0
 11
7.0201613458
 21
7.0944930665
 31
0.0
  0
LINE
  5
40F
330
1F
100
AcDbEntity
  8
0
  6
Continuous
 62
     7
370
    15
100
AcDbLine
 10
7.1108655326
 20
7.0992466983
 30
0.0
 11
7.1108655326
 21
4.7831578939
 31
0.0
  0
SPLINE
  5
410
330
1F
100
AcDbEntity
  8
0
  6
Continuous
 62
     7
370
    15
100
AcDbSpline
210
0.0
220
0.0
230
1.0
 70
     8
 71
     3
 72
    10
 73
     6
 74
     0
 42
0.000000001
 43
0.00000001
 40
0.0
 40
0.0
 40
0.0
 40
0.0
 40
0.5
 40
0.5
 40
1.0
 40
1.0
 40
1.0
 40
1.0
 10
6.965865528461674
 20
5.827971531064716
 30
0.0
 10
6.965865528461674
 20
5.824786536843494
 30
0.0
 10
6.966211606989756
 20
5.82225309667554
 30
0.0
 10
6.969202545823822
 20
5.819786001479645
 30
0.0
 10
6.971789754012585
 20
5.819904008250131
 30
0.0
 10
6.974940072681407
 20
5.820459494429275
 30
0.0
  0
SPLINE
  5
411
330
1F
100
AcDbEntity
  8
0
  6
Continuous
 62
     7
370
    15
100
AcDbSpline
210
0.0
220
0.0
230
1.0
 70
     8
 71
     3
 72
    10
 73
     6
 74
     0
 42
0.000000001
 43
0.00000001
 40
0.0
 40
0.0
 40
0.0
 40
0.0
 40
0.5
 40
0.5
 40
1.0
 40
1.0
 40
1.0
 40
1.0
 10
6.974940072681408
 20
6.061945097761317
 30
0.0
 10
6.971793408374429
 20
6.06249993957787
 30
0.0
 10
6.969220606487481
 20
6.062622748160216
 30
0.0
 10
6.966216288630895
 20
6.060166016065184
 30
0.0
 10
6.965865528461675
 20
6.057622302979768
 30
0.0
 10
6.965865528461674
 20
6.054433061125875
 30
0.0
  0
LINE
  5
412
330
1F
100
AcDbEntity
  8
0
  6
Continuous
 62
     7
370
    15
100
AcDbLine
 10
6.9658655285
 20
6.054433063
 30
0.0
 11
6.9658655285
 21
6.0432674312
 31
0.0
  0
LINE
  5
413
330
1F
100
AcDbEntity
  8
0
  6
Continuous
 62
     7
370
    15
100
AcDbLine
 10
6.9658655285
 20
6.0432674312
 30
0.0
 11
6.8958655271
 21
6.0556103153
 31
0.0
  0
LINE
  5
414
330
1F
100
AcDbEntity
  8
0
  6
Continuous
 62
     7
370
    15
100
AcDbLine
 10
6.8958655271
 20
6.0556103153
 30
0.0
 11
6.8958655271
 21
6.0758880769
 31
0.0
  0
LINE
  5
415
330
1F
100
AcDbEntity
  8
0
  6
Continuous
 62
     7
370
    15
100
AcDbLine
 10
6.8958655271
 20
5.8267942769
 30
0.0
 11
6.9658655285
 21
5.839137161
 31
0.0
  0
LINE
  5
416
330
1F
100
AcDbEntity
  8
0
  6
Continuous
 62
     7
370
    15
100
AcDbLine
 10
6.9658655285
 20
5.839137161
 30
0.0
 11
6.9658655285
 21
5.8279715291
 31
0.0
  0
LINE
  5
417
330
1F
100
AcDbEntity
  8
0
  6
Continuous
 62
     7
370
    15
100
AcDbLine
 10
6.8958655271
 20
5.8065165153
 30
0.0
 11
6.8958655271
 21
5.8267942769
 31
0.0
  0
LINE
  5
418
330
1F
100
AcDbEntity
  8
0
  6
Continuous
 62
     7
370
    15
100
AcDbLine
 10
6.9658655285
 20
5.839137161
 30
0.0
 11
6.9658655285
 21
6.0432674312
 31
0.0
  0
LINE
  5
419
330
1F
100
AcDbEntity
  8
0
  6
Continuous
 62
     7
370
    15
100
AcDbLine
 10
6.8958655271
 20
5.8267942769
 30
0.0
 11
6.8958655271
 21
6.0556103153
 31
0.0
  0
DIMENSION
  5
41A
330
1F
100
AcDbEntity
  8
DIMENSION
100
AcDbDimension
  2
_D_2
 10
6.8958655285
 20
7.5802267351
 30
0.0
 11
7.610363215
 21
7.5802267351
 31
0.0
 70
   160
  1
<>
 71
     2
 42
-1.0
  3
SLDDIMSTYLE1
100
AcDbAlignedDimension
 13
7.1108655285
 23
7.0992466686
 33
0.0
 14
6.8958655285
 24
6.9701972455
 34
0.0
100
AcDbRotatedDimension
  0
LINE
  5
42F
330
1F
100
AcDbEntity
  8
0
  6
Continuous
 62
     7
370
    15
100
AcDbLine
 10
9.906788041
 20
3.3398351027
 30
0.0
 11
9.8181305792
 21
3.3910324339
 31
0.0
  0
LINE
  5
430
330
1F
100
AcDbEntity
  8
0
  6
Continuous
 62
     7
370
    15
100
AcDbLine
 10
9.9107090772
 20
3.2673887699
 30
0.0
 11
9.906788041
 21
3.3398351027
 31
0.0
  0
LINE
  5
431
330
1F
100
AcDbEntity
  8
0
  6
Continuous
 62
     7
370
    15
100
AcDbLine
 10
9.9107090772
 20
3.2673887699
 30
0.0
 11
8.2729869779
 21
2.3219519261
 31
0.0
  0
LINE
  5
432
330
1F
100
AcDbEntity
  8
0
  6
Continuous
 62
     7
370
    15
100
AcDbLine
 10
8.2729869779
 20
2.3219519261
 30
0.0
 11
8.2757885921
 21
2.3982791624
 31
0.0
  0
LINE
  5
433
330
1F
100
AcDbEntity
  8
0
  6
Continuous
 62
     7
370
    15
100
AcDbLine
 10
8.2757885921
 20
2.3982791624
 30
0.0
 11
8.3629120082
 21
2.5509526345
 31
0.0
  0
LINE
  5
434
330
1F
100
AcDbEntity
  8
0
  6
Continuous
 62
     7
370
    15
100
AcDbLine
 10
8.3629120082
 20
2.5509526345
 30
0.0
 11
8.9952840648
 21
2.9160132522
 31
0.0
  0
LINE
  5
435
330
1F
100
AcDbEntity
  8
0
  6
Continuous
 62
     7
370
    15
100
AcDbLine
 10
9.0136034313
 20
2.81127566
 30
0.0
 11
8.9952840648
 21
2.9160132522
 31
0.0
  0
LINE
  5
436
330
1F
100
AcDbEntity
  8
0
  6
Continuous
 62
     7
370
    15
100
AcDbLine
 10
9.169166928
 20
2.9010805551
 30
0.0
 11
9.0136034313
 21
2.81127566
 31
0.0
  0
LINE
  5
437
330
1F
100
AcDbEntity
  8
0
  6
Continuous
 62
     7
370
    15
100
AcDbLine
 10
9.169166928
 20
2.9010805551
 30
0.0
 11
9.1857585226
 21
3.0259718161
 31
0.0
  0
LINE
  5
438
330
1F
100
AcDbEntity
  8
0
  6
Continuous
 62
     7
370
    15
100
AcDbLine
 10
9.1857585226
 20
3.0259718161
 30
0.0
 11
9.8181305792
 21
3.3910324339
 31
0.0
  0
LINE
  5
439
330
1F
100
AcDbEntity
  8
0
  6
Continuous
 62
     7
370
    15
100
AcDbLine
 10
6.7964013599
 20
3.252311233
 30
0.0
 11
6.8850588218
 21
3.4040991193
 31
0.0
  0
LINE
  5
43A
330
1F
100
AcDbEntity
  8
0
  6
Continuous
 62
     7
370
    15
100
AcDbLine
 10
6.8850588218
 20
3.4040991193
 30
0.0
 11
8.3629120082
 21
2.5509526345
 31
0.0
  0
LINE
  5
43B
330
1F
100
AcDbEntity
  8
0
  6
Continuous
 62
     7
370
    15
100
AcDbLine
 10
6.7964013599
 20
3.252311233
 30
0.0
 11
8.2757885921
 21
2.3982791624
 31
0.0
  0
LINE
  5
43C
330
1F
100
AcDbEntity
  8
0
  6
Continuous
 62
     7
370
    15
100
AcDbLine
 10
6.8453674887
 20
3.1871069164
 30
0.0
 11
8.2236367414
 21
2.3914490129
 31
0.0
  0
LINE
  5
43D
330
1F
100
AcDbEntity
  8
0
  6
Continuous
 62
     7
370
    15
100
AcDbLine
 10
6.8453674887
 20
3.1871069164
 30
0.0
 11
6.8439529662
 21
3.159805151
 31
0.0
  0
LINE
  5
43E
330
1F
100
AcDbEntity
  8
0
  6
Continuous
 62
     7
370
    15
100
AcDbLine
 10
6.8326041442
 20
3.1534672366
 30
0.0
 11
6.8439529662
 21
3.159805151
 31
0.0
  0
LINE
  5
43F
330
1F
100
AcDbEntity
  8
0
  6
Continuous
 62
     7
370
    15
100
AcDbLine
 10
6.8326041442
 20
3.1534672366
 30
0.0
 11
6.7924803237
 21
3.1766302252
 31
0.0
  0
LINE
  5
440
330
1F
100
AcDbEntity
  8
0
  6
Continuous
 62
     7
370
    15
100
AcDbLine
 10
6.7924803237
 20
3.1766302252
 30
0.0
 11
6.7964013599
 21
3.252311233
 31
0.0
  0
LINE
  5
441
330
1F
100
AcDbEntity
  8
0
  6
Continuous
 62
     7
370
    15
100
AcDbLine
 10
8.2327693018
 20
2.3451690963
 30
0.0
 11
8.2729869779
 21
2.3219519261
 31
0.0
  0
LINE
  5
442
330
1F
100
AcDbEntity
  8
0
  6
Continuous
 62
     7
370
    15
100
AcDbLine
 10
8.2226301535
 20
2.3640257305
 30
0.0
 11
8.2327693018
 21
2.3451690963
 31
0.0
  0
LINE
  5
443
330
1F
100
AcDbEntity
  8
0
  6
Continuous
 62
     7
370
    15
100
AcDbLine
 10
8.2236367414
 20
2.3914490129
 30
0.0
 11
8.2226301535
 21
2.3640257305
 31
0.0
  0
LINE
  5
444
330
1F
100
AcDbEntity
  8
0
  6
Continuous
 62
     7
370
    15
100
AcDbLine
 10
6.8850588218
 20
3.4040991193
 30
0.0
 11
7.5174308783
 21
3.769159737
 31
0.0
  0
LINE
  5
445
330
1F
100
AcDbEntity
  8
0
  6
Continuous
 62
     7
370
    15
100
AcDbLine
 10
7.5174308783
 20
3.769159737
 30
0.0
 11
7.5704847795
 21
3.7385323718
 31
0.0
  0
ELLIPSE
  5
446
330
1F
100
AcDbEntity
  8
0
  6
Continuous
 62
     7
370
    15
100
AcDbEllipse
 10
7.5848236425
 20
3.7468347745
 30
0.0
 11
0.02013936782614856
 21
0.0002670241635569504
 31
0.0
210
0.0
220
0.0
230
1.0
 40
0.5780279988
 41
3.912438015902226
 42
5.481718995130543
  0
LINE
  5
447
330
1F
100
AcDbEntity
  8
0
  6
Continuous
 62
     7
370
    15
100
AcDbLine
 10
7.5989445647
 20
3.7386578165
 30
0.0
 11
7.7607419371
 21
3.8320614514
 31
0.0
  0
ELLIPSE
  5
448
330
1F
100
AcDbEntity
  8
0
  6
Continuous
 62
     7
370
    15
100
AcDbEllipse
 10
7.7465774937
 20
3.8402132852
 30
0.0
 11
0.02016991621838837
 21
0.0002658141172737771
 31
0.0
210
0.0
220
0.0
230
1.0
 40
0.5762796373
 41
5.483326803483167
 42
7.052607782711482
  0
LINE
  5
449
330
1F
100
AcDbEntity
  8
0
  6
Continuous
 62
     7
370
    15
100
AcDbLine
 10
7.7609592373
 20
3.8484909357
 30
0.0
 11
7.7079053362
 21
3.8791183009
 31
0.0
  0
LINE
  5
44A
330
1F
100
AcDbEntity
  8
0
  6
Continuous
 62
     7
370
    15
100
AcDbLine
 10
7.7079053362
 20
3.8791183009
 30
0.0
 11
8.3402773927
 21
4.2441789187
 31
0.0
  0
LINE
  5
44B
330
1F
100
AcDbEntity
  8
0
  6
Continuous
 62
     7
370
    15
100
AcDbLine
 10
8.3402773927
 20
4.2441789187
 30
0.0
 11
9.8181305792
 21
3.3910324339
 31
0.0
  0
LINE
  5
44C
330
1F
100
AcDbEntity
  8
0
  6
Continuous
 62
     7
370
    15
100
AcDbLine
 10
9.1327046214
 20
3.0565991814
 30
0.0
 11
9.1857585226
 21
3.0259718161
 31
0.0
  0
ELLIPSE
  5
44D
330
1F
100
AcDbEntity
  8
0
  6
Continuous
 62
     7
370
    15
100
AcDbEllipse
 10
9.1183657262
 20
3.048296795
 30
0.0
 11
0.02013936782614856
 21
0.0002670241635573944
 31
0.0
210
0.0
220
0.0
230
1.0
 40
0.5780279988
 41
0.770845362312414
 42
2.340126341540651
  0
LINE
  5
44E
330
1F
100
AcDbEntity
  8
0
  6
Continuous
 62
     7
370
    15
100
AcDbLine
 10
8.9424474379
 20
2.9630701167
 30
0.0
 11
9.1042448103
 21
3.0564737516
 31
0.0
  0
ELLIPSE
  5
44F
330
1F
100
AcDbEntity
  8
0
  6
Continuous
 62
     7
370
    15
100
AcDbEllipse
 10
8.956611875
 20
2.9549182843
 30
0.0
 11
0.02016991621838748
 21
0.000265814117273333
 31
0.0
210
0.0
220
0.0
230
1.0
 40
0.5762796373
 41
2.341734149893424
 42
3.91101512912169
  0
LINE
  5
450
330
1F
100
AcDbEntity
  8
0
  6
Continuous
 62
     7
370
    15
100
AcDbLine
 10
8.9952840648
 20
2.9160132522
 30
0.0
 11
8.9422301636
 21
2.9466406174
 31
0.0
  0
LINE
  5
451
330
1F
100
AcDbEntity
  8
0
  6
Continuous
 62
     7
370
    15
100
AcDbLine
 10
9.0959490162
 20
2.9940281229
 30
0.0
 11
9.1042448103
 21
3.0564737516
 31
0.0
  0
LINE
  5
452
330
1F
100
AcDbEntity
  8
0
  6
Continuous
 62
     7
370
    15
100
AcDbLine
 10
8.9780463609
 20
2.9259643688
 30
0.0
 11
9.0959490162
 21
2.9940281229
 31
0.0
  0
LINE
  5
453
330
1F
100
AcDbEntity
  8
0
  6
Continuous
 62
     7
370
    15
100
AcDbLine
 10
9.1536980805
 20
2.9100105307
 30
0.0
 11
9.0107660962
 21
2.8274976525
 31
0.0
  0
LINE
  5
454
330
1F
100
AcDbEntity
  8
0
  6
Continuous
 62
     7
370
    15
100
AcDbLine
 10
9.1536980805
 20
2.9100105307
 30
0.0
 11
9.169166928
 21
2.9010805551
 31
0.0
  0
ELLIPSE
  5
455
330
1F
100
AcDbEntity
  8
0
  6
Continuous
 62
     7
370
    15
100
AcDbEllipse
 10
9.1101256146
 20
2.9831891576
 30
0.0
 11
-0.006725647601003359
 21
0.01903525583725241
 31
0.0
210
0.0
220
0.0
230
1.0
 40
0.6665496596
 41
4.059160276383068
 42
4.628341546565836
  0
LINE
  5
456
330
1F
100
AcDbEntity
  8
0
  6
Continuous
 62
     7
370
    15
100
AcDbLine
 10
9.1327046214
 20
3.0565991814
 30
0.0
 11
9.1233333905
 21
2.9860583219
 31
0.0
  0
LINE
  5
457
330
1F
100
AcDbEntity
  8
0
  6
Continuous
 62
     7
370
    15
100
AcDbLine
 10
9.1124694025
 20
2.8862097081
 30
0.0
 11
9.1242889347
 21
2.9751804862
 31
0.0
  0
SPLINE
  5
458
330
1F
100
AcDbEntity
  8
0
  6
Continuous
 62
     7
370
    15
100
AcDbSpline
210
0.0
220
0.0
230
1.0
 70
     8
 71
     3
 72
    10
 73
     6
 74
     0
 42
0.000000001
 43
0.00000001
 40
0.0
 40
0.0
 40
0.0
 40
0.0
 40
0.5
 40
0.5
 40
1.0
 40
1.0
 40
1.0
 40
1.0
 10
9.123333378788482
 20
2.986058329711586
 30
0.0
 10
9.12227458723415
 20
2.989691914253326
 30
0.0
 10
9.120204592538169
 20
2.993087956419816
 30
0.0
 10
9.113882004290591
 20
2.997185361054539
 30
0.0
 10
9.109895419358573
 20
2.997696469545248
 30
0.0
 10
9.106176010276723
 20
2.997239915784338
 30
0.0
  0
ELLIPSE
  5
459
330
1F
100
AcDbEntity
  8
0
  6
Continuous
 62
     7
370
    15
100
AcDbEllipse
 10
9.1100699439
 20
2.9858511569
 30
0.0
 11
0.02013936782614678
 21
0.0002670241635569504
 31
0.0
210
0.0
220
0.0
230
1.0
 40
0.5780279988
 41
1.757701493469048
 42
2.340126341540747
  0
LINE
  5
45A
330
1F
100
AcDbEntity
  8
0
  6
Continuous
 62
     7
370
    15
100
AcDbLine
 10
6.8439529662
 20
3.159805151
 30
0.0
 11
6.8683067718
 21
3.1738643037
 31
0.0
  0
LINE
  5
45B
330
1F
100
AcDbEntity
  8
0
  6
Continuous
 62
     7
370
    15
100
AcDbLine
 10
7.6953669339
 20
3.794321261
 30
0.0
 11
7.7079053362
 21
3.8791183009
 31
0.0
  0
LINE
  5
45C
330
1F
100
AcDbEntity
  8
0
  6
Continuous
 62
     8
370
    15
100
AcDbLine
 10
8.9424474379
 20
2.9630701167
 30
0.0
 11
8.9456682715
 21
2.9446558403
 31
0.0
  0
LINE
  5
45D
330
1F
100
AcDbEntity
  8
0
  6
Continuous
 62
     8
370
    15
100
AcDbLine
 10
7.7583234518
 20
3.8306653107
 30
0.0
 11
7.7609592373
 21
3.8484909357
 31
0.0
  0
ENDSEC
  0
SECTION
  2
OBJECTS
  0
DICTIONARY
  5
C
330
0
100
AcDbDictionary
281
     1
  3
ACAD_GROUP
350
D
  3
ACAD_LAYOUT
350
1A
  3
ACAD_MLINESTYLE
350
17
  3
ACAD_PLOTSETTINGS
350
19
  3
ACAD_PLOTSTYLENAME
350
E
  3
ACAD_SCALELIST
350
47
  0
DICTIONARY
  5
D
102
{ACAD_REACTORS
330
C
102
}
330
C
100
AcDbDictionary
281
     1
  0
DICTIONARY
  5
1A
102
{ACAD_REACTORS
330
C
102
}
330
C
100
AcDbDictionary
281
     1
  3
Layout1
350
1E
  3
Layout2
350
26
  3
Model
350
22
  0
DICTIONARY
  5
17
102
{ACAD_REACTORS
330
C
102
}
330
C
100
AcDbDictionary
281
     1
  3
Standard
350
18
  0
DICTIONARY
  5
19
102
{ACAD_REACTORS
330
C
102
}
330
C
100
AcDbDictionary
281
     1
  0
ACDBDICTIONARYWDFLT
  5
E
102
{ACAD_REACTORS
330
C
102
}
330
C
100
AcDbDictionary
281
     1
  3
Normal
350
F
100
AcDbDictionaryWithDefault
340
F
  0
DICTIONARY
  5
47
102
{ACAD_REACTORS
330
C
102
}
330
C
100
AcDbDictionary
281
     1
  3
A0
350
48
  3
A1
350
49
  3
A2
350
4A
  3
A3
350
4B
  3
A4
350
4C
  3
A5
350
4D
  3
A6
350
4E
  3
A7
350
4F
  3
A8
350
50
  3
A9
350
51
  3
B0
350
52
  3
B1
350
53
  3
B2
350
54
  3
B3
350
55
  3
B4
350
56
  3
B5
350
57
  3
B6
350
58
  3
B7
350
59
  3
B8
350
5A
  3
B9
350
5B
  3
C0
350
5C
  3
C1
350
5D
  3
C2
350
5E
  3
C3
350
5F
  3
C4
350
60
  3
C5
350
61
  3
C6
350
62
  3
C7
350
63
  3
C8
350
64
  3
C9
350
65
  3
D0
350
66
  3
D1
350
67
  3
D2
350
68
  0
LAYOUT
  5
1E
102
{ACAD_REACTORS
330
1A
102
}
330
1A
100
AcDbPlotSettings
  1

  2
none_device
  4

  6

 40
0.0
 41
0.0
 42
0.0
 43
0.0
 44
0.0
 45
0.0
 46
0.0
 47
0.0
 48
0.0
 49
0.0
140
0.0
141
0.0
142
1.0
143
1.0
 70
   688
 72
     0
 73
     0
 74
     5
  7

 75
    16
147
1.0
148
0.0
149
0.0
100
AcDbLayout
  1
Layout1
 70
     1
 71
     1
 10
0.0
 20
0.0
 11
12.0
 21
9.0
 12
0.0
 22
0.0
 32
0.0
 14
1.0000000000E+20
 24
1.0000000000E+20
 34
1.0000000000E+20
 15
-1.0000000000E+20
 25
-1.0000000000E+20
 35
-1.0000000000E+20
146
0.0
 13
0.0
 23
0.0
 33
0.0
 16
1.0
 26
0.0
 36
0.0
 17
0.0
 27
1.0
 37
0.0
 76
     0
330
1B
  0
LAYOUT
  5
26
102
{ACAD_REACTORS
330
1A
102
}
330
1A
100
AcDbPlotSettings
  1

  2
none_device
  4

  6

 40
0.0
 41
0.0
 42
0.0
 43
0.0
 44
0.0
 45
0.0
 46
0.0
 47
0.0
 48
0.0
 49
0.0
140
0.0
141
0.0
142
1.0
143
1.0
 70
   688
 72
     0
 73
     0
 74
     5
  7

 75
    16
147
1.0
148
0.0
149
0.0
100
AcDbLayout
  1
Layout2
 70
     1
 71
     2
 10
0.0
 20
0.0
 11
0.0
 21
0.0
 12
0.0
 22
0.0
 32
0.0
 14
0.0
 24
0.0
 34
0.0
 15
0.0
 25
0.0
 35
0.0
146
0.0
 13
0.0
 23
0.0
 33
0.0
 16
1.0
 26
0.0
 36
0.0
 17
0.0
 27
1.0
 37
0.0
 76
     0
330
23
  0
LAYOUT
  5
22
102
{ACAD_REACTORS
330
1A
102
}
330
1A
100
AcDbPlotSettings
  1

  2
none_device
  4
Letter_(8.50_x_11.00_Inches)
  6

 40
6.35
 41
6.35
 42
6.35000508
 43
6.35000508
 44
215.9
 45
279.4
 46
0.0
 47
0.0
 48
0.0
 49
0.0
140
0.0
141
0.0
142
1.0
143
1.0
 70
  1712
 72
     0
 73
     0
 74
     0
  7

 75
     0
147
1.0
148
0.0
149
0.0
100
AcDbLayout
  1
Model
 70
     1
 71
     0
 10
0.0
 20
0.0
 11
11.0
 21
8.5
 12
0.0
 22
0.0
 32
0.0
 14
0.0
 24
0.0
 34
0.0
 15
11.0
 25
8.5
 35
0.0
146
0.0
 13
0.0
 23
0.0
 33
0.0
 16
1.0
 26
0.0
 36
0.0
 17
0.0
 27
1.0
 37
0.0
 76
     0
330
1F
331
29
  0
MLINESTYLE
  5
18
102
{ACAD_REACTORS
330
17
102
}
330
17
100
AcDbMlineStyle
  2
Standard
 70
     0
  3

 62
   256
 51
90.0
 52
90.0
 71
     2
 49
0.5
 62
   256
  6
BYLAYER
 49
-0.5
 62
   256
  6
BYLAYER
  0
ACDBPLACEHOLDER
  5
F
102
{ACAD_REACTORS
330
E
102
}
330
E
  0
SCALE
  5
48
102
{ACAD_REACTORS
330
47
102
}
330
47
100
AcDbScale
 70
     0
300
1:1
140
1.0
141
1.0
290
     1
  0
SCALE
  5
49
102
{ACAD_REACTORS
330
47
102
}
330
47
100
AcDbScale
 70
     0
300
1:2
140
1.0
141
2.0
290
     0
  0
SCALE
  5
4A
102
{ACAD_REACTORS
330
47
102
}
330
47
100
AcDbScale
 70
     0
300
1:4
140
1.0
141
4.0
290
     0
  0
SCALE
  5
4B
102
{ACAD_REACTORS
330
47
102
}
330
47
100
AcDbScale
 70
     0
300
1:5
140
1.0
141
5.0
290
     0
  0
SCALE
  5
4C
102
{ACAD_REACTORS
330
47
102
}
330
47
100
AcDbScale
 70
     0
300
1:8
140
1.0
141
8.0
290
     0
  0
SCALE
  5
4D
102
{ACAD_REACTORS
330
47
102
}
330
47
100
AcDbScale
 70
     0
300
1:10
140
1.0
141
10.0
290
     0
  0
SCALE
  5
4E
102
{ACAD_REACTORS
330
47
102
}
330
47
100
AcDbScale
 70
     0
300
1:16
140
1.0
141
16.0
290
     0
  0
SCALE
  5
4F
102
{ACAD_REACTORS
330
47
102
}
330
47
100
AcDbScale
 70
     0
300
1:20
140
1.0
141
20.0
290
     0
  0
SCALE
  5
50
102
{ACAD_REACTORS
330
47
102
}
330
47
100
AcDbScale
 70
     0
300
1:30
140
1.0
141
30.0
290
     0
  0
SCALE
  5
51
102
{ACAD_REACTORS
330
47
102
}
330
47
100
AcDbScale
 70
     0
300
1:40
140
1.0
141
40.0
290
     0
  0
SCALE
  5
52
102
{ACAD_REACTORS
330
47
102
}
330
47
100
AcDbScale
 70
     0
300
1:50
140
1.0
141
50.0
290
     0
  0
SCALE
  5
53
102
{ACAD_REACTORS
330
47
102
}
330
47
100
AcDbScale
 70
     0
300
1:100
140
1.0
141
100.0
290
     0
  0
SCALE
  5
54
102
{ACAD_REACTORS
330
47
102
}
330
47
100
AcDbScale
 70
     0
300
2:1
140
2.0
141
1.0
290
     0
  0
SCALE
  5
55
102
{ACAD_REACTORS
330
47
102
}
330
47
100
AcDbScale
 70
     0
300
4:1
140
4.0
141
1.0
290
     0
  0
SCALE
  5
56
102
{ACAD_REACTORS
330
47
102
}
330
47
100
AcDbScale
 70
     0
300
8:1
140
8.0
141
1.0
290
     0
  0
SCALE
  5
57
102
{ACAD_REACTORS
330
47
102
}
330
47
100
AcDbScale
 70
     0
300
10:1
140
10.0
141
1.0
290
     0
  0
SCALE
  5
58
102
{ACAD_REACTORS
330
47
102
}
330
47
100
AcDbScale
 70
     0
300
100:1
140
100.0
141
1.0
290
     0
  0
SCALE
  5
59
102
{ACAD_REACTORS
330
47
102
}
330
47
100
AcDbScale
 70
     0
300
1/128" = 1'-0"
140
0.0078125
141
12.0
290
     0
  0
SCALE
  5
5A
102
{ACAD_REACTORS
330
47
102
}
330
47
100
AcDbScale
 70
     0
300
1/64" = 1'-0"
140
0.015625
141
12.0
290
     0
  0
SCALE
  5
5B
102
{ACAD_REACTORS
330
47
102
}
330
47
100
AcDbScale
 70
     0
300
1/32" = 1'-0"
140
0.03125
141
12.0
290
     0
  0
SCALE
  5
5C
102
{ACAD_REACTORS
330
47
102
}
330
47
100
AcDbScale
 70
     0
300
1/16" = 1'-0"
140
0.0625
141
12.0
290
     0
  0
SCALE
  5
5D
102
{ACAD_REACTORS
330
47
102
}
330
47
100
AcDbScale
 70
     0
300
3/32" = 1'-0"
140
0.09375
141
12.0
290
     0
  0
SCALE
  5
5E
102
{ACAD_REACTORS
330
47
102
}
330
47
100
AcDbScale
 70
     0
300
1/8" = 1'-0"
140
0.125
141
12.0
290
     0
  0
SCALE
  5
5F
102
{ACAD_REACTORS
330
47
102
}
330
47
100
AcDbScale
 70
     0
300
3/16" = 1'-0"
140
0.1875
141
12.0
290
     0
  0
SCALE
  5
60
102
{ACAD_REACTORS
330
47
102
}
330
47
100
AcDbScale
 70
     0
300
1/4" = 1'-0"
140
0.25
141
12.0
290
     0
  0
SCALE
  5
61
102
{ACAD_REACTORS
330
47
102
}
330
47
100
AcDbScale
 70
     0
300
3/8" = 1'-0"
140
0.375
141
12.0
290
     0
  0
SCALE
  5
62
102
{ACAD_REACTORS
330
47
102
}
330
47
100
AcDbScale
 70
     0
300
1/2" = 1'-0"
140
0.5
141
12.0
290
     0
  0
SCALE
  5
63
102
{ACAD_REACTORS
330
47
102
}
330
47
100
AcDbScale
 70
     0
300
3/4" = 1'-0"
140
0.75
141
12.0
290
     0
  0
SCALE
  5
64
102
{ACAD_REACTORS
330
47
102
}
330
47
100
AcDbScale
 70
     0
300
1" = 1'-0"
140
1.0
141
12.0
290
     0
  0
SCALE
  5
65
102
{ACAD_REACTORS
330
47
102
}
330
47
100
AcDbScale
 70
     0
300
1-1/2" = 1'-0"
140
1.5
141
12.0
290
     0
  0
SCALE
  5
66
102
{ACAD_REACTORS
330
47
102
}
330
47
100
AcDbScale
 70
     0
300
3" = 1'-0"
140
3.0
141
12.0
290
     0
  0
SCALE
  5
67
102
{ACAD_REACTORS
330
47
102
}
330
47
100
AcDbScale
 70
     0
300
6" = 1'-0"
140
6.0
141
12.0
290
     0
  0
SCALE
  5
68
102
{ACAD_REACTORS
330
47
102
}
330
47
100
AcDbScale
 70
     0
300
1'-0" = 1'-0"
140
12.0
141
12.0
290
     0
  0
ENDSEC
  0
EOF
