  0
SECTION
  2
HEADER
  9
$ACADVER
  1
AC1015
  9
$ACADMAINTVER
 70
     6
  9
$DWGCODEPAGE
  3
ANSI_1252
  9
$INSBASE
 10
0.0
 20
0.0
 30
0.0
  9
$EXTMIN
 10
606.4212774053576
 20
388.9323718479474
 30
3.494519878283639
  9
$EXTMAX
 10
896.4777016964204
 20
648.9663957599965
 30
3.646124999999996
  9
$LIMMIN
 10
0.0
 20
0.0
  9
$LIMMAX
 10
12.0
 20
9.0
  9
$ORTHOMODE
 70
     0
  9
$REGENMODE
 70
     1
  9
$FILLMODE
 70
     1
  9
$QTEXTMODE
 70
     0
  9
$MIRRTEXT
 70
     1
  9
$LTSCALE
 40
1.0
  9
$ATTMODE
 70
     1
  9
$TEXTSIZE
 40
0.12
  9
$TRACEWID
 40
0.05
  9
$TEXTSTYLE
  7
STANDARD
  9
$CLAYER
  8
AREA1
  9
$CELTYPE
  6
BYLAYER
  9
$CECOLOR
 62
   256
  9
$CELTSCALE
 40
1.0
  9
$DISPSILH
 70
     0
  9
$DIMSCALE
 40
1.0
  9
$DIMASZ
 40
4.572
  9
$DIMEXO
 40
1.587499999999999
  9
$DIMDLI
 40
9.525
  9
$DIMRND
 40
0.0
  9
$DIMDLE
 40
0.0
  9
$DIMEXE
 40
4.572
  9
$DIMTP
 40
0.0
  9
$DIMTM
 40
0.0
  9
$DIMTXT
 40
4.572
  9
$DIMCEN
 40
2.286
  9
$DIMTSZ
 40
0.0
  9
$DIMTOL
 70
     0
  9
$DIMLIM
 70
     0
  9
$DIMTIH
 70
     0
  9
$DIMTOH
 70
     1
  9
$DIMSE1
 70
     0
  9
$DIMSE2
 70
     0
  9
$DIMTAD
 70
     0
  9
$DIMZIN
 70
     4
  9
$DIMBLK
  1

  9
$DIMASO
 70
     1
  9
$DIMSHO
 70
     1
  9
$DIMPOST
  1

  9
$DIMAPOST
  1

  9
$DIMALT
 70
     1
  9
$DIMALTD
 70
     6
  9
$DIMALTF
 40
0.03937
  9
$DIMLFAC
 40
1.0
  9
$DIMTOFL
 70
     0
  9
$DIMTVP
 40
0.0
  9
$DIMTIX
 70
     0
  9
$DIMSOXD
 70
     0
  9
$DIMSAH
 70
     0
  9
$DIMBLK1
  1

  9
$DIMBLK2
  1

  9
$DIMSTYLE
  2
ABECAD_3D
  9
$DIMCLRD
 70
     0
  9
$DIMCLRE
 70
     0
  9
$DIMCLRT
 70
     0
  9
$DIMTFAC
 40
1.5
  9
$DIMGAP
 40
2.286
  9
$DIMJUST
 70
     0
  9
$DIMSD1
 70
     0
  9
$DIMSD2
 70
     0
  9
$DIMTOLJ
 70
     1
  9
$DIMTZIN
 70
     4
  9
$DIMALTZ
 70
     4
  9
$DIMALTTZ
 70
     4
  9
$DIMUPT
 70
     1
  9
$DIMDEC
 70
     2
  9
$DIMTDEC
 70
     2
  9
$DIMALTU
 70
     7
  9
$DIMALTTD
 70
     6
  9
$DIMTXSTY
  7
STANDARD
  9
$DIMAUNIT
 70
     0
  9
$DIMADEC
 70
     0
  9
$DIMALTRND
 40
0.0
  9
$DIMAZIN
 70
     0
  9
$DIMDSEP
 70
    46
  9
$DIMATFIT
 70
     2
  9
$DIMFRAC
 70
     2
  9
$DIMLDRBLK
  1

  9
$DIMLUNIT
 70
     2
  9
$DIMLWD
 70
    -2
  9
$DIMLWE
 70
    -2
  9
$DIMTMOVE
 70
     2
  9
$LUNITS
 70
     2
  9
$LUPREC
 70
     4
  9
$SKETCHINC
 40
0.1
  9
$FILLETRAD
 40
0.0
  9
$AUNITS
 70
     0
  9
$AUPREC
 70
     0
  9
$MENU
  1
ACAD
  9
$ELEVATION
 40
0.0
  9
$PELEVATION
 40
0.0
  9
$THICKNESS
 40
0.0
  9
$LIMCHECK
 70
     0
  9
$CHAMFERA
 40
0.0
  9
$CHAMFERB
 40
0.0
  9
$CHAMFERC
 40
0.0
  9
$CHAMFERD
 40
0.0
  9
$SKPOLY
 70
     0
  9
$TDCREATE
 40
2453042.595653843
  9
$TDUCREATE
 40
2453042.803987176
  9
$TDUPDATE
 40
2453597.756045740
  9
$TDUUPDATE
 40
2453597.964379074
  9
$TDINDWG
 40
0.1777193981
  9
$TDUSRTIMER
 40
0.1777193981
  9
$USRTIMER
 70
     1
  9
$ANGBASE
 50
0.0
  9
$ANGDIR
 70
     0
  9
$PDMODE
 70
     3
  9
$PDSIZE
 40
2.5
  9
$PLINEWID
 40
0.0
  9
$SPLFRAME
 70
     1
  9
$SPLINETYPE
 70
     6
  9
$SPLINESEGS
 70
     8
  9
$HANDSEED
  5
57034
  9
$SURFTAB1
 70
     6
  9
$SURFTAB2
 70
     6
  9
$SURFTYPE
 70
     6
  9
$SURFU
 70
     6
  9
$SURFV
 70
     6
  9
$UCSBASE
  2

  9
$UCSNAME
  2

  9
$UCSORG
 10
266.8673580196576
 20
8.203180508612135
 30
3.646124999999996
  9
$UCSXDIR
 10
1.0
 20
0.0
 30
0.0
  9
$UCSYDIR
 10
0.0
 20
1.0
 30
0.0
  9
$UCSORTHOREF
  2

  9
$UCSORTHOVIEW
 70
     1
  9
$UCSORGTOP
 10
266.8673580196576
 20
8.203180508612135
 30
3.646124999999996
  9
$UCSORGBOTTOM
 10
0.0
 20
0.0
 30
0.0
  9
$UCSORGLEFT
 10
0.0
 20
0.0
 30
0.0
  9
$UCSORGRIGHT
 10
44.57293710473379
 20
-10.57239502465733
 30
3.810000000000003
  9
$UCSORGFRONT
 10
0.0
 20
0.0
 30
0.0
  9
$UCSORGBACK
 10
0.0
 20
0.0
 30
0.0
  9
$PUCSBASE
  2

  9
$PUCSNAME
  2

  9
$PUCSORG
 10
0.0
 20
0.0
 30
0.0
  9
$PUCSXDIR
 10
1.0
 20
0.0
 30
0.0
  9
$PUCSYDIR
 10
0.0
 20
1.0
 30
0.0
  9
$PUCSORTHOREF
  2

  9
$PUCSORTHOVIEW
 70
     0
  9
$PUCSORGTOP
 10
0.0
 20
0.0
 30
0.0
  9
$PUCSORGBOTTOM
 10
0.0
 20
0.0
 30
0.0
  9
$PUCSORGLEFT
 10
0.0
 20
0.0
 30
0.0
  9
$PUCSORGRIGHT
 10
0.0
 20
0.0
 30
0.0
  9
$PUCSORGFRONT
 10
0.0
 20
0.0
 30
0.0
  9
$PUCSORGBACK
 10
0.0
 20
0.0
 30
0.0
  9
$USERI1
 70
     0
  9
$USERI2
 70
     0
  9
$USERI3
 70
     0
  9
$USERI4
 70
     0
  9
$USERI5
 70
     0
  9
$USERR1
 40
0.0
  9
$USERR2
 40
0.0
  9
$USERR3
 40
0.0
  9
$USERR4
 40
0.0
  9
$USERR5
 40
0.0
  9
$WORLDVIEW
 70
     1
  9
$SHADEDGE
 70
     3
  9
$SHADEDIF
 70
    70
  9
$TILEMODE
 70
     0
  9
$MAXACTVP
 70
    16
  9
$PINSBASE
 10
0.0
 20
0.0
 30
0.0
  9
$PLIMCHECK
 70
     0
  9
$PEXTMIN
 10
25.88717061955833
 20
19.5
 30
0.0
  9
$PEXTMAX
 10
231.3
 20
192.0586136734827
 30
0.0
  9
$PLIMMIN
 10
8.931840085394117
 20
13.38571885179438
  9
$PLIMMAX
 10
248.0681737907302
 20
198.1728846186557
  9
$UNITMODE
 70
     0
  9
$VISRETAIN
 70
     0
  9
$PLINEGEN
 70
     0
  9
$PSLTSCALE
 70
     1
  9
$TREEDEPTH
 70
  3020
  9
$CMLSTYLE
  2
STANDARD
  9
$CMLJUST
 70
     0
  9
$CMLSCALE
 40
1.0
  9
$PROXYGRAPHICS
 70
     1
  9
$MEASUREMENT
 70
     1
  9
$CELWEIGHT
370
    -1
  9
$ENDCAPS
280
     0
  9
$JOINSTYLE
280
     0
  9
$LWDISPLAY
290
     0
  9
$INSUNITS
 70
     0
  9
$HYPERLINKBASE
  1

  9
$STYLESHEET
  1

  9
$XEDIT
290
     1
  9
$CEPSNTYPE
380
     0
  9
$PSTYLEMODE
290
     1
  9
$FINGERPRINTGUID
  2
{6E0CF4B8-225E-11D4-A150-00A0CC3303EC}
  9
$VERSIONGUID
  2
{8D27F3EF-BD68-460F-BF93-DF9C3FEC15E0}
  9
$EXTNAMES
290
     1
  9
$PSVPSCALE
 40
0.0
  9
$OLESTARTUP
290
     0
  0
ENDSEC
  0
SECTION
  2
CLASSES
  0
CLASS
  1
DICTIONARYVAR
  2
AcDbDictionaryVar
  3
AutoCAD 2000
 90
        0
280
     0
281
     0
  0
CLASS
  1
ACDBDICTIONARYWDFLT
  2
AcDbDictionaryWithDefault
  3
AutoCAD 2000
 90
        0
280
     0
281
     0
  0
CLASS
  1
ACDBPLACEHOLDER
  2
AcDbPlaceHolder
  3
AutoCAD 2000
 90
        0
280
     0
281
     0
  0
CLASS
  1
LAYOUT
  2
AcDbLayout
  3
AutoCAD 2000
 90
        0
280
     0
281
     0
  0
CLASS
  1
LONG_TRANSACTION
  2
AcDbLongTransaction
  3
AutoCAD 2000
 90
    32768
280
     0
281
     0
  0
CLASS
  1
LWPOLYLINE
  2
AcDbPolyline
  3
AutoCAD 2000
 90
    32768
280
     0
281
     1
  0
CLASS
  1
HATCH
  2
AcDbHatch
  3
AutoCAD 2000
 90
    32768
280
     0
281
     1
  0
CLASS
  1
XRECORD
  2
AcDbXrecord
  3
AutoCAD 2000
 90
    32768
280
     0
281
     0
  0
CLASS
  1
LONG_TRANSACTION
  2
AcDbLongTransaction
  3
AutoCAD 2000
 90
    32768
280
     0
281
     0
  0
CLASS
  1
LWPOLYLINE
  2
AcDbPolyline
  3
AutoCAD 2000
 90
    32768
280
     0
281
     1
  0
CLASS
  1
HATCH
  2
AcDbHatch
  3
AutoCAD 2000
 90
    32768
280
     0
281
     1
  0
CLASS
  1
XRECORD
  2
AcDbXrecord
  3
AutoCAD 2000
 90
    32768
280
     0
281
     0
  0
CLASS
  1
TABLESTYLE
  2
AcDbTableStyle
  3
ObjectDBX Classes
 90
     2047
280
     0
281
     0
  0
CLASS
  1
SORTENTSTABLE
  2
AcDbSortentsTable
  3
AutoCAD 2000
 90
    32768
280
     0
281
     0
  0
ENDSEC
  0
SECTION
  2
TABLES
  0
TABLE
  2
VPORT
  5
458C7
330
0
100
AcDbSymbolTable
 70
     1
  0
VPORT
  5
57024
330
458C7
100
AcDbSymbolTableRecord
100
AcDbViewportTableRecord
  2
*Active
 70
     0
 10
0.0
 20
0.0
 11
1.0
 21
1.0
 12
478.6246505539219
 22
510.6430345797513
 13
0.0
 23
0.0
 14
0.25
 24
0.25
 15
0.25
 25
0.25
 16
0.0
 26
0.0
 36
1.0
 17
272.824838996967
 27
8.306349224220612
 37
23.31369335295995
 40
263.3606851987703
 41
2.029914529914529
 42
50.0
 43
0.0
 44
0.0
 50
0.0
 51
0.0
 71
     0
 72
 20000
 73
     1
 74
     1
 75
     0
 76
     0
 77
     0
 78
     0
281
     0
 65
     1
110
266.8673580196576
120
8.203180508612135
130
3.646124999999996
111
1.0
121
0.0
131
0.0
112
0.0
122
1.0
132
0.0
 79
     1
146
0.0
  0
ENDTAB
  0
TABLE
  2
LTYPE
  5
458C4
330
0
100
AcDbSymbolTable
 70
     3
  0
LTYPE
  5
458D0
330
458C4
100
AcDbSymbolTableRecord
100
AcDbLinetypeTableRecord
  2
BYBLOCK
 70
     0
  3

 72
    65
 73
     0
 40
0.0
  0
LTYPE
  5
458D1
330
458C4
100
AcDbSymbolTableRecord
100
AcDbLinetypeTableRecord
  2
BYLAYER
 70
     0
  3

 72
    65
 73
     0
 40
0.0
  0
LTYPE
  5
458D2
330
458C4
100
AcDbSymbolTableRecord
100
AcDbLinetypeTableRecord
  2
CONTINUOUS
 70
     0
  3
Solid line
 72
    65
 73
     0
 40
0.0
  0
LTYPE
  5
4D249
330
458C4
100
AcDbSymbolTableRecord
100
AcDbLinetypeTableRecord
  2
PHANTOM
 70
     0
  3
______  __  __  ______  __  __  ______  __  __ 
 72
    65
 73
     6
 40
2.5
 49
1.25
 74
     0
 49
-0.25
 74
     0
 49
0.25
 74
     0
 49
-0.25
 74
     0
 49
0.25
 74
     0
 49
-0.25
 74
     0
  0
LTYPE
  5
4DE42
330
458C4
100
AcDbSymbolTableRecord
100
AcDbLinetypeTableRecord
  2
CENTER
 70
     0
  3
____ _ ____ _ ____ _ ____ _ ____ _ ____ _ ____
 72
    65
 73
     4
 40
2.0
 49
1.25
 74
     0
 49
-0.25
 74
     0
 49
0.25
 74
     0
 49
-0.25
 74
     0
  0
ENDTAB
  0
TABLE
  2
LAYER
  5
458C1
102
{ACAD_XDICTIONARY
360
480DB
102
}
330
0
100
AcDbSymbolTable
 70
     8
  0
LAYER
  5
458CD
330
458C1
100
AcDbSymbolTableRecord
100
AcDbLayerTableRecord
  2
0
 70
     0
 62
     7
  6
CONTINUOUS
370
    -3
390
458FA
  0
LAYER
  5
458EB
330
458C1
100
AcDbSymbolTableRecord
100
AcDbLayerTableRecord
  2
ATTRIBUTES
 70
     0
 62
    -7
  6
CONTINUOUS
370
    -3
390
458FA
  0
LAYER
  5
4593F
330
458C1
100
AcDbSymbolTableRecord
100
AcDbLayerTableRecord
  2
AREA1
 70
     0
 62
     7
  6
CONTINUOUS
370
    -3
390
458FA
  0
LAYER
  5
45946
330
458C1
100
AcDbSymbolTableRecord
100
AcDbLayerTableRecord
  2
Defpoints
 70
     0
 62
     7
  6
CONTINUOUS
290
     0
370
    -3
390
458FA
  0
LAYER
  5
45972
330
458C1
100
AcDbSymbolTableRecord
100
AcDbLayerTableRecord
  2
SCALE
 70
     0
 62
    -7
  6
CONTINUOUS
370
    -3
390
458FA
  0
LAYER
  5
46E1B
330
458C1
100
AcDbSymbolTableRecord
100
AcDbLayerTableRecord
  2
OBJECT
 70
     0
 62
     7
  6
CONTINUOUS
370
    -3
390
458FA
  0
LAYER
  5
4DE44
330
458C1
100
AcDbSymbolTableRecord
100
AcDbLayerTableRecord
  2
DIMS
 70
     0
 62
     1
  6
CONTINUOUS
370
    -3
390
458FA
  0
LAYER
  5
56706
330
458C1
100
AcDbSymbolTableRecord
100
AcDbLayerTableRecord
  2
TESTPROBE
 70
     0
 62
     7
  6
CONTINUOUS
370
    -3
390
458FA
  0
ENDTAB
  0
TABLE
  2
STYLE
  5
458C2
330
0
100
AcDbSymbolTable
 70
     3
  0
STYLE
  5
458CE
330
458C2
100
AcDbSymbolTableRecord
100
AcDbTextStyleTableRecord
  2
STANDARD
 70
     0
 40
0.0
 41
1.0
 50
0.0
 71
     0
 42
0.12
  3
txt
  4

  0
STYLE
  5
46E1C
330
458C2
100
AcDbSymbolTableRecord
100
AcDbTextStyleTableRecord
  2
ROMANS
 70
     0
 40
0.0
 41
1.0
 50
0.0
 71
     0
 42
0.125
  3
romans
  4

  0
STYLE
  5
5401D
330
458C2
100
AcDbSymbolTableRecord
100
AcDbTextStyleTableRecord
  2
ROMANC
 70
     0
 40
0.0
 41
1.0
 50
0.0
 71
     0
 42
0.2
  3
romanc
  4

  0
ENDTAB
  0
TABLE
  2
VIEW
  5
458C5
330
0
100
AcDbSymbolTable
 70
     0
  0
ENDTAB
  0
TABLE
  2
UCS
  5
458C6
330
0
100
AcDbSymbolTable
 70
     0
  0
ENDTAB
  0
TABLE
  2
APPID
  5
458C8
330
0
100
AcDbSymbolTable
 70
     7
  0
APPID
  5
458CF
330
458C8
100
AcDbSymbolTableRecord
100
AcDbRegAppTableRecord
  2
ACAD
 70
     0
  0
APPID
  5
480E0
330
458C8
100
AcDbSymbolTableRecord
100
AcDbRegAppTableRecord
  2
ACAD_PSEXT
 70
     0
  0
APPID
  5
4DE46
330
458C8
100
AcDbSymbolTableRecord
100
AcDbRegAppTableRecord
  2
GENIUS_GENODEF_13
 70
     0
  0
APPID
  5
4DE47
330
458C8
100
AcDbSymbolTableRecord
100
AcDbRegAppTableRecord
  2
GENIUS_GENOBJ-N-CEN_13
 70
     0
  0
APPID
  5
4DE48
330
458C8
100
AcDbSymbolTableRecord
100
AcDbRegAppTableRecord
  2
GENIUS_GENOBJ-N-FIL_13
 70
     0
  0
APPID
  5
4DE49
330
458C8
100
AcDbSymbolTableRecord
100
AcDbRegAppTableRecord
  2
GENIUS_GENREC_13
 70
     0
  0
APPID
  5
4DE4A
330
458C8
100
AcDbSymbolTableRecord
100
AcDbRegAppTableRecord
  2
GENIUS_GENOBJ-N-REC_13
 70
     0
  0
ENDTAB
  0
TABLE
  2
DIMSTYLE
  5
458C9
330
0
100
AcDbSymbolTable
 70
     2
100
AcDbDimStyleTable
 71
     1
340
458F6
  0
DIMSTYLE
105
458F6
102
{ACAD_REACTORS
330
56F57
330
56F65
330
56F73
330
56F8B
330
56F99
330
56FA7
330
56FBD
330
56FD4
102
}
330
458C9
100
AcDbSymbolTableRecord
100
AcDbDimStyleTableRecord
  2
ABECAD_3D
 70
     0
 41
4.572
 42
1.587499999999999
 43
9.525
 44
4.572
 73
     0
 78
     4
140
4.572
141
2.286
143
0.03937
146
1.5
147
2.286
170
     1
171
     6
271
     2
272
     2
273
     7
274
     6
276
     2
279
     2
284
     4
285
     4
286
     4
288
     1
289
     2
340
458CE
  0
DIMSTYLE
105
459E0
330
458C9
100
AcDbSymbolTableRecord
100
AcDbDimStyleTableRecord
  2
Standard
 70
     0
340
458CE
  0
ENDTAB
  0
TABLE
  2
BLOCK_RECORD
  5
458C0
330
0
100
AcDbSymbolTable
 70
    12
  0
BLOCK_RECORD
  5
458D6
102
{ACAD_XDICTIONARY
360
45930
102
}
330
458C0
100
AcDbSymbolTableRecord
100
AcDbBlockTableRecord
  2
*MODEL_SPACE
340
458FD
  0
BLOCK_RECORD
  5
458D3
102
{ACAD_XDICTIONARY
360
4592E
102
}
330
458C0
100
AcDbSymbolTableRecord
100
AcDbBlockTableRecord
  2
*PAPER_SPACE
340
458FE
  0
BLOCK_RECORD
  5
566F2
330
458C0
100
AcDbSymbolTableRecord
100
AcDbBlockTableRecord
  2
PHILL
340
0
102
{BLKREFS
331
56C0E
331
56C10
331
56E8B
331
56EFD
102
}
  0
BLOCK_RECORD
  5
56F58
330
458C0
100
AcDbSymbolTableRecord
100
AcDbBlockTableRecord
  2
*D4
340
0
  0
BLOCK_RECORD
  5
56F66
330
458C0
100
AcDbSymbolTableRecord
100
AcDbBlockTableRecord
  2
*D5
340
0
  0
BLOCK_RECORD
  5
56F74
330
458C0
100
AcDbSymbolTableRecord
100
AcDbBlockTableRecord
  2
*D6
340
0
  0
BLOCK_RECORD
  5
56F8C
330
458C0
100
AcDbSymbolTableRecord
100
AcDbBlockTableRecord
  2
*D7
340
0
  0
BLOCK_RECORD
  5
56F9A
330
458C0
100
AcDbSymbolTableRecord
100
AcDbBlockTableRecord
  2
*D8
340
0
  0
BLOCK_RECORD
  5
56FA8
330
458C0
100
AcDbSymbolTableRecord
100
AcDbBlockTableRecord
  2
*D9
340
0
  0
BLOCK_RECORD
  5
56FBE
330
458C0
100
AcDbSymbolTableRecord
100
AcDbBlockTableRecord
  2
*D10
340
0
  0
BLOCK_RECORD
  5
56FD5
330
458C0
100
AcDbSymbolTableRecord
100
AcDbBlockTableRecord
  2
*D11
340
0
  0
ENDTAB
  0
ENDSEC
  0
SECTION
  2
BLOCKS
  0
BLOCK
  5
458DF
330
458D6
100
AcDbEntity
  8
0
100
AcDbBlockBegin
  2
*MODEL_SPACE
 70
     0
 10
0.0
 20
0.0
 30
0.0
  3
*MODEL_SPACE
  1

  0
ENDBLK
  5
458E0
330
458D6
100
AcDbEntity
  8
0
100
AcDbBlockEnd
  0
BLOCK
  5
458DD
330
458D3
100
AcDbEntity
 67
     1
  8
0
100
AcDbBlockBegin
  2
*PAPER_SPACE
 70
     0
 10
0.0
 20
0.0
 30
0.0
  3
*PAPER_SPACE
  1

  0
ENDBLK
  5
458DE
330
458D3
100
AcDbEntity
 67
     1
  8
0
100
AcDbBlockEnd
  0
BLOCK
  5
566F3
330
566F2
100
AcDbEntity
  8
0
100
AcDbBlockBegin
  2
PHILL
 70
     0
 10
0.0
 20
0.0
 30
0.0
  3
PHILL
  1

  0
ARC
  5
566F4
330
566F2
100
AcDbEntity
  8
TESTPROBE
100
AcDbCircle
 10
-0.0266161468127884
 20
0.0266161468127901
 30
0.0
 40
0.0147336302462335
100
AcDbArc
 50
270.0
 51
0.0
  0
ARC
  5
566F5
330
566F2
100
AcDbEntity
  8
TESTPROBE
100
AcDbCircle
 10
-0.0266161468127884
 20
-0.0266161468127866
 30
0.0
 40
0.0147336302462335
100
AcDbArc
 50
0.0
 51
90.0
  0
LINE
  5
566F6
330
566F2
100
AcDbEntity
  8
TESTPROBE
100
AcDbLine
 10
-0.0930173079744847
 20
0.0118825165665566
 30
0.0
 11
-0.0930173079744847
 21
-0.0118825165665531
 31
0.0
  0
LINE
  5
566F7
330
566F2
100
AcDbEntity
  8
TESTPROBE
100
AcDbLine
 10
-0.0266161468127884
 20
-0.0118825165665531
 30
0.0
 11
-0.0930173079744847
 21
-0.0118825165665531
 31
0.0
  0
LINE
  5
566F8
330
566F2
100
AcDbEntity
  8
TESTPROBE
100
AcDbLine
 10
-0.0266161468127884
 20
0.0118825165665566
 30
0.0
 11
-0.0930173079744847
 21
0.0118825165665566
 31
0.0
  0
LINE
  5
566F9
330
566F2
100
AcDbEntity
  8
TESTPROBE
100
AcDbLine
 10
-0.0118825165665531
 20
0.0930173079744883
 30
0.0
 11
0.0118825165665566
 21
0.0930173079744883
 31
0.0
  0
ARC
  5
566FA
330
566F2
100
AcDbEntity
  8
TESTPROBE
100
AcDbCircle
 10
0.0266161468127884
 20
-0.0266161468127866
 30
0.0
 40
0.0147336302462335
100
AcDbArc
 50
90.0
 51
180.0000000000012
  0
ARC
  5
566FB
330
566F2
100
AcDbEntity
  8
TESTPROBE
100
AcDbCircle
 10
0.0266161468127901
 20
0.0266161468127901
 30
0.0
 40
0.0147336302462335
100
AcDbArc
 50
179.9999999999987
 51
270.0
  0
LINE
  5
566FC
330
566F2
100
AcDbEntity
  8
TESTPROBE
100
AcDbLine
 10
0.0118825165665548
 20
-0.0266161468127866
 30
0.0
 11
0.0118825165665566
 21
-0.0930173079744865
 31
0.0
  0
LINE
  5
566FD
330
566F2
100
AcDbEntity
  8
TESTPROBE
100
AcDbLine
 10
-0.0118825165665548
 20
-0.0266161468127866
 30
0.0
 11
-0.0118825165665531
 21
-0.0930173079744865
 31
0.0
  0
LINE
  5
566FE
330
566F2
100
AcDbEntity
  8
TESTPROBE
100
AcDbLine
 10
0.0930173079744901
 20
-0.0118825165665531
 30
0.0
 11
0.0266161468127884
 21
-0.0118825165665531
 31
0.0
  0
LINE
  5
566FF
330
566F2
100
AcDbEntity
  8
TESTPROBE
100
AcDbLine
 10
0.0930173079744901
 20
0.0118825165665566
 30
0.0
 11
0.0266161468127901
 21
0.0118825165665566
 31
0.0
  0
LINE
  5
56700
330
566F2
100
AcDbEntity
  8
TESTPROBE
100
AcDbLine
 10
0.0118825165665566
 20
0.0930173079744883
 30
0.0
 11
0.0118825165665566
 21
0.0266161468127901
 31
0.0
  0
LINE
  5
56701
330
566F2
100
AcDbEntity
  8
TESTPROBE
100
AcDbLine
 10
-0.0118825165665531
 20
0.0930173079744883
 30
0.0
 11
-0.0118825165665548
 21
0.0266161468127901
 31
0.0
  0
LINE
  5
56702
330
566F2
100
AcDbEntity
  8
TESTPROBE
100
AcDbLine
 10
0.0118825165665566
 20
-0.0930173079744865
 30
0.0
 11
-0.0118825165665531
 21
-0.0930173079744865
 31
0.0
  0
LINE
  5
56703
330
566F2
100
AcDbEntity
  8
TESTPROBE
100
AcDbLine
 10
0.0930173079744901
 20
0.0118825165665566
 30
0.0
 11
0.0930173079744901
 21
-0.0118825165665531
 31
0.0
  0
ENDBLK
  5
56704
330
566F2
100
AcDbEntity
  8
0
100
AcDbBlockEnd
  0
BLOCK
  5
56F63
330
56F58
100
AcDbEntity
  8
0
100
AcDbBlockBegin
  2
*D4
 70
     1
 10
0.0
 20
0.0
 30
0.0
  3
*D4
  1

  0
LINE
  5
56F59
330
56F58
100
AcDbEntity
  8
AREA1
 62
     0
370
    -2
100
AcDbLine
 10
721.3945767153116
 20
608.6048077183744
 30
0.0
 11
721.3945767153116
 21
648.9663957599965
 31
0.0
  0
LINE
  5
56F5A
330
56F58
100
AcDbEntity
  8
AREA1
 62
     0
370
    -2
100
AcDbLine
 10
819.4385767153121
 20
608.6048077183744
 30
0.0
 11
819.4385767153121
 21
648.9663957599965
 31
0.0
  0
LINE
  5
56F5B
330
56F58
100
AcDbEntity
  8
AREA1
 62
     0
370
    -2
100
AcDbLine
 10
725.9665767153117
 20
644.3943957599965
 30
0.0
 11
739.1014274978438
 21
644.3943957599965
 31
0.0
  0
LINE
  5
56F5C
330
56F58
100
AcDbEntity
  8
AREA1
 62
     0
370
    -2
100
AcDbLine
 10
814.866576715312
 20
644.3943957599965
 30
0.0
 11
803.8714274978438
 21
644.3943957599965
 31
0.0
  0
MTEXT
  5
56F5D
330
56F58
100
AcDbEntity
  8
AREA1
 62
     0
100
AcDbMText
 10
771.4864274978438
 20
644.3943957599965
 30
0.0
 40
4.572
 41
0.0
 71
     5
 72
     1
  1
\A1;98.04 [3 55/64]
 73
     1
 44
1.0
1001
ACAD
1000
MTEXTBEGIN
1070
    73
1070
     1
1070
    44
1040
1.0
1070
    74
1070
     0
1000
MTEXTEND
  0
SOLID
  5
56F5E
330
56F58
100
AcDbEntity
  8
AREA1
 62
     0
100
AcDbTrace
 10
725.9665767153117
 20
645.1563957599964
 30
0.0
 11
725.9665767153117
 21
643.6323957599966
 31
0.0
 12
721.3945767153116
 22
644.3943957599965
 32
0.0
 13
721.3945767153116
 23
644.3943957599965
 33
0.0
  0
SOLID
  5
56F5F
330
56F58
100
AcDbEntity
  8
AREA1
 62
     0
100
AcDbTrace
 10
814.866576715312
 20
645.1563957599964
 30
0.0
 11
814.866576715312
 21
643.6323957599966
 31
0.0
 12
819.4385767153121
 22
644.3943957599965
 32
0.0
 13
819.4385767153121
 23
644.3943957599965
 33
0.0
  0
POINT
  5
56F60
330
56F58
100
AcDbEntity
  8
Defpoints
 62
     0
100
AcDbPoint
 10
721.3945767153116
 20
607.0173077183745
 30
0.0
  0
POINT
  5
56F61
330
56F58
100
AcDbEntity
  8
Defpoints
 62
     0
100
AcDbPoint
 10
819.4385767153121
 20
607.0173077183745
 30
0.0
  0
POINT
  5
56F62
330
56F58
100
AcDbEntity
  8
Defpoints
 62
     0
100
AcDbPoint
 10
819.4385767153121
 20
644.3943957599965
 30
0.0
  0
ENDBLK
  5
56F64
330
56F58
100
AcDbEntity
  8
0
100
AcDbBlockEnd
  0
BLOCK
  5
56F71
330
56F66
100
AcDbEntity
  8
0
100
AcDbBlockBegin
  2
*D5
 70
     1
 10
0.0
 20
0.0
 30
0.0
  3
*D5
  1

  0
LINE
  5
56F81
330
56F66
100
AcDbEntity
  8
AREA1
 62
     0
370
    -2
100
AcDbLine
 10
817.8510767153118
 20
610.1923077183744
 30
0.0
 11
896.4777016964204
 21
610.1923077183744
 31
0.0
  0
LINE
  5
56F82
330
56F66
100
AcDbEntity
  8
AREA1
 62
     0
370
    -2
100
AcDbLine
 10
817.8510767153118
 20
498.9403077183744
 30
0.0
 11
896.4777016964204
 21
498.9403077183744
 31
0.0
  0
LINE
  5
56F83
330
56F66
100
AcDbEntity
  8
AREA1
 62
     0
370
    -2
100
AcDbLine
 10
891.9057016964204
 20
605.6203077183744
 30
0.0
 11
891.9057016964204
 21
584.1668802843919
 31
0.0
  0
LINE
  5
56F84
330
56F66
100
AcDbEntity
  8
AREA1
 62
     0
370
    -2
100
AcDbLine
 10
891.9057016964204
 20
503.5123077183745
 30
0.0
 11
891.9057016964204
 21
527.778880284392
 31
0.0
  0
MTEXT
  5
56F85
330
56F66
100
AcDbEntity
  8
AREA1
 62
     0
100
AcDbMText
 10
891.4795523497812
 20
555.9728802843921
 30
0.0
 40
4.572
 41
0.0
 71
     5
 72
     1
  1
\A1;111.25 [4 3/8]
 11
0.0000000000000001
 21
1.0
 31
0.0
 73
     1
 44
1.0
1001
ACAD
1000
MTEXTBEGIN
1070
    73
1070
     1
1070
    44
1040
1.0
1070
    74
1070
     0
1000
MTEXTEND
  0
SOLID
  5
56F86
330
56F66
100
AcDbEntity
  8
AREA1
 62
     0
100
AcDbTrace
 10
891.1437016964205
 20
605.6203077183744
 30
0.0
 11
892.6677016964204
 21
605.6203077183744
 31
0.0
 12
891.9057016964204
 22
610.1923077183744
 32
0.0
 13
891.9057016964204
 23
610.1923077183744
 33
0.0
  0
SOLID
  5
56F87
330
56F66
100
AcDbEntity
  8
AREA1
 62
     0
100
AcDbTrace
 10
891.1437016964205
 20
503.5123077183745
 30
0.0
 11
892.6677016964204
 21
503.5123077183745
 31
0.0
 12
891.9057016964204
 22
498.9403077183744
 32
0.0
 13
891.9057016964204
 23
498.9403077183744
 33
0.0
  0
POINT
  5
56F88
330
56F66
100
AcDbEntity
  8
Defpoints
 62
     0
100
AcDbPoint
 10
816.2635767153119
 20
610.1923077183744
 30
0.0
  0
POINT
  5
56F89
330
56F66
100
AcDbEntity
  8
Defpoints
 62
     0
100
AcDbPoint
 10
816.2635767153119
 20
498.9403077183744
 30
0.0
  0
POINT
  5
56F8A
330
56F66
100
AcDbEntity
  8
Defpoints
 62
     0
100
AcDbPoint
 10
891.9057016964204
 20
498.9403077183744
 30
0.0
  0
ENDBLK
  5
56F72
330
56F66
100
AcDbEntity
  8
0
100
AcDbBlockEnd
  0
BLOCK
  5
56F7F
330
56F74
100
AcDbEntity
  8
0
100
AcDbBlockBegin
  2
*D6
 70
     1
 10
0.0
 20
0.0
 30
0.0
  3
*D6
  1

  0
LINE
  5
56F75
330
56F74
100
AcDbEntity
  8
AREA1
 62
     0
370
    -2
100
AcDbLine
 10
814.676076715312
 20
603.7153077183745
 30
0.0
 11
869.9584156283478
 21
603.7153077183745
 31
0.0
  0
LINE
  5
56F76
330
56F74
100
AcDbEntity
  8
AREA1
 62
     0
370
    -2
100
AcDbLine
 10
814.676076715312
 20
505.4173077183744
 30
0.0
 11
869.9584156283478
 21
505.4173077183744
 31
0.0
  0
LINE
  5
56F77
330
56F74
100
AcDbEntity
  8
AREA1
 62
     0
370
    -2
100
AcDbLine
 10
865.3864156283477
 20
599.1433077183745
 30
0.0
 11
865.3864156283477
 21
582.587182103051
 31
0.0
  0
LINE
  5
56F78
330
56F74
100
AcDbEntity
  8
AREA1
 62
     0
370
    -2
100
AcDbLine
 10
865.3864156283477
 20
509.9893077183744
 30
0.0
 11
865.3864156283477
 21
526.9611821030511
 31
0.0
  0
MTEXT
  5
56F79
330
56F74
100
AcDbEntity
  8
AREA1
 62
     0
100
AcDbMText
 10
865.3864156283477
 20
554.7741821030513
 30
0.0
 40
4.572
 41
0.0
 71
     5
 72
     1
  1
\A1;98.30 [3 7/8]
 11
0.0000000000000001
 21
1.0
 31
0.0
 73
     1
 44
1.0
1001
ACAD
1000
MTEXTBEGIN
1070
    73
1070
     1
1070
    44
1040
1.0
1070
    74
1070
     0
1000
MTEXTEND
  0
SOLID
  5
56F7A
330
56F74
100
AcDbEntity
  8
AREA1
 62
     0
100
AcDbTrace
 10
864.6244156283477
 20
599.1433077183745
 30
0.0
 11
866.1484156283476
 21
599.1433077183745
 31
0.0
 12
865.3864156283477
 22
603.7153077183745
 32
0.0
 13
865.3864156283477
 23
603.7153077183745
 33
0.0
  0
SOLID
  5
56F7B
330
56F74
100
AcDbEntity
  8
AREA1
 62
     0
100
AcDbTrace
 10
864.6244156283477
 20
509.9893077183744
 30
0.0
 11
866.1484156283476
 21
509.9893077183744
 31
0.0
 12
865.3864156283477
 22
505.4173077183744
 32
0.0
 13
865.3864156283477
 23
505.4173077183744
 33
0.0
  0
POINT
  5
56F7C
330
56F74
100
AcDbEntity
  8
Defpoints
 62
     0
100
AcDbPoint
 10
813.088576715312
 20
603.7153077183745
 30
0.0
  0
POINT
  5
56F7D
330
56F74
100
AcDbEntity
  8
Defpoints
 62
     0
100
AcDbPoint
 10
813.088576715312
 20
505.4173077183744
 30
0.0
  0
POINT
  5
56F7E
330
56F74
100
AcDbEntity
  8
Defpoints
 62
     0
100
AcDbPoint
 10
865.3864156283477
 20
505.4173077183744
 30
0.0
  0
ENDBLK
  5
56F80
330
56F74
100
AcDbEntity
  8
0
100
AcDbBlockEnd
  0
BLOCK
  5
56F97
330
56F8C
100
AcDbEntity
  8
0
100
AcDbBlockBegin
  2
*D7
 70
     1
 10
0.0
 20
0.0
 30
0.0
  3
*D7
  1

  0
LINE
  5
56F8D
330
56F8C
100
AcDbEntity
  8
AREA1
 62
     0
370
    -2
100
AcDbLine
 10
727.7445767153117
 20
605.3028077183745
 30
0.0
 11
727.7445767153117
 21
635.6922898515186
 31
0.0
  0
LINE
  5
56F8E
330
56F8C
100
AcDbEntity
  8
AREA1
 62
     0
370
    -2
100
AcDbLine
 10
813.088576715312
 20
605.3028077183745
 30
0.0
 11
813.088576715312
 21
635.6922898515186
 31
0.0
  0
LINE
  5
56F8F
330
56F8C
100
AcDbEntity
  8
AREA1
 62
     0
370
    -2
100
AcDbLine
 10
732.3165767153117
 20
631.1202898515187
 30
0.0
 11
737.632848171948
 21
631.1202898515187
 31
0.0
  0
LINE
  5
56F90
330
56F8C
100
AcDbEntity
  8
AREA1
 62
     0
370
    -2
100
AcDbLine
 10
808.5165767153119
 20
631.1202898515187
 30
0.0
 11
803.1648481719479
 21
631.1202898515187
 31
0.0
  0
MTEXT
  5
56F91
330
56F8C
100
AcDbEntity
  8
AREA1
 62
     0
100
AcDbMText
 10
770.398848171948
 20
631.1202898515187
 30
0.0
 40
4.572
 41
0.0
 71
     5
 72
     1
  1
\A1;85.34 [3 23/64]
 73
     1
 44
1.0
1001
ACAD
1000
MTEXTBEGIN
1070
    73
1070
     1
1070
    44
1040
1.0
1070
    74
1070
     0
1000
MTEXTEND
  0
SOLID
  5
56F92
330
56F8C
100
AcDbEntity
  8
AREA1
 62
     0
100
AcDbTrace
 10
732.3165767153117
 20
631.8822898515186
 30
0.0
 11
732.3165767153117
 21
630.3582898515188
 31
0.0
 12
727.7445767153117
 22
631.1202898515187
 32
0.0
 13
727.7445767153117
 23
631.1202898515187
 33
0.0
  0
SOLID
  5
56F93
330
56F8C
100
AcDbEntity
  8
AREA1
 62
     0
100
AcDbTrace
 10
808.5165767153119
 20
631.8822898515186
 30
0.0
 11
808.5165767153119
 21
630.3582898515188
 31
0.0
 12
813.088576715312
 22
631.1202898515187
 32
0.0
 13
813.088576715312
 23
631.1202898515187
 33
0.0
  0
POINT
  5
56F94
330
56F8C
100
AcDbEntity
  8
Defpoints
 62
     0
100
AcDbPoint
 10
727.7445767153117
 20
603.7153077183745
 30
0.0
  0
POINT
  5
56F95
330
56F8C
100
AcDbEntity
  8
Defpoints
 62
     0
100
AcDbPoint
 10
813.088576715312
 20
603.7153077183745
 30
0.0
  0
POINT
  5
56F96
330
56F8C
100
AcDbEntity
  8
Defpoints
 62
     0
100
AcDbPoint
 10
813.088576715312
 20
631.1202898515187
 30
0.0
  0
ENDBLK
  5
56F98
330
56F8C
100
AcDbEntity
  8
0
100
AcDbBlockEnd
  0
BLOCK
  5
56FA5
330
56F9A
100
AcDbEntity
  8
0
100
AcDbBlockBegin
  2
*D8
 70
     1
 10
0.0
 20
0.0
 30
0.0
  3
*D8
  1

  0
LINE
  5
56F9B
330
56F9A
100
AcDbEntity
  8
AREA1
 62
     0
370
    -2
100
AcDbLine
 10
737.015576715312
 20
605.3028077183745
 30
0.0
 11
737.015576715312
 21
624.2167903255972
 31
0.0
  0
LINE
  5
56F9C
330
56F9A
100
AcDbEntity
  8
AREA1
 62
     0
370
    -2
100
AcDbLine
 10
803.8175767153118
 20
605.3028077183745
 30
0.0
 11
803.8175767153118
 21
624.2167903255972
 31
0.0
  0
LINE
  5
56F9D
330
56F9A
100
AcDbEntity
  8
AREA1
 62
     0
370
    -2
100
AcDbLine
 10
741.587576715312
 20
619.6447903255972
 30
0.0
 11
742.9686796861926
 21
619.6447903255972
 31
0.0
  0
LINE
  5
56F9E
330
56F9A
100
AcDbEntity
  8
AREA1
 62
     0
370
    -2
100
AcDbLine
 10
799.2455767153118
 20
619.6447903255972
 30
0.0
 11
798.5946796861925
 21
619.6447903255972
 31
0.0
  0
MTEXT
  5
56F9F
330
56F9A
100
AcDbEntity
  8
AREA1
 62
     0
100
AcDbMText
 10
770.7816796861926
 20
619.6447903255972
 30
0.0
 40
4.572
 41
0.0
 71
     5
 72
     1
  1
\A1;66.80 [2 5/8]
 73
     1
 44
1.0
1001
ACAD
1000
MTEXTBEGIN
1070
    73
1070
     1
1070
    44
1040
1.0
1070
    74
1070
     0
1000
MTEXTEND
  0
SOLID
  5
56FA0
330
56F9A
100
AcDbEntity
  8
AREA1
 62
     0
100
AcDbTrace
 10
741.587576715312
 20
620.4067903255971
 30
0.0
 11
741.587576715312
 21
618.8827903255972
 31
0.0
 12
737.015576715312
 22
619.6447903255972
 32
0.0
 13
737.015576715312
 23
619.6447903255972
 33
0.0
  0
SOLID
  5
56FA1
330
56F9A
100
AcDbEntity
  8
AREA1
 62
     0
100
AcDbTrace
 10
799.2455767153118
 20
620.4067903255971
 30
0.0
 11
799.2455767153118
 21
618.8827903255972
 31
0.0
 12
803.8175767153118
 22
619.6447903255972
 32
0.0
 13
803.8175767153118
 23
619.6447903255972
 33
0.0
  0
POINT
  5
56FA2
330
56F9A
100
AcDbEntity
  8
Defpoints
 62
     0
100
AcDbPoint
 10
737.015576715312
 20
603.7153077183745
 30
0.0
  0
POINT
  5
56FA3
330
56F9A
100
AcDbEntity
  8
Defpoints
 62
     0
100
AcDbPoint
 10
803.8175767153118
 20
603.7153077183745
 30
0.0
  0
POINT
  5
56FA4
330
56F9A
100
AcDbEntity
  8
Defpoints
 62
     0
100
AcDbPoint
 10
803.8175767153118
 20
619.6447903255972
 30
0.0
  0
ENDBLK
  5
56FA6
330
56F9A
100
AcDbEntity
  8
0
100
AcDbBlockEnd
  0
BLOCK
  5
56FB2
330
56FA8
100
AcDbEntity
  8
0
100
AcDbBlockBegin
  2
*D9
 70
     1
 10
0.0
 20
0.0
 30
0.0
  3
*D9
  1

  0
LINE
  5
56FB4
330
56FA8
100
AcDbEntity
  8
AREA1
 62
     0
370
    -2
100
AcDbLine
 10
722.9820767153118
 20
610.1923077183744
 30
0.0
 11
682.740360222219
 21
610.1923077183744
 31
0.0
  0
LINE
  5
56FB5
330
56FA8
100
AcDbEntity
  8
AREA1
 62
     0
370
    -2
100
AcDbLine
 10
699.6267767153125
 20
567.5282073009213
 30
0.0
 11
682.740360222219
 21
567.5282073009213
 31
0.0
  0
LINE
  5
56FB6
330
56FA8
100
AcDbEntity
  8
AREA1
 62
     0
370
    -2
100
AcDbLine
 10
687.3123602222189
 20
605.6203077183744
 30
0.0
 11
687.3123602222189
 21
572.1002073009214
 31
0.0
  0
MTEXT
  5
56FB7
330
56FA8
100
AcDbEntity
  8
AREA1
 62
     0
100
AcDbMText
 10
678.5072387200853
 20
587.4674616235115
 30
0.0
 40
4.572
 41
0.0
 71
     5
 72
     1
  1
\A1;42.66 [1 43/64]
 11
0.0000000000000001
 21
1.0
 31
0.0
 73
     1
 44
1.0
1001
ACAD
1000
MTEXTBEGIN
1070
    73
1070
     1
1070
    44
1040
1.0
1070
    74
1070
     0
1000
MTEXTEND
  0
SOLID
  5
56FB8
330
56FA8
100
AcDbEntity
  8
AREA1
 62
     0
100
AcDbTrace
 10
686.550360222219
 20
605.6203077183744
 30
0.0
 11
688.0743602222189
 21
605.6203077183744
 31
0.0
 12
687.3123602222189
 22
610.1923077183744
 32
0.0
 13
687.3123602222189
 23
610.1923077183744
 33
0.0
  0
SOLID
  5
56FB9
330
56FA8
100
AcDbEntity
  8
AREA1
 62
     0
100
AcDbTrace
 10
686.550360222219
 20
572.1002073009214
 30
0.0
 11
688.0743602222189
 21
572.1002073009214
 31
0.0
 12
687.3123602222189
 22
567.5282073009213
 32
0.0
 13
687.3123602222189
 23
567.5282073009213
 33
0.0
  0
POINT
  5
56FBA
330
56FA8
100
AcDbEntity
  8
Defpoints
 62
     0
100
AcDbPoint
 10
724.5695767153117
 20
610.1923077183744
 30
0.0
  0
POINT
  5
56FBB
330
56FA8
100
AcDbEntity
  8
Defpoints
 62
     0
100
AcDbPoint
 10
701.2142767153124
 20
567.5282073009213
 30
0.0
  0
POINT
  5
56FBC
330
56FA8
100
AcDbEntity
  8
Defpoints
 62
     0
100
AcDbPoint
 10
687.3123602222189
 20
567.5282073009213
 30
0.0
  0
ENDBLK
  5
56FB3
330
56FA8
100
AcDbEntity
  8
0
100
AcDbBlockEnd
  0
BLOCK
  5
56FC8
330
56FBE
100
AcDbEntity
  8
0
100
AcDbBlockBegin
  2
*D10
 70
     1
 10
0.0
 20
0.0
 30
0.0
  3
*D10
  1

  0
LINE
  5
56FCA
330
56FBE
100
AcDbEntity
  8
AREA1
 62
     0
370
    -2
100
AcDbLine
 10
722.9820767153118
 20
498.9403077183744
 30
0.0
 11
683.1231917364635
 21
498.9403077183744
 31
0.0
  0
LINE
  5
56FCB
330
56FBE
100
AcDbEntity
  8
AREA1
 62
     0
370
    -2
100
AcDbLine
 10
699.567000383737
 20
531.9682073009219
 30
0.0
 11
683.1231917364635
 21
531.9682073009219
 31
0.0
  0
LINE
  5
56FCC
330
56FBE
100
AcDbEntity
  8
AREA1
 62
     0
370
    -2
100
AcDbLine
 10
687.6951917364635
 20
503.5123077183745
 30
0.0
 11
687.6951917364635
 21
527.3962073009219
 31
0.0
  0
MTEXT
  5
56FCD
330
56FBE
100
AcDbEntity
  8
AREA1
 62
     0
100
AcDbMText
 10
678.8900702343299
 20
518.2319488951223
 30
0.0
 40
4.572
 41
0.0
 71
     5
 72
     1
  1
\A1;33.03 [1 19/64]
 11
0.0000000000000001
 21
1.0
 31
0.0
 73
     1
 44
1.0
1001
ACAD
1000
MTEXTBEGIN
1070
    73
1070
     1
1070
    44
1040
1.0
1070
    74
1070
     0
1000
MTEXTEND
  0
SOLID
  5
56FCE
330
56FBE
100
AcDbEntity
  8
AREA1
 62
     0
100
AcDbTrace
 10
686.9331917364636
 20
503.5123077183745
 30
0.0
 11
688.4571917364635
 21
503.5123077183745
 31
0.0
 12
687.6951917364635
 22
498.9403077183744
 32
0.0
 13
687.6951917364635
 23
498.9403077183744
 33
0.0
  0
SOLID
  5
56FCF
330
56FBE
100
AcDbEntity
  8
AREA1
 62
     0
100
AcDbTrace
 10
686.9331917364636
 20
527.3962073009219
 30
0.0
 11
688.4571917364635
 21
527.3962073009219
 31
0.0
 12
687.6951917364635
 22
531.9682073009219
 32
0.0
 13
687.6951917364635
 23
531.9682073009219
 33
0.0
  0
POINT
  5
56FD0
330
56FBE
100
AcDbEntity
  8
Defpoints
 62
     0
100
AcDbPoint
 10
724.5695767153117
 20
498.9403077183744
 30
0.0
  0
POINT
  5
56FD1
330
56FBE
100
AcDbEntity
  8
Defpoints
 62
     0
100
AcDbPoint
 10
701.1545003837369
 20
531.9682073009219
 30
0.0
  0
POINT
  5
56FD2
330
56FBE
100
AcDbEntity
  8
Defpoints
 62
     0
100
AcDbPoint
 10
687.6951917364635
 20
531.9682073009219
 30
0.0
  0
ENDBLK
  5
56FC9
330
56FBE
100
AcDbEntity
  8
0
100
AcDbBlockEnd
  0
BLOCK
  5
56FDF
330
56FD5
100
AcDbEntity
  8
0
100
AcDbBlockBegin
  2
*D11
 70
     1
 10
0.0
 20
0.0
 30
0.0
  3
*D11
  1

  0
LINE
  5
56FEA
330
56FD5
100
AcDbEntity
  8
AREA1
 62
     0
370
    -2
100
AcDbLine
 10
819.7560767153133
 20
444.9932264535293
 30
0.0
 11
867.8902589009101
 21
444.9932264535293
 31
0.0
  0
LINE
  5
56FEB
330
56FD5
100
AcDbEntity
  8
AREA1
 62
     0
370
    -2
100
AcDbLine
 10
819.7560767153133
 20
390.1138649525738
 30
0.0
 11
867.8902589009101
 21
390.1138649525738
 31
0.0
  0
LINE
  5
56FEC
330
56FD5
100
AcDbEntity
  8
AREA1
 62
     0
370
    -2
100
AcDbLine
 10
863.3182589009102
 20
440.4212264535293
 30
0.0
 11
863.3182589009102
 21
394.6858649525738
 31
0.0
  0
MTEXT
  5
56FED
330
56FD5
100
AcDbEntity
  8
AREA1
 62
     0
100
AcDbMText
 10
872.2827865221137
 20
417.1263718479474
 30
0.0
 40
4.572
 41
0.0
 71
     5
 72
     1
  1
\A1;54.88 [2 5/32]
 11
0.0000000000000001
 21
1.0
 31
0.0
 73
     1
 44
1.0
1001
ACAD
1000
MTEXTBEGIN
1070
    73
1070
     1
1070
    44
1040
1.0
1070
    74
1070
     0
1000
MTEXTEND
  0
SOLID
  5
56FEE
330
56FD5
100
AcDbEntity
  8
AREA1
 62
     0
100
AcDbTrace
 10
862.5562589009103
 20
440.4212264535293
 30
0.0
 11
864.0802589009101
 21
440.4212264535293
 31
0.0
 12
863.3182589009102
 22
444.9932264535293
 32
0.0
 13
863.3182589009102
 23
444.9932264535293
 33
0.0
  0
SOLID
  5
56FEF
330
56FD5
100
AcDbEntity
  8
AREA1
 62
     0
100
AcDbTrace
 10
862.5562589009103
 20
394.6858649525738
 30
0.0
 11
864.0802589009101
 21
394.6858649525738
 31
0.0
 12
863.3182589009102
 22
390.1138649525738
 32
0.0
 13
863.3182589009102
 23
390.1138649525738
 33
0.0
  0
POINT
  5
56FF0
330
56FD5
100
AcDbEntity
  8
Defpoints
 62
     0
100
AcDbPoint
 10
818.1685767153133
 20
444.9932264535293
 30
0.0
  0
POINT
  5
56FF1
330
56FD5
100
AcDbEntity
  8
Defpoints
 62
     0
100
AcDbPoint
 10
818.1685767153133
 20
390.1138649525738
 30
0.0
  0
POINT
  5
56FF2
330
56FD5
100
AcDbEntity
  8
Defpoints
 62
     0
100
AcDbPoint
 10
863.3182589009102
 20
390.1138649525738
 30
0.0
  0
ENDBLK
  5
56FE0
330
56FD5
100
AcDbEntity
  8
0
100
AcDbBlockEnd
  0
ENDSEC
  0
SECTION
  2
ENTITIES
  0
ATTDEF
  5
4DDB8
330
458D6
100
AcDbEntity
  8
ATTRIBUTES
100
AcDbText
 10
638.0979606067092
 20
601.9827201096226
 30
3.494519878283639
 40
0.575719985847253
  1
ALLEN-BRADLEY
100
AcDbAttributeDefinition
  3
MANUFACTURER NAME?
  2
AC_VND_LABEL
 70
     1
  0
ATTDEF
  5
4DDB9
330
458D6
100
AcDbEntity
  8
ATTRIBUTES
100
AcDbText
 10
638.0979606067092
 20
600.7833034724409
 30
3.494519878283639
 40
0.575719985847253
  1
1485P-P2T5-T5C
100
AcDbAttributeDefinition
  3
CATALOG NUMBER?
  2
AC_PART_NO
 70
     1
  0
ATTDEF
  5
4DDBA
330
458D6
100
AcDbEntity
  8
ATTRIBUTES
100
AcDbText
 10
638.0979606067092
 20
599.5838868352592
 30
3.494519878283639
 40
0.575719985847253
  1
2-Port DeviceBox, Thin Cable
100
AcDbAttributeDefinition
  3
PART DESCRIPTION?
  2
AC_DESCRIPTION
 70
     1
  0
ATTDEF
  5
4DDBB
330
458D6
100
AcDbEntity
  8
ATTRIBUTES
100
AcDbText
 10
638.0979606067092
 20
598.3844701980774
 30
3.494519878283639
 40
0.575719985847253
  1

100
AcDbAttributeDefinition
  3
DEVICE ID?
  2
DEVICE_ID
 70
     1
  0
ATTDEF
  5
4DDBC
330
458D6
100
AcDbEntity
  8
ATTRIBUTES
100
AcDbText
 10
638.0979606067092
 20
597.1850535608957
 30
3.494519878283639
 40
0.575719985847253
  1

100
AcDbAttributeDefinition
  3
CUSTOMER PART NUMBER?
  2
AC_CPART_NO
 70
     1
  0
ATTDEF
  5
4DDBD
330
458D6
100
AcDbEntity
  8
ATTRIBUTES
100
AcDbText
 10
638.0979606067092
 20
595.9856369237134
 30
3.494519878283639
 40
0.575719985847253
  1

100
AcDbAttributeDefinition
  3
CUSTOMER NOTE?
  2
AC_NOTE
 70
     1
  0
ATTDEF
  5
4DDBE
330
458D6
100
AcDbEntity
  8
ATTRIBUTES
100
AcDbText
 10
638.0979606067092
 20
594.7862202865317
 30
3.494519878283639
 40
0.575719985847253
  1

100
AcDbAttributeDefinition
  3
FASTENER DATA?
  2
FASTENER
 70
     1
  0
ATTDEF
  5
4DDBF
330
458D6
100
AcDbEntity
  8
ATTRIBUTES
100
AcDbText
 10
638.0979606067092
 20
593.58680364935
 30
3.494519878283639
 40
0.575719985847253
  1
INCH
100
AcDbAttributeDefinition
  3
UNIT OF SCALE?
  2
AC_SCALE_UNIT
 70
     1
  0
ATTDEF
  5
4DDC0
330
458D6
100
AcDbEntity
  8
ATTRIBUTES
100
AcDbText
 10
638.0979606067092
 20
592.3873870121688
 30
3.494519878283639
 40
0.575719985847253
  1
0
100
AcDbAttributeDefinition
  3
VIEW CODE?
  2
AC_VIEW_CODE
 70
     1
  0
MTEXT
  5
4E0D0
330
458D6
100
AcDbEntity
  8
DIMS
100
AcDbMText
 10
263.4509981022159
 20
543.6346761443502
 30
3.646124999999996
 40
0.125
 41
0.0
 71
     1
 72
     1
  1

  7
ROMANS
 73
     1
 44
1.0
1001
ACAD
1000
MTEXTBEGIN
1070
    73
1070
     1
1070
    44
1040
1.0
1070
    74
1070
     0
1000
MTEXTEND
  0
MTEXT
  5
4E0E6
330
458D6
100
AcDbEntity
  8
DIMS
100
AcDbMText
 10
262.8011374184602
 20
540.1940165057656
 30
3.646124999999996
 40
0.125
 41
0.0
 71
     1
 72
     1
  1

  7
ROMANS
 73
     1
 44
1.0
1001
ACAD
1000
MTEXTBEGIN
1070
    73
1070
     1
1070
    44
1040
1.0
1070
    74
1070
     0
1000
MTEXTEND
  0
LINE
  5
56B2F
330
458D6
100
AcDbEntity
  8
0
  6
Continuous
 62
     0
100
AcDbLine
 10
819.4385767153121
 20
502.1153077183745
 30
3.646124999999996
 11
819.4385767153121
 21
607.0173077183745
 31
3.646124999999996
  0
LINE
  5
56B30
330
458D6
100
AcDbEntity
  8
0
  6
Continuous
 62
     0
100
AcDbLine
 10
721.3945767153116
 20
502.1153077183745
 30
3.646124999999996
 11
721.3945767153116
 21
607.0173077183745
 31
3.646124999999996
  0
LINE
  5
56B31
330
458D6
100
AcDbEntity
  8
0
  6
Continuous
 62
     0
100
AcDbLine
 10
816.2635767153121
 20
498.9403077183744
 30
3.646124999999996
 11
724.5695767153117
 21
498.9403077183744
 31
3.646124999999996
  0
ARC
  5
56B32
330
458D6
100
AcDbEntity
  8
0
  6
Continuous
 62
     0
100
AcDbCircle
 10
724.5695767153117
 20
502.1153077183745
 30
3.646124999999996
 40
3.174999999999999
100
AcDbArc
 50
180.0
 51
270.0
  0
ARC
  5
56B33
330
458D6
100
AcDbEntity
  8
0
  6
Continuous
 62
     0
100
AcDbCircle
 10
816.2635767153121
 20
502.1153077183745
 30
3.646124999999996
 40
3.174999999999999
100
AcDbArc
 50
270.0
 51
0.0
  0
LINE
  5
56B34
330
458D6
100
AcDbEntity
  8
0
  6
Continuous
 62
     0
100
AcDbLine
 10
816.2635767153121
 20
610.1923077183744
 30
3.646124999999996
 11
724.5695767153117
 21
610.1923077183744
 31
3.646124999999996
  0
ARC
  5
56B35
330
458D6
100
AcDbEntity
  8
0
  6
Continuous
 62
     0
100
AcDbCircle
 10
724.5695767153117
 20
607.0173077183745
 30
3.646124999999996
 40
3.174999999999999
100
AcDbArc
 50
90.0
 51
180.0
  0
ARC
  5
56B36
330
458D6
100
AcDbEntity
  8
0
  6
Continuous
 62
     0
100
AcDbCircle
 10
816.2635767153121
 20
607.0173077183745
 30
3.646124999999996
 40
3.174999999999999
100
AcDbArc
 50
0.0
 51
90.0
  0
LINE
  5
56B37
330
458D6
100
AcDbEntity
  8
0
 62
     0
100
AcDbLine
 10
722.6645767153135
 20
390.113864952575
 30
3.646124999999996
 11
818.1685767153133
 21
390.113864952575
 31
3.646124999999996
  0
LINE
  5
56B38
330
458D6
100
AcDbEntity
  8
0
 62
     0
100
AcDbLine
 10
721.3945767153116
 20
435.8338649525738
 30
3.646124999999996
 11
721.3945767153116
 21
391.3838649525738
 31
3.646124999999996
  0
ARC
  5
56B39
330
458D6
100
AcDbEntity
  8
0
 62
     0
100
AcDbCircle
 10
722.6645767153135
 20
391.3838649525738
 30
3.646124999999996
 40
1.270000000000018
100
AcDbArc
 50
180.0
 51
270.0
  0
LINE
  5
56B3A
330
458D6
100
AcDbEntity
  8
0
 62
     0
100
AcDbLine
 10
819.4385767153121
 20
435.8338649525738
 30
3.646124999999996
 11
819.4385767153121
 21
391.3838649525738
 31
3.646124999999996
  0
ARC
  5
56B3B
330
458D6
100
AcDbEntity
  8
0
 62
     0
100
AcDbCircle
 10
818.1685767153133
 20
391.3838649525738
 30
3.646124999999996
 40
1.27
100
AcDbArc
 50
270.0
 51
0.0
  0
ARC
  5
56B3C
330
458D6
100
AcDbEntity
  8
0
 62
     0
100
AcDbCircle
 10
836.3168767153144
 20
561.3052073009212
 30
3.646124999999996
 40
3.302
100
AcDbArc
 50
270.0
 51
0.0
  0
ARC
  5
56B3D
330
458D6
100
AcDbEntity
  8
0
 62
     0
100
AcDbCircle
 10
833.5654390979383
 20
559.2493109282417
 30
3.646124999999996
 40
2.751438028232276
100
AcDbArc
 50
309.1046213224502
 51
50.89537867754973
  0
LINE
  5
56B3E
330
458D6
100
AcDbEntity
  8
0
 62
     0
100
AcDbLine
 10
827.4268767153136
 20
577.9422073009206
 30
3.646124999999996
 11
827.4268767153136
 21
557.1142073009221
 31
3.646124999999996
  0
LINE
  5
56B3F
330
458D6
100
AcDbEntity
  8
0
 62
     0
100
AcDbLine
 10
822.9818767153121
 20
577.9422073009206
 30
3.646124999999996
 11
822.9818767153121
 21
557.1142073009221
 31
3.646124999999996
  0
LINE
  5
56B40
330
458D6
100
AcDbEntity
  8
0
 62
     0
100
AcDbLine
 10
819.4385767153121
 20
557.1142073009221
 30
3.646124999999996
 11
822.9818767153121
 21
557.1142073009221
 31
3.646124999999996
  0
LINE
  5
56B41
330
458D6
100
AcDbEntity
  8
0
 62
     0
100
AcDbLine
 10
827.4268767153136
 20
557.1142073009221
 30
3.646124999999996
 11
835.3008767153124
 21
557.1142073009221
 31
3.646124999999996
  0
LINE
  5
56B42
330
458D6
100
AcDbEntity
  8
0
 62
     0
100
AcDbLine
 10
836.3168767153144
 20
558.0032073009213
 30
3.646124999999996
 11
836.0185263310334
 21
558.0032073009213
 31
3.646124999999996
  0
ARC
  5
56B43
330
458D6
100
AcDbEntity
  8
0
 62
     0
100
AcDbCircle
 10
836.3168767153114
 20
573.7512073009214
 30
3.646124999999996
 40
3.302
100
AcDbArc
 50
0.0
 51
90.0
  0
ARC
  5
56B44
330
458D6
100
AcDbEntity
  8
0
 62
     0
100
AcDbCircle
 10
833.5654390979383
 20
575.8071036735981
 30
3.646124999999996
 40
2.751438028232276
100
AcDbArc
 50
309.1046213224502
 51
50.89537867754973
  0
LINE
  5
56B45
330
458D6
100
AcDbEntity
  8
0
 62
     0
100
AcDbLine
 10
824.5058767153135
 20
573.6242073009216
 30
3.646124999999996
 11
825.013876715313
 21
573.6242073009216
 31
3.646124999999996
  0
LINE
  5
56B46
330
458D6
100
AcDbEntity
  8
0
 62
     0
100
AcDbLine
 10
824.5058767153135
 20
561.4322073009211
 30
3.646124999999996
 11
825.013876715313
 21
561.4322073009211
 31
3.646124999999996
  0
LINE
  5
56B47
330
458D6
100
AcDbEntity
  8
0
 62
     0
100
AcDbLine
 10
823.4898767153115
 20
574.5132073009208
 30
3.646124999999996
 11
823.4898767153115
 21
560.5432073009219
 31
3.646124999999996
  0
LINE
  5
56B48
330
458D6
100
AcDbEntity
  8
0
 62
     0
100
AcDbLine
 10
823.9978767153139
 20
574.5132073009208
 30
3.646124999999996
 11
823.9978767153139
 21
560.5432073009219
 31
3.646124999999996
  0
LINE
  5
56B49
330
458D6
100
AcDbEntity
  8
0
 62
     0
100
AcDbLine
 10
824.5058767153135
 20
573.6242073009216
 30
3.646124999999996
 11
824.5058767153135
 21
561.4322073009211
 31
3.646124999999996
  0
LINE
  5
56B4A
330
458D6
100
AcDbEntity
  8
0
 62
     0
100
AcDbLine
 10
823.4898767153115
 20
560.5432073009219
 30
3.646124999999996
 11
823.9978767153139
 21
560.5432073009219
 31
3.646124999999996
  0
LINE
  5
56B4B
330
458D6
100
AcDbEntity
  8
0
 62
     0
100
AcDbLine
 10
823.9978767153139
 20
560.5432073009219
 30
3.646124999999996
 11
824.5058767153135
 21
561.4322073009211
 31
3.646124999999996
  0
LINE
  5
56B4C
330
458D6
100
AcDbEntity
  8
0
 62
     0
100
AcDbLine
 10
822.9818767153121
 20
561.4322073009211
 30
3.646124999999996
 11
823.4898767153115
 21
560.5432073009219
 31
3.646124999999996
  0
LINE
  5
56B4D
330
458D6
100
AcDbEntity
  8
0
 62
     0
100
AcDbLine
 10
822.9818767153121
 20
561.3844145555641
 30
3.646124999999996
 11
819.4385767153121
 21
561.3844145555641
 31
3.646124999999996
  0
LINE
  5
56B4E
330
458D6
100
AcDbEntity
  8
0
 62
     0
100
AcDbLine
 10
822.9818767153121
 20
563.3180088495403
 30
3.646124999999996
 11
819.4385767153121
 21
563.3180088495403
 31
3.646124999999996
  0
LINE
  5
56B4F
330
458D6
100
AcDbEntity
  8
0
 62
     0
100
AcDbLine
 10
822.9818767153121
 20
573.6242073009216
 30
3.646124999999996
 11
823.4898767153115
 21
574.5132073009208
 31
3.646124999999996
  0
LINE
  5
56B50
330
458D6
100
AcDbEntity
  8
0
 62
     0
100
AcDbLine
 10
823.9978767153139
 20
574.5132073009208
 30
3.646124999999996
 11
824.5058767153135
 21
573.6242073009216
 31
3.646124999999996
  0
LINE
  5
56B51
330
458D6
100
AcDbEntity
  8
0
 62
     0
100
AcDbLine
 10
823.4898767153115
 20
574.5132073009208
 30
3.646124999999996
 11
823.9978767153139
 21
574.5132073009208
 31
3.646124999999996
  0
LINE
  5
56B52
330
458D6
100
AcDbEntity
  8
0
 62
     0
100
AcDbLine
 10
822.9818767153121
 20
573.6720000462785
 30
3.646124999999996
 11
819.4385767153121
 21
573.6720000462785
 31
3.646124999999996
  0
LINE
  5
56B53
330
458D6
100
AcDbEntity
  8
0
 62
     0
100
AcDbLine
 10
822.9818767153121
 20
571.7384057522995
 30
3.646124999999996
 11
819.4385767153121
 21
571.7384057522995
 31
3.646124999999996
  0
LINE
  5
56B54
330
458D6
100
AcDbEntity
  8
0
 62
     0
100
AcDbLine
 10
825.013876715313
 20
573.6242073009216
 30
3.646124999999996
 11
825.013876715313
 21
561.4322073009211
 31
3.646124999999996
  0
LINE
  5
56B55
330
458D6
100
AcDbEntity
  8
0
 62
     0
100
AcDbLine
 10
825.5218767153126
 20
574.5132073009208
 30
3.646124999999996
 11
825.5218767153126
 21
560.5432073009219
 31
3.646124999999996
  0
LINE
  5
56B56
330
458D6
100
AcDbEntity
  8
0
 62
     0
100
AcDbLine
 10
826.0298767153122
 20
574.5132073009208
 30
3.646124999999996
 11
826.0298767153122
 21
560.5432073009219
 31
3.646124999999996
  0
LINE
  5
56B57
330
458D6
100
AcDbEntity
  8
0
 62
     0
100
AcDbLine
 10
826.5378767153116
 20
573.6242073009216
 30
3.646124999999996
 11
826.5378767153116
 21
561.4322073009211
 31
3.646124999999996
  0
LINE
  5
56B58
330
458D6
100
AcDbEntity
  8
0
 62
     0
100
AcDbLine
 10
827.045876715314
 20
573.6242073009216
 30
3.646124999999996
 11
827.045876715314
 21
561.4322073009211
 31
3.646124999999996
  0
LINE
  5
56B59
330
458D6
100
AcDbEntity
  8
0
 62
     0
100
AcDbLine
 10
836.3168767153144
 20
575.8086073008728
 30
3.646124999999996
 11
836.3168767153114
 21
559.2478073008342
 31
3.646124999999996
  0
ARC
  5
56B5A
330
458D6
100
AcDbEntity
  8
0
 62
     0
100
AcDbCircle
 10
827.0855642153135
 20
567.5282073009213
 30
3.646124999999996
 40
9.231312499998928
100
AcDbArc
 50
332.8656845152974
 51
27.1343154847025
  0
LINE
  5
56B5B
330
458D6
100
AcDbEntity
  8
0
 62
     0
100
AcDbLine
 10
835.3008767153124
 20
561.3844145555641
 30
3.646124999999996
 11
827.4268767153136
 21
561.3844145555641
 31
3.646124999999996
  0
LINE
  5
56B5C
330
458D6
100
AcDbEntity
  8
0
 62
     0
100
AcDbLine
 10
835.3008767153124
 20
563.3180088495403
 30
3.646124999999996
 11
827.4268767153136
 21
563.3180088495403
 31
3.646124999999996
  0
LINE
  5
56B5D
330
458D6
100
AcDbEntity
  8
0
 62
     0
100
AcDbLine
 10
827.045876715314
 20
561.4322073009211
 30
3.646124999999996
 11
827.4268767153136
 21
560.765457300921
 31
3.646124999999996
  0
LINE
  5
56B5E
330
458D6
100
AcDbEntity
  8
0
 62
     0
100
AcDbLine
 10
826.5378767153116
 20
561.4322073009211
 30
3.646124999999996
 11
827.045876715314
 21
561.4322073009211
 31
3.646124999999996
  0
LINE
  5
56B5F
330
458D6
100
AcDbEntity
  8
0
 62
     0
100
AcDbLine
 10
825.5218767153126
 20
560.5432073009219
 30
3.646124999999996
 11
826.0298767153122
 21
560.5432073009219
 31
3.646124999999996
  0
LINE
  5
56B60
330
458D6
100
AcDbEntity
  8
0
 62
     0
100
AcDbLine
 10
826.0298767153122
 20
560.5432073009219
 30
3.646124999999996
 11
826.5378767153116
 21
561.4322073009211
 31
3.646124999999996
  0
LINE
  5
56B61
330
458D6
100
AcDbEntity
  8
0
 62
     0
100
AcDbLine
 10
825.013876715313
 20
561.4322073009211
 30
3.646124999999996
 11
825.5218767153126
 21
560.5432073009219
 31
3.646124999999996
  0
LINE
  5
56B62
330
458D6
100
AcDbEntity
  8
0
 62
     0
100
AcDbLine
 10
835.3008767153124
 20
563.3180088495403
 30
3.646124999999996
 11
835.3008767153124
 21
561.3844145555641
 31
3.646124999999996
  0
LINE
  5
56B63
330
458D6
100
AcDbEntity
  8
0
 62
     0
100
AcDbLine
 10
835.3008767153124
 20
571.7384057522995
 30
3.646124999999996
 11
827.4268767153136
 21
571.7384057522995
 31
3.646124999999996
  0
LINE
  5
56B64
330
458D6
100
AcDbEntity
  8
0
 62
     0
100
AcDbLine
 10
835.3008767153124
 20
573.6720000462785
 30
3.646124999999996
 11
827.4268767153136
 21
573.6720000462785
 31
3.646124999999996
  0
LINE
  5
56B65
330
458D6
100
AcDbEntity
  8
0
 62
     0
100
AcDbLine
 10
825.013876715313
 20
573.6242073009216
 30
3.646124999999996
 11
825.5218767153126
 21
574.5132073009208
 31
3.646124999999996
  0
LINE
  5
56B66
330
458D6
100
AcDbEntity
  8
0
 62
     0
100
AcDbLine
 10
826.0298767153122
 20
574.5132073009208
 30
3.646124999999996
 11
826.5378767153116
 21
573.6242073009216
 31
3.646124999999996
  0
LINE
  5
56B67
330
458D6
100
AcDbEntity
  8
0
 62
     0
100
AcDbLine
 10
825.5218767153126
 20
574.5132073009208
 30
3.646124999999996
 11
826.0298767153122
 21
574.5132073009208
 31
3.646124999999996
  0
LINE
  5
56B68
330
458D6
100
AcDbEntity
  8
0
 62
     0
100
AcDbLine
 10
826.5378767153116
 20
573.6242073009216
 30
3.646124999999996
 11
827.045876715314
 21
573.6242073009216
 31
3.646124999999996
  0
LINE
  5
56B69
330
458D6
100
AcDbEntity
  8
0
 62
     0
100
AcDbLine
 10
827.045876715314
 20
573.6242073009216
 30
3.646124999999996
 11
827.4268767153136
 21
574.2909573009217
 31
3.646124999999996
  0
LINE
  5
56B6A
330
458D6
100
AcDbEntity
  8
0
 62
     0
100
AcDbLine
 10
835.3008767153124
 20
573.6720000462785
 30
3.646124999999996
 11
835.3008767153124
 21
571.7384057522995
 31
3.646124999999996
  0
LINE
  5
56B6B
330
458D6
100
AcDbEntity
  8
0
 62
     0
100
AcDbLine
 10
819.4385767153121
 20
577.9422073009206
 30
3.646124999999996
 11
822.9818767153121
 21
577.9422073009206
 31
3.646124999999996
  0
LINE
  5
56B6C
330
458D6
100
AcDbEntity
  8
0
 62
     0
100
AcDbLine
 10
827.4268767153136
 20
577.9422073009206
 30
3.646124999999996
 11
835.3008767153124
 21
577.9422073009206
 31
3.646124999999996
  0
LINE
  5
56B6D
330
458D6
100
AcDbEntity
  8
0
 62
     0
100
AcDbLine
 10
836.3168767153114
 20
577.0532073009214
 30
3.646124999999996
 11
836.0185263310334
 21
577.0532073009214
 31
3.646124999999996
  0
LINE
  5
56B6E
330
458D6
100
AcDbEntity
  8
0
 62
     0
100
AcDbLine
 10
839.6188767153113
 20
573.7512073009214
 30
3.646124999999996
 11
839.6188767153141
 21
561.3052073009212
 31
3.646124999999996
  0
LINE
  5
56B6F
330
458D6
100
AcDbEntity
  8
0
 62
     0
100
AcDbLine
 10
713.4062767153129
 20
577.9422073009206
 30
3.646124999999996
 11
705.5322767153114
 21
577.9422073009206
 31
3.646124999999996
  0
LINE
  5
56B70
330
458D6
100
AcDbEntity
  8
0
 62
     0
100
AcDbLine
 10
705.5322767153114
 20
573.6720000462785
 30
3.646124999999996
 11
713.4062767153129
 21
573.6720000462785
 31
3.646124999999996
  0
LINE
  5
56B71
330
458D6
100
AcDbEntity
  8
0
 62
     0
100
AcDbLine
 10
705.5322767153114
 20
571.7384057522995
 30
3.646124999999996
 11
713.4062767153129
 21
571.7384057522995
 31
3.646124999999996
  0
LINE
  5
56B72
330
458D6
100
AcDbEntity
  8
0
 62
     0
100
AcDbLine
 10
705.5322767153114
 20
563.3180088495403
 30
3.646124999999996
 11
713.4062767153129
 21
563.3180088495403
 31
3.646124999999996
  0
LINE
  5
56B73
330
458D6
100
AcDbEntity
  8
0
 62
     0
100
AcDbLine
 10
705.5322767153114
 20
561.3844145555641
 30
3.646124999999996
 11
713.4062767153129
 21
561.3844145555641
 31
3.646124999999996
  0
LINE
  5
56B74
330
458D6
100
AcDbEntity
  8
0
 62
     0
100
AcDbLine
 10
713.4062767153129
 20
557.1142073009221
 30
3.646124999999996
 11
705.5322767153114
 21
557.1142073009221
 31
3.646124999999996
  0
LINE
  5
56B75
330
458D6
100
AcDbEntity
  8
0
 62
     0
100
AcDbLine
 10
713.7872767153126
 20
573.6242073009216
 30
3.646124999999996
 11
713.7872767153126
 21
561.4322073009211
 31
3.646124999999996
  0
LINE
  5
56B76
330
458D6
100
AcDbEntity
  8
0
 62
     0
100
AcDbLine
 10
714.2952767153121
 20
573.6242073009216
 30
3.646124999999996
 11
714.2952767153121
 21
561.4322073009211
 31
3.646124999999996
  0
LINE
  5
56B77
330
458D6
100
AcDbEntity
  8
0
 62
     0
100
AcDbLine
 10
714.8032767153116
 20
574.5132073009208
 30
3.646124999999996
 11
714.8032767153116
 21
560.5432073009219
 31
3.646124999999996
  0
LINE
  5
56B78
330
458D6
100
AcDbEntity
  8
0
 62
     0
100
AcDbLine
 10
715.3112767153141
 20
574.5132073009208
 30
3.646124999999996
 11
715.3112767153141
 21
560.5432073009219
 31
3.646124999999996
  0
LINE
  5
56B79
330
458D6
100
AcDbEntity
  8
0
 62
     0
100
AcDbLine
 10
715.8192767153137
 20
573.6242073009216
 30
3.646124999999996
 11
715.8192767153137
 21
561.4322073009211
 31
3.646124999999996
  0
LINE
  5
56B7A
330
458D6
100
AcDbEntity
  8
0
 62
     0
100
AcDbLine
 10
716.3272767153131
 20
573.6242073009216
 30
3.646124999999996
 11
716.3272767153131
 21
561.4322073009211
 31
3.646124999999996
  0
LINE
  5
56B7B
330
458D6
100
AcDbEntity
  8
0
 62
     0
100
AcDbLine
 10
716.8352767153127
 20
574.5132073009208
 30
3.646124999999996
 11
716.8352767153127
 21
560.5432073009219
 31
3.646124999999996
  0
LINE
  5
56B7C
330
458D6
100
AcDbEntity
  8
0
 62
     0
100
AcDbLine
 10
717.3432767153123
 20
574.5132073009208
 30
3.646124999999996
 11
717.3432767153123
 21
560.5432073009219
 31
3.646124999999996
  0
LINE
  5
56B7D
330
458D6
100
AcDbEntity
  8
0
 62
     0
100
AcDbLine
 10
717.8512767153117
 20
577.9422073009206
 30
3.646124999999996
 11
717.8512767153117
 21
557.1142073009221
 31
3.646124999999996
  0
LINE
  5
56B7E
330
458D6
100
AcDbEntity
  8
0
 62
     0
100
AcDbLine
 10
713.4062767153129
 20
577.9422073009206
 30
3.646124999999996
 11
713.4062767153129
 21
557.1142073009221
 31
3.646124999999996
  0
LINE
  5
56B7F
330
458D6
100
AcDbEntity
  8
0
 62
     0
100
AcDbLine
 10
717.8512767153117
 20
563.3180088495403
 30
3.646124999999996
 11
721.3945767153116
 21
563.3180088495403
 31
3.646124999999996
  0
LINE
  5
56B80
330
458D6
100
AcDbEntity
  8
0
 62
     0
100
AcDbLine
 10
717.8512767153117
 20
561.3844145555641
 30
3.646124999999996
 11
721.3945767153116
 21
561.3844145555641
 31
3.646124999999996
  0
LINE
  5
56B81
330
458D6
100
AcDbEntity
  8
0
 62
     0
100
AcDbLine
 10
721.3945767153116
 20
557.1142073009221
 30
3.646124999999996
 11
717.8512767153117
 21
557.1142073009221
 31
3.646124999999996
  0
LINE
  5
56B82
330
458D6
100
AcDbEntity
  8
0
 62
     0
100
AcDbLine
 10
713.7872767153126
 20
561.4322073009211
 30
3.646124999999996
 11
713.4062767153129
 21
560.765457300921
 31
3.646124999999996
  0
LINE
  5
56B83
330
458D6
100
AcDbEntity
  8
0
 62
     0
100
AcDbLine
 10
715.8192767153137
 20
561.4322073009211
 30
3.646124999999996
 11
715.3112767153141
 21
560.5432073009219
 31
3.646124999999996
  0
LINE
  5
56B84
330
458D6
100
AcDbEntity
  8
0
 62
     0
100
AcDbLine
 10
714.8032767153116
 20
560.5432073009219
 30
3.646124999999996
 11
714.2952767153121
 21
561.4322073009211
 31
3.646124999999996
  0
LINE
  5
56B85
330
458D6
100
AcDbEntity
  8
0
 62
     0
100
AcDbLine
 10
715.3112767153141
 20
560.5432073009219
 30
3.646124999999996
 11
714.8032767153116
 21
560.5432073009219
 31
3.646124999999996
  0
LINE
  5
56B86
330
458D6
100
AcDbEntity
  8
0
 62
     0
100
AcDbLine
 10
714.2952767153121
 20
561.4322073009211
 30
3.646124999999996
 11
713.7872767153126
 21
561.4322073009211
 31
3.646124999999996
  0
LINE
  5
56B87
330
458D6
100
AcDbEntity
  8
0
 62
     0
100
AcDbLine
 10
717.8512767153117
 20
561.4322073009211
 30
3.646124999999996
 11
717.3432767153123
 21
560.5432073009219
 31
3.646124999999996
  0
LINE
  5
56B88
330
458D6
100
AcDbEntity
  8
0
 62
     0
100
AcDbLine
 10
716.8352767153127
 20
560.5432073009219
 30
3.646124999999996
 11
716.3272767153131
 21
561.4322073009211
 31
3.646124999999996
  0
LINE
  5
56B89
330
458D6
100
AcDbEntity
  8
0
 62
     0
100
AcDbLine
 10
717.3432767153123
 20
560.5432073009219
 30
3.646124999999996
 11
716.8352767153127
 21
560.5432073009219
 31
3.646124999999996
  0
LINE
  5
56B8A
330
458D6
100
AcDbEntity
  8
0
 62
     0
100
AcDbLine
 10
716.3272767153131
 20
561.4322073009211
 30
3.646124999999996
 11
715.8192767153137
 21
561.4322073009211
 31
3.646124999999996
  0
LINE
  5
56B8B
330
458D6
100
AcDbEntity
  8
0
 62
     0
100
AcDbLine
 10
721.3945767153116
 20
577.9422073009206
 30
3.646124999999996
 11
717.8512767153117
 21
577.9422073009206
 31
3.646124999999996
  0
LINE
  5
56B8C
330
458D6
100
AcDbEntity
  8
0
 62
     0
100
AcDbLine
 10
717.8512767153117
 20
571.7384057522995
 30
3.646124999999996
 11
721.3945767153116
 21
571.7384057522995
 31
3.646124999999996
  0
LINE
  5
56B8D
330
458D6
100
AcDbEntity
  8
0
 62
     0
100
AcDbLine
 10
717.8512767153117
 20
573.6720000462785
 30
3.646124999999996
 11
721.3945767153116
 21
573.6720000462785
 31
3.646124999999996
  0
LINE
  5
56B8E
330
458D6
100
AcDbEntity
  8
0
 62
     0
100
AcDbLine
 10
714.8032767153116
 20
574.5132073009208
 30
3.646124999999996
 11
714.2952767153121
 21
573.6242073009216
 31
3.646124999999996
  0
LINE
  5
56B8F
330
458D6
100
AcDbEntity
  8
0
 62
     0
100
AcDbLine
 10
715.8192767153137
 20
573.6242073009216
 30
3.646124999999996
 11
715.3112767153141
 21
574.5132073009208
 31
3.646124999999996
  0
LINE
  5
56B90
330
458D6
100
AcDbEntity
  8
0
 62
     0
100
AcDbLine
 10
716.8352767153127
 20
574.5132073009208
 30
3.646124999999996
 11
716.3272767153131
 21
573.6242073009216
 31
3.646124999999996
  0
LINE
  5
56B91
330
458D6
100
AcDbEntity
  8
0
 62
     0
100
AcDbLine
 10
717.8512767153117
 20
573.6242073009216
 30
3.646124999999996
 11
717.3432767153123
 21
574.5132073009208
 31
3.646124999999996
  0
LINE
  5
56B92
330
458D6
100
AcDbEntity
  8
0
 62
     0
100
AcDbLine
 10
713.7872767153126
 20
573.6242073009216
 30
3.646124999999996
 11
713.4062767153129
 21
574.2909573009217
 31
3.646124999999996
  0
LINE
  5
56B93
330
458D6
100
AcDbEntity
  8
0
 62
     0
100
AcDbLine
 10
714.2952767153121
 20
573.6242073009216
 30
3.646124999999996
 11
713.7872767153126
 21
573.6242073009216
 31
3.646124999999996
  0
LINE
  5
56B94
330
458D6
100
AcDbEntity
  8
0
 62
     0
100
AcDbLine
 10
716.3272767153131
 20
573.6242073009216
 30
3.646124999999996
 11
715.8192767153137
 21
573.6242073009216
 31
3.646124999999996
  0
LINE
  5
56B95
330
458D6
100
AcDbEntity
  8
0
 62
     0
100
AcDbLine
 10
715.3112767153141
 20
574.5132073009208
 30
3.646124999999996
 11
714.8032767153116
 21
574.5132073009208
 31
3.646124999999996
  0
LINE
  5
56B96
330
458D6
100
AcDbEntity
  8
0
 62
     0
100
AcDbLine
 10
717.3432767153123
 20
574.5132073009208
 30
3.646124999999996
 11
716.8352767153127
 21
574.5132073009208
 31
3.646124999999996
  0
LINE
  5
56B97
330
458D6
100
AcDbEntity
  8
0
 62
     0
100
AcDbLine
 10
701.2142767153124
 20
573.7512073009214
 30
3.646124999999996
 11
701.2142767153124
 21
561.3052073009212
 31
3.646124999999996
  0
ARC
  5
56B98
330
458D6
100
AcDbEntity
  8
0
 62
     0
100
AcDbCircle
 10
713.7475892153103
 20
567.5282073009213
 30
3.646124999999996
 40
9.231312499998928
100
AcDbArc
 50
152.8656845152975
 51
207.1343154847024
  0
LINE
  5
56B99
330
458D6
100
AcDbEntity
  8
0
 62
     0
100
AcDbLine
 10
704.5162767153124
 20
575.8086073008728
 30
3.646124999999996
 11
704.5162767153124
 21
559.2478073008342
 31
3.646124999999996
  0
ARC
  5
56B9A
330
458D6
100
AcDbEntity
  8
0
 62
     0
100
AcDbCircle
 10
707.2677143326883
 20
559.2493109282417
 30
3.646124999999996
 40
2.751438028232276
100
AcDbArc
 50
129.1046213224502
 51
230.8953786775497
  0
ARC
  5
56B9B
330
458D6
100
AcDbEntity
  8
0
 62
     0
100
AcDbCircle
 10
704.5162767153124
 20
561.3052073009212
 30
3.646124999999996
 40
3.302
100
AcDbArc
 50
180.0
 51
270.0
  0
LINE
  5
56B9C
330
458D6
100
AcDbEntity
  8
0
 62
     0
100
AcDbLine
 10
705.5322767153114
 20
563.3180088495403
 30
3.646124999999996
 11
705.5322767153114
 21
561.3844145555641
 31
3.646124999999996
  0
LINE
  5
56B9D
330
458D6
100
AcDbEntity
  8
0
 62
     0
100
AcDbLine
 10
704.5162767153124
 20
558.0032073009213
 30
3.646124999999996
 11
704.8146270995931
 21
558.0032073009213
 31
3.646124999999996
  0
ARC
  5
56B9E
330
458D6
100
AcDbEntity
  8
0
 62
     0
100
AcDbCircle
 10
707.2677143326883
 20
575.8071036735981
 30
3.646124999999996
 40
2.751438028232276
100
AcDbArc
 50
129.1046213224502
 51
230.8953786775497
  0
ARC
  5
56B9F
330
458D6
100
AcDbEntity
  8
0
 62
     0
100
AcDbCircle
 10
704.5162767153124
 20
573.7512073009214
 30
3.646124999999996
 40
3.302
100
AcDbArc
 50
90.0
 51
180.0
  0
LINE
  5
56BA0
330
458D6
100
AcDbEntity
  8
0
 62
     0
100
AcDbLine
 10
705.5322767153114
 20
573.6720000462785
 30
3.646124999999996
 11
705.5322767153114
 21
571.7384057522995
 31
3.646124999999996
  0
LINE
  5
56BA1
330
458D6
100
AcDbEntity
  8
0
 62
     0
100
AcDbLine
 10
704.5162767153124
 20
577.0532073009214
 30
3.646124999999996
 11
704.8146270995931
 21
577.0532073009214
 31
3.646124999999996
  0
LINE
  5
56BA2
330
458D6
100
AcDbEntity
  8
0
 62
     0
100
AcDbLine
 10
818.1685767153133
 20
444.993226453531
 30
3.646124999999996
 11
722.6645767153135
 21
444.993226453531
 31
3.646124999999996
  0
LINE
  5
56BA3
330
458D6
100
AcDbEntity
  8
0
 62
     0
100
AcDbLine
 10
819.4385767153121
 20
435.8338649525738
 30
3.646124999999996
 11
819.4385767153121
 21
443.7232264535293
 31
3.646124999999996
  0
LINE
  5
56BA4
330
458D6
100
AcDbEntity
  8
0
 62
     0
100
AcDbLine
 10
721.3945767153116
 20
435.8338649525738
 30
3.646124999999996
 11
721.3945767153116
 21
443.7232264535293
 31
3.646124999999996
  0
ARC
  5
56BA5
330
458D6
100
AcDbEntity
  8
0
 62
     0
100
AcDbCircle
 10
818.1685767153133
 20
443.7232264535293
 30
3.646124999999996
 40
1.27
100
AcDbArc
 50
0.0
 51
90.0
  0
ARC
  5
56BA6
330
458D6
100
AcDbEntity
  8
0
 62
     0
100
AcDbCircle
 10
722.6645767153135
 20
443.7232264535293
 30
3.646124999999996
 40
1.27
100
AcDbArc
 50
90.0
 51
180.0
  0
LINE
  5
56BA7
330
458D6
100
AcDbEntity
  8
0
 62
     0
100
AcDbLine
 10
819.4174223802857
 20
542.3822073009211
 30
3.646124999999996
 11
822.9607223802856
 21
542.3822073009211
 31
3.646124999999996
  0
LINE
  5
56BA8
330
458D6
100
AcDbEntity
  8
0
 62
     0
100
AcDbLine
 10
822.9607223802856
 20
536.1784057523
 30
3.646124999999996
 11
819.4174223802857
 21
536.1784057523
 31
3.646124999999996
  0
LINE
  5
56BA9
330
458D6
100
AcDbEntity
  8
0
 62
     0
100
AcDbLine
 10
822.9607223802856
 20
538.1120000462791
 30
3.646124999999996
 11
819.4174223802857
 21
538.1120000462791
 31
3.646124999999996
  0
LINE
  5
56BAA
330
458D6
100
AcDbEntity
  8
0
 62
     0
100
AcDbLine
 10
822.9607223802856
 20
527.7580088495409
 30
3.646124999999996
 11
819.4174223802857
 21
527.7580088495409
 31
3.646124999999996
  0
LINE
  5
56BAB
330
458D6
100
AcDbEntity
  8
0
 62
     0
100
AcDbLine
 10
822.9607223802856
 20
525.8244145555647
 30
3.646124999999996
 11
819.4174223802857
 21
525.8244145555647
 31
3.646124999999996
  0
LINE
  5
56BAC
330
458D6
100
AcDbEntity
  8
0
 62
     0
100
AcDbLine
 10
819.4174223802857
 20
521.5542073009198
 30
3.646124999999996
 11
822.9607223802856
 21
521.5542073009198
 31
3.646124999999996
  0
LINE
  5
56BAD
330
458D6
100
AcDbEntity
  8
0
 62
     0
100
AcDbLine
 10
839.5977223802878
 20
538.191207300922
 30
3.646124999999996
 11
839.5977223802878
 21
525.7452073009218
 31
3.646124999999996
  0
ARC
  5
56BAE
330
458D6
100
AcDbEntity
  8
0
 62
     0
100
AcDbCircle
 10
827.0644098802872
 20
531.9682073009219
 30
3.646124999999996
 40
9.231312499998928
100
AcDbArc
 50
332.8656845152974
 51
27.1343154847025
  0
LINE
  5
56BAF
330
458D6
100
AcDbEntity
  8
0
 62
     0
100
AcDbLine
 10
836.2957223802879
 20
540.2486073008705
 30
3.646124999999996
 11
836.2957223802879
 21
523.6878073008347
 31
3.646124999999996
  0
LINE
  5
56BB0
330
458D6
100
AcDbEntity
  8
0
 62
     0
100
AcDbLine
 10
827.0247223802877
 20
538.0642073009221
 30
3.646124999999996
 11
827.0247223802877
 21
525.8722073009217
 31
3.646124999999996
  0
LINE
  5
56BB1
330
458D6
100
AcDbEntity
  8
0
 62
     0
100
AcDbLine
 10
826.5167223802853
 20
538.0642073009221
 30
3.646124999999996
 11
826.5167223802853
 21
525.8722073009217
 31
3.646124999999996
  0
LINE
  5
56BB2
330
458D6
100
AcDbEntity
  8
0
 62
     0
100
AcDbLine
 10
826.0087223802857
 20
538.9532073009213
 30
3.646124999999996
 11
826.0087223802857
 21
524.9832073009196
 31
3.646124999999996
  0
LINE
  5
56BB3
330
458D6
100
AcDbEntity
  8
0
 62
     0
100
AcDbLine
 10
825.5007223802863
 20
538.9532073009213
 30
3.646124999999996
 11
825.5007223802863
 21
524.9832073009196
 31
3.646124999999996
  0
LINE
  5
56BB4
330
458D6
100
AcDbEntity
  8
0
 62
     0
100
AcDbLine
 10
824.9927223802867
 20
538.0642073009221
 30
3.646124999999996
 11
824.9927223802867
 21
525.8722073009217
 31
3.646124999999996
  0
LINE
  5
56BB5
330
458D6
100
AcDbEntity
  8
0
 62
     0
100
AcDbLine
 10
824.4847223802871
 20
538.0642073009221
 30
3.646124999999996
 11
824.4847223802871
 21
525.8722073009217
 31
3.646124999999996
  0
LINE
  5
56BB6
330
458D6
100
AcDbEntity
  8
0
 62
     0
100
AcDbLine
 10
823.9767223802877
 20
538.9532073009213
 30
3.646124999999996
 11
823.9767223802877
 21
524.9832073009196
 31
3.646124999999996
  0
LINE
  5
56BB7
330
458D6
100
AcDbEntity
  8
0
 62
     0
100
AcDbLine
 10
823.4687223802881
 20
538.9532073009213
 30
3.646124999999996
 11
823.4687223802881
 21
524.9832073009196
 31
3.646124999999996
  0
LINE
  5
56BB8
330
458D6
100
AcDbEntity
  8
0
 62
     0
100
AcDbLine
 10
822.9607223802856
 20
542.3822073009211
 30
3.646124999999996
 11
822.9607223802856
 21
521.5542073009198
 31
3.646124999999996
  0
LINE
  5
56BB9
330
458D6
100
AcDbEntity
  8
0
 62
     0
100
AcDbLine
 10
827.4057223802874
 20
542.3822073009211
 30
3.646124999999996
 11
827.4057223802874
 21
521.5542073009198
 31
3.646124999999996
  0
LINE
  5
56BBA
330
458D6
100
AcDbEntity
  8
0
 62
     0
100
AcDbLine
 10
835.2797223802861
 20
527.7580088495409
 30
3.646124999999996
 11
827.4057223802874
 21
527.7580088495409
 31
3.646124999999996
  0
LINE
  5
56BBB
330
458D6
100
AcDbEntity
  8
0
 62
     0
100
AcDbLine
 10
835.2797223802861
 20
525.8244145555647
 30
3.646124999999996
 11
827.4057223802874
 21
525.8244145555647
 31
3.646124999999996
  0
LINE
  5
56BBC
330
458D6
100
AcDbEntity
  8
0
 62
     0
100
AcDbLine
 10
827.4057223802874
 20
521.5542073009198
 30
3.646124999999996
 11
835.2797223802861
 21
521.5542073009198
 31
3.646124999999996
  0
LINE
  5
56BBD
330
458D6
100
AcDbEntity
  8
0
 62
     0
100
AcDbLine
 10
826.0087223802857
 20
524.9832073009196
 30
3.646124999999996
 11
826.5167223802853
 21
525.8722073009217
 31
3.646124999999996
  0
LINE
  5
56BBE
330
458D6
100
AcDbEntity
  8
0
 62
     0
100
AcDbLine
 10
824.9927223802867
 20
525.8722073009217
 30
3.646124999999996
 11
825.5007223802863
 21
524.9832073009196
 31
3.646124999999996
  0
LINE
  5
56BBF
330
458D6
100
AcDbEntity
  8
0
 62
     0
100
AcDbLine
 10
825.5007223802863
 20
524.9832073009196
 30
3.646124999999996
 11
826.0087223802857
 21
524.9832073009196
 31
3.646124999999996
  0
LINE
  5
56BC0
330
458D6
100
AcDbEntity
  8
0
 62
     0
100
AcDbLine
 10
822.9607223802856
 20
525.8722073009217
 30
3.646124999999996
 11
823.4687223802881
 21
524.9832073009196
 31
3.646124999999996
  0
LINE
  5
56BC1
330
458D6
100
AcDbEntity
  8
0
 62
     0
100
AcDbLine
 10
823.9767223802877
 20
524.9832073009196
 30
3.646124999999996
 11
824.4847223802871
 21
525.8722073009217
 31
3.646124999999996
  0
LINE
  5
56BC2
330
458D6
100
AcDbEntity
  8
0
 62
     0
100
AcDbLine
 10
823.4687223802881
 20
524.9832073009196
 30
3.646124999999996
 11
823.9767223802877
 21
524.9832073009196
 31
3.646124999999996
  0
LINE
  5
56BC3
330
458D6
100
AcDbEntity
  8
0
 62
     0
100
AcDbLine
 10
824.4847223802871
 20
525.8722073009217
 30
3.646124999999996
 11
824.9927223802867
 21
525.8722073009217
 31
3.646124999999996
  0
LINE
  5
56BC4
330
458D6
100
AcDbEntity
  8
0
 62
     0
100
AcDbLine
 10
826.5167223802853
 20
525.8722073009217
 30
3.646124999999996
 11
827.0247223802877
 21
525.8722073009217
 31
3.646124999999996
  0
LINE
  5
56BC5
330
458D6
100
AcDbEntity
  8
0
 62
     0
100
AcDbLine
 10
827.0247223802877
 20
525.8722073009217
 30
3.646124999999996
 11
827.4057223802874
 21
525.2054573009216
 31
3.646124999999996
  0
ARC
  5
56BC6
330
458D6
100
AcDbEntity
  8
0
 62
     0
100
AcDbCircle
 10
833.5442847629121
 20
523.6893109282423
 30
3.646124999999996
 40
2.751438028232276
100
AcDbArc
 50
309.1046213224502
 51
50.89537867754973
  0
ARC
  5
56BC7
330
458D6
100
AcDbEntity
  8
0
 62
     0
100
AcDbCircle
 10
836.2957223802879
 20
525.7452073009218
 30
3.646124999999996
 40
3.302
100
AcDbArc
 50
270.0
 51
0.0
  0
LINE
  5
56BC8
330
458D6
100
AcDbEntity
  8
0
 62
     0
100
AcDbLine
 10
835.2797223802861
 20
527.7580088495409
 30
3.646124999999996
 11
835.2797223802861
 21
525.8244145555647
 31
3.646124999999996
  0
LINE
  5
56BC9
330
458D6
100
AcDbEntity
  8
0
 62
     0
100
AcDbLine
 10
836.2957223802879
 20
522.4432073009219
 30
3.646124999999996
 11
835.9973719960072
 21
522.4432073009219
 31
3.646124999999996
  0
LINE
  5
56BCA
330
458D6
100
AcDbEntity
  8
0
 62
     0
100
AcDbLine
 10
827.4057223802874
 20
542.3822073009211
 30
3.646124999999996
 11
835.2797223802861
 21
542.3822073009211
 31
3.646124999999996
  0
LINE
  5
56BCB
330
458D6
100
AcDbEntity
  8
0
 62
     0
100
AcDbLine
 10
835.2797223802861
 20
538.1120000462791
 30
3.646124999999996
 11
827.4057223802874
 21
538.1120000462791
 31
3.646124999999996
  0
LINE
  5
56BCC
330
458D6
100
AcDbEntity
  8
0
 62
     0
100
AcDbLine
 10
835.2797223802861
 20
536.1784057523
 30
3.646124999999996
 11
827.4057223802874
 21
536.1784057523
 31
3.646124999999996
  0
LINE
  5
56BCD
330
458D6
100
AcDbEntity
  8
0
 62
     0
100
AcDbLine
 10
826.0087223802857
 20
538.9532073009213
 30
3.646124999999996
 11
826.5167223802853
 21
538.0642073009221
 31
3.646124999999996
  0
LINE
  5
56BCE
330
458D6
100
AcDbEntity
  8
0
 62
     0
100
AcDbLine
 10
824.9927223802867
 20
538.0642073009221
 30
3.646124999999996
 11
825.5007223802863
 21
538.9532073009213
 31
3.646124999999996
  0
LINE
  5
56BCF
330
458D6
100
AcDbEntity
  8
0
 62
     0
100
AcDbLine
 10
823.9767223802877
 20
538.9532073009213
 30
3.646124999999996
 11
824.4847223802871
 21
538.0642073009221
 31
3.646124999999996
  0
LINE
  5
56BD0
330
458D6
100
AcDbEntity
  8
0
 62
     0
100
AcDbLine
 10
822.9607223802856
 20
538.0642073009221
 30
3.646124999999996
 11
823.4687223802881
 21
538.9532073009213
 31
3.646124999999996
  0
LINE
  5
56BD1
330
458D6
100
AcDbEntity
  8
0
 62
     0
100
AcDbLine
 10
824.4847223802871
 20
538.0642073009221
 30
3.646124999999996
 11
824.9927223802867
 21
538.0642073009221
 31
3.646124999999996
  0
LINE
  5
56BD2
330
458D6
100
AcDbEntity
  8
0
 62
     0
100
AcDbLine
 10
827.0247223802877
 20
538.0642073009221
 30
3.646124999999996
 11
827.4057223802874
 21
538.7309573009223
 31
3.646124999999996
  0
LINE
  5
56BD3
330
458D6
100
AcDbEntity
  8
0
 62
     0
100
AcDbLine
 10
826.5167223802853
 20
538.0642073009221
 30
3.646124999999996
 11
827.0247223802877
 21
538.0642073009221
 31
3.646124999999996
  0
LINE
  5
56BD4
330
458D6
100
AcDbEntity
  8
0
 62
     0
100
AcDbLine
 10
825.5007223802863
 20
538.9532073009213
 30
3.646124999999996
 11
826.0087223802857
 21
538.9532073009213
 31
3.646124999999996
  0
LINE
  5
56BD5
330
458D6
100
AcDbEntity
  8
0
 62
     0
100
AcDbLine
 10
823.4687223802881
 20
538.9532073009213
 30
3.646124999999996
 11
823.9767223802877
 21
538.9532073009213
 31
3.646124999999996
  0
ARC
  5
56BD6
330
458D6
100
AcDbEntity
  8
0
 62
     0
100
AcDbCircle
 10
833.5442847629121
 20
540.2471036735986
 30
3.646124999999996
 40
2.751438028232276
100
AcDbArc
 50
309.1046213224502
 51
50.89537867754973
  0
ARC
  5
56BD7
330
458D6
100
AcDbEntity
  8
0
 62
     0
100
AcDbCircle
 10
836.2957223802879
 20
538.191207300922
 30
3.646124999999996
 40
3.302
100
AcDbArc
 50
0.0
 51
90.0
  0
LINE
  5
56BD8
330
458D6
100
AcDbEntity
  8
0
 62
     0
100
AcDbLine
 10
835.2797223802861
 20
538.1120000462791
 30
3.646124999999996
 11
835.2797223802861
 21
536.1784057523
 31
3.646124999999996
  0
LINE
  5
56BD9
330
458D6
100
AcDbEntity
  8
0
 62
     0
100
AcDbLine
 10
836.2957223802879
 20
541.493207300922
 30
3.646124999999996
 11
835.9973719960072
 21
541.493207300922
 31
3.646124999999996
  0
LINE
  5
56BDA
330
458D6
100
AcDbEntity
  8
0
 62
     0
100
AcDbLine
 10
713.3465003837374
 20
521.5542073009198
 30
3.646124999999996
 11
705.4725003837387
 21
521.5542073009198
 31
3.646124999999996
  0
LINE
  5
56BDB
330
458D6
100
AcDbEntity
  8
0
 62
     0
100
AcDbLine
 10
705.4725003837387
 20
525.8244145555647
 30
3.646124999999996
 11
713.3465003837374
 21
525.8244145555647
 31
3.646124999999996
  0
LINE
  5
56BDC
330
458D6
100
AcDbEntity
  8
0
 62
     0
100
AcDbLine
 10
705.4725003837387
 20
527.7580088495409
 30
3.646124999999996
 11
713.3465003837374
 21
527.7580088495409
 31
3.646124999999996
  0
LINE
  5
56BDD
330
458D6
100
AcDbEntity
  8
0
 62
     0
100
AcDbLine
 10
705.4725003837387
 20
536.1784057523
 30
3.646124999999996
 11
713.3465003837374
 21
536.1784057523
 31
3.646124999999996
  0
LINE
  5
56BDE
330
458D6
100
AcDbEntity
  8
0
 62
     0
100
AcDbLine
 10
705.4725003837387
 20
538.1120000462791
 30
3.646124999999996
 11
713.3465003837374
 21
538.1120000462791
 31
3.646124999999996
  0
LINE
  5
56BDF
330
458D6
100
AcDbEntity
  8
0
 62
     0
100
AcDbLine
 10
713.3465003837374
 20
542.3822073009211
 30
3.646124999999996
 11
705.4725003837387
 21
542.3822073009211
 31
3.646124999999996
  0
LINE
  5
56BE0
330
458D6
100
AcDbEntity
  8
0
 62
     0
100
AcDbLine
 10
704.4565003837369
 20
540.2486073008705
 30
3.646124999999996
 11
704.4565003837369
 21
523.6878073008347
 31
3.646124999999996
  0
ARC
  5
56BE1
330
458D6
100
AcDbEntity
  8
0
 62
     0
100
AcDbCircle
 10
713.6878128837375
 20
531.9682073009219
 30
3.646124999999996
 40
9.231312499998928
100
AcDbArc
 50
152.8656845152975
 51
207.1343154847024
  0
LINE
  5
56BE2
330
458D6
100
AcDbEntity
  8
0
 62
     0
100
AcDbLine
 10
701.1545003837369
 20
538.191207300922
 30
3.646124999999996
 11
701.1545003837369
 21
525.7452073009218
 31
3.646124999999996
  0
ARC
  5
56BE3
330
458D6
100
AcDbEntity
  8
0
 62
     0
100
AcDbCircle
 10
704.4565003837369
 20
525.7452073009218
 30
3.646124999999996
 40
3.302
100
AcDbArc
 50
180.0
 51
270.0
  0
ARC
  5
56BE4
330
458D6
100
AcDbEntity
  8
0
 62
     0
100
AcDbCircle
 10
707.2079380011127
 20
523.6893109282423
 30
3.646124999999996
 40
2.751438028232276
100
AcDbArc
 50
129.1046213224502
 51
230.8953786775497
  0
LINE
  5
56BE5
330
458D6
100
AcDbEntity
  8
0
 62
     0
100
AcDbLine
 10
704.4565003837369
 20
522.4432073009219
 30
3.646124999999996
 11
704.7548507680176
 21
522.4432073009219
 31
3.646124999999996
  0
LINE
  5
56BE6
330
458D6
100
AcDbEntity
  8
0
 62
     0
100
AcDbLine
 10
705.4725003837387
 20
527.7580088495409
 30
3.646124999999996
 11
705.4725003837387
 21
525.8244145555647
 31
3.646124999999996
  0
ARC
  5
56BE7
330
458D6
100
AcDbEntity
  8
0
 62
     0
100
AcDbCircle
 10
704.4565003837369
 20
538.191207300922
 30
3.646124999999996
 40
3.302
100
AcDbArc
 50
90.0
 51
180.0
  0
ARC
  5
56BE8
330
458D6
100
AcDbEntity
  8
0
 62
     0
100
AcDbCircle
 10
707.2079380011127
 20
540.2471036735986
 30
3.646124999999996
 40
2.751438028232276
100
AcDbArc
 50
129.1046213224502
 51
230.8953786775497
  0
LINE
  5
56BE9
330
458D6
100
AcDbEntity
  8
0
 62
     0
100
AcDbLine
 10
705.4725003837387
 20
538.1120000462791
 30
3.646124999999996
 11
705.4725003837387
 21
536.1784057523
 31
3.646124999999996
  0
LINE
  5
56BEA
330
458D6
100
AcDbEntity
  8
0
 62
     0
100
AcDbLine
 10
704.4565003837369
 20
541.493207300922
 30
3.646124999999996
 11
704.7548507680176
 21
541.493207300922
 31
3.646124999999996
  0
LINE
  5
56BEB
330
458D6
100
AcDbEntity
  8
0
 62
     0
100
AcDbLine
 10
713.3465003837374
 20
542.3822073009211
 30
3.646124999999996
 11
713.3465003837374
 21
521.5542073009198
 31
3.646124999999996
  0
LINE
  5
56BEC
330
458D6
100
AcDbEntity
  8
0
 62
     0
100
AcDbLine
 10
717.7915003837362
 20
542.3822073009211
 30
3.646124999999996
 11
717.7915003837362
 21
521.5542073009198
 31
3.646124999999996
  0
LINE
  5
56BED
330
458D6
100
AcDbEntity
  8
0
 62
     0
100
AcDbLine
 10
717.2835003837367
 20
538.9532073009213
 30
3.646124999999996
 11
717.2835003837367
 21
524.9832073009196
 31
3.646124999999996
  0
LINE
  5
56BEE
330
458D6
100
AcDbEntity
  8
0
 62
     0
100
AcDbLine
 10
716.7755003837371
 20
538.9532073009213
 30
3.646124999999996
 11
716.7755003837371
 21
524.9832073009196
 31
3.646124999999996
  0
LINE
  5
56BEF
330
458D6
100
AcDbEntity
  8
0
 62
     0
100
AcDbLine
 10
716.2675003837375
 20
538.0642073009221
 30
3.646124999999996
 11
716.2675003837375
 21
525.8722073009217
 31
3.646124999999996
  0
LINE
  5
56BF0
330
458D6
100
AcDbEntity
  8
0
 62
     0
100
AcDbLine
 10
715.759500383738
 20
538.0642073009221
 30
3.646124999999996
 11
715.759500383738
 21
525.8722073009217
 31
3.646124999999996
  0
LINE
  5
56BF1
330
458D6
100
AcDbEntity
  8
0
 62
     0
100
AcDbLine
 10
715.2515003837385
 20
538.9532073009213
 30
3.646124999999996
 11
715.2515003837385
 21
524.9832073009196
 31
3.646124999999996
  0
LINE
  5
56BF2
330
458D6
100
AcDbEntity
  8
0
 62
     0
100
AcDbLine
 10
714.743500383739
 20
538.9532073009213
 30
3.646124999999996
 11
714.743500383739
 21
524.9832073009196
 31
3.646124999999996
  0
LINE
  5
56BF3
330
458D6
100
AcDbEntity
  8
0
 62
     0
100
AcDbLine
 10
714.2355003837366
 20
538.0642073009221
 30
3.646124999999996
 11
714.2355003837366
 21
525.8722073009217
 31
3.646124999999996
  0
LINE
  5
56BF4
330
458D6
100
AcDbEntity
  8
0
 62
     0
100
AcDbLine
 10
713.727500383737
 20
538.0642073009221
 30
3.646124999999996
 11
713.727500383737
 21
525.8722073009217
 31
3.646124999999996
  0
LINE
  5
56BF5
330
458D6
100
AcDbEntity
  8
0
 62
     0
100
AcDbLine
 10
721.334800383739
 20
521.5542073009198
 30
3.646124999999996
 11
717.7915003837362
 21
521.5542073009198
 31
3.646124999999996
  0
LINE
  5
56BF6
330
458D6
100
AcDbEntity
  8
0
 62
     0
100
AcDbLine
 10
717.2835003837367
 20
524.9832073009196
 30
3.646124999999996
 11
716.7755003837371
 21
524.9832073009196
 31
3.646124999999996
  0
LINE
  5
56BF7
330
458D6
100
AcDbEntity
  8
0
 62
     0
100
AcDbLine
 10
716.2675003837375
 20
525.8722073009217
 30
3.646124999999996
 11
715.759500383738
 21
525.8722073009217
 31
3.646124999999996
  0
LINE
  5
56BF8
330
458D6
100
AcDbEntity
  8
0
 62
     0
100
AcDbLine
 10
716.7755003837371
 20
524.9832073009196
 30
3.646124999999996
 11
716.2675003837375
 21
525.8722073009217
 31
3.646124999999996
  0
LINE
  5
56BF9
330
458D6
100
AcDbEntity
  8
0
 62
     0
100
AcDbLine
 10
714.2355003837366
 20
525.8722073009217
 30
3.646124999999996
 11
713.727500383737
 21
525.8722073009217
 31
3.646124999999996
  0
LINE
  5
56BFA
330
458D6
100
AcDbEntity
  8
0
 62
     0
100
AcDbLine
 10
715.2515003837385
 20
524.9832073009196
 30
3.646124999999996
 11
714.743500383739
 21
524.9832073009196
 31
3.646124999999996
  0
LINE
  5
56BFB
330
458D6
100
AcDbEntity
  8
0
 62
     0
100
AcDbLine
 10
714.743500383739
 20
524.9832073009196
 30
3.646124999999996
 11
714.2355003837366
 21
525.8722073009217
 31
3.646124999999996
  0
LINE
  5
56BFC
330
458D6
100
AcDbEntity
  8
0
 62
     0
100
AcDbLine
 10
715.759500383738
 20
525.8722073009217
 30
3.646124999999996
 11
715.2515003837385
 21
524.9832073009196
 31
3.646124999999996
  0
LINE
  5
56BFD
330
458D6
100
AcDbEntity
  8
0
 62
     0
100
AcDbLine
 10
713.727500383737
 20
525.8722073009217
 30
3.646124999999996
 11
713.3465003837374
 21
525.2054573009216
 31
3.646124999999996
  0
LINE
  5
56BFE
330
458D6
100
AcDbEntity
  8
0
 62
     0
100
AcDbLine
 10
717.7915003837362
 20
525.8722073009217
 30
3.646124999999996
 11
717.2835003837367
 21
524.9832073009196
 31
3.646124999999996
  0
LINE
  5
56BFF
330
458D6
100
AcDbEntity
  8
0
 62
     0
100
AcDbLine
 10
717.7915003837362
 20
525.8244145555647
 30
3.646124999999996
 11
721.334800383739
 21
525.8244145555647
 31
3.646124999999996
  0
LINE
  5
56C00
330
458D6
100
AcDbEntity
  8
0
 62
     0
100
AcDbLine
 10
717.7915003837362
 20
527.7580088495409
 30
3.646124999999996
 11
721.334800383739
 21
527.7580088495409
 31
3.646124999999996
  0
LINE
  5
56C01
330
458D6
100
AcDbEntity
  8
0
 62
     0
100
AcDbLine
 10
717.7915003837362
 20
538.0642073009221
 30
3.646124999999996
 11
717.2835003837367
 21
538.9532073009213
 31
3.646124999999996
  0
LINE
  5
56C02
330
458D6
100
AcDbEntity
  8
0
 62
     0
100
AcDbLine
 10
716.7755003837371
 20
538.9532073009213
 30
3.646124999999996
 11
716.2675003837375
 21
538.0642073009221
 31
3.646124999999996
  0
LINE
  5
56C03
330
458D6
100
AcDbEntity
  8
0
 62
     0
100
AcDbLine
 10
715.759500383738
 20
538.0642073009221
 30
3.646124999999996
 11
715.2515003837385
 21
538.9532073009213
 31
3.646124999999996
  0
LINE
  5
56C04
330
458D6
100
AcDbEntity
  8
0
 62
     0
100
AcDbLine
 10
714.743500383739
 20
538.9532073009213
 30
3.646124999999996
 11
714.2355003837366
 21
538.0642073009221
 31
3.646124999999996
  0
LINE
  5
56C05
330
458D6
100
AcDbEntity
  8
0
 62
     0
100
AcDbLine
 10
716.2675003837375
 20
538.0642073009221
 30
3.646124999999996
 11
715.759500383738
 21
538.0642073009221
 31
3.646124999999996
  0
LINE
  5
56C06
330
458D6
100
AcDbEntity
  8
0
 62
     0
100
AcDbLine
 10
714.2355003837366
 20
538.0642073009221
 30
3.646124999999996
 11
713.727500383737
 21
538.0642073009221
 31
3.646124999999996
  0
LINE
  5
56C07
330
458D6
100
AcDbEntity
  8
0
 62
     0
100
AcDbLine
 10
713.727500383737
 20
538.0642073009221
 30
3.646124999999996
 11
713.3465003837374
 21
538.7309573009223
 31
3.646124999999996
  0
LINE
  5
56C08
330
458D6
100
AcDbEntity
  8
0
 62
     0
100
AcDbLine
 10
717.7915003837362
 20
538.1120000462791
 30
3.646124999999996
 11
721.334800383739
 21
538.1120000462791
 31
3.646124999999996
  0
LINE
  5
56C09
330
458D6
100
AcDbEntity
  8
0
 62
     0
100
AcDbLine
 10
717.7915003837362
 20
536.1784057523
 30
3.646124999999996
 11
721.334800383739
 21
536.1784057523
 31
3.646124999999996
  0
LINE
  5
56C0A
330
458D6
100
AcDbEntity
  8
0
 62
     0
100
AcDbLine
 10
717.2835003837367
 20
538.9532073009213
 30
3.646124999999996
 11
716.7755003837371
 21
538.9532073009213
 31
3.646124999999996
  0
LINE
  5
56C0B
330
458D6
100
AcDbEntity
  8
0
 62
     0
100
AcDbLine
 10
715.2515003837385
 20
538.9532073009213
 30
3.646124999999996
 11
714.743500383739
 21
538.9532073009213
 31
3.646124999999996
  0
LINE
  5
56C0C
330
458D6
100
AcDbEntity
  8
0
 62
     0
100
AcDbLine
 10
721.334800383739
 20
542.3822073009211
 30
3.646124999999996
 11
717.7915003837362
 21
542.3822073009211
 31
3.646124999999996
  0
CIRCLE
  5
56C0D
330
458D6
100
AcDbEntity
  8
0
 62
     0
100
AcDbCircle
 10
727.7445767153117
 20
505.4173077183744
 30
3.646124999999996
 40
3.96875
  0
INSERT
  5
56C0E
330
458D6
100
AcDbEntity
  8
0
 62
     0
100
AcDbBlockReference
  2
PHILL
 10
727.7445767153117
 20
505.4173077183744
 30
3.646124999999996
 41
-25.4
 42
25.4
 43
25.4
 50
198.8659412470859
  0
CIRCLE
  5
56C0F
330
458D6
100
AcDbEntity
  8
0
 62
     0
100
AcDbCircle
 10
813.088576715312
 20
505.4173077183744
 30
3.646124999999996
 40
3.96875
  0
INSERT
  5
56C10
330
458D6
100
AcDbEntity
  8
0
 62
     0
100
AcDbBlockReference
  2
PHILL
 10
813.088576715312
 20
505.4173077183744
 30
3.646124999999996
 41
-25.4
 42
25.4
 43
25.4
 50
180.0
  0
LINE
  5
56C11
330
458D6
100
AcDbEntity
  8
0
 62
     0
100
AcDbLine
 10
713.3465003837374
 20
406.7512112975997
 30
3.646124999999996
 11
705.4725003837387
 21
406.7512112975997
 31
3.646124999999996
  0
LINE
  5
56C12
330
458D6
100
AcDbEntity
  8
0
 62
     0
100
AcDbLine
 10
705.4725003837387
 20
411.0214185522417
 30
3.646124999999996
 11
713.3465003837374
 21
411.0214185522417
 31
3.646124999999996
  0
LINE
  5
56C13
330
458D6
100
AcDbEntity
  8
0
 62
     0
100
AcDbLine
 10
705.4725003837387
 20
412.9550128462178
 30
3.646124999999996
 11
713.3465003837374
 21
412.9550128462178
 31
3.646124999999996
  0
LINE
  5
56C14
330
458D6
100
AcDbEntity
  8
0
 62
     0
100
AcDbLine
 10
705.4725003837387
 20
421.3754097489769
 30
3.646124999999996
 11
713.3465003837374
 21
421.3754097489769
 31
3.646124999999996
  0
LINE
  5
56C15
330
458D6
100
AcDbEntity
  8
0
 62
     0
100
AcDbLine
 10
705.4725003837387
 20
423.309004042956
 30
3.646124999999996
 11
713.3465003837374
 21
423.309004042956
 31
3.646124999999996
  0
LINE
  5
56C16
330
458D6
100
AcDbEntity
  8
0
 62
     0
100
AcDbLine
 10
713.3465003837374
 20
427.579211297598
 30
3.646124999999996
 11
705.4725003837387
 21
427.579211297598
 31
3.646124999999996
  0
LINE
  5
56C17
330
458D6
100
AcDbEntity
  8
0
 62
     0
100
AcDbLine
 10
704.4565003837369
 20
426.6902112975989
 30
3.646124999999996
 11
704.4565003837369
 21
407.6402112975988
 31
3.646124999999996
  0
ARC
  5
56C18
330
458D6
100
AcDbEntity
  8
0
 62
     0
100
AcDbCircle
 10
713.6878128837375
 20
417.1652112975989
 30
3.646124999999996
 40
9.231312499998928
100
AcDbArc
 50
152.8656845152975
 51
207.1343154847024
  0
LINE
  5
56C19
330
458D6
100
AcDbEntity
  8
0
 62
     0
100
AcDbLine
 10
701.1545003837369
 20
423.3882112975989
 30
3.646124999999996
 11
701.1545003837369
 21
410.9422112975988
 31
3.646124999999996
  0
ARC
  5
56C1A
330
458D6
100
AcDbEntity
  8
0
 62
     0
100
AcDbCircle
 10
704.4565003837369
 20
410.9422112975988
 30
3.646124999999996
 40
3.302
100
AcDbArc
 50
180.0
 51
270.0
  0
ARC
  5
56C1B
330
458D6
100
AcDbEntity
  8
0
 62
     0
100
AcDbCircle
 10
707.2079380011127
 20
408.8863149249192
 30
3.646124999999996
 40
2.751438028232276
100
AcDbArc
 50
129.1046213224502
 51
230.8953786775497
  0
LINE
  5
56C1C
330
458D6
100
AcDbEntity
  8
0
 62
     0
100
AcDbLine
 10
704.4565003837369
 20
407.6402112975988
 30
3.646124999999996
 11
704.7548507680176
 21
407.6402112975988
 31
3.646124999999996
  0
LINE
  5
56C1D
330
458D6
100
AcDbEntity
  8
0
 62
     0
100
AcDbLine
 10
705.4725003837387
 20
412.9550128462178
 30
3.646124999999996
 11
705.4725003837387
 21
411.0214185522417
 31
3.646124999999996
  0
ARC
  5
56C1E
330
458D6
100
AcDbEntity
  8
0
 62
     0
100
AcDbCircle
 10
704.4565003837369
 20
423.3882112975989
 30
3.646124999999996
 40
3.302
100
AcDbArc
 50
90.0
 51
180.0
  0
ARC
  5
56C1F
330
458D6
100
AcDbEntity
  8
0
 62
     0
100
AcDbCircle
 10
707.2079380011127
 20
425.4441076702756
 30
3.646124999999996
 40
2.751438028232276
100
AcDbArc
 50
129.1046213224502
 51
230.8953786775497
  0
LINE
  5
56C20
330
458D6
100
AcDbEntity
  8
0
 62
     0
100
AcDbLine
 10
705.4725003837387
 20
423.309004042956
 30
3.646124999999996
 11
705.4725003837387
 21
421.3754097489769
 31
3.646124999999996
  0
LINE
  5
56C21
330
458D6
100
AcDbEntity
  8
0
 62
     0
100
AcDbLine
 10
704.4565003837369
 20
426.6902112975989
 30
3.646124999999996
 11
704.7548507680176
 21
426.6902112975989
 31
3.646124999999996
  0
LINE
  5
56C22
330
458D6
100
AcDbEntity
  8
0
 62
     0
100
AcDbLine
 10
713.3465003837374
 20
427.579211297598
 30
3.646124999999996
 11
713.3465003837374
 21
406.7512112975997
 31
3.646124999999996
  0
LINE
  5
56C23
330
458D6
100
AcDbEntity
  8
0
 62
     0
100
AcDbLine
 10
717.7915003837362
 20
427.579211297598
 30
3.646124999999996
 11
717.7915003837362
 21
406.7512112975997
 31
3.646124999999996
  0
LINE
  5
56C24
330
458D6
100
AcDbEntity
  8
0
 62
     0
100
AcDbLine
 10
717.2835003837367
 20
424.1502112975982
 30
3.646124999999996
 11
717.2835003837367
 21
410.1802112975994
 31
3.646124999999996
  0
LINE
  5
56C25
330
458D6
100
AcDbEntity
  8
0
 62
     0
100
AcDbLine
 10
716.7755003837371
 20
424.1502112975982
 30
3.646124999999996
 11
716.7755003837371
 21
410.1802112975994
 31
3.646124999999996
  0
LINE
  5
56C26
330
458D6
100
AcDbEntity
  8
0
 62
     0
100
AcDbLine
 10
716.2675003837375
 20
423.261211297599
 30
3.646124999999996
 11
716.2675003837375
 21
411.0692112975987
 31
3.646124999999996
  0
LINE
  5
56C27
330
458D6
100
AcDbEntity
  8
0
 62
     0
100
AcDbLine
 10
715.759500383738
 20
423.261211297599
 30
3.646124999999996
 11
715.759500383738
 21
411.0692112975987
 31
3.646124999999996
  0
LINE
  5
56C28
330
458D6
100
AcDbEntity
  8
0
 62
     0
100
AcDbLine
 10
715.2515003837385
 20
424.1502112975982
 30
3.646124999999996
 11
715.2515003837385
 21
410.1802112975994
 31
3.646124999999996
  0
LINE
  5
56C29
330
458D6
100
AcDbEntity
  8
0
 62
     0
100
AcDbLine
 10
714.743500383739
 20
424.1502112975982
 30
3.646124999999996
 11
714.743500383739
 21
410.1802112975994
 31
3.646124999999996
  0
LINE
  5
56C2A
330
458D6
100
AcDbEntity
  8
0
 62
     0
100
AcDbLine
 10
714.2355003837366
 20
423.261211297599
 30
3.646124999999996
 11
714.2355003837366
 21
411.0692112975987
 31
3.646124999999996
  0
LINE
  5
56C2B
330
458D6
100
AcDbEntity
  8
0
 62
     0
100
AcDbLine
 10
713.727500383737
 20
423.261211297599
 30
3.646124999999996
 11
713.727500383737
 21
411.0692112975987
 31
3.646124999999996
  0
LINE
  5
56C2C
330
458D6
100
AcDbEntity
  8
0
 62
     0
100
AcDbLine
 10
721.3348003837361
 20
406.7512112975997
 30
3.646124999999996
 11
717.7915003837362
 21
406.7512112975997
 31
3.646124999999996
  0
LINE
  5
56C2D
330
458D6
100
AcDbEntity
  8
0
 62
     0
100
AcDbLine
 10
717.2835003837367
 20
410.1802112975994
 30
3.646124999999996
 11
716.7755003837371
 21
410.1802112975994
 31
3.646124999999996
  0
LINE
  5
56C2E
330
458D6
100
AcDbEntity
  8
0
 62
     0
100
AcDbLine
 10
716.2675003837375
 20
411.0692112975987
 30
3.646124999999996
 11
715.759500383738
 21
411.0692112975987
 31
3.646124999999996
  0
LINE
  5
56C2F
330
458D6
100
AcDbEntity
  8
0
 62
     0
100
AcDbLine
 10
716.7755003837371
 20
410.1802112975994
 30
3.646124999999996
 11
716.2675003837375
 21
411.0692112975987
 31
3.646124999999996
  0
LINE
  5
56C30
330
458D6
100
AcDbEntity
  8
0
 62
     0
100
AcDbLine
 10
714.2355003837366
 20
411.0692112975987
 30
3.646124999999996
 11
713.727500383737
 21
411.0692112975987
 31
3.646124999999996
  0
LINE
  5
56C31
330
458D6
100
AcDbEntity
  8
0
 62
     0
100
AcDbLine
 10
715.2515003837385
 20
410.1802112975994
 30
3.646124999999996
 11
714.743500383739
 21
410.1802112975994
 31
3.646124999999996
  0
LINE
  5
56C32
330
458D6
100
AcDbEntity
  8
0
 62
     0
100
AcDbLine
 10
714.743500383739
 20
410.1802112975994
 30
3.646124999999996
 11
714.2355003837366
 21
411.0692112975987
 31
3.646124999999996
  0
LINE
  5
56C33
330
458D6
100
AcDbEntity
  8
0
 62
     0
100
AcDbLine
 10
715.759500383738
 20
411.0692112975987
 30
3.646124999999996
 11
715.2515003837385
 21
410.1802112975994
 31
3.646124999999996
  0
LINE
  5
56C34
330
458D6
100
AcDbEntity
  8
0
 62
     0
100
AcDbLine
 10
713.727500383737
 20
411.0692112975987
 30
3.646124999999996
 11
713.3465003837374
 21
410.4024612975985
 31
3.646124999999996
  0
LINE
  5
56C35
330
458D6
100
AcDbEntity
  8
0
 62
     0
100
AcDbLine
 10
717.7915003837362
 20
411.0692112975987
 30
3.646124999999996
 11
717.2835003837367
 21
410.1802112975994
 31
3.646124999999996
  0
LINE
  5
56C36
330
458D6
100
AcDbEntity
  8
0
 62
     0
100
AcDbLine
 10
717.7915003837362
 20
411.0214185522417
 30
3.646124999999996
 11
721.3348003837361
 21
411.0214185522417
 31
3.646124999999996
  0
LINE
  5
56C37
330
458D6
100
AcDbEntity
  8
0
 62
     0
100
AcDbLine
 10
717.7915003837362
 20
412.9550128462178
 30
3.646124999999996
 11
721.3348003837361
 21
412.9550128462178
 31
3.646124999999996
  0
LINE
  5
56C38
330
458D6
100
AcDbEntity
  8
0
 62
     0
100
AcDbLine
 10
717.2835003837367
 20
424.1502112975982
 30
3.646124999999996
 11
716.7755003837371
 21
424.1502112975982
 31
3.646124999999996
  0
LINE
  5
56C39
330
458D6
100
AcDbEntity
  8
0
 62
     0
100
AcDbLine
 10
716.7755003837371
 20
424.1502112975982
 30
3.646124999999996
 11
716.2675003837375
 21
423.261211297599
 31
3.646124999999996
  0
LINE
  5
56C3A
330
458D6
100
AcDbEntity
  8
0
 62
     0
100
AcDbLine
 10
715.759500383738
 20
423.261211297599
 30
3.646124999999996
 11
715.2515003837385
 21
424.1502112975982
 31
3.646124999999996
  0
LINE
  5
56C3B
330
458D6
100
AcDbEntity
  8
0
 62
     0
100
AcDbLine
 10
714.743500383739
 20
424.1502112975982
 30
3.646124999999996
 11
714.2355003837366
 21
423.261211297599
 31
3.646124999999996
  0
LINE
  5
56C3C
330
458D6
100
AcDbEntity
  8
0
 62
     0
100
AcDbLine
 10
716.2675003837375
 20
423.261211297599
 30
3.646124999999996
 11
715.759500383738
 21
423.261211297599
 31
3.646124999999996
  0
LINE
  5
56C3D
330
458D6
100
AcDbEntity
  8
0
 62
     0
100
AcDbLine
 10
714.2355003837366
 20
423.261211297599
 30
3.646124999999996
 11
713.727500383737
 21
423.261211297599
 31
3.646124999999996
  0
LINE
  5
56C3E
330
458D6
100
AcDbEntity
  8
0
 62
     0
100
AcDbLine
 10
713.727500383737
 20
423.261211297599
 30
3.646124999999996
 11
713.3465003837374
 21
423.9279612975992
 31
3.646124999999996
  0
LINE
  5
56C3F
330
458D6
100
AcDbEntity
  8
0
 62
     0
100
AcDbLine
 10
715.2515003837385
 20
424.1502112975982
 30
3.646124999999996
 11
714.743500383739
 21
424.1502112975982
 31
3.646124999999996
  0
LINE
  5
56C40
330
458D6
100
AcDbEntity
  8
0
 62
     0
100
AcDbLine
 10
717.7915003837362
 20
423.261211297599
 30
3.646124999999996
 11
717.2835003837367
 21
424.1502112975982
 31
3.646124999999996
  0
LINE
  5
56C41
330
458D6
100
AcDbEntity
  8
0
 62
     0
100
AcDbLine
 10
717.7915003837362
 20
423.309004042956
 30
3.646124999999996
 11
721.3348003837361
 21
423.309004042956
 31
3.646124999999996
  0
LINE
  5
56C42
330
458D6
100
AcDbEntity
  8
0
 62
     0
100
AcDbLine
 10
717.7915003837362
 20
421.3754097489769
 30
3.646124999999996
 11
721.3348003837361
 21
421.3754097489769
 31
3.646124999999996
  0
LINE
  5
56C43
330
458D6
100
AcDbEntity
  8
0
 62
     0
100
AcDbLine
 10
721.3348003837361
 20
427.579211297598
 30
3.646124999999996
 11
717.7915003837362
 21
427.579211297598
 31
3.646124999999996
  0
LINE
  5
56C44
330
458D6
100
AcDbEntity
  8
0
 62
     0
100
AcDbLine
 10
819.4174223802857
 20
427.579211297598
 30
3.646124999999996
 11
822.9607223802856
 21
427.579211297598
 31
3.646124999999996
  0
LINE
  5
56C45
330
458D6
100
AcDbEntity
  8
0
 62
     0
100
AcDbLine
 10
822.9607223802856
 20
421.3754097489769
 30
3.646124999999996
 11
819.4174223802857
 21
421.3754097489769
 31
3.646124999999996
  0
LINE
  5
56C46
330
458D6
100
AcDbEntity
  8
0
 62
     0
100
AcDbLine
 10
822.9607223802856
 20
423.309004042956
 30
3.646124999999996
 11
819.4174223802857
 21
423.309004042956
 31
3.646124999999996
  0
LINE
  5
56C47
330
458D6
100
AcDbEntity
  8
0
 62
     0
100
AcDbLine
 10
822.9607223802856
 20
412.9550128462178
 30
3.646124999999996
 11
819.4174223802857
 21
412.9550128462178
 31
3.646124999999996
  0
LINE
  5
56C48
330
458D6
100
AcDbEntity
  8
0
 62
     0
100
AcDbLine
 10
822.9607223802856
 20
411.0214185522417
 30
3.646124999999996
 11
819.4174223802857
 21
411.0214185522417
 31
3.646124999999996
  0
LINE
  5
56C49
330
458D6
100
AcDbEntity
  8
0
 62
     0
100
AcDbLine
 10
819.4174223802857
 20
406.7512112975997
 30
3.646124999999996
 11
822.9607223802856
 21
406.7512112975997
 31
3.646124999999996
  0
LINE
  5
56C4A
330
458D6
100
AcDbEntity
  8
0
 62
     0
100
AcDbLine
 10
839.5977223802878
 20
423.3882112975989
 30
3.646124999999996
 11
839.5977223802878
 21
410.9422112975988
 31
3.646124999999996
  0
ARC
  5
56C4B
330
458D6
100
AcDbEntity
  8
0
 62
     0
100
AcDbCircle
 10
827.0644098802872
 20
417.1652112975989
 30
3.646124999999996
 40
9.231312499998928
100
AcDbArc
 50
332.8656845152974
 51
27.1343154847025
  0
LINE
  5
56C4C
330
458D6
100
AcDbEntity
  8
0
 62
     0
100
AcDbLine
 10
836.2957223802879
 20
426.6902112975989
 30
3.646124999999996
 11
836.2957223802879
 21
408.8848112975116
 31
3.646124999999996
  0
LINE
  5
56C4D
330
458D6
100
AcDbEntity
  8
0
 62
     0
100
AcDbLine
 10
827.0247223802877
 20
423.261211297599
 30
3.646124999999996
 11
827.0247223802877
 21
411.0692112975987
 31
3.646124999999996
  0
LINE
  5
56C4E
330
458D6
100
AcDbEntity
  8
0
 62
     0
100
AcDbLine
 10
826.5167223802853
 20
423.261211297599
 30
3.646124999999996
 11
826.5167223802853
 21
411.0692112975987
 31
3.646124999999996
  0
LINE
  5
56C4F
330
458D6
100
AcDbEntity
  8
0
 62
     0
100
AcDbLine
 10
826.0087223802857
 20
424.1502112975982
 30
3.646124999999996
 11
826.0087223802857
 21
410.1802112975994
 31
3.646124999999996
  0
LINE
  5
56C50
330
458D6
100
AcDbEntity
  8
0
 62
     0
100
AcDbLine
 10
825.5007223802863
 20
424.1502112975982
 30
3.646124999999996
 11
825.5007223802863
 21
410.1802112975994
 31
3.646124999999996
  0
LINE
  5
56C51
330
458D6
100
AcDbEntity
  8
0
 62
     0
100
AcDbLine
 10
824.9927223802867
 20
423.261211297599
 30
3.646124999999996
 11
824.9927223802867
 21
411.0692112975987
 31
3.646124999999996
  0
LINE
  5
56C52
330
458D6
100
AcDbEntity
  8
0
 62
     0
100
AcDbLine
 10
824.4847223802871
 20
423.261211297599
 30
3.646124999999996
 11
824.4847223802871
 21
411.0692112975987
 31
3.646124999999996
  0
LINE
  5
56C53
330
458D6
100
AcDbEntity
  8
0
 62
     0
100
AcDbLine
 10
823.9767223802877
 20
424.1502112975982
 30
3.646124999999996
 11
823.9767223802877
 21
410.1802112975994
 31
3.646124999999996
  0
LINE
  5
56C54
330
458D6
100
AcDbEntity
  8
0
 62
     0
100
AcDbLine
 10
823.4687223802881
 20
424.1502112975982
 30
3.646124999999996
 11
823.4687223802881
 21
410.1802112975994
 31
3.646124999999996
  0
LINE
  5
56C55
330
458D6
100
AcDbEntity
  8
0
 62
     0
100
AcDbLine
 10
822.9607223802856
 20
427.579211297598
 30
3.646124999999996
 11
822.9607223802856
 21
406.7512112975997
 31
3.646124999999996
  0
LINE
  5
56C56
330
458D6
100
AcDbEntity
  8
0
 62
     0
100
AcDbLine
 10
827.4057223802874
 20
427.579211297598
 30
3.646124999999996
 11
827.4057223802874
 21
406.7512112975997
 31
3.646124999999996
  0
LINE
  5
56C57
330
458D6
100
AcDbEntity
  8
0
 62
     0
100
AcDbLine
 10
835.2797223802861
 20
412.9550128462178
 30
3.646124999999996
 11
827.4057223802874
 21
412.9550128462178
 31
3.646124999999996
  0
LINE
  5
56C58
330
458D6
100
AcDbEntity
  8
0
 62
     0
100
AcDbLine
 10
835.2797223802861
 20
411.0214185522417
 30
3.646124999999996
 11
827.4057223802874
 21
411.0214185522417
 31
3.646124999999996
  0
LINE
  5
56C59
330
458D6
100
AcDbEntity
  8
0
 62
     0
100
AcDbLine
 10
827.4057223802874
 20
406.7512112975997
 30
3.646124999999996
 11
835.2797223802861
 21
406.7512112975997
 31
3.646124999999996
  0
LINE
  5
56C5A
330
458D6
100
AcDbEntity
  8
0
 62
     0
100
AcDbLine
 10
826.0087223802857
 20
410.1802112975994
 30
3.646124999999996
 11
826.5167223802853
 21
411.0692112975987
 31
3.646124999999996
  0
LINE
  5
56C5B
330
458D6
100
AcDbEntity
  8
0
 62
     0
100
AcDbLine
 10
824.9927223802867
 20
411.0692112975987
 30
3.646124999999996
 11
825.5007223802863
 21
410.1802112975994
 31
3.646124999999996
  0
LINE
  5
56C5C
330
458D6
100
AcDbEntity
  8
0
 62
     0
100
AcDbLine
 10
825.5007223802863
 20
410.1802112975994
 30
3.646124999999996
 11
826.0087223802857
 21
410.1802112975994
 31
3.646124999999996
  0
LINE
  5
56C5D
330
458D6
100
AcDbEntity
  8
0
 62
     0
100
AcDbLine
 10
822.9607223802856
 20
411.0692112975987
 30
3.646124999999996
 11
823.4687223802852
 21
410.1802112975994
 31
3.646124999999996
  0
LINE
  5
56C5E
330
458D6
100
AcDbEntity
  8
0
 62
     0
100
AcDbLine
 10
823.9767223802877
 20
410.1802112975994
 30
3.646124999999996
 11
824.4847223802871
 21
411.0692112975987
 31
3.646124999999996
  0
LINE
  5
56C5F
330
458D6
100
AcDbEntity
  8
0
 62
     0
100
AcDbLine
 10
823.4687223802852
 20
410.1802112975994
 30
3.646124999999996
 11
823.9767223802877
 21
410.1802112975994
 31
3.646124999999996
  0
LINE
  5
56C60
330
458D6
100
AcDbEntity
  8
0
 62
     0
100
AcDbLine
 10
824.4847223802871
 20
411.0692112975987
 30
3.646124999999996
 11
824.9927223802867
 21
411.0692112975987
 31
3.646124999999996
  0
LINE
  5
56C61
330
458D6
100
AcDbEntity
  8
0
 62
     0
100
AcDbLine
 10
826.5167223802853
 20
411.0692112975987
 30
3.646124999999996
 11
827.0247223802877
 21
411.0692112975987
 31
3.646124999999996
  0
LINE
  5
56C62
330
458D6
100
AcDbEntity
  8
0
 62
     0
100
AcDbLine
 10
827.0247223802877
 20
411.0692112975987
 30
3.646124999999996
 11
827.4057223802874
 21
410.4024612975985
 31
3.646124999999996
  0
ARC
  5
56C63
330
458D6
100
AcDbEntity
  8
0
 62
     0
100
AcDbCircle
 10
833.5442847629121
 20
408.8863149249192
 30
3.646124999999996
 40
2.751438028232276
100
AcDbArc
 50
309.1046213224502
 51
50.89537867754973
  0
ARC
  5
56C64
330
458D6
100
AcDbEntity
  8
0
 62
     0
100
AcDbCircle
 10
836.2957223802879
 20
410.9422112975988
 30
3.646124999999996
 40
3.302
100
AcDbArc
 50
270.0
 51
0.0
  0
LINE
  5
56C65
330
458D6
100
AcDbEntity
  8
0
 62
     0
100
AcDbLine
 10
836.2957223802879
 20
407.6402112975988
 30
3.646124999999996
 11
835.9973719960072
 21
407.6402112975988
 31
3.646124999999996
  0
LINE
  5
56C66
330
458D6
100
AcDbEntity
  8
0
 62
     0
100
AcDbLine
 10
835.2797223802861
 20
412.9550128462178
 30
3.646124999999996
 11
835.2797223802861
 21
411.0214185522417
 31
3.646124999999996
  0
LINE
  5
56C67
330
458D6
100
AcDbEntity
  8
0
 62
     0
100
AcDbLine
 10
827.4057223802874
 20
427.579211297598
 30
3.646124999999996
 11
835.2797223802861
 21
427.579211297598
 31
3.646124999999996
  0
LINE
  5
56C68
330
458D6
100
AcDbEntity
  8
0
 62
     0
100
AcDbLine
 10
835.2797223802861
 20
423.309004042956
 30
3.646124999999996
 11
827.4057223802874
 21
423.309004042956
 31
3.646124999999996
  0
LINE
  5
56C69
330
458D6
100
AcDbEntity
  8
0
 62
     0
100
AcDbLine
 10
835.2797223802861
 20
421.3754097489769
 30
3.646124999999996
 11
827.4057223802874
 21
421.3754097489769
 31
3.646124999999996
  0
LINE
  5
56C6A
330
458D6
100
AcDbEntity
  8
0
 62
     0
100
AcDbLine
 10
826.0087223802857
 20
424.1502112975982
 30
3.646124999999996
 11
826.5167223802853
 21
423.261211297599
 31
3.646124999999996
  0
LINE
  5
56C6B
330
458D6
100
AcDbEntity
  8
0
 62
     0
100
AcDbLine
 10
824.9927223802867
 20
423.261211297599
 30
3.646124999999996
 11
825.5007223802863
 21
424.1502112975982
 31
3.646124999999996
  0
LINE
  5
56C6C
330
458D6
100
AcDbEntity
  8
0
 62
     0
100
AcDbLine
 10
823.9767223802877
 20
424.1502112975982
 30
3.646124999999996
 11
824.4847223802871
 21
423.261211297599
 31
3.646124999999996
  0
LINE
  5
56C6D
330
458D6
100
AcDbEntity
  8
0
 62
     0
100
AcDbLine
 10
822.9607223802856
 20
423.261211297599
 30
3.646124999999996
 11
823.4687223802852
 21
424.1502112975982
 31
3.646124999999996
  0
LINE
  5
56C6E
330
458D6
100
AcDbEntity
  8
0
 62
     0
100
AcDbLine
 10
824.4847223802871
 20
423.261211297599
 30
3.646124999999996
 11
824.9927223802867
 21
423.261211297599
 31
3.646124999999996
  0
LINE
  5
56C6F
330
458D6
100
AcDbEntity
  8
0
 62
     0
100
AcDbLine
 10
825.5007223802863
 20
424.1502112975982
 30
3.646124999999996
 11
826.0087223802857
 21
424.1502112975982
 31
3.646124999999996
  0
LINE
  5
56C70
330
458D6
100
AcDbEntity
  8
0
 62
     0
100
AcDbLine
 10
823.4687223802852
 20
424.1502112975982
 30
3.646124999999996
 11
823.9767223802877
 21
424.1502112975982
 31
3.646124999999996
  0
LINE
  5
56C71
330
458D6
100
AcDbEntity
  8
0
 62
     0
100
AcDbLine
 10
827.0247223802877
 20
423.261211297599
 30
3.646124999999996
 11
827.4057223802874
 21
423.9279612975992
 31
3.646124999999996
  0
LINE
  5
56C72
330
458D6
100
AcDbEntity
  8
0
 62
     0
100
AcDbLine
 10
826.5167223802853
 20
423.261211297599
 30
3.646124999999996
 11
827.0247223802877
 21
423.261211297599
 31
3.646124999999996
  0
ARC
  5
56C73
330
458D6
100
AcDbEntity
  8
0
 62
     0
100
AcDbCircle
 10
833.5442847629121
 20
425.4441076702756
 30
3.646124999999996
 40
2.751438028232276
100
AcDbArc
 50
309.1046213224502
 51
50.89537867754973
  0
ARC
  5
56C74
330
458D6
100
AcDbEntity
  8
0
 62
     0
100
AcDbCircle
 10
836.2957223802879
 20
423.3882112975989
 30
3.646124999999996
 40
3.302
100
AcDbArc
 50
0.0
 51
90.0
  0
LINE
  5
56C75
330
458D6
100
AcDbEntity
  8
0
 62
     0
100
AcDbLine
 10
835.2797223802861
 20
423.309004042956
 30
3.646124999999996
 11
835.2797223802861
 21
421.3754097489769
 31
3.646124999999996
  0
LINE
  5
56C76
330
458D6
100
AcDbEntity
  8
0
 62
     0
100
AcDbLine
 10
836.2957223802879
 20
426.6902112975989
 30
3.646124999999996
 11
835.9973719960072
 21
426.6902112975989
 31
3.646124999999996
  0
LINE
  5
56C9F
330
458D6
100
AcDbEntity
  8
0
 62
     0
100
AcDbLine
 10
819.4385767153121
 20
435.8492264535307
 30
3.646124999999996
 11
721.3945767153116
 21
435.8492264535307
 31
3.646124999999996
  0
POLYLINE
  5
56CA0
330
458D6
100
AcDbEntity
  8
0
 62
     0
100
AcDb2dPolyline
 66
     1
 10
0.0
 20
0.0
 30
3.646124999999996
 70
     4
 75
     6
  0
VERTEX
  5
56CA1
330
56CA0
100
AcDbEntity
  8
0
 62
     0
100
AcDbVertex
100
AcDb2dVertex
 10
721.4917642908313
 20
512.8561884390836
 30
3.646124999999996
 70
    16
  0
VERTEX
  5
56CA2
330
56CA0
100
AcDbEntity
  8
0
 62
     0
100
AcDbVertex
100
AcDb2dVertex
 10
721.4917642908313
 20
512.8561884390836
 30
3.646124999999996
 70
     8
  0
VERTEX
  5
56CA3
330
56CA0
100
AcDbEntity
  8
0
 62
     0
100
AcDbVertex
100
AcDb2dVertex
 10
722.1726460665365
 20
512.8907397966368
 30
3.646124999999996
 70
     8
  0
VERTEX
  5
56CA4
330
56CA0
100
AcDbEntity
  8
0
 62
     0
100
AcDbVertex
100
AcDb2dVertex
 10
722.7385294026167
 20
512.9388146101949
 30
3.646124999999996
 70
     8
  0
VERTEX
  5
56CA5
330
56CA0
100
AcDbEntity
  8
0
 62
     0
100
AcDbVertex
100
AcDb2dVertex
 10
723.206272357117
 20
512.9981590023994
 30
3.646124999999996
 70
     8
  0
VERTEX
  5
56CA6
330
56CA0
100
AcDbEntity
  8
0
 62
     0
100
AcDbVertex
100
AcDb2dVertex
 10
723.5927329880906
 20
513.066519095897
 30
3.646124999999996
 70
     8
  0
VERTEX
  5
56CA7
330
56CA0
100
AcDbEntity
  8
0
 62
     0
100
AcDbVertex
100
AcDb2dVertex
 10
723.9147693535825
 20
513.1416410133349
 30
3.646124999999996
 70
     8
  0
VERTEX
  5
56CA8
330
56CA0
100
AcDbEntity
  8
0
 62
     0
100
AcDbVertex
100
AcDb2dVertex
 10
724.1892395116434
 20
513.2212708773542
 30
3.646124999999996
 70
     8
  0
VERTEX
  5
56CA9
330
56CA0
100
AcDbEntity
  8
0
 62
     0
100
AcDbVertex
100
AcDb2dVertex
 10
724.4330015203209
 20
513.3031548106049
 30
3.646124999999996
 70
     8
  0
VERTEX
  5
56CAA
330
56CA0
100
AcDbEntity
  8
0
 62
     0
100
AcDbVertex
100
AcDb2dVertex
 10
724.6629134376656
 20
513.385038935728
 30
3.646124999999996
 70
     8
  0
VERTEX
  5
56CAB
330
56CA0
100
AcDbEntity
  8
0
 62
     0
100
AcDbVertex
100
AcDb2dVertex
 10
724.8931176445072
 20
513.4648728645246
 30
3.646124999999996
 70
     8
  0
VERTEX
  5
56CAC
330
56CA0
100
AcDbEntity
  8
0
 62
     0
100
AcDbVertex
100
AcDb2dVertex
 10
725.1268938128041
 20
513.5414201653907
 30
3.646124999999996
 70
     8
  0
VERTEX
  5
56CAD
330
56CA0
100
AcDbEntity
  8
0
 62
     0
100
AcDbVertex
100
AcDb2dVertex
 10
725.3648059372967
 20
513.6136478958735
 30
3.646124999999996
 70
     8
  0
VERTEX
  5
56CAE
330
56CA0
100
AcDbEntity
  8
0
 62
     0
100
AcDbVertex
100
AcDb2dVertex
 10
725.6074180127283
 20
513.6805231135261
 30
3.646124999999996
 70
     8
  0
VERTEX
  5
56CAF
330
56CA0
100
AcDbEntity
  8
0
 62
     0
100
AcDbVertex
100
AcDb2dVertex
 10
725.8552940338391
 20
513.7410128758927
 30
3.646124999999996
 70
     8
  0
VERTEX
  5
56CB0
330
56CA0
100
AcDbEntity
  8
0
 62
     0
100
AcDbVertex
100
AcDb2dVertex
 10
726.1089979953667
 20
513.7940842405265
 30
3.646124999999996
 70
     8
  0
VERTEX
  5
56CB1
330
56CA0
100
AcDbEntity
  8
0
 62
     0
100
AcDbVertex
100
AcDb2dVertex
 10
726.3690938920571
 20
513.8387042649774
 30
3.646124999999996
 70
     8
  0
VERTEX
  5
56CB2
330
56CA0
100
AcDbEntity
  8
0
 62
     0
100
AcDbVertex
100
AcDb2dVertex
 10
726.6361457186477
 20
513.8738400067897
 30
3.646124999999996
 70
     8
  0
VERTEX
  5
56CB3
330
56CA0
100
AcDbEntity
  8
0
 62
     0
100
AcDbVertex
100
AcDb2dVertex
 10
726.9102788074104
 20
513.8985993785325
 30
3.646124999999996
 70
     8
  0
VERTEX
  5
56CB4
330
56CA0
100
AcDbEntity
  8
0
 62
     0
100
AcDbVertex
100
AcDb2dVertex
 10
727.1898638407565
 20
513.9126537128275
 30
3.646124999999996
 70
     8
  0
VERTEX
  5
56CB5
330
56CA0
100
AcDbEntity
  8
0
 62
     0
100
AcDbVertex
100
AcDb2dVertex
 10
727.4728328386174
 20
513.9158151973179
 30
3.646124999999996
 70
     8
  0
VERTEX
  5
56CB6
330
56CA0
100
AcDbEntity
  8
0
 62
     0
100
AcDbVertex
100
AcDb2dVertex
 10
727.7571178209361
 20
513.9078960196419
 30
3.646124999999996
 70
     8
  0
VERTEX
  5
56CB7
330
56CA0
100
AcDbEntity
  8
0
 62
     0
100
AcDbVertex
100
AcDb2dVertex
 10
728.0406508076493
 20
513.8887083674397
 30
3.646124999999996
 70
     8
  0
VERTEX
  5
56CB8
330
56CA0
100
AcDbEntity
  8
0
 62
     0
100
AcDbVertex
100
AcDb2dVertex
 10
728.3213638186946
 20
513.8580644283549
 30
3.646124999999996
 70
     8
  0
VERTEX
  5
56CB9
330
56CA0
100
AcDbEntity
  8
0
 62
     0
100
AcDbVertex
100
AcDb2dVertex
 10
728.5971888740086
 20
513.8157763900254
 30
3.646124999999996
 70
     8
  0
VERTEX
  5
56CBA
330
56CA0
100
AcDbEntity
  8
0
 62
     0
100
AcDbVertex
100
AcDb2dVertex
 10
728.8660579935317
 20
513.7616564400915
 30
3.646124999999996
 70
     8
  0
VERTEX
  5
56CBB
330
56CA0
100
AcDbEntity
  8
0
 62
     0
100
AcDbVertex
100
AcDb2dVertex
 10
729.1263418599958
 20
513.6956106717211
 30
3.646124999999996
 70
     8
  0
VERTEX
  5
56CBC
330
56CA0
100
AcDbEntity
  8
0
 62
     0
100
AcDbVertex
100
AcDb2dVertex
 10
729.3781658073097
 20
513.6179208001786
 30
3.646124999999996
 70
     8
  0
VERTEX
  5
56CBD
330
56CA0
100
AcDbEntity
  8
0
 62
     0
100
AcDbVertex
100
AcDb2dVertex
 10
729.6220938321805
 20
513.5289624462557
 30
3.646124999999996
 70
     8
  0
VERTEX
  5
56CBE
330
56CA0
100
AcDbEntity
  8
0
 62
     0
100
AcDbVertex
100
AcDb2dVertex
 10
729.858689931309
 20
513.4291112307469
 30
3.646124999999996
 70
     8
  0
VERTEX
  5
56CBF
330
56CA0
100
AcDbEntity
  8
0
 62
     0
100
AcDbVertex
100
AcDb2dVertex
 10
730.0885181014051
 20
513.3187427744407
 30
3.646124999999996
 70
     8
  0
VERTEX
  5
56CC0
330
56CA0
100
AcDbEntity
  8
0
 62
     0
100
AcDbVertex
100
AcDb2dVertex
 10
730.3121423391669
 20
513.1982326981317
 30
3.646124999999996
 70
     8
  0
VERTEX
  5
56CC1
330
56CA0
100
AcDbEntity
  8
0
 62
     0
100
AcDbVertex
100
AcDb2dVertex
 10
730.5301266413011
 20
513.0679566226117
 30
3.646124999999996
 70
     8
  0
VERTEX
  5
56CC2
330
56CA0
100
AcDbEntity
  8
0
 62
     0
100
AcDbVertex
100
AcDb2dVertex
 10
730.7430350045148
 20
512.928290168672
 30
3.646124999999996
 70
     8
  0
VERTEX
  5
56CC3
330
56CA0
100
AcDbEntity
  8
0
 62
     0
100
AcDbVertex
100
AcDb2dVertex
 10
730.9513374247499
 20
512.7798906674628
 30
3.646124999999996
 70
     8
  0
VERTEX
  5
56CC4
330
56CA0
100
AcDbEntity
  8
0
 62
     0
100
AcDbVertex
100
AcDb2dVertex
 10
731.155127894911
 20
512.6245422915648
 30
3.646124999999996
 70
     8
  0
VERTEX
  5
56CC5
330
56CA0
100
AcDbEntity
  8
0
 62
     0
100
AcDbVertex
100
AcDb2dVertex
 10
731.3544064071467
 20
512.4643109239141
 30
3.646124999999996
 70
     8
  0
VERTEX
  5
56CC6
330
56CA0
100
AcDbEntity
  8
0
 62
     0
100
AcDbVertex
100
AcDb2dVertex
 10
731.5491729535994
 20
512.3012624474499
 30
3.646124999999996
 70
     8
  0
VERTEX
  5
56CC7
330
56CA0
100
AcDbEntity
  8
0
 62
     0
100
AcDbVertex
100
AcDb2dVertex
 10
731.7394275264177
 20
512.1374627451112
 30
3.646124999999996
 70
     8
  0
VERTEX
  5
56CC8
330
56CA0
100
AcDbEntity
  8
0
 62
     0
100
AcDbVertex
100
AcDb2dVertex
 10
731.9251701177474
 20
511.9749776998345
 30
3.646124999999996
 70
     8
  0
VERTEX
  5
56CC9
330
56CA0
100
AcDbEntity
  8
0
 62
     0
100
AcDbVertex
100
AcDb2dVertex
 10
732.1064007197311
 20
511.8158731945587
 30
3.646124999999996
 70
     8
  0
VERTEX
  5
56CCA
330
56CA0
100
AcDbEntity
  8
0
 62
     0
100
AcDbVertex
100
AcDb2dVertex
 10
732.2831193245173
 20
511.6622151122228
 30
3.646124999999996
 70
     8
  0
VERTEX
  5
56CCB
330
56CA0
100
AcDbEntity
  8
0
 62
     0
100
AcDbVertex
100
AcDb2dVertex
 10
732.4556705908646
 20
511.5157563233487
 30
3.646124999999996
 70
     8
  0
VERTEX
  5
56CCC
330
56CA0
100
AcDbEntity
  8
0
 62
     0
100
AcDbVertex
100
AcDb2dVertex
 10
732.6257778440044
 20
511.3769976487831
 30
3.646124999999996
 70
     8
  0
VERTEX
  5
56CCD
330
56CA0
100
AcDbEntity
  8
0
 62
     0
100
AcDbVertex
100
AcDb2dVertex
 10
732.7955090757757
 20
511.2461268969582
 30
3.646124999999996
 70
     8
  0
VERTEX
  5
56CCE
330
56CA0
100
AcDbEntity
  8
0
 62
     0
100
AcDbVertex
100
AcDb2dVertex
 10
732.9669322780256
 20
511.123331876309
 30
3.646124999999996
 70
     8
  0
VERTEX
  5
56CCF
330
56CA0
100
AcDbEntity
  8
0
 62
     0
100
AcDbVertex
100
AcDb2dVertex
 10
733.1421154425957
 20
511.0088003952678
 30
3.646124999999996
 70
     8
  0
VERTEX
  5
56CD0
330
56CA0
100
AcDbEntity
  8
0
 62
     0
100
AcDbVertex
100
AcDb2dVertex
 10
733.3231265613307
 20
510.9027202622637
 30
3.646124999999996
 70
     8
  0
VERTEX
  5
56CD1
330
56CA0
100
AcDbEntity
  8
0
 62
     0
100
AcDbVertex
100
AcDb2dVertex
 10
733.512033626075
 20
510.8052792857351
 30
3.646124999999996
 70
     8
  0
VERTEX
  5
56CD2
330
56CA0
100
AcDbEntity
  8
0
 62
     0
100
AcDbVertex
100
AcDb2dVertex
 10
733.7109046286703
 20
510.716665274108
 30
3.646124999999996
 70
     8
  0
VERTEX
  5
56CD3
330
56CA0
100
AcDbEntity
  8
0
 62
     0
100
AcDbVertex
100
AcDb2dVertex
 10
733.9213375623967
 20
510.6370347347376
 30
3.646124999999996
 70
     8
  0
VERTEX
  5
56CD4
330
56CA0
100
AcDbEntity
  8
0
 62
     0
100
AcDbVertex
100
AcDb2dVertex
 10
734.143050426286
 20
510.5664189706705
 30
3.646124999999996
 70
     8
  0
VERTEX
  5
56CD5
330
56CA0
100
AcDbEntity
  8
0
 62
     0
100
AcDbVertex
100
AcDb2dVertex
 10
734.3752912208031
 20
510.5048179838645
 30
3.646124999999996
 70
     8
  0
VERTEX
  5
56CD6
330
56CA0
100
AcDbEntity
  8
0
 62
     0
100
AcDbVertex
100
AcDb2dVertex
 10
734.6173079464152
 20
510.4522317762889
 30
3.646124999999996
 70
     8
  0
VERTEX
  5
56CD7
330
56CA0
100
AcDbEntity
  8
0
 62
     0
100
AcDbVertex
100
AcDb2dVertex
 10
734.8683486035931
 20
510.4086603499015
 30
3.646124999999996
 70
     8
  0
VERTEX
  5
56CD8
330
56CA0
100
AcDbEntity
  8
0
 62
     0
100
AcDbVertex
100
AcDb2dVertex
 10
735.1276611927985
 20
510.3741037066689
 30
3.646124999999996
 70
     8
  0
VERTEX
  5
56CD9
330
56CA0
100
AcDbEntity
  8
0
 62
     0
100
AcDbVertex
100
AcDb2dVertex
 10
735.3944937144989
 20
510.3485618485547
 30
3.646124999999996
 70
     8
  0
VERTEX
  5
56CDA
330
56CA0
100
AcDbEntity
  8
0
 62
     0
100
AcDbVertex
100
AcDb2dVertex
 10
735.6680941691617
 20
510.3320347775223
 30
3.646124999999996
 70
     8
  0
VERTEX
  5
56CDB
330
56CA0
100
AcDbEntity
  8
0
 62
     0
100
AcDbVertex
100
AcDb2dVertex
 10
735.9474285615249
 20
510.3243659881834
 30
3.646124999999996
 70
     8
  0
VERTEX
  5
56CDC
330
56CA0
100
AcDbEntity
  8
0
 62
     0
100
AcDbVertex
100
AcDb2dVertex
 10
736.2303349133768
 20
510.3247729457232
 30
3.646124999999996
 70
     8
  0
VERTEX
  5
56CDD
330
56CA0
100
AcDbEntity
  8
0
 62
     0
100
AcDbVertex
100
AcDb2dVertex
 10
736.5143692507822
 20
510.3323166079866
 30
3.646124999999996
 70
     8
  0
VERTEX
  5
56CDE
330
56CA0
100
AcDbEntity
  8
0
 62
     0
100
AcDbVertex
100
AcDb2dVertex
 10
736.7970875998086
 20
510.3460579328125
 30
3.646124999999996
 70
     8
  0
VERTEX
  5
56CDF
330
56CA0
100
AcDbEntity
  8
0
 62
     0
100
AcDbVertex
100
AcDb2dVertex
 10
737.0760459865117
 20
510.3650578780312
 30
3.646124999999996
 70
     8
  0
VERTEX
  5
56CE0
330
56CA0
100
AcDbEntity
  8
0
 62
     0
100
AcDbVertex
100
AcDb2dVertex
 10
737.3488004369562
 20
510.3883774014904
 30
3.646124999999996
 70
     8
  0
VERTEX
  5
56CE1
330
56CA0
100
AcDbEntity
  8
0
 62
     0
100
AcDbVertex
100
AcDb2dVertex
 10
737.6129069772038
 20
510.4150774610205
 30
3.646124999999996
 70
     8
  0
VERTEX
  5
56CE2
330
56CA0
100
AcDbEntity
  8
0
 62
     0
100
AcDbVertex
100
AcDb2dVertex
 10
737.8659216333161
 20
510.4442190144633
 30
3.646124999999996
 70
     8
  0
VERTEX
  5
56CE3
330
56CA0
100
AcDbEntity
  8
0
 62
     0
100
AcDbVertex
100
AcDb2dVertex
 10
738.1062464224892
 20
510.4749882256065
 30
3.646124999999996
 70
     8
  0
VERTEX
  5
56CE4
330
56CA0
100
AcDbEntity
  8
0
 62
     0
100
AcDbVertex
100
AcDb2dVertex
 10
738.3356673264284
 20
510.5070720820299
 30
3.646124999999996
 70
     8
  0
VERTEX
  5
56CE5
330
56CA0
100
AcDbEntity
  8
0
 62
     0
100
AcDbVertex
100
AcDb2dVertex
 10
738.5568163179731
 20
510.5402827772651
 30
3.646124999999996
 70
     8
  0
VERTEX
  5
56CE6
330
56CA0
100
AcDbEntity
  8
0
 62
     0
100
AcDbVertex
100
AcDb2dVertex
 10
738.7723253699661
 20
510.574432504846
 30
3.646124999999996
 70
     8
  0
VERTEX
  5
56CE7
330
56CA0
100
AcDbEntity
  8
0
 62
     0
100
AcDbVertex
100
AcDb2dVertex
 10
738.984826455241
 20
510.6093334582985
 30
3.646124999999996
 70
     8
  0
VERTEX
  5
56CE8
330
56CA0
100
AcDbEntity
  8
0
 62
     0
100
AcDbVertex
100
AcDb2dVertex
 10
739.1969515466436
 20
510.6447978311625
 30
3.646124999999996
 70
     8
  0
VERTEX
  5
56CE9
330
56CA0
100
AcDbEntity
  8
0
 62
     0
100
AcDbVertex
100
AcDb2dVertex
 10
739.4113326170073
 20
510.6806378169609
 30
3.646124999999996
 70
     8
  0
VERTEX
  5
56CEA
330
56CA0
100
AcDbEntity
  8
0
 62
     0
100
AcDbVertex
100
AcDb2dVertex
 10
739.6306016391721
 20
510.7166656092279
 30
3.646124999999996
 70
     8
  0
VERTEX
  5
56CEB
330
56CA0
100
AcDbEntity
  8
0
 62
     0
100
AcDbVertex
100
AcDb2dVertex
 10
739.8568265912402
 20
510.7520360739457
 30
3.646124999999996
 70
     8
  0
VERTEX
  5
56CEC
330
56CA0
100
AcDbEntity
  8
0
 62
     0
100
AcDbVertex
100
AcDb2dVertex
 10
740.0898194723463
 20
510.7832747668975
 30
3.646124999999996
 70
     8
  0
VERTEX
  5
56CED
330
56CA0
100
AcDbEntity
  8
0
 62
     0
100
AcDbVertex
100
AcDb2dVertex
 10
740.3288282868798
 20
510.8062499163142
 30
3.646124999999996
 70
     8
  0
VERTEX
  5
56CEE
330
56CA0
100
AcDbEntity
  8
0
 62
     0
100
AcDbVertex
100
AcDb2dVertex
 10
740.5731010392352
 20
510.8168297504295
 30
3.646124999999996
 70
     8
  0
VERTEX
  5
56CEF
330
56CA0
100
AcDbEntity
  8
0
 62
     0
100
AcDbVertex
100
AcDb2dVertex
 10
740.8218857338131
 20
510.8108824974774
 30
3.646124999999996
 70
     8
  0
VERTEX
  5
56CF0
330
56CA0
100
AcDbEntity
  8
0
 62
     0
100
AcDbVertex
100
AcDb2dVertex
 10
741.0744303749997
 20
510.7842763856889
 30
3.646124999999996
 70
     8
  0
VERTEX
  5
56CF1
330
56CA0
100
AcDbEntity
  8
0
 62
     0
100
AcDbVertex
100
AcDb2dVertex
 10
741.3299829671955
 20
510.7328796432978
 30
3.646124999999996
 70
     8
  0
VERTEX
  5
56CF2
330
56CA0
100
AcDbEntity
  8
0
 62
     0
100
AcDbVertex
100
AcDb2dVertex
 10
741.5877915147894
 20
510.6525604985382
 30
3.646124999999996
 70
     8
  0
VERTEX
  5
56CF3
330
56CA0
100
AcDbEntity
  8
0
 62
     0
100
AcDbVertex
100
AcDb2dVertex
 10
741.8467593594873
 20
510.5401575199364
 30
3.646124999999996
 70
     8
  0
VERTEX
  5
56CF4
330
56CA0
100
AcDbEntity
  8
0
 62
     0
100
AcDbVertex
100
AcDb2dVertex
 10
742.1044111922403
 20
510.3963906371959
 30
3.646124999999996
 70
     8
  0
VERTEX
  5
56CF5
330
56CA0
100
AcDbEntity
  8
0
 62
     0
100
AcDbVertex
100
AcDb2dVertex
 10
742.3579270413068
 20
510.2229501203217
 30
3.646124999999996
 70
     8
  0
VERTEX
  5
56CF6
330
56CA0
100
AcDbEntity
  8
0
 62
     0
100
AcDbVertex
100
AcDb2dVertex
 10
742.6044869349465
 20
510.0215262393125
 30
3.646124999999996
 70
     8
  0
VERTEX
  5
56CF7
330
56CA0
100
AcDbEntity
  8
0
 62
     0
100
AcDbVertex
100
AcDb2dVertex
 10
742.8412709014153
 20
509.7938092641704
 30
3.646124999999996
 70
     8
  0
VERTEX
  5
56CF8
330
56CA0
100
AcDbEntity
  8
0
 62
     0
100
AcDbVertex
100
AcDb2dVertex
 10
743.0654589689751
 20
509.5414894648913
 30
3.646124999999996
 70
     8
  0
VERTEX
  5
56CF9
330
56CA0
100
AcDbEntity
  8
0
 62
     0
100
AcDbVertex
100
AcDb2dVertex
 10
743.2742311658878
 20
509.2662571114832
 30
3.646124999999996
 70
     8
  0
VERTEX
  5
56CFA
330
56CA0
100
AcDbEntity
  8
0
 62
     0
100
AcDbVertex
100
AcDb2dVertex
 10
743.4647675204067
 20
508.9698024739392
 30
3.646124999999996
 70
     8
  0
VERTEX
  5
56CFB
330
56CA0
100
AcDbEntity
  8
0
 62
     0
100
AcDbVertex
100
AcDb2dVertex
 10
743.6352507183321
 20
508.6543479445198
 30
3.646124999999996
 70
     8
  0
VERTEX
  5
56CFC
330
56CA0
100
AcDbEntity
  8
0
 62
     0
100
AcDbVertex
100
AcDb2dVertex
 10
743.7878740755963
 20
508.3242444045008
 30
3.646124999999996
 70
     8
  0
VERTEX
  5
56CFD
330
56CA0
100
AcDbEntity
  8
0
 62
     0
100
AcDbVertex
100
AcDb2dVertex
 10
743.9258335656704
 20
507.9843748574161
 30
3.646124999999996
 70
     8
  0
VERTEX
  5
56CFE
330
56CA0
100
AcDbEntity
  8
0
 62
     0
100
AcDbVertex
100
AcDb2dVertex
 10
744.0523251620249
 20
507.6396223068001
 30
3.646124999999996
 70
     8
  0
VERTEX
  5
56CFF
330
56CA0
100
AcDbEntity
  8
0
 62
     0
100
AcDbVertex
100
AcDb2dVertex
 10
744.1705448381336
 20
507.2948697561812
 30
3.646124999999996
 70
     8
  0
VERTEX
  5
56D00
330
56CA0
100
AcDbEntity
  8
0
 62
     0
100
AcDbVertex
100
AcDb2dVertex
 10
744.2836885674643
 20
506.9550002090966
 30
3.646124999999996
 70
     8
  0
VERTEX
  5
56D01
330
56CA0
100
AcDbEntity
  8
0
 62
     0
100
AcDbVertex
100
AcDb2dVertex
 10
744.3949523234906
 20
506.6248966690776
 30
3.646124999999996
 70
     8
  0
VERTEX
  5
56D02
330
56CA0
100
AcDbEntity
  8
0
 62
     0
100
AcDbVertex
100
AcDb2dVertex
 10
744.5075320796806
 20
506.3094421396582
 30
3.646124999999996
 70
     8
  0
VERTEX
  5
56D03
330
56CA0
100
AcDbEntity
  8
0
 62
     0
100
AcDbVertex
100
AcDb2dVertex
 10
744.624059814109
 20
506.0127683929341
 30
3.646124999999996
 70
     8
  0
VERTEX
  5
56D04
330
56CA0
100
AcDbEntity
  8
0
 62
     0
100
AcDbVertex
100
AcDb2dVertex
 10
744.7449115232735
 20
505.7360022752389
 30
3.646124999999996
 70
     8
  0
VERTEX
  5
56D05
330
56CA0
100
AcDbEntity
  8
0
 62
     0
100
AcDbVertex
100
AcDb2dVertex
 10
744.8698992082723
 20
505.4795194014822
 30
3.646124999999996
 70
     8
  0
VERTEX
  5
56D06
330
56CA0
100
AcDbEntity
  8
0
 62
     0
100
AcDbVertex
100
AcDb2dVertex
 10
744.9988348701988
 20
505.2436953865591
 30
3.646124999999996
 70
     8
  0
VERTEX
  5
56D07
330
56CA0
100
AcDbEntity
  8
0
 62
     0
100
AcDbVertex
100
AcDb2dVertex
 10
745.1315305101574
 20
505.0289058453703
 30
3.646124999999996
 70
     8
  0
VERTEX
  5
56D08
330
56CA0
100
AcDbEntity
  8
0
 62
     0
100
AcDbVertex
100
AcDb2dVertex
 10
745.2677981292436
 20
504.8355263928224
 30
3.646124999999996
 70
     8
  0
VERTEX
  5
56D09
330
56CA0
100
AcDbEntity
  8
0
 62
     0
100
AcDbVertex
100
AcDb2dVertex
 10
745.4074497285563
 20
504.6639326438134
 30
3.646124999999996
 70
     8
  0
VERTEX
  5
56D0A
330
56CA0
100
AcDbEntity
  8
0
 62
     0
100
AcDbVertex
100
AcDb2dVertex
 10
745.5502973091943
 20
504.5145002132411
 30
3.646124999999996
 70
     8
  0
VERTEX
  5
56D0B
330
56CA0
100
AcDbEntity
  8
0
 62
     0
100
AcDbVertex
100
AcDb2dVertex
 10
745.6962782042015
 20
504.3867908824189
 30
3.646124999999996
 70
     8
  0
VERTEX
  5
56D0C
330
56CA0
100
AcDbEntity
  8
0
 62
     0
100
AcDbVertex
100
AcDb2dVertex
 10
745.845831074412
 20
504.2771110982674
 30
3.646124999999996
 70
     8
  0
VERTEX
  5
56D0D
330
56CA0
100
AcDbEntity
  8
0
 62
     0
100
AcDbVertex
100
AcDb2dVertex
 10
745.9995199126
 20
504.1809534741225
 30
3.646124999999996
 70
     8
  0
VERTEX
  5
56D0E
330
56CA0
100
AcDbEntity
  8
0
 62
     0
100
AcDbVertex
100
AcDb2dVertex
 10
746.1579087115419
 20
504.0938106233113
 30
3.646124999999996
 70
     8
  0
VERTEX
  5
56D0F
330
56CA0
100
AcDbEntity
  8
0
 62
     0
100
AcDbVertex
100
AcDb2dVertex
 10
746.3215614640176
 20
504.0111751591701
 30
3.646124999999996
 70
     8
  0
VERTEX
  5
56D10
330
56CA0
100
AcDbEntity
  8
0
 62
     0
100
AcDbVertex
100
AcDb2dVertex
 10
746.4910421628037
 20
503.9285396950288
 30
3.646124999999996
 70
     8
  0
VERTEX
  5
56D11
330
56CA0
100
AcDbEntity
  8
0
 62
     0
100
AcDbVertex
100
AcDb2dVertex
 10
746.6669148006769
 20
503.8413968442206
 30
3.646124999999996
 70
     8
  0
VERTEX
  5
56D12
330
56CA0
100
AcDbEntity
  8
0
 62
     0
100
AcDbVertex
100
AcDb2dVertex
 10
746.8497433704169
 20
503.7452392200756
 30
3.646124999999996
 70
     8
  0
VERTEX
  5
56D13
330
56CA0
100
AcDbEntity
  8
0
 62
     0
100
AcDbVertex
100
AcDb2dVertex
 10
747.0393398718084
 20
503.6365297762197
 30
3.646124999999996
 70
     8
  0
VERTEX
  5
56D14
330
56CA0
100
AcDbEntity
  8
0
 62
     0
100
AcDbVertex
100
AcDb2dVertex
 10
747.2325083326918
 20
503.5156128274583
 30
3.646124999999996
 70
     8
  0
VERTEX
  5
56D15
330
56CA0
100
AcDbEntity
  8
0
 62
     0
100
AcDbVertex
100
AcDb2dVertex
 10
747.4253007879182
 20
503.3838030288897
 30
3.646124999999996
 70
     8
  0
VERTEX
  5
56D16
330
56CA0
100
AcDbEntity
  8
0
 62
     0
100
AcDbVertex
100
AcDb2dVertex
 10
747.6137692723386
 20
503.2424150356178
 30
3.646124999999996
 70
     8
  0
VERTEX
  5
56D17
330
56CA0
100
AcDbEntity
  8
0
 62
     0
100
AcDbVertex
100
AcDb2dVertex
 10
747.7939658208017
 20
503.0927635027351
 30
3.646124999999996
 70
     8
  0
VERTEX
  5
56D18
330
56CA0
100
AcDbEntity
  8
0
 62
     0
100
AcDbVertex
100
AcDb2dVertex
 10
747.9619424681583
 20
502.9361630853484
 30
3.646124999999996
 70
     8
  0
VERTEX
  5
56D19
330
56CA0
100
AcDbEntity
  8
0
 62
     0
100
AcDbVertex
100
AcDb2dVertex
 10
748.1137512492598
 20
502.7739284385502
 30
3.646124999999996
 70
     8
  0
VERTEX
  5
56D1A
330
56CA0
100
AcDbEntity
  8
0
 62
     0
100
AcDbVertex
100
AcDb2dVertex
 10
748.2454441989573
 20
502.6073742174473
 30
3.646124999999996
 70
     8
  0
VERTEX
  5
56D1B
330
56CA0
100
AcDbEntity
  8
0
 62
     0
100
AcDbVertex
100
AcDb2dVertex
 10
748.3535590136347
 20
502.43761161816
 30
3.646124999999996
 70
     8
  0
VERTEX
  5
56D1C
330
56CA0
100
AcDbEntity
  8
0
 62
     0
100
AcDbVertex
100
AcDb2dVertex
 10
748.4365760358386
 20
502.264938000937
 30
3.646124999999996
 70
     8
  0
VERTEX
  5
56D1D
330
56CA0
100
AcDbEntity
  8
0
 62
     0
100
AcDbVertex
100
AcDb2dVertex
 10
748.4934612696422
 20
502.0894472670461
 30
3.646124999999996
 70
     8
  0
VERTEX
  5
56D1E
330
56CA0
100
AcDbEntity
  8
0
 62
     0
100
AcDbVertex
100
AcDb2dVertex
 10
748.5231807191248
 20
501.9112333177579
 30
3.646124999999996
 70
     8
  0
VERTEX
  5
56D1F
330
56CA0
100
AcDbEntity
  8
0
 62
     0
100
AcDbVertex
100
AcDb2dVertex
 10
748.5247003883658
 20
501.7303900543432
 30
3.646124999999996
 70
     8
  0
VERTEX
  5
56D20
330
56CA0
100
AcDbEntity
  8
0
 62
     0
100
AcDbVertex
100
AcDb2dVertex
 10
748.496986281444
 20
501.5470113780728
 30
3.646124999999996
 70
     8
  0
VERTEX
  5
56D21
330
56CA0
100
AcDbEntity
  8
0
 62
     0
100
AcDbVertex
100
AcDb2dVertex
 10
748.4390044024361
 20
501.3611911902172
 30
3.646124999999996
 70
     8
  0
VERTEX
  5
56D22
330
56CA0
100
AcDbEntity
  8
0
 62
     0
100
AcDbVertex
100
AcDb2dVertex
 10
748.349720755421
 20
501.1730233920501
 30
3.646124999999996
 70
     8
  0
VERTEX
  5
56D23
330
56CA0
100
AcDbEntity
  8
0
 62
     0
100
AcDbVertex
100
AcDb2dVertex
 10
748.2296053330693
 20
500.9816002454301
 30
3.646124999999996
 70
     8
  0
VERTEX
  5
56D24
330
56CA0
100
AcDbEntity
  8
0
 62
     0
100
AcDbVertex
100
AcDb2dVertex
 10
748.0851440824318
 20
500.7820074545821
 30
3.646124999999996
 70
     8
  0
VERTEX
  5
56D25
330
56CA0
100
AcDbEntity
  8
0
 62
     0
100
AcDbVertex
100
AcDb2dVertex
 10
747.9243269391445
 20
500.5683290843246
 30
3.646124999999996
 70
     8
  0
VERTEX
  5
56D26
330
56CA0
100
AcDbEntity
  8
0
 62
     0
100
AcDbVertex
100
AcDb2dVertex
 10
747.7551438388494
 20
500.3346491994704
 30
3.646124999999996
 70
     8
  0
VERTEX
  5
56D27
330
56CA0
100
AcDbEntity
  8
0
 62
     0
100
AcDbVertex
100
AcDb2dVertex
 10
747.5855847171885
 20
500.075051864838
 30
3.646124999999996
 70
     8
  0
VERTEX
  5
56D28
330
56CA0
100
AcDbEntity
  8
0
 62
     0
100
AcDbVertex
100
AcDb2dVertex
 10
747.4236395098038
 20
499.7836211452431
 30
3.646124999999996
 70
     8
  0
VERTEX
  5
56D29
330
56CA0
100
AcDbEntity
  8
0
 62
     0
100
AcDbVertex
100
AcDb2dVertex
 10
747.2772981523343
 20
499.4544411054985
 30
3.646124999999996
 70
     8
  0
VERTEX
  5
56D2A
330
56CA0
100
AcDbEntity
  8
0
 62
     0
100
AcDbVertex
100
AcDb2dVertex
 10
747.1545505804191
 20
499.0815958104255
 30
3.646124999999996
 70
     8
  0
VERTEX
  5
56D2B
330
56CA0
100
AcDbEntity
  8
0
 62
     0
100
AcDbVertex
100
AcDb2dVertex
 10
723.4757652193713
 20
512.9282906713534
 30
3.646124999999996
 70
    16
  0
VERTEX
  5
56D2C
330
56CA0
100
AcDbEntity
  8
0
 62
     0
100
AcDbVertex
100
AcDb2dVertex
 10
724.6308284593717
 20
513.4090782475116
 30
3.646124999999996
 70
    16
  0
VERTEX
  5
56D2D
330
56CA0
100
AcDbEntity
  8
0
 62
     0
100
AcDbVertex
100
AcDb2dVertex
 10
726.5559331891335
 20
513.9860237410494
 30
3.646124999999996
 70
    16
  0
VERTEX
  5
56D2E
330
56CA0
100
AcDbEntity
  8
0
 62
     0
100
AcDbVertex
100
AcDb2dVertex
 10
728.9623130959723
 20
513.8898668290353
 30
3.646124999999996
 70
    16
  0
VERTEX
  5
56D2F
330
56CA0
100
AcDbEntity
  8
0
 62
     0
100
AcDbVertex
100
AcDb2dVertex
 10
730.7911623881737
 20
513.0244475833674
 30
3.646124999999996
 70
    16
  0
VERTEX
  5
56D30
330
56CA0
100
AcDbEntity
  8
0
 62
     0
100
AcDbVertex
100
AcDb2dVertex
 10
732.3312473784189
 20
511.5820838495302
 30
3.646124999999996
 70
    16
  0
VERTEX
  5
56D31
330
56CA0
100
AcDbEntity
  8
0
 62
     0
100
AcDbVertex
100
AcDb2dVertex
 10
733.5825640452545
 20
510.6205076918512
 30
3.646124999999996
 70
    16
  0
VERTEX
  5
56D32
330
56CA0
100
AcDbEntity
  8
0
 62
     0
100
AcDbVertex
100
AcDb2dVertex
 10
735.6039242125766
 20
510.2358770277071
 30
3.646124999999996
 70
    16
  0
VERTEX
  5
56D33
330
56CA0
100
AcDbEntity
  8
0
 62
     0
100
AcDbVertex
100
AcDb2dVertex
 10
738.0103041194155
 20
510.4281928624605
 30
3.646124999999996
 70
    16
  0
VERTEX
  5
56D34
330
56CA0
100
AcDbEntity
  8
0
 62
     0
100
AcDbVertex
100
AcDb2dVertex
 10
739.5503891096608
 20
510.7166656092279
 30
3.646124999999996
 70
    16
  0
VERTEX
  5
56D35
330
56CA0
100
AcDbEntity
  8
0
 62
     0
100
AcDbVertex
100
AcDb2dVertex
 10
741.571749276983
 20
511.0051383559953
 30
3.646124999999996
 70
    16
  0
VERTEX
  5
56D36
330
56CA0
100
AcDbEntity
  8
0
 62
     0
100
AcDbVertex
100
AcDb2dVertex
 10
743.6893628711405
 20
509.178143958014
 30
3.646124999999996
 70
    16
  0
VERTEX
  5
56D37
330
56CA0
100
AcDbEntity
  8
0
 62
     0
100
AcDbVertex
100
AcDb2dVertex
 10
744.4594043608989
 20
506.1011006555834
 30
3.646124999999996
 70
    16
  0
VERTEX
  5
56D38
330
56CA0
100
AcDbEntity
  8
0
 62
     0
100
AcDbVertex
100
AcDb2dVertex
 10
745.5182121633417
 20
504.274106257602
 30
3.646124999999996
 70
    16
  0
VERTEX
  5
56D39
330
56CA0
100
AcDbEntity
  8
0
 62
     0
100
AcDbVertex
100
AcDb2dVertex
 10
746.7695308409027
 20
503.8894755934578
 30
3.646124999999996
 70
    16
  0
VERTEX
  5
56D3A
330
56CA0
100
AcDbEntity
  8
0
 62
     0
100
AcDbVertex
100
AcDb2dVertex
 10
748.5021246955434
 20
502.6394266890115
 30
3.646124999999996
 70
    16
  0
VERTEX
  5
56D3B
330
56CA0
100
AcDbEntity
  8
0
 62
     0
100
AcDbVertex
100
AcDb2dVertex
 10
748.6946355706644
 20
501.1970629551742
 30
3.646124999999996
 70
    16
  0
VERTEX
  5
56D3C
330
56CA0
100
AcDbEntity
  8
0
 62
     0
100
AcDbVertex
100
AcDb2dVertex
 10
747.4433168931035
 20
500.1393288801185
 30
3.646124999999996
 70
    16
  0
VERTEX
  5
56D3D
330
56CA0
100
AcDbEntity
  8
0
 62
     0
100
AcDbVertex
100
AcDb2dVertex
 10
747.1545505804191
 20
499.0815958104255
 30
3.646124999999996
 70
    16
  0
SEQEND
  5
56D3E
330
56CA0
100
AcDbEntity
  8
0
 62
     0
  0
ARC
  5
56D3F
330
458D6
100
AcDbEntity
  8
0
 62
     0
100
AcDbCircle
 10
727.1730767153137
 20
513.3548077183744
 30
3.646124999999996
 40
1.587499999999999
100
AcDbArc
 50
180.0
 51
270.0
  0
ARC
  5
56D40
330
458D6
100
AcDbEntity
  8
0
 62
     0
100
AcDbCircle
 10
727.1730767153137
 20
513.3548077183744
 30
3.646124999999996
 40
2.4765
100
AcDbArc
 50
180.0
 51
270.0
  0
LINE
  5
56D41
330
458D6
100
AcDbEntity
  8
0
 62
     0
100
AcDbLine
 10
732.1274955748297
 20
511.7673077183744
 30
3.646124999999996
 11
727.1730767153137
 21
511.7673077183744
 31
3.646124999999996
  0
LINE
  5
56D42
330
458D6
100
AcDbEntity
  8
0
 62
     0
100
AcDbLine
 10
733.4584047713019
 20
510.8783077183723
 30
3.646124999999996
 11
727.1730767153137
 21
510.8783077183723
 31
3.646124999999996
  0
ARC
  5
56D43
330
458D6
100
AcDbEntity
  8
0
 62
     0
100
AcDbCircle
 10
728.1255767153143
 20
505.4173077183744
 30
3.646124999999996
 40
5.08
100
AcDbArc
 50
298.9550243718607
 51
90.0
  0
LINE
  5
56D44
330
458D6
100
AcDbEntity
  8
0
 62
     0
100
AcDbLine
 10
745.9687737313954
 20
500.9723077183727
 30
3.646124999999996
 11
730.5849211401543
 21
500.9723077183727
 31
3.646124999999996
  0
CIRCLE
  5
56D45
330
458D6
100
AcDbEntity
  8
0
 62
     0
100
AcDbCircle
 10
737.015576715312
 20
505.4173077183744
 30
3.646124999999996
 40
2.222499999999999
  0
ARC
  5
56D46
330
458D6
100
AcDbEntity
  8
0
 62
     0
100
AcDbCircle
 10
737.015576715312
 20
505.4173077183744
 30
3.646124999999996
 40
5.462269873025481
100
AcDbArc
 50
353.109005217459
 51
67.30655104306626
  0
ARC
  5
56D47
330
458D6
100
AcDbEntity
  8
0
 62
     0
100
AcDbCircle
 10
737.015576715312
 20
505.4173077183744
 30
3.646124999999996
 40
6.351269873025481
100
AcDbArc
 50
353.109005217459
 51
56.96332700447623
  0
ARC
  5
56D48
330
458D6
100
AcDbEntity
  8
0
 62
     0
100
AcDbCircle
 10
744.8969985950793
 20
504.4648077183738
 30
3.646124999999996
 40
1.587499999999999
100
AcDbArc
 50
173.109005217459
 51
270.0
  0
ARC
  5
56D49
330
458D6
100
AcDbEntity
  8
0
 62
     0
100
AcDbCircle
 10
745.9687737313954
 20
504.4648077183738
 30
3.646124999999996
 40
3.4925
100
AcDbArc
 50
195.5248462129153
 51
270.0
  0
ARC
  5
56D4A
330
458D6
100
AcDbEntity
  8
0
 62
     0
100
AcDbCircle
 10
744.8969985950793
 20
504.4648077183738
 30
3.646124999999996
 40
2.4765
100
AcDbArc
 50
173.109005217459
 51
270.0
  0
LINE
  5
56D4B
330
458D6
100
AcDbEntity
  8
0
 62
     0
100
AcDbLine
 10
748.0170155471735
 20
502.8773077183738
 30
3.646124999999996
 11
744.8969985950793
 21
502.8773077183738
 31
3.646124999999996
  0
LINE
  5
56D4C
330
458D6
100
AcDbEntity
  8
0
 62
     0
100
AcDbLine
 10
748.5103275795995
 20
501.9883077183746
 30
3.646124999999996
 11
744.9520606248821
 21
501.9883077183746
 31
3.646124999999996
  0
LINE
  5
56D4D
330
458D6
100
AcDbEntity
  8
0
 62
     0
100
AcDbLine
 10
745.9687737313954
 20
500.9723077183727
 30
3.646124999999996
 11
748.2228795887458
 21
500.9723077183727
 31
3.646124999999996
  0
LINE
  5
56D4E
330
458D6
100
AcDbEntity
  8
0
 62
     0
100
AcDbLine
 10
796.6981548355467
 20
502.8773077183738
 30
3.646124999999996
 11
792.8161378834531
 21
502.8773077183738
 31
3.646124999999996
  0
LINE
  5
56D4F
330
458D6
100
AcDbEntity
  8
0
 62
     0
100
AcDbLine
 10
796.6430928057438
 20
501.9883077183746
 30
3.646124999999996
 11
792.3228258510243
 21
501.9883077183746
 31
3.646124999999996
  0
LINE
  5
56D50
330
458D6
100
AcDbEntity
  8
0
 62
     0
100
AcDbLine
 10
792.6102738418779
 20
500.9723077183727
 30
3.646124999999996
 11
810.2482322904723
 21
500.9723077183727
 31
3.646124999999996
  0
ARC
  5
56D51
330
458D6
100
AcDbEntity
  8
0
 62
     0
100
AcDbCircle
 10
794.8643796992312
 20
504.4648077183738
 30
3.646124999999996
 40
3.4925
100
AcDbArc
 50
270.0
 51
0.0
  0
ARC
  5
56D52
330
458D6
100
AcDbEntity
  8
0
 62
     0
100
AcDbCircle
 10
795.9361548355444
 20
504.4648077183738
 30
3.646124999999996
 40
2.4765
100
AcDbArc
 50
270.0
 51
6.890994782540906
  0
ARC
  5
56D53
330
458D6
100
AcDbEntity
  8
0
 62
     0
100
AcDbCircle
 10
795.9361548355444
 20
504.4648077183738
 30
3.646124999999996
 40
1.587499999999999
100
AcDbArc
 50
270.0
 51
6.890994782540906
  0
ARC
  5
56D54
330
458D6
100
AcDbEntity
  8
0
 62
     0
100
AcDbCircle
 10
803.8175767153118
 20
505.4173077183744
 30
3.646124999999996
 40
5.462269873025481
100
AcDbArc
 50
115.6167222811424
 51
186.8909947825409
  0
ARC
  5
56D55
330
458D6
100
AcDbEntity
  8
0
 62
     0
100
AcDbCircle
 10
803.8175767153118
 20
505.4173077183744
 30
3.646124999999996
 40
6.351269873025481
100
AcDbArc
 50
125.2506119403087
 51
186.8909947825409
  0
CIRCLE
  5
56D56
330
458D6
100
AcDbEntity
  8
0
 62
     0
100
AcDbCircle
 10
803.8175767153118
 20
505.4173077183744
 30
3.646124999999996
 40
2.222499999999999
  0
ARC
  5
56D57
330
458D6
100
AcDbEntity
  8
0
 62
     0
100
AcDbCircle
 10
812.7075767153124
 20
505.4173077183744
 30
3.646124999999996
 40
5.08
100
AcDbArc
 50
90.0
 51
241.0449756281393
  0
LINE
  5
56D58
330
458D6
100
AcDbEntity
  8
0
 62
     0
100
AcDbLine
 10
807.4626987105094
 20
510.8783077183723
 30
3.646124999999996
 11
813.6600767153129
 21
510.8783077183723
 31
3.646124999999996
  0
LINE
  5
56D59
330
458D6
100
AcDbEntity
  8
0
 62
     0
100
AcDbLine
 10
808.6708986805582
 20
511.7673077183744
 30
3.646124999999996
 11
813.6600767153129
 21
511.7673077183744
 31
3.646124999999996
  0
ARC
  5
56D5A
330
458D6
100
AcDbEntity
  8
0
 62
     0
100
AcDbCircle
 10
813.6600767153129
 20
513.3548077183744
 30
3.646124999999996
 40
2.4765
100
AcDbArc
 50
270.0
 51
0.0
  0
ARC
  5
56D5B
330
458D6
100
AcDbEntity
  8
0
 62
     0
100
AcDbCircle
 10
813.6600767153129
 20
513.3548077183744
 30
3.646124999999996
 40
1.587499999999999
100
AcDbArc
 50
270.0
 51
0.0
  0
POLYLINE
  5
56D5C
330
458D6
100
AcDbEntity
  8
0
 62
     0
100
AcDb2dPolyline
 66
     1
 10
0.0
 20
0.0
 30
3.646124999999996
  0
VERTEX
  5
56D5D
330
56D5C
100
AcDbEntity
  8
0
 62
     0
100
AcDbVertex
100
AcDb2dVertex
 10
819.3413891397925
 20
512.8561884390836
 30
3.646124999999996
  0
VERTEX
  5
56D5E
330
56D5C
100
AcDbEntity
  8
0
 62
     0
100
AcDbVertex
100
AcDb2dVertex
 10
818.6605073640873
 20
512.8907397966368
 30
3.646124999999996
  0
VERTEX
  5
56D5F
330
56D5C
100
AcDbEntity
  8
0
 62
     0
100
AcDbVertex
100
AcDb2dVertex
 10
818.0946240280098
 20
512.9388146101949
 30
3.646124999999996
  0
VERTEX
  5
56D60
330
56D5C
100
AcDbEntity
  8
0
 62
     0
100
AcDbVertex
100
AcDb2dVertex
 10
817.6268810735066
 20
512.9981590023994
 30
3.646124999999996
  0
VERTEX
  5
56D61
330
56D5C
100
AcDbEntity
  8
0
 62
     0
100
AcDbVertex
100
AcDb2dVertex
 10
817.240420442536
 20
513.066519095897
 30
3.646124999999996
  0
VERTEX
  5
56D62
330
56D5C
100
AcDbEntity
  8
0
 62
     0
100
AcDbVertex
100
AcDb2dVertex
 10
816.9183840770442
 20
513.1416410133349
 30
3.646124999999996
  0
VERTEX
  5
56D63
330
56D5C
100
AcDbEntity
  8
0
 62
     0
100
AcDbVertex
100
AcDb2dVertex
 10
816.6439139189833
 20
513.2212708773542
 30
3.646124999999996
  0
VERTEX
  5
56D64
330
56D5C
100
AcDbEntity
  8
0
 62
     0
100
AcDbVertex
100
AcDb2dVertex
 10
816.4001519103058
 20
513.3031548106049
 30
3.646124999999996
  0
VERTEX
  5
56D65
330
56D5C
100
AcDbEntity
  8
0
 62
     0
100
AcDbVertex
100
AcDb2dVertex
 10
816.1702399929609
 20
513.385038935728
 30
3.646124999999996
  0
VERTEX
  5
56D66
330
56D5C
100
AcDbEntity
  8
0
 62
     0
100
AcDbVertex
100
AcDb2dVertex
 10
815.9400357861196
 20
513.4648728645246
 30
3.646124999999996
  0
VERTEX
  5
56D67
330
56D5C
100
AcDbEntity
  8
0
 62
     0
100
AcDbVertex
100
AcDb2dVertex
 10
815.7062596178226
 20
513.5414201653907
 30
3.646124999999996
  0
VERTEX
  5
56D68
330
56D5C
100
AcDbEntity
  8
0
 62
     0
100
AcDbVertex
100
AcDb2dVertex
 10
815.4683474933271
 20
513.6136478958735
 30
3.646124999999996
  0
VERTEX
  5
56D69
330
56D5C
100
AcDbEntity
  8
0
 62
     0
100
AcDbVertex
100
AcDb2dVertex
 10
815.2257354178955
 20
513.6805231135261
 30
3.646124999999996
  0
VERTEX
  5
56D6A
330
56D5C
100
AcDbEntity
  8
0
 62
     0
100
AcDbVertex
100
AcDb2dVertex
 10
814.9778593967877
 20
513.7410128758927
 30
3.646124999999996
  0
VERTEX
  5
56D6B
330
56D5C
100
AcDbEntity
  8
0
 62
     0
100
AcDbVertex
100
AcDb2dVertex
 10
814.7241554352572
 20
513.7940842405265
 30
3.646124999999996
  0
VERTEX
  5
56D6C
330
56D5C
100
AcDbEntity
  8
0
 62
     0
100
AcDbVertex
100
AcDb2dVertex
 10
814.4640595385695
 20
513.8387042649774
 30
3.646124999999996
  0
VERTEX
  5
56D6D
330
56D5C
100
AcDbEntity
  8
0
 62
     0
100
AcDbVertex
100
AcDb2dVertex
 10
814.197007711979
 20
513.8738400067897
 30
3.646124999999996
  0
VERTEX
  5
56D6E
330
56D5C
100
AcDbEntity
  8
0
 62
     0
100
AcDbVertex
100
AcDb2dVertex
 10
813.9228746232133
 20
513.8985993785325
 30
3.646124999999996
  0
VERTEX
  5
56D6F
330
56D5C
100
AcDbEntity
  8
0
 62
     0
100
AcDbVertex
100
AcDb2dVertex
 10
813.6432895898702
 20
513.9126537128275
 30
3.646124999999996
  0
VERTEX
  5
56D70
330
56D5C
100
AcDbEntity
  8
0
 62
     0
100
AcDbVertex
100
AcDb2dVertex
 10
813.3603205920064
 20
513.9158151973179
 30
3.646124999999996
  0
VERTEX
  5
56D71
330
56D5C
100
AcDbEntity
  8
0
 62
     0
100
AcDbVertex
100
AcDb2dVertex
 10
813.0760356096878
 20
513.9078960196419
 30
3.646124999999996
  0
VERTEX
  5
56D72
330
56D5C
100
AcDbEntity
  8
0
 62
     0
100
AcDbVertex
100
AcDb2dVertex
 10
812.7925026229744
 20
513.8887083674397
 30
3.646124999999996
  0
VERTEX
  5
56D73
330
56D5C
100
AcDbEntity
  8
0
 62
     0
100
AcDbVertex
100
AcDb2dVertex
 10
812.5117896119322
 20
513.8580644283549
 30
3.646124999999996
  0
VERTEX
  5
56D74
330
56D5C
100
AcDbEntity
  8
0
 62
     0
100
AcDbVertex
100
AcDb2dVertex
 10
812.2359645566151
 20
513.8157763900254
 30
3.646124999999996
  0
VERTEX
  5
56D75
330
56D5C
100
AcDbEntity
  8
0
 62
     0
100
AcDbVertex
100
AcDb2dVertex
 10
811.9670954370919
 20
513.7616564400915
 30
3.646124999999996
  0
VERTEX
  5
56D76
330
56D5C
100
AcDbEntity
  8
0
 62
     0
100
AcDbVertex
100
AcDb2dVertex
 10
811.7068115706279
 20
513.6956106717211
 30
3.646124999999996
  0
VERTEX
  5
56D77
330
56D5C
100
AcDbEntity
  8
0
 62
     0
100
AcDbVertex
100
AcDb2dVertex
 10
811.4549876233141
 20
513.6179208001786
 30
3.646124999999996
  0
VERTEX
  5
56D78
330
56D5C
100
AcDbEntity
  8
0
 62
     0
100
AcDbVertex
100
AcDb2dVertex
 10
811.2110595984432
 20
513.5289624462557
 30
3.646124999999996
  0
VERTEX
  5
56D79
330
56D5C
100
AcDbEntity
  8
0
 62
     0
100
AcDbVertex
100
AcDb2dVertex
 10
810.9744634993147
 20
513.4291112307469
 30
3.646124999999996
  0
VERTEX
  5
56D7A
330
56D5C
100
AcDbEntity
  8
0
 62
     0
100
AcDbVertex
100
AcDb2dVertex
 10
810.7446353292214
 20
513.3187427744407
 30
3.646124999999996
  0
VERTEX
  5
56D7B
330
56D5C
100
AcDbEntity
  8
0
 62
     0
100
AcDbVertex
100
AcDb2dVertex
 10
810.5210110914597
 20
513.1982326981317
 30
3.646124999999996
  0
VERTEX
  5
56D7C
330
56D5C
100
AcDbEntity
  8
0
 62
     0
100
AcDbVertex
100
AcDb2dVertex
 10
810.3030267893254
 20
513.0679566226117
 30
3.646124999999996
  0
VERTEX
  5
56D7D
330
56D5C
100
AcDbEntity
  8
0
 62
     0
100
AcDbVertex
100
AcDb2dVertex
 10
810.090118426112
 20
512.928290168672
 30
3.646124999999996
  0
VERTEX
  5
56D7E
330
56D5C
100
AcDbEntity
  8
0
 62
     0
100
AcDbVertex
100
AcDb2dVertex
 10
809.8818160058767
 20
512.7798906674628
 30
3.646124999999996
  0
VERTEX
  5
56D7F
330
56D5C
100
AcDbEntity
  8
0
 62
     0
100
AcDbVertex
100
AcDb2dVertex
 10
809.6780255357156
 20
512.6245422915648
 30
3.646124999999996
  0
VERTEX
  5
56D80
330
56D5C
100
AcDbEntity
  8
0
 62
     0
100
AcDbVertex
100
AcDb2dVertex
 10
809.47874702348
 20
512.4643109239141
 30
3.646124999999996
  0
VERTEX
  5
56D81
330
56D5C
100
AcDbEntity
  8
0
 62
     0
100
AcDbVertex
100
AcDb2dVertex
 10
809.2839804770244
 20
512.3012624474499
 30
3.646124999999996
  0
VERTEX
  5
56D82
330
56D5C
100
AcDbEntity
  8
0
 62
     0
100
AcDbVertex
100
AcDb2dVertex
 10
809.0937259042059
 20
512.1374627451112
 30
3.646124999999996
  0
VERTEX
  5
56D83
330
56D5C
100
AcDbEntity
  8
0
 62
     0
100
AcDbVertex
100
AcDb2dVertex
 10
808.9079833128792
 20
511.9749776998345
 30
3.646124999999996
  0
VERTEX
  5
56D84
330
56D5C
100
AcDbEntity
  8
0
 62
     0
100
AcDbVertex
100
AcDb2dVertex
 10
808.7267527108927
 20
511.8158731945587
 30
3.646124999999996
  0
VERTEX
  5
56D85
330
56D5C
100
AcDbEntity
  8
0
 62
     0
100
AcDbVertex
100
AcDb2dVertex
 10
808.5500341061095
 20
511.6622151122228
 30
3.646124999999996
  0
VERTEX
  5
56D86
330
56D5C
100
AcDbEntity
  8
0
 62
     0
100
AcDbVertex
100
AcDb2dVertex
 10
808.377482839762
 20
511.5157563233487
 30
3.646124999999996
  0
VERTEX
  5
56D87
330
56D5C
100
AcDbEntity
  8
0
 62
     0
100
AcDbVertex
100
AcDb2dVertex
 10
808.2073755866222
 20
511.3769976487831
 30
3.646124999999996
  0
VERTEX
  5
56D88
330
56D5C
100
AcDbEntity
  8
0
 62
     0
100
AcDbVertex
100
AcDb2dVertex
 10
808.0376443548509
 20
511.2461268969582
 30
3.646124999999996
  0
VERTEX
  5
56D89
330
56D5C
100
AcDbEntity
  8
0
 62
     0
100
AcDbVertex
100
AcDb2dVertex
 10
807.8662211526012
 20
511.123331876309
 30
3.646124999999996
  0
VERTEX
  5
56D8A
330
56D5C
100
AcDbEntity
  8
0
 62
     0
100
AcDbVertex
100
AcDb2dVertex
 10
807.6910379880279
 20
511.0088003952678
 30
3.646124999999996
  0
VERTEX
  5
56D8B
330
56D5C
100
AcDbEntity
  8
0
 62
     0
100
AcDbVertex
100
AcDb2dVertex
 10
807.510026869293
 20
510.9027202622637
 30
3.646124999999996
  0
VERTEX
  5
56D8C
330
56D5C
100
AcDbEntity
  8
0
 62
     0
100
AcDbVertex
100
AcDb2dVertex
 10
807.3211198045516
 20
510.8052792857351
 30
3.646124999999996
  0
VERTEX
  5
56D8D
330
56D5C
100
AcDbEntity
  8
0
 62
     0
100
AcDbVertex
100
AcDb2dVertex
 10
807.1222488019564
 20
510.716665274108
 30
3.646124999999996
  0
VERTEX
  5
56D8E
330
56D5C
100
AcDbEntity
  8
0
 62
     0
100
AcDbVertex
100
AcDb2dVertex
 10
806.9118158682298
 20
510.6370347347376
 30
3.646124999999996
  0
VERTEX
  5
56D8F
330
56D5C
100
AcDbEntity
  8
0
 62
     0
100
AcDbVertex
100
AcDb2dVertex
 10
806.6901030043407
 20
510.5664189706705
 30
3.646124999999996
  0
SEQEND
  5
56D90
330
56D5C
100
AcDbEntity
  8
0
 62
     0
  0
POLYLINE
  5
56D91
330
458D6
100
AcDbEntity
  8
0
 62
     0
100
AcDb2dPolyline
 66
     1
 10
0.0
 20
0.0
 30
3.646124999999996
  0
VERTEX
  5
56D92
330
56D91
100
AcDbEntity
  8
0
 62
     0
100
AcDbVertex
100
AcDb2dVertex
 10
806.4578622098235
 20
510.5048179838645
 30
3.646124999999996
  0
VERTEX
  5
56D93
330
56D91
100
AcDbEntity
  8
0
 62
     0
100
AcDbVertex
100
AcDb2dVertex
 10
806.2158454842085
 20
510.4522317762889
 30
3.646124999999996
  0
VERTEX
  5
56D94
330
56D91
100
AcDbEntity
  8
0
 62
     0
100
AcDbVertex
100
AcDb2dVertex
 10
805.9648048270334
 20
510.4086603499015
 30
3.646124999999996
  0
VERTEX
  5
56D95
330
56D91
100
AcDbEntity
  8
0
 62
     0
100
AcDbVertex
100
AcDb2dVertex
 10
805.7054922378281
 20
510.3741037066689
 30
3.646124999999996
  0
VERTEX
  5
56D96
330
56D91
100
AcDbEntity
  8
0
 62
     0
100
AcDbVertex
100
AcDb2dVertex
 10
805.4386597161279
 20
510.3485618485547
 30
3.646124999999996
  0
VERTEX
  5
56D97
330
56D91
100
AcDbEntity
  8
0
 62
     0
100
AcDbVertex
100
AcDb2dVertex
 10
805.165059261462
 20
510.3320347775223
 30
3.646124999999996
  0
VERTEX
  5
56D98
330
56D91
100
AcDbEntity
  8
0
 62
     0
100
AcDbVertex
100
AcDb2dVertex
 10
804.8857248691017
 20
510.3243659881834
 30
3.646124999999996
  0
VERTEX
  5
56D99
330
56D91
100
AcDbEntity
  8
0
 62
     0
100
AcDbVertex
100
AcDb2dVertex
 10
804.6028185172499
 20
510.3247729457232
 30
3.646124999999996
  0
VERTEX
  5
56D9A
330
56D91
100
AcDbEntity
  8
0
 62
     0
100
AcDbVertex
100
AcDb2dVertex
 10
804.3187841798415
 20
510.3323166079866
 30
3.646124999999996
  0
VERTEX
  5
56D9B
330
56D91
100
AcDbEntity
  8
0
 62
     0
100
AcDbVertex
100
AcDb2dVertex
 10
804.0360658308181
 20
510.3460579328125
 30
3.646124999999996
  0
VERTEX
  5
56D9C
330
56D91
100
AcDbEntity
  8
0
 62
     0
100
AcDbVertex
100
AcDb2dVertex
 10
803.7571074441149
 20
510.3650578780312
 30
3.646124999999996
  0
VERTEX
  5
56D9D
330
56D91
100
AcDbEntity
  8
0
 62
     0
100
AcDbVertex
100
AcDb2dVertex
 10
803.4843529936704
 20
510.3883774014904
 30
3.646124999999996
  0
VERTEX
  5
56D9E
330
56D91
100
AcDbEntity
  8
0
 62
     0
100
AcDbVertex
100
AcDb2dVertex
 10
803.2202464534229
 20
510.4150774610205
 30
3.646124999999996
  0
VERTEX
  5
56D9F
330
56D91
100
AcDbEntity
  8
0
 62
     0
100
AcDbVertex
100
AcDb2dVertex
 10
802.9672317973076
 20
510.4442190144633
 30
3.646124999999996
  0
VERTEX
  5
56DA0
330
56D91
100
AcDbEntity
  8
0
 62
     0
100
AcDbVertex
100
AcDb2dVertex
 10
802.7269070081374
 20
510.4749882256065
 30
3.646124999999996
  0
VERTEX
  5
56DA1
330
56D91
100
AcDbEntity
  8
0
 62
     0
100
AcDbVertex
100
AcDb2dVertex
 10
802.4974861041984
 20
510.5070720820299
 30
3.646124999999996
  0
VERTEX
  5
56DA2
330
56D91
100
AcDbEntity
  8
0
 62
     0
100
AcDbVertex
100
AcDb2dVertex
 10
802.2763371126506
 20
510.5402827772651
 30
3.646124999999996
  0
VERTEX
  5
56DA3
330
56D91
100
AcDbEntity
  8
0
 62
     0
100
AcDbVertex
100
AcDb2dVertex
 10
802.0608280606605
 20
510.574432504846
 30
3.646124999999996
  0
VERTEX
  5
56DA4
330
56D91
100
AcDbEntity
  8
0
 62
     0
100
AcDbVertex
100
AcDb2dVertex
 10
801.8483269753827
 20
510.6093334582985
 30
3.646124999999996
  0
VERTEX
  5
56DA5
330
56D91
100
AcDbEntity
  8
0
 62
     0
100
AcDbVertex
100
AcDb2dVertex
 10
801.6362018839831
 20
510.6447978311625
 30
3.646124999999996
  0
VERTEX
  5
56DA6
330
56D91
100
AcDbEntity
  8
0
 62
     0
100
AcDbVertex
100
AcDb2dVertex
 10
801.4218208136194
 20
510.6806378169609
 30
3.646124999999996
  0
VERTEX
  5
56DA7
330
56D91
100
AcDbEntity
  8
0
 62
     0
100
AcDbVertex
100
AcDb2dVertex
 10
801.2025517914517
 20
510.7166656092279
 30
3.646124999999996
  0
VERTEX
  5
56DA8
330
56D91
100
AcDbEntity
  8
0
 62
     0
100
AcDbVertex
100
AcDb2dVertex
 10
800.9763268393836
 20
510.7520360739457
 30
3.646124999999996
  0
VERTEX
  5
56DA9
330
56D91
100
AcDbEntity
  8
0
 62
     0
100
AcDbVertex
100
AcDb2dVertex
 10
800.7433339582803
 20
510.7832747668975
 30
3.646124999999996
  0
VERTEX
  5
56DAA
330
56D91
100
AcDbEntity
  8
0
 62
     0
100
AcDbVertex
100
AcDb2dVertex
 10
800.5043251437468
 20
510.8062499163142
 30
3.646124999999996
  0
VERTEX
  5
56DAB
330
56D91
100
AcDbEntity
  8
0
 62
     0
100
AcDbVertex
100
AcDb2dVertex
 10
800.2600523913885
 20
510.8168297504295
 30
3.646124999999996
  0
VERTEX
  5
56DAC
330
56D91
100
AcDbEntity
  8
0
 62
     0
100
AcDbVertex
100
AcDb2dVertex
 10
800.0112676968136
 20
510.8108824974774
 30
3.646124999999996
  0
VERTEX
  5
56DAD
330
56D91
100
AcDbEntity
  8
0
 62
     0
100
AcDbVertex
100
AcDb2dVertex
 10
799.758723055624
 20
510.7842763856889
 30
3.646124999999996
  0
VERTEX
  5
56DAE
330
56D91
100
AcDbEntity
  8
0
 62
     0
100
AcDbVertex
100
AcDb2dVertex
 10
799.5031704634311
 20
510.7328796432978
 30
3.646124999999996
  0
VERTEX
  5
56DAF
330
56D91
100
AcDbEntity
  8
0
 62
     0
100
AcDbVertex
100
AcDb2dVertex
 10
799.2453619158372
 20
510.6525604985382
 30
3.646124999999996
  0
VERTEX
  5
56DB0
330
56D91
100
AcDbEntity
  8
0
 62
     0
100
AcDbVertex
100
AcDb2dVertex
 10
798.9863940711363
 20
510.5401575199364
 30
3.646124999999996
  0
VERTEX
  5
56DB1
330
56D91
100
AcDbEntity
  8
0
 62
     0
100
AcDbVertex
100
AcDb2dVertex
 10
798.7287422383835
 20
510.3963906371959
 30
3.646124999999996
  0
VERTEX
  5
56DB2
330
56D91
100
AcDbEntity
  8
0
 62
     0
100
AcDbVertex
100
AcDb2dVertex
 10
798.4752263893169
 20
510.2229501203217
 30
3.646124999999996
  0
VERTEX
  5
56DB3
330
56D91
100
AcDbEntity
  8
0
 62
     0
100
AcDbVertex
100
AcDb2dVertex
 10
798.2286664956801
 20
510.0215262393125
 30
3.646124999999996
  0
VERTEX
  5
56DB4
330
56D91
100
AcDbEntity
  8
0
 62
     0
100
AcDbVertex
100
AcDb2dVertex
 10
797.9918825292113
 20
509.7938092641704
 30
3.646124999999996
  0
VERTEX
  5
56DB5
330
56D91
100
AcDbEntity
  8
0
 62
     0
100
AcDbVertex
100
AcDb2dVertex
 10
797.7676944616487
 20
509.5414894648913
 30
3.646124999999996
  0
VERTEX
  5
56DB6
330
56D91
100
AcDbEntity
  8
0
 62
     0
100
AcDbVertex
100
AcDb2dVertex
 10
797.5589222647388
 20
509.2662571114832
 30
3.646124999999996
  0
VERTEX
  5
56DB7
330
56D91
100
AcDbEntity
  8
0
 62
     0
100
AcDbVertex
100
AcDb2dVertex
 10
797.3683859102171
 20
508.9698024739392
 30
3.646124999999996
  0
VERTEX
  5
56DB8
330
56D91
100
AcDbEntity
  8
0
 62
     0
100
AcDbVertex
100
AcDb2dVertex
 10
797.1979027122945
 20
508.6543479445198
 30
3.646124999999996
  0
VERTEX
  5
56DB9
330
56D91
100
AcDbEntity
  8
0
 62
     0
100
AcDbVertex
100
AcDb2dVertex
 10
797.0452793550302
 20
508.3242444045008
 30
3.646124999999996
  0
VERTEX
  5
56DBA
330
56D91
100
AcDbEntity
  8
0
 62
     0
100
AcDbVertex
100
AcDb2dVertex
 10
796.9073198649562
 20
507.9843748574161
 30
3.646124999999996
  0
VERTEX
  5
56DBB
330
56D91
100
AcDbEntity
  8
0
 62
     0
100
AcDbVertex
100
AcDb2dVertex
 10
796.7808282685988
 20
507.6396223068001
 30
3.646124999999996
  0
VERTEX
  5
56DBC
330
56D91
100
AcDbEntity
  8
0
 62
     0
100
AcDbVertex
100
AcDb2dVertex
 10
796.6626085924931
 20
507.2948697561812
 30
3.646124999999996
  0
VERTEX
  5
56DBD
330
56D91
100
AcDbEntity
  8
0
 62
     0
100
AcDbVertex
100
AcDb2dVertex
 10
796.5494648631595
 20
506.9550002090966
 30
3.646124999999996
  0
VERTEX
  5
56DBE
330
56D91
100
AcDbEntity
  8
0
 62
     0
100
AcDbVertex
100
AcDb2dVertex
 10
796.438201107136
 20
506.6248966690776
 30
3.646124999999996
  0
VERTEX
  5
56DBF
330
56D91
100
AcDbEntity
  8
0
 62
     0
100
AcDbVertex
100
AcDb2dVertex
 10
796.3256213509461
 20
506.3094421396582
 30
3.646124999999996
  0
VERTEX
  5
56DC0
330
56D91
100
AcDbEntity
  8
0
 62
     0
100
AcDbVertex
100
AcDb2dVertex
 10
796.2090936165147
 20
506.0127683929341
 30
3.646124999999996
  0
VERTEX
  5
56DC1
330
56D91
100
AcDbEntity
  8
0
 62
     0
100
AcDbVertex
100
AcDb2dVertex
 10
796.0882419073503
 20
505.7360022752389
 30
3.646124999999996
  0
VERTEX
  5
56DC2
330
56D91
100
AcDbEntity
  8
0
 62
     0
100
AcDbVertex
100
AcDb2dVertex
 10
795.9632542223543
 20
505.4795194014822
 30
3.646124999999996
  0
VERTEX
  5
56DC3
330
56D91
100
AcDbEntity
  8
0
 62
     0
100
AcDbVertex
100
AcDb2dVertex
 10
795.8343185604249
 20
505.2436953865591
 30
3.646124999999996
  0
VERTEX
  5
56DC4
330
56D91
100
AcDbEntity
  8
0
 62
     0
100
AcDbVertex
100
AcDb2dVertex
 10
795.7016229204693
 20
505.0289058453703
 30
3.646124999999996
  0
VERTEX
  5
56DC5
330
56D91
100
AcDbEntity
  8
0
 62
     0
100
AcDbVertex
100
AcDb2dVertex
 10
795.5653553013831
 20
504.8355263928224
 30
3.646124999999996
  0
VERTEX
  5
56DC6
330
56D91
100
AcDbEntity
  8
0
 62
     0
100
AcDbVertex
100
AcDb2dVertex
 10
795.4257037020703
 20
504.6639326438134
 30
3.646124999999996
  0
VERTEX
  5
56DC7
330
56D91
100
AcDbEntity
  8
0
 62
     0
100
AcDbVertex
100
AcDb2dVertex
 10
795.2828561214325
 20
504.5145002132411
 30
3.646124999999996
  0
VERTEX
  5
56DC8
330
56D91
100
AcDbEntity
  8
0
 62
     0
100
AcDbVertex
100
AcDb2dVertex
 10
795.1368752264223
 20
504.3867908824189
 30
3.646124999999996
  0
VERTEX
  5
56DC9
330
56D91
100
AcDbEntity
  8
0
 62
     0
100
AcDbVertex
100
AcDb2dVertex
 10
794.9873223562146
 20
504.2771110982674
 30
3.646124999999996
  0
VERTEX
  5
56DCA
330
56D91
100
AcDbEntity
  8
0
 62
     0
100
AcDbVertex
100
AcDb2dVertex
 10
794.8336335180267
 20
504.1809534741225
 30
3.646124999999996
  0
VERTEX
  5
56DCB
330
56D91
100
AcDbEntity
  8
0
 62
     0
100
AcDbVertex
100
AcDb2dVertex
 10
794.6752447190818
 20
504.0938106233113
 30
3.646124999999996
  0
VERTEX
  5
56DCC
330
56D91
100
AcDbEntity
  8
0
 62
     0
100
AcDbVertex
100
AcDb2dVertex
 10
794.5115919666061
 20
504.0111751591701
 30
3.646124999999996
  0
VERTEX
  5
56DCD
330
56D91
100
AcDbEntity
  8
0
 62
     0
100
AcDbVertex
100
AcDb2dVertex
 10
794.34211126782
 20
503.9285396950288
 30
3.646124999999996
  0
VERTEX
  5
56DCE
330
56D91
100
AcDbEntity
  8
0
 62
     0
100
AcDbVertex
100
AcDb2dVertex
 10
794.1662386299468
 20
503.8413968442206
 30
3.646124999999996
  0
VERTEX
  5
56DCF
330
56D91
100
AcDbEntity
  8
0
 62
     0
100
AcDbVertex
100
AcDb2dVertex
 10
793.9834100602097
 20
503.7452392200756
 30
3.646124999999996
  0
VERTEX
  5
56DD0
330
56D91
100
AcDbEntity
  8
0
 62
     0
100
AcDbVertex
100
AcDb2dVertex
 10
793.7938135588182
 20
503.6365297762197
 30
3.646124999999996
  0
VERTEX
  5
56DD1
330
56D91
100
AcDbEntity
  8
0
 62
     0
100
AcDbVertex
100
AcDb2dVertex
 10
793.600645097932
 20
503.5156128274583
 30
3.646124999999996
  0
VERTEX
  5
56DD2
330
56D91
100
AcDbEntity
  8
0
 62
     0
100
AcDbVertex
100
AcDb2dVertex
 10
793.4078526427056
 20
503.3838030288897
 30
3.646124999999996
  0
VERTEX
  5
56DD3
330
56D91
100
AcDbEntity
  8
0
 62
     0
100
AcDbVertex
100
AcDb2dVertex
 10
793.219384158285
 20
503.2424150356178
 30
3.646124999999996
  0
VERTEX
  5
56DD4
330
56D91
100
AcDbEntity
  8
0
 62
     0
100
AcDbVertex
100
AcDb2dVertex
 10
793.039187609822
 20
503.0927635027351
 30
3.646124999999996
  0
VERTEX
  5
56DD5
330
56D91
100
AcDbEntity
  8
0
 62
     0
100
AcDbVertex
100
AcDb2dVertex
 10
792.8712109624655
 20
502.9361630853484
 30
3.646124999999996
  0
VERTEX
  5
56DD6
330
56D91
100
AcDbEntity
  8
0
 62
     0
100
AcDbVertex
100
AcDb2dVertex
 10
792.7194021813639
 20
502.7739284385502
 30
3.646124999999996
  0
VERTEX
  5
56DD7
330
56D91
100
AcDbEntity
  8
0
 62
     0
100
AcDbVertex
100
AcDb2dVertex
 10
792.5877092316693
 20
502.6073742174473
 30
3.646124999999996
  0
VERTEX
  5
56DD8
330
56D91
100
AcDbEntity
  8
0
 62
     0
100
AcDbVertex
100
AcDb2dVertex
 10
792.4795944169891
 20
502.43761161816
 30
3.646124999999996
  0
VERTEX
  5
56DD9
330
56D91
100
AcDbEntity
  8
0
 62
     0
100
AcDbVertex
100
AcDb2dVertex
 10
792.396577394788
 20
502.264938000937
 30
3.646124999999996
  0
VERTEX
  5
56DDA
330
56D91
100
AcDbEntity
  8
0
 62
     0
100
AcDbVertex
100
AcDb2dVertex
 10
792.3396921609844
 20
502.0894472670461
 30
3.646124999999996
  0
VERTEX
  5
56DDB
330
56D91
100
AcDbEntity
  8
0
 62
     0
100
AcDbVertex
100
AcDb2dVertex
 10
792.3099727114988
 20
501.9112333177579
 30
3.646124999999996
  0
VERTEX
  5
56DDC
330
56D91
100
AcDbEntity
  8
0
 62
     0
100
AcDbVertex
100
AcDb2dVertex
 10
792.308453042258
 20
501.7303900543432
 30
3.646124999999996
  0
VERTEX
  5
56DDD
330
56D91
100
AcDbEntity
  8
0
 62
     0
100
AcDbVertex
100
AcDb2dVertex
 10
792.3361671491826
 20
501.5470113780728
 30
3.646124999999996
  0
VERTEX
  5
56DDE
330
56D91
100
AcDbEntity
  8
0
 62
     0
100
AcDbVertex
100
AcDb2dVertex
 10
792.3941490281906
 20
501.3611911902172
 30
3.646124999999996
  0
VERTEX
  5
56DDF
330
56D91
100
AcDbEntity
  8
0
 62
     0
100
AcDbVertex
100
AcDb2dVertex
 10
792.4834326752057
 20
501.1730233920501
 30
3.646124999999996
  0
VERTEX
  5
56DE0
330
56D91
100
AcDbEntity
  8
0
 62
     0
100
AcDbVertex
100
AcDb2dVertex
 10
792.6035480975545
 20
500.9816002454301
 30
3.646124999999996
  0
VERTEX
  5
56DE1
330
56D91
100
AcDbEntity
  8
0
 62
     0
100
AcDbVertex
100
AcDb2dVertex
 10
792.7480093481949
 20
500.7820074545821
 30
3.646124999999996
  0
VERTEX
  5
56DE2
330
56D91
100
AcDbEntity
  8
0
 62
     0
100
AcDbVertex
100
AcDb2dVertex
 10
792.9088264914821
 20
500.5683290843246
 30
3.646124999999996
  0
VERTEX
  5
56DE3
330
56D91
100
AcDbEntity
  8
0
 62
     0
100
AcDbVertex
100
AcDb2dVertex
 10
793.0780095917744
 20
500.3346491994704
 30
3.646124999999996
  0
VERTEX
  5
56DE4
330
56D91
100
AcDbEntity
  8
0
 62
     0
100
AcDbVertex
100
AcDb2dVertex
 10
793.2475687134353
 20
500.075051864838
 30
3.646124999999996
  0
VERTEX
  5
56DE5
330
56D91
100
AcDbEntity
  8
0
 62
     0
100
AcDbVertex
100
AcDb2dVertex
 10
793.40951392082
 20
499.7836211452431
 30
3.646124999999996
  0
VERTEX
  5
56DE6
330
56D91
100
AcDbEntity
  8
0
 62
     0
100
AcDbVertex
100
AcDb2dVertex
 10
793.5558552782923
 20
499.4544411054985
 30
3.646124999999996
  0
VERTEX
  5
56DE7
330
56D91
100
AcDbEntity
  8
0
 62
     0
100
AcDbVertex
100
AcDb2dVertex
 10
793.6786028502047
 20
499.0815958104255
 30
3.646124999999996
  0
SEQEND
  5
56DE8
330
56D91
100
AcDbEntity
  8
0
 62
     0
  0
LINE
  5
56DE9
330
458D6
100
AcDbEntity
  8
0
  6
Continuous
 62
     0
100
AcDbLine
 10
816.2635767153121
 20
610.1923077183744
 30
3.646124999999996
 11
724.5695767153117
 21
610.1923077183744
 31
3.646124999999996
  0
LINE
  5
56DEA
330
458D6
100
AcDbEntity
  8
0
 62
     0
100
AcDbLine
 10
745.9687737313954
 20
608.1603077183733
 30
3.646124999999996
 11
730.5849211401543
 21
608.1603077183733
 31
3.646124999999996
  0
POLYLINE
  5
56DEB
330
458D6
100
AcDbEntity
  8
0
 62
     0
100
AcDb2dPolyline
 66
     1
 10
0.0
 20
0.0
 30
3.646124999999996
 70
     4
 75
     6
  0
VERTEX
  5
56DEC
330
56DEB
100
AcDbEntity
  8
0
 62
     0
100
AcDbVertex
100
AcDb2dVertex
 10
721.4917642908313
 20
596.2764269976652
 30
3.646124999999996
 70
    16
  0
VERTEX
  5
56DED
330
56DEB
100
AcDbEntity
  8
0
 62
     0
100
AcDbVertex
100
AcDb2dVertex
 10
721.4917642908313
 20
596.2764269976652
 30
3.646124999999996
 70
     8
  0
VERTEX
  5
56DEE
330
56DEB
100
AcDbEntity
  8
0
 62
     0
100
AcDbVertex
100
AcDb2dVertex
 10
722.1726460665365
 20
596.2418756401092
 30
3.646124999999996
 70
     8
  0
VERTEX
  5
56DEF
330
56DEB
100
AcDbEntity
  8
0
 62
     0
100
AcDbVertex
100
AcDb2dVertex
 10
722.7385294026167
 20
596.193800826554
 30
3.646124999999996
 70
     8
  0
VERTEX
  5
56DF0
330
56DEB
100
AcDbEntity
  8
0
 62
     0
100
AcDbVertex
100
AcDb2dVertex
 10
723.206272357117
 20
596.1344564343467
 30
3.646124999999996
 70
     8
  0
VERTEX
  5
56DF1
330
56DEB
100
AcDbEntity
  8
0
 62
     0
100
AcDbVertex
100
AcDb2dVertex
 10
723.5927329880906
 20
596.0660963408489
 30
3.646124999999996
 70
     8
  0
VERTEX
  5
56DF2
330
56DEB
100
AcDbEntity
  8
0
 62
     0
100
AcDbVertex
100
AcDb2dVertex
 10
723.9147693535825
 20
595.9909744234139
 30
3.646124999999996
 70
     8
  0
VERTEX
  5
56DF3
330
56DEB
100
AcDbEntity
  8
0
 62
     0
100
AcDbVertex
100
AcDb2dVertex
 10
724.1892395116434
 20
595.9113445593917
 30
3.646124999999996
 70
     8
  0
VERTEX
  5
56DF4
330
56DEB
100
AcDbEntity
  8
0
 62
     0
100
AcDbVertex
100
AcDb2dVertex
 10
724.4330015203209
 20
595.829460626144
 30
3.646124999999996
 70
     8
  0
VERTEX
  5
56DF5
330
56DEB
100
AcDbEntity
  8
0
 62
     0
100
AcDbVertex
100
AcDb2dVertex
 10
724.6629134376656
 20
595.747576501018
 30
3.646124999999996
 70
     8
  0
VERTEX
  5
56DF6
330
56DEB
100
AcDbEntity
  8
0
 62
     0
100
AcDbVertex
100
AcDb2dVertex
 10
724.8931176445072
 20
595.6677425722215
 30
3.646124999999996
 70
     8
  0
VERTEX
  5
56DF7
330
56DEB
100
AcDbEntity
  8
0
 62
     0
100
AcDbVertex
100
AcDb2dVertex
 10
725.1268938128041
 20
595.5911952713583
 30
3.646124999999996
 70
     8
  0
VERTEX
  5
56DF8
330
56DEB
100
AcDbEntity
  8
0
 62
     0
100
AcDbVertex
100
AcDb2dVertex
 10
725.3648059372967
 20
595.5189675408725
 30
3.646124999999996
 70
     8
  0
VERTEX
  5
56DF9
330
56DEB
100
AcDbEntity
  8
0
 62
     0
100
AcDbVertex
100
AcDb2dVertex
 10
725.6074180127283
 20
595.4520923232228
 30
3.646124999999996
 70
     8
  0
VERTEX
  5
56DFA
330
56DEB
100
AcDbEntity
  8
0
 62
     0
100
AcDbVertex
100
AcDb2dVertex
 10
725.8552940338391
 20
595.3916025608532
 30
3.646124999999996
 70
     8
  0
VERTEX
  5
56DFB
330
56DEB
100
AcDbEntity
  8
0
 62
     0
100
AcDbVertex
100
AcDb2dVertex
 10
726.1089979953667
 20
595.3385311962194
 30
3.646124999999996
 70
     8
  0
VERTEX
  5
56DFC
330
56DEB
100
AcDbEntity
  8
0
 62
     0
100
AcDbVertex
100
AcDb2dVertex
 10
726.3690938920571
 20
595.2939111717715
 30
3.646124999999996
 70
     8
  0
VERTEX
  5
56DFD
330
56DEB
100
AcDbEntity
  8
0
 62
     0
100
AcDbVertex
100
AcDb2dVertex
 10
726.6361457186477
 20
595.2587754299563
 30
3.646124999999996
 70
     8
  0
VERTEX
  5
56DFE
330
56DEB
100
AcDbEntity
  8
0
 62
     0
100
AcDbVertex
100
AcDb2dVertex
 10
726.9102788074104
 20
595.2340160582163
 30
3.646124999999996
 70
     8
  0
VERTEX
  5
56DFF
330
56DEB
100
AcDbEntity
  8
0
 62
     0
100
AcDbVertex
100
AcDb2dVertex
 10
727.1898638407565
 20
595.2199617239215
 30
3.646124999999996
 70
     8
  0
VERTEX
  5
56E00
330
56DEB
100
AcDbEntity
  8
0
 62
     0
100
AcDbVertex
100
AcDb2dVertex
 10
727.4728328386174
 20
595.2168002394309
 30
3.646124999999996
 70
     8
  0
VERTEX
  5
56E01
330
56DEB
100
AcDbEntity
  8
0
 62
     0
100
AcDbVertex
100
AcDb2dVertex
 10
727.7571178209361
 20
595.2247194171071
 30
3.646124999999996
 70
     8
  0
VERTEX
  5
56E02
330
56DEB
100
AcDbEntity
  8
0
 62
     0
100
AcDbVertex
100
AcDb2dVertex
 10
728.0406508076493
 20
595.2439070693063
 30
3.646124999999996
 70
     8
  0
VERTEX
  5
56E03
330
56DEB
100
AcDbEntity
  8
0
 62
     0
100
AcDbVertex
100
AcDb2dVertex
 10
728.3213638186946
 20
595.2745510083911
 30
3.646124999999996
 70
     8
  0
VERTEX
  5
56E04
330
56DEB
100
AcDbEntity
  8
0
 62
     0
100
AcDbVertex
100
AcDb2dVertex
 10
728.5971888740086
 20
595.3168390467206
 30
3.646124999999996
 70
     8
  0
VERTEX
  5
56E05
330
56DEB
100
AcDbEntity
  8
0
 62
     0
100
AcDbVertex
100
AcDb2dVertex
 10
728.8660579935317
 20
595.3709589966544
 30
3.646124999999996
 70
     8
  0
VERTEX
  5
56E06
330
56DEB
100
AcDbEntity
  8
0
 62
     0
100
AcDbVertex
100
AcDb2dVertex
 10
729.1263418599958
 20
595.4370047650249
 30
3.646124999999996
 70
     8
  0
VERTEX
  5
56E07
330
56DEB
100
AcDbEntity
  8
0
 62
     0
100
AcDbVertex
100
AcDb2dVertex
 10
729.3781658073097
 20
595.5146946365703
 30
3.646124999999996
 70
     8
  0
VERTEX
  5
56E08
330
56DEB
100
AcDbEntity
  8
0
 62
     0
100
AcDbVertex
100
AcDb2dVertex
 10
729.6220938321805
 20
595.6036529904903
 30
3.646124999999996
 70
     8
  0
VERTEX
  5
56E09
330
56DEB
100
AcDbEntity
  8
0
 62
     0
100
AcDbVertex
100
AcDb2dVertex
 10
729.858689931309
 20
595.7035042059992
 30
3.646124999999996
 70
     8
  0
VERTEX
  5
56E0A
330
56DEB
100
AcDbEntity
  8
0
 62
     0
100
AcDbVertex
100
AcDb2dVertex
 10
730.0885181014051
 20
595.8138726623054
 30
3.646124999999996
 70
     8
  0
VERTEX
  5
56E0B
330
56DEB
100
AcDbEntity
  8
0
 62
     0
100
AcDbVertex
100
AcDb2dVertex
 10
730.3121423391669
 20
595.9343827386143
 30
3.646124999999996
 70
     8
  0
VERTEX
  5
56E0C
330
56DEB
100
AcDbEntity
  8
0
 62
     0
100
AcDbVertex
100
AcDb2dVertex
 10
730.5301266413011
 20
596.0646588141344
 30
3.646124999999996
 70
     8
  0
VERTEX
  5
56E0D
330
56DEB
100
AcDbEntity
  8
0
 62
     0
100
AcDbVertex
100
AcDb2dVertex
 10
730.7430350045148
 20
596.204325268074
 30
3.646124999999996
 70
     8
  0
VERTEX
  5
56E0E
330
56DEB
100
AcDbEntity
  8
0
 62
     0
100
AcDbVertex
100
AcDb2dVertex
 10
730.9513374247499
 20
596.3527247692832
 30
3.646124999999996
 70
     8
  0
VERTEX
  5
56E0F
330
56DEB
100
AcDbEntity
  8
0
 62
     0
100
AcDbVertex
100
AcDb2dVertex
 10
731.155127894911
 20
596.5080731451841
 30
3.646124999999996
 70
     8
  0
VERTEX
  5
56E10
330
56DEB
100
AcDbEntity
  8
0
 62
     0
100
AcDbVertex
100
AcDb2dVertex
 10
731.3544064071467
 20
596.6683045128348
 30
3.646124999999996
 70
     8
  0
VERTEX
  5
56E11
330
56DEB
100
AcDbEntity
  8
0
 62
     0
100
AcDbVertex
100
AcDb2dVertex
 10
731.5491729535994
 20
596.831352989299
 30
3.646124999999996
 70
     8
  0
VERTEX
  5
56E12
330
56DEB
100
AcDbEntity
  8
0
 62
     0
100
AcDbVertex
100
AcDb2dVertex
 10
731.7394275264177
 20
596.9951526916376
 30
3.646124999999996
 70
     8
  0
VERTEX
  5
56E13
330
56DEB
100
AcDbEntity
  8
0
 62
     0
100
AcDbVertex
100
AcDb2dVertex
 10
731.9251701177474
 20
597.1576377369115
 30
3.646124999999996
 70
     8
  0
VERTEX
  5
56E14
330
56DEB
100
AcDbEntity
  8
0
 62
     0
100
AcDbVertex
100
AcDb2dVertex
 10
732.1064007197311
 20
597.3167422421873
 30
3.646124999999996
 70
     8
  0
VERTEX
  5
56E15
330
56DEB
100
AcDbEntity
  8
0
 62
     0
100
AcDbVertex
100
AcDb2dVertex
 10
732.2831193245173
 20
597.4704003245233
 30
3.646124999999996
 70
     8
  0
VERTEX
  5
56E16
330
56DEB
100
AcDbEntity
  8
0
 62
     0
100
AcDbVertex
100
AcDb2dVertex
 10
732.4556705908646
 20
597.6168591134002
 30
3.646124999999996
 70
     8
  0
VERTEX
  5
56E17
330
56DEB
100
AcDbEntity
  8
0
 62
     0
100
AcDbVertex
100
AcDb2dVertex
 10
732.6257778440044
 20
597.7556177879657
 30
3.646124999999996
 70
     8
  0
VERTEX
  5
56E18
330
56DEB
100
AcDbEntity
  8
0
 62
     0
100
AcDbVertex
100
AcDb2dVertex
 10
732.7955090757757
 20
597.8864885397878
 30
3.646124999999996
 70
     8
  0
VERTEX
  5
56E19
330
56DEB
100
AcDbEntity
  8
0
 62
     0
100
AcDbVertex
100
AcDb2dVertex
 10
732.9669322780256
 20
598.0092835604369
 30
3.646124999999996
 70
     8
  0
VERTEX
  5
56E1A
330
56DEB
100
AcDbEntity
  8
0
 62
     0
100
AcDbVertex
100
AcDb2dVertex
 10
733.1421154425957
 20
598.1238150414782
 30
3.646124999999996
 70
     8
  0
VERTEX
  5
56E1B
330
56DEB
100
AcDbEntity
  8
0
 62
     0
100
AcDbVertex
100
AcDb2dVertex
 10
733.3231265613307
 20
598.2298951744823
 30
3.646124999999996
 70
     8
  0
VERTEX
  5
56E1C
330
56DEB
100
AcDbEntity
  8
0
 62
     0
100
AcDbVertex
100
AcDb2dVertex
 10
733.512033626075
 20
598.3273361510139
 30
3.646124999999996
 70
     8
  0
VERTEX
  5
56E1D
330
56DEB
100
AcDbEntity
  8
0
 62
     0
100
AcDbVertex
100
AcDb2dVertex
 10
733.7109046286703
 20
598.4159501626408
 30
3.646124999999996
 70
     8
  0
VERTEX
  5
56E1E
330
56DEB
100
AcDbEntity
  8
0
 62
     0
100
AcDbVertex
100
AcDb2dVertex
 10
733.9213375623967
 20
598.4955807020083
 30
3.646124999999996
 70
     8
  0
VERTEX
  5
56E1F
330
56DEB
100
AcDbEntity
  8
0
 62
     0
100
AcDbVertex
100
AcDb2dVertex
 10
734.143050426286
 20
598.5661964660756
 30
3.646124999999996
 70
     8
  0
VERTEX
  5
56E20
330
56DEB
100
AcDbEntity
  8
0
 62
     0
100
AcDbVertex
100
AcDb2dVertex
 10
734.3752912208031
 20
598.6277974528816
 30
3.646124999999996
 70
     8
  0
VERTEX
  5
56E21
330
56DEB
100
AcDbEntity
  8
0
 62
     0
100
AcDbVertex
100
AcDb2dVertex
 10
734.6173079464152
 20
598.68038366046
 30
3.646124999999996
 70
     8
  0
VERTEX
  5
56E22
330
56DEB
100
AcDbEntity
  8
0
 62
     0
100
AcDbVertex
100
AcDb2dVertex
 10
734.8683486035931
 20
598.7239550868444
 30
3.646124999999996
 70
     8
  0
VERTEX
  5
56E23
330
56DEB
100
AcDbEntity
  8
0
 62
     0
100
AcDbVertex
100
AcDb2dVertex
 10
735.1276611927985
 20
598.7585117300771
 30
3.646124999999996
 70
     8
  0
VERTEX
  5
56E24
330
56DEB
100
AcDbEntity
  8
0
 62
     0
100
AcDbVertex
100
AcDb2dVertex
 10
735.3944937144989
 20
598.7840535881913
 30
3.646124999999996
 70
     8
  0
VERTEX
  5
56E25
330
56DEB
100
AcDbEntity
  8
0
 62
     0
100
AcDbVertex
100
AcDb2dVertex
 10
735.6680941691617
 20
598.8005806592236
 30
3.646124999999996
 70
     8
  0
VERTEX
  5
56E26
330
56DEB
100
AcDbEntity
  8
0
 62
     0
100
AcDbVertex
100
AcDb2dVertex
 10
735.9474285615249
 20
598.8082494485655
 30
3.646124999999996
 70
     8
  0
VERTEX
  5
56E27
330
56DEB
100
AcDbEntity
  8
0
 62
     0
100
AcDbVertex
100
AcDb2dVertex
 10
736.2303349133768
 20
598.8078424910228
 30
3.646124999999996
 70
     8
  0
VERTEX
  5
56E28
330
56DEB
100
AcDbEntity
  8
0
 62
     0
100
AcDbVertex
100
AcDb2dVertex
 10
736.5143692507822
 20
598.8002988287594
 30
3.646124999999996
 70
     8
  0
VERTEX
  5
56E29
330
56DEB
100
AcDbEntity
  8
0
 62
     0
100
AcDbVertex
100
AcDb2dVertex
 10
736.7970875998086
 20
598.7865575039364
 30
3.646124999999996
 70
     8
  0
VERTEX
  5
56E2A
330
56DEB
100
AcDbEntity
  8
0
 62
     0
100
AcDbVertex
100
AcDb2dVertex
 10
737.0760459865117
 20
598.7675575587148
 30
3.646124999999996
 70
     8
  0
VERTEX
  5
56E2B
330
56DEB
100
AcDbEntity
  8
0
 62
     0
100
AcDbVertex
100
AcDb2dVertex
 10
737.3488004369562
 20
598.7442380352584
 30
3.646124999999996
 70
     8
  0
VERTEX
  5
56E2C
330
56DEB
100
AcDbEntity
  8
0
 62
     0
100
AcDbVertex
100
AcDb2dVertex
 10
737.6129069772038
 20
598.7175379757283
 30
3.646124999999996
 70
     8
  0
VERTEX
  5
56E2D
330
56DEB
100
AcDbEntity
  8
0
 62
     0
100
AcDbVertex
100
AcDb2dVertex
 10
737.8659216333161
 20
598.6883964222827
 30
3.646124999999996
 70
     8
  0
VERTEX
  5
56E2E
330
56DEB
100
AcDbEntity
  8
0
 62
     0
100
AcDbVertex
100
AcDb2dVertex
 10
738.1062464224892
 20
598.6576272111424
 30
3.646124999999996
 70
     8
  0
VERTEX
  5
56E2F
330
56DEB
100
AcDbEntity
  8
0
 62
     0
100
AcDbVertex
100
AcDb2dVertex
 10
738.3356673264284
 20
598.625543354719
 30
3.646124999999996
 70
     8
  0
VERTEX
  5
56E30
330
56DEB
100
AcDbEntity
  8
0
 62
     0
100
AcDbVertex
100
AcDb2dVertex
 10
738.5568163179731
 20
598.592332659481
 30
3.646124999999996
 70
     8
  0
VERTEX
  5
56E31
330
56DEB
100
AcDbEntity
  8
0
 62
     0
100
AcDbVertex
100
AcDb2dVertex
 10
738.7723253699661
 20
598.5581829319029
 30
3.646124999999996
 70
     8
  0
VERTEX
  5
56E32
330
56DEB
100
AcDbEntity
  8
0
 62
     0
100
AcDbVertex
100
AcDb2dVertex
 10
738.984826455241
 20
598.5232819784475
 30
3.646124999999996
 70
     8
  0
VERTEX
  5
56E33
330
56DEB
100
AcDbEntity
  8
0
 62
     0
100
AcDbVertex
100
AcDb2dVertex
 10
739.1969515466436
 20
598.4878176055864
 30
3.646124999999996
 70
     8
  0
VERTEX
  5
56E34
330
56DEB
100
AcDbEntity
  8
0
 62
     0
100
AcDbVertex
100
AcDb2dVertex
 10
739.4113326170073
 20
598.4519776197879
 30
3.646124999999996
 70
     8
  0
VERTEX
  5
56E35
330
56DEB
100
AcDbEntity
  8
0
 62
     0
100
AcDbVertex
100
AcDb2dVertex
 10
739.6306016391721
 20
598.4159498275182
 30
3.646124999999996
 70
     8
  0
VERTEX
  5
56E36
330
56DEB
100
AcDbEntity
  8
0
 62
     0
100
AcDbVertex
100
AcDb2dVertex
 10
739.8568265912402
 20
598.3805793628002
 30
3.646124999999996
 70
     8
  0
VERTEX
  5
56E37
330
56DEB
100
AcDbEntity
  8
0
 62
     0
100
AcDbVertex
100
AcDb2dVertex
 10
740.0898194723463
 20
598.3493406698485
 30
3.646124999999996
 70
     8
  0
VERTEX
  5
56E38
330
56DEB
100
AcDbEntity
  8
0
 62
     0
100
AcDbVertex
100
AcDb2dVertex
 10
740.3288282868798
 20
598.3263655204318
 30
3.646124999999996
 70
     8
  0
VERTEX
  5
56E39
330
56DEB
100
AcDbEntity
  8
0
 62
     0
100
AcDbVertex
100
AcDb2dVertex
 10
740.5731010392352
 20
598.3157856863165
 30
3.646124999999996
 70
     8
  0
VERTEX
  5
56E3A
330
56DEB
100
AcDbEntity
  8
0
 62
     0
100
AcDbVertex
100
AcDb2dVertex
 10
740.8218857338131
 20
598.3217329392715
 30
3.646124999999996
 70
     8
  0
VERTEX
  5
56E3B
330
56DEB
100
AcDbEntity
  8
0
 62
     0
100
AcDbVertex
100
AcDb2dVertex
 10
741.0744303749997
 20
598.3483390510571
 30
3.646124999999996
 70
     8
  0
VERTEX
  5
56E3C
330
56DEB
100
AcDbEntity
  8
0
 62
     0
100
AcDbVertex
100
AcDb2dVertex
 10
741.3299829671955
 20
598.3997357934481
 30
3.646124999999996
 70
     8
  0
VERTEX
  5
56E3D
330
56DEB
100
AcDbEntity
  8
0
 62
     0
100
AcDbVertex
100
AcDb2dVertex
 10
741.5877915147894
 20
598.4800549382107
 30
3.646124999999996
 70
     8
  0
VERTEX
  5
56E3E
330
56DEB
100
AcDbEntity
  8
0
 62
     0
100
AcDbVertex
100
AcDb2dVertex
 10
741.8467593594873
 20
598.5924579168124
 30
3.646124999999996
 70
     8
  0
VERTEX
  5
56E3F
330
56DEB
100
AcDbEntity
  8
0
 62
     0
100
AcDbVertex
100
AcDb2dVertex
 10
742.1044111922403
 20
598.73622479955
 30
3.646124999999996
 70
     8
  0
VERTEX
  5
56E40
330
56DEB
100
AcDbEntity
  8
0
 62
     0
100
AcDbVertex
100
AcDb2dVertex
 10
742.3579270413068
 20
598.9096653164243
 30
3.646124999999996
 70
     8
  0
VERTEX
  5
56E41
330
56DEB
100
AcDbEntity
  8
0
 62
     0
100
AcDbVertex
100
AcDb2dVertex
 10
742.6044869349465
 20
599.1110891974336
 30
3.646124999999996
 70
     8
  0
VERTEX
  5
56E42
330
56DEB
100
AcDbEntity
  8
0
 62
     0
100
AcDbVertex
100
AcDb2dVertex
 10
742.8412709014153
 20
599.3388061725786
 30
3.646124999999996
 70
     8
  0
VERTEX
  5
56E43
330
56DEB
100
AcDbEntity
  8
0
 62
     0
100
AcDbVertex
100
AcDb2dVertex
 10
743.0654589689751
 20
599.5911259718546
 30
3.646124999999996
 70
     8
  0
VERTEX
  5
56E44
330
56DEB
100
AcDbEntity
  8
0
 62
     0
100
AcDbVertex
100
AcDb2dVertex
 10
743.2742311658878
 20
599.8663583252657
 30
3.646124999999996
 70
     8
  0
VERTEX
  5
56E45
330
56DEB
100
AcDbEntity
  8
0
 62
     0
100
AcDbVertex
100
AcDb2dVertex
 10
743.4647675204067
 20
600.1628129628069
 30
3.646124999999996
 70
     8
  0
VERTEX
  5
56E46
330
56DEB
100
AcDbEntity
  8
0
 62
     0
100
AcDbVertex
100
AcDb2dVertex
 10
743.6352507183321
 20
600.4782674922262
 30
3.646124999999996
 70
     8
  0
VERTEX
  5
56E47
330
56DEB
100
AcDbEntity
  8
0
 62
     0
100
AcDbVertex
100
AcDb2dVertex
 10
743.7878740755963
 20
600.8083710322453
 30
3.646124999999996
 70
     8
  0
VERTEX
  5
56E48
330
56DEB
100
AcDbEntity
  8
0
 62
     0
100
AcDbVertex
100
AcDb2dVertex
 10
743.9258335656704
 20
601.1482405793299
 30
3.646124999999996
 70
     8
  0
VERTEX
  5
56E49
330
56DEB
100
AcDbEntity
  8
0
 62
     0
100
AcDbVertex
100
AcDb2dVertex
 10
744.0523251620249
 20
601.4929931299487
 30
3.646124999999996
 70
     8
  0
VERTEX
  5
56E4A
330
56DEB
100
AcDbEntity
  8
0
 62
     0
100
AcDbVertex
100
AcDb2dVertex
 10
744.1705448381336
 20
601.8377456805648
 30
3.646124999999996
 70
     8
  0
VERTEX
  5
56E4B
330
56DEB
100
AcDbEntity
  8
0
 62
     0
100
AcDbVertex
100
AcDb2dVertex
 10
744.2836885674643
 20
602.1776152276494
 30
3.646124999999996
 70
     8
  0
VERTEX
  5
56E4C
330
56DEB
100
AcDbEntity
  8
0
 62
     0
100
AcDbVertex
100
AcDb2dVertex
 10
744.3949523234906
 20
602.5077187676685
 30
3.646124999999996
 70
     8
  0
VERTEX
  5
56E4D
330
56DEB
100
AcDbEntity
  8
0
 62
     0
100
AcDbVertex
100
AcDb2dVertex
 10
744.5075320796806
 20
602.8231732970878
 30
3.646124999999996
 70
     8
  0
VERTEX
  5
56E4E
330
56DEB
100
AcDbEntity
  8
0
 62
     0
100
AcDbVertex
100
AcDb2dVertex
 10
744.624059814109
 20
603.1198470438148
 30
3.646124999999996
 70
     8
  0
VERTEX
  5
56E4F
330
56DEB
100
AcDbEntity
  8
0
 62
     0
100
AcDbVertex
100
AcDb2dVertex
 10
744.7449115232735
 20
603.3966131615072
 30
3.646124999999996
 70
     8
  0
VERTEX
  5
56E50
330
56DEB
100
AcDbEntity
  8
0
 62
     0
100
AcDbVertex
100
AcDb2dVertex
 10
744.8698992082723
 20
603.6530960352666
 30
3.646124999999996
 70
     8
  0
VERTEX
  5
56E51
330
56DEB
100
AcDbEntity
  8
0
 62
     0
100
AcDbVertex
100
AcDb2dVertex
 10
744.9988348701988
 20
603.8889200501897
 30
3.646124999999996
 70
     8
  0
VERTEX
  5
56E52
330
56DEB
100
AcDbEntity
  8
0
 62
     0
100
AcDbVertex
100
AcDb2dVertex
 10
745.1315305101574
 20
604.1037095913757
 30
3.646124999999996
 70
     8
  0
VERTEX
  5
56E53
330
56DEB
100
AcDbEntity
  8
0
 62
     0
100
AcDbVertex
100
AcDb2dVertex
 10
745.2677981292436
 20
604.2970890439236
 30
3.646124999999996
 70
     8
  0
VERTEX
  5
56E54
330
56DEB
100
AcDbEntity
  8
0
 62
     0
100
AcDbVertex
100
AcDb2dVertex
 10
745.4074497285563
 20
604.4686827929354
 30
3.646124999999996
 70
     8
  0
VERTEX
  5
56E55
330
56DEB
100
AcDbEntity
  8
0
 62
     0
100
AcDbVertex
100
AcDb2dVertex
 10
745.5502973091943
 20
604.6181152235049
 30
3.646124999999996
 70
     8
  0
VERTEX
  5
56E56
330
56DEB
100
AcDbEntity
  8
0
 62
     0
100
AcDbVertex
100
AcDb2dVertex
 10
745.6962782042015
 20
604.745824554327
 30
3.646124999999996
 70
     8
  0
VERTEX
  5
56E57
330
56DEB
100
AcDbEntity
  8
0
 62
     0
100
AcDbVertex
100
AcDb2dVertex
 10
745.845831074412
 20
604.8555043384786
 30
3.646124999999996
 70
     8
  0
VERTEX
  5
56E58
330
56DEB
100
AcDbEntity
  8
0
 62
     0
100
AcDbVertex
100
AcDb2dVertex
 10
745.9995199126
 20
604.9516619626236
 30
3.646124999999996
 70
     8
  0
VERTEX
  5
56E59
330
56DEB
100
AcDbEntity
  8
0
 62
     0
100
AcDbVertex
100
AcDb2dVertex
 10
746.1579087115419
 20
605.0388048134347
 30
3.646124999999996
 70
     8
  0
VERTEX
  5
56E5A
330
56DEB
100
AcDbEntity
  8
0
 62
     0
100
AcDbVertex
100
AcDb2dVertex
 10
746.3215614640176
 20
605.121440277576
 30
3.646124999999996
 70
     8
  0
VERTEX
  5
56E5B
330
56DEB
100
AcDbEntity
  8
0
 62
     0
100
AcDbVertex
100
AcDb2dVertex
 10
746.4910421628037
 20
605.2040757417172
 30
3.646124999999996
 70
     8
  0
VERTEX
  5
56E5C
330
56DEB
100
AcDbEntity
  8
0
 62
     0
100
AcDbVertex
100
AcDb2dVertex
 10
746.6669148006769
 20
605.2912185925253
 30
3.646124999999996
 70
     8
  0
VERTEX
  5
56E5D
330
56DEB
100
AcDbEntity
  8
0
 62
     0
100
AcDbVertex
100
AcDb2dVertex
 10
746.8497433704169
 20
605.3873762166732
 30
3.646124999999996
 70
     8
  0
VERTEX
  5
56E5E
330
56DEB
100
AcDbEntity
  8
0
 62
     0
100
AcDbVertex
100
AcDb2dVertex
 10
747.0393398718084
 20
605.4960856605291
 30
3.646124999999996
 70
     8
  0
VERTEX
  5
56E5F
330
56DEB
100
AcDbEntity
  8
0
 62
     0
100
AcDbVertex
100
AcDb2dVertex
 10
747.2325083326918
 20
605.6170026092906
 30
3.646124999999996
 70
     8
  0
VERTEX
  5
56E60
330
56DEB
100
AcDbEntity
  8
0
 62
     0
100
AcDbVertex
100
AcDb2dVertex
 10
747.4253007879182
 20
605.7488124078563
 30
3.646124999999996
 70
     8
  0
VERTEX
  5
56E61
330
56DEB
100
AcDbEntity
  8
0
 62
     0
100
AcDbVertex
100
AcDb2dVertex
 10
747.6137692723386
 20
605.8902004011311
 30
3.646124999999996
 70
     8
  0
VERTEX
  5
56E62
330
56DEB
100
AcDbEntity
  8
0
 62
     0
100
AcDbVertex
100
AcDb2dVertex
 10
747.7939658208017
 20
606.0398519340109
 30
3.646124999999996
 70
     8
  0
VERTEX
  5
56E63
330
56DEB
100
AcDbEntity
  8
0
 62
     0
100
AcDbVertex
100
AcDb2dVertex
 10
747.9619424681583
 20
606.1964523514006
 30
3.646124999999996
 70
     8
  0
VERTEX
  5
56E64
330
56DEB
100
AcDbEntity
  8
0
 62
     0
100
AcDbVertex
100
AcDb2dVertex
 10
748.1137512492598
 20
606.3586869981959
 30
3.646124999999996
 70
     8
  0
VERTEX
  5
56E65
330
56DEB
100
AcDbEntity
  8
0
 62
     0
100
AcDbVertex
100
AcDb2dVertex
 10
748.2454441989573
 20
606.5252412193016
 30
3.646124999999996
 70
     8
  0
VERTEX
  5
56E66
330
56DEB
100
AcDbEntity
  8
0
 62
     0
100
AcDbVertex
100
AcDb2dVertex
 10
748.3535590136347
 20
606.695003818586
 30
3.646124999999996
 70
     8
  0
VERTEX
  5
56E67
330
56DEB
100
AcDbEntity
  8
0
 62
     0
100
AcDbVertex
100
AcDb2dVertex
 10
748.4365760358386
 20
606.867677435809
 30
3.646124999999996
 70
     8
  0
VERTEX
  5
56E68
330
56DEB
100
AcDbEntity
  8
0
 62
     0
100
AcDbVertex
100
AcDb2dVertex
 10
748.4934612696422
 20
607.0431681697028
 30
3.646124999999996
 70
     8
  0
VERTEX
  5
56E69
330
56DEB
100
AcDbEntity
  8
0
 62
     0
100
AcDbVertex
100
AcDb2dVertex
 10
748.5231807191248
 20
607.2213821189911
 30
3.646124999999996
 70
     8
  0
VERTEX
  5
56E6A
330
56DEB
100
AcDbEntity
  8
0
 62
     0
100
AcDbVertex
100
AcDb2dVertex
 10
748.5247003883658
 20
607.4022253824057
 30
3.646124999999996
 70
     8
  0
VERTEX
  5
56E6B
330
56DEB
100
AcDbEntity
  8
0
 62
     0
100
AcDbVertex
100
AcDb2dVertex
 10
748.496986281444
 20
607.5856040586761
 30
3.646124999999996
 70
     8
  0
VERTEX
  5
56E6C
330
56DEB
100
AcDbEntity
  8
0
 62
     0
100
AcDbVertex
100
AcDb2dVertex
 10
748.4390044024361
 20
607.7714242465288
 30
3.646124999999996
 70
     8
  0
VERTEX
  5
56E6D
330
56DEB
100
AcDbEntity
  8
0
 62
     0
100
AcDbVertex
100
AcDb2dVertex
 10
748.349720755421
 20
607.9595920446989
 30
3.646124999999996
 70
     8
  0
VERTEX
  5
56E6E
330
56DEB
100
AcDbEntity
  8
0
 62
     0
100
AcDbVertex
100
AcDb2dVertex
 10
748.2296053330693
 20
608.1510151913188
 30
3.646124999999996
 70
     8
  0
VERTEX
  5
56E6F
330
56DEB
100
AcDbEntity
  8
0
 62
     0
100
AcDbVertex
100
AcDb2dVertex
 10
748.0851440824318
 20
608.3506079821638
 30
3.646124999999996
 70
     8
  0
VERTEX
  5
56E70
330
56DEB
100
AcDbEntity
  8
0
 62
     0
100
AcDbVertex
100
AcDb2dVertex
 10
747.9243269391445
 20
608.5642863524243
 30
3.646124999999996
 70
     8
  0
VERTEX
  5
56E71
330
56DEB
100
AcDbEntity
  8
0
 62
     0
100
AcDbVertex
100
AcDb2dVertex
 10
747.7551438388494
 20
608.7979662372756
 30
3.646124999999996
 70
     8
  0
VERTEX
  5
56E72
330
56DEB
100
AcDbEntity
  8
0
 62
     0
100
AcDbVertex
100
AcDb2dVertex
 10
747.5855847171885
 20
609.0575635719081
 30
3.646124999999996
 70
     8
  0
VERTEX
  5
56E73
330
56DEB
100
AcDbEntity
  8
0
 62
     0
100
AcDbVertex
100
AcDb2dVertex
 10
747.4236395098038
 20
609.3489942915058
 30
3.646124999999996
 70
     8
  0
VERTEX
  5
56E74
330
56DEB
100
AcDbEntity
  8
0
 62
     0
100
AcDbVertex
100
AcDb2dVertex
 10
747.2772981523343
 20
609.6781743312475
 30
3.646124999999996
 70
     8
  0
VERTEX
  5
56E75
330
56DEB
100
AcDbEntity
  8
0
 62
     0
100
AcDbVertex
100
AcDb2dVertex
 10
747.1545505804191
 20
610.0510196263233
 30
3.646124999999996
 70
     8
  0
VERTEX
  5
56E76
330
56DEB
100
AcDbEntity
  8
0
 62
     0
100
AcDbVertex
100
AcDb2dVertex
 10
723.4757652193713
 20
596.2043247653927
 30
3.646124999999996
 70
    16
  0
VERTEX
  5
56E77
330
56DEB
100
AcDbEntity
  8
0
 62
     0
100
AcDbVertex
100
AcDb2dVertex
 10
724.6308284593717
 20
595.7235371892345
 30
3.646124999999996
 70
    16
  0
VERTEX
  5
56E78
330
56DEB
100
AcDbEntity
  8
0
 62
     0
100
AcDbVertex
100
AcDb2dVertex
 10
726.5559331891335
 20
595.1465916956996
 30
3.646124999999996
 70
    16
  0
VERTEX
  5
56E79
330
56DEB
100
AcDbEntity
  8
0
 62
     0
100
AcDbVertex
100
AcDb2dVertex
 10
728.9623130959723
 20
595.2427486077136
 30
3.646124999999996
 70
    16
  0
VERTEX
  5
56E7A
330
56DEB
100
AcDbEntity
  8
0
 62
     0
100
AcDbVertex
100
AcDb2dVertex
 10
730.7911623881737
 20
596.1081678533786
 30
3.646124999999996
 70
    16
  0
VERTEX
  5
56E7B
330
56DEB
100
AcDbEntity
  8
0
 62
     0
100
AcDbVertex
100
AcDb2dVertex
 10
732.3312473784189
 20
597.5505315872157
 30
3.646124999999996
 70
    16
  0
VERTEX
  5
56E7C
330
56DEB
100
AcDbEntity
  8
0
 62
     0
100
AcDbVertex
100
AcDb2dVertex
 10
733.5825640452545
 20
598.5121077448948
 30
3.646124999999996
 70
    16
  0
VERTEX
  5
56E7D
330
56DEB
100
AcDbEntity
  8
0
 62
     0
100
AcDbVertex
100
AcDb2dVertex
 10
735.6039242125766
 20
598.896738409039
 30
3.646124999999996
 70
    16
  0
VERTEX
  5
56E7E
330
56DEB
100
AcDbEntity
  8
0
 62
     0
100
AcDbVertex
100
AcDb2dVertex
 10
738.0103041194155
 20
598.7044225742855
 30
3.646124999999996
 70
    16
  0
VERTEX
  5
56E7F
330
56DEB
100
AcDbEntity
  8
0
 62
     0
100
AcDbVertex
100
AcDb2dVertex
 10
739.5503891096608
 20
598.4159498275182
 30
3.646124999999996
 70
    16
  0
VERTEX
  5
56E80
330
56DEB
100
AcDbEntity
  8
0
 62
     0
100
AcDbVertex
100
AcDb2dVertex
 10
741.571749276983
 20
598.1274770807507
 30
3.646124999999996
 70
    16
  0
VERTEX
  5
56E81
330
56DEB
100
AcDbEntity
  8
0
 62
     0
100
AcDbVertex
100
AcDb2dVertex
 10
743.6893628711405
 20
599.954471478732
 30
3.646124999999996
 70
    16
  0
VERTEX
  5
56E82
330
56DEB
100
AcDbEntity
  8
0
 62
     0
100
AcDbVertex
100
AcDb2dVertex
 10
744.4594043608989
 20
603.0315147811626
 30
3.646124999999996
 70
    16
  0
VERTEX
  5
56E83
330
56DEB
100
AcDbEntity
  8
0
 62
     0
100
AcDbVertex
100
AcDb2dVertex
 10
745.5182121633417
 20
604.858509179144
 30
3.646124999999996
 70
    16
  0
VERTEX
  5
56E84
330
56DEB
100
AcDbEntity
  8
0
 62
     0
100
AcDbVertex
100
AcDb2dVertex
 10
746.7695308409027
 20
605.2431398432881
 30
3.646124999999996
 70
    16
  0
VERTEX
  5
56E85
330
56DEB
100
AcDbEntity
  8
0
 62
     0
100
AcDbVertex
100
AcDb2dVertex
 10
748.5021246955434
 20
606.4931887477346
 30
3.646124999999996
 70
    16
  0
VERTEX
  5
56E86
330
56DEB
100
AcDbEntity
  8
0
 62
     0
100
AcDbVertex
100
AcDb2dVertex
 10
748.6946355706644
 20
607.9355524815746
 30
3.646124999999996
 70
    16
  0
VERTEX
  5
56E87
330
56DEB
100
AcDbEntity
  8
0
 62
     0
100
AcDbVertex
100
AcDb2dVertex
 10
747.4433168931035
 20
608.9932865566304
 30
3.646124999999996
 70
    16
  0
VERTEX
  5
56E88
330
56DEB
100
AcDbEntity
  8
0
 62
     0
100
AcDbVertex
100
AcDb2dVertex
 10
747.1545505804191
 20
610.0510196263233
 30
3.646124999999996
 70
    16
  0
SEQEND
  5
56E89
330
56DEB
100
AcDbEntity
  8
0
 62
     0
  0
ARC
  5
56E8A
330
458D6
100
AcDbEntity
  8
0
 62
     0
100
AcDbCircle
 10
728.1255767153143
 20
603.7153077183745
 30
3.646124999999996
 40
5.08
100
AcDbArc
 50
270.0
 51
61.04497562813933
  0
INSERT
  5
56E8B
330
458D6
100
AcDbEntity
  8
0
 62
     0
100
AcDbBlockReference
  2
PHILL
 10
727.7445767153117
 20
603.7153077183745
 30
3.646124999999996
 41
25.4
 42
25.4
 43
25.4
 50
341.134058752914
  0
CIRCLE
  5
56E8C
330
458D6
100
AcDbEntity
  8
0
 62
     0
100
AcDbCircle
 10
727.7445767153117
 20
603.7153077183745
 30
3.646124999999996
 40
3.96875
  0
ARC
  5
56E8D
330
458D6
100
AcDbEntity
  8
0
  6
Continuous
 62
     0
100
AcDbCircle
 10
724.5695767153117
 20
607.0173077183745
 30
3.646124999999996
 40
3.174999999999999
100
AcDbArc
 50
90.0
 51
180.0
  0
LINE
  5
56E8E
330
458D6
100
AcDbEntity
  8
0
 62
     0
100
AcDbLine
 10
732.1274955748297
 20
597.3653077183745
 30
3.646124999999996
 11
727.1730767153137
 21
597.3653077183745
 31
3.646124999999996
  0
LINE
  5
56E8F
330
458D6
100
AcDbEntity
  8
0
 62
     0
100
AcDbLine
 10
733.4584047713019
 20
598.2543077183737
 30
3.646124999999996
 11
727.1730767153137
 21
598.2543077183737
 31
3.646124999999996
  0
ARC
  5
56E90
330
458D6
100
AcDbEntity
  8
0
 62
     0
100
AcDbCircle
 10
727.1730767153137
 20
595.7778077183745
 30
3.646124999999996
 40
1.587499999999999
100
AcDbArc
 50
90.0
 51
180.0
  0
ARC
  5
56E91
330
458D6
100
AcDbEntity
  8
0
 62
     0
100
AcDbCircle
 10
727.1730767153137
 20
595.7778077183745
 30
3.646124999999996
 40
2.4765
100
AcDbArc
 50
90.0
 51
180.0
  0
CIRCLE
  5
56E92
330
458D6
100
AcDbEntity
  8
0
 62
     0
100
AcDbCircle
 10
737.015576715312
 20
603.7153077183745
 30
3.646124999999996
 40
2.222499999999999
  0
ARC
  5
56E93
330
458D6
100
AcDbEntity
  8
0
 62
     0
100
AcDbCircle
 10
737.015576715312
 20
603.7153077183745
 30
3.646124999999996
 40
5.462269873025481
100
AcDbArc
 50
292.6934489569337
 51
6.890994782540906
  0
ARC
  5
56E94
330
458D6
100
AcDbEntity
  8
0
 62
     0
100
AcDbCircle
 10
737.015576715312
 20
603.7153077183745
 30
3.646124999999996
 40
6.351269873025481
100
AcDbArc
 50
303.0366729955237
 51
6.890994782540906
  0
ARC
  5
56E95
330
458D6
100
AcDbEntity
  8
0
 62
     0
100
AcDbCircle
 10
744.8969985950793
 20
604.6678077183722
 30
3.646124999999996
 40
1.587499999999999
100
AcDbArc
 50
90.0
 51
186.8909947825409
  0
ARC
  5
56E96
330
458D6
100
AcDbEntity
  8
0
 62
     0
100
AcDbCircle
 10
744.8969985950793
 20
604.6678077183722
 30
3.646124999999996
 40
2.4765
100
AcDbArc
 50
90.0
 51
186.8909947825409
  0
ARC
  5
56E97
330
458D6
100
AcDbEntity
  8
0
 62
     0
100
AcDbCircle
 10
745.9687737313954
 20
604.6678077183722
 30
3.646124999999996
 40
3.4925
100
AcDbArc
 50
90.0
 51
164.4751537870845
  0
LINE
  5
56E98
330
458D6
100
AcDbEntity
  8
0
 62
     0
100
AcDbLine
 10
745.9687737313954
 20
608.1603077183733
 30
3.646124999999996
 11
748.2228795887458
 21
608.1603077183733
 31
3.646124999999996
  0
LINE
  5
56E99
330
458D6
100
AcDbEntity
  8
0
 62
     0
100
AcDbLine
 10
748.0170155471735
 20
606.2553077183722
 30
3.646124999999996
 11
744.8969985950793
 21
606.2553077183722
 31
3.646124999999996
  0
LINE
  5
56E9A
330
458D6
100
AcDbEntity
  8
0
 62
     0
100
AcDbLine
 10
748.5103275795995
 20
607.1443077183743
 30
3.646124999999996
 11
744.9520606248821
 21
607.1443077183743
 31
3.646124999999996
  0
ARC
  5
56E9B
330
458D6
100
AcDbEntity
  8
0
 62
     0
100
AcDbCircle
 10
794.8643796992312
 20
604.6678077183722
 30
3.646124999999996
 40
3.4925
100
AcDbArc
 50
0.0
 51
90.0
  0
ARC
  5
56E9C
330
458D6
100
AcDbEntity
  8
0
 62
     0
100
AcDbCircle
 10
795.9361548355444
 20
604.6678077183722
 30
3.646124999999996
 40
2.4765
100
AcDbArc
 50
353.109005217459
 51
90.0
  0
ARC
  5
56E9D
330
458D6
100
AcDbEntity
  8
0
 62
     0
100
AcDbCircle
 10
803.8175767153118
 20
603.7153077183745
 30
3.646124999999996
 40
5.462269873025481
100
AcDbArc
 50
173.109005217459
 51
244.3832777188575
  0
ARC
  5
56E9E
330
458D6
100
AcDbEntity
  8
0
 62
     0
100
AcDbCircle
 10
803.8175767153118
 20
603.7153077183745
 30
3.646124999999996
 40
6.351269873025481
100
AcDbArc
 50
173.109005217459
 51
234.7493880596912
  0
LINE
  5
56E9F
330
458D6
100
AcDbEntity
  8
0
 62
     0
100
AcDbLine
 10
792.6102738418779
 20
608.1603077183733
 30
3.646124999999996
 11
810.2482322904723
 21
608.1603077183733
 31
3.646124999999996
  0
POLYLINE
  5
56EA0
330
458D6
100
AcDbEntity
  8
0
 62
     0
100
AcDb2dPolyline
 66
     1
 10
0.0
 20
0.0
 30
3.646124999999996
  0
VERTEX
  5
56EA1
330
56EA0
100
AcDbEntity
  8
0
 62
     0
100
AcDbVertex
100
AcDb2dVertex
 10
806.4578622098235
 20
598.6277974528816
 30
3.646124999999996
  0
VERTEX
  5
56EA2
330
56EA0
100
AcDbEntity
  8
0
 62
     0
100
AcDbVertex
100
AcDb2dVertex
 10
806.2158454842085
 20
598.68038366046
 30
3.646124999999996
  0
VERTEX
  5
56EA3
330
56EA0
100
AcDbEntity
  8
0
 62
     0
100
AcDbVertex
100
AcDb2dVertex
 10
805.9648048270334
 20
598.7239550868444
 30
3.646124999999996
  0
VERTEX
  5
56EA4
330
56EA0
100
AcDbEntity
  8
0
 62
     0
100
AcDbVertex
100
AcDb2dVertex
 10
805.7054922378281
 20
598.7585117300771
 30
3.646124999999996
  0
VERTEX
  5
56EA5
330
56EA0
100
AcDbEntity
  8
0
 62
     0
100
AcDbVertex
100
AcDb2dVertex
 10
805.4386597161279
 20
598.7840535881913
 30
3.646124999999996
  0
VERTEX
  5
56EA6
330
56EA0
100
AcDbEntity
  8
0
 62
     0
100
AcDbVertex
100
AcDb2dVertex
 10
805.165059261462
 20
598.8005806592236
 30
3.646124999999996
  0
VERTEX
  5
56EA7
330
56EA0
100
AcDbEntity
  8
0
 62
     0
100
AcDbVertex
100
AcDb2dVertex
 10
804.8857248691017
 20
598.8082494485655
 30
3.646124999999996
  0
VERTEX
  5
56EA8
330
56EA0
100
AcDbEntity
  8
0
 62
     0
100
AcDbVertex
100
AcDb2dVertex
 10
804.6028185172499
 20
598.8078424910228
 30
3.646124999999996
  0
VERTEX
  5
56EA9
330
56EA0
100
AcDbEntity
  8
0
 62
     0
100
AcDbVertex
100
AcDb2dVertex
 10
804.3187841798415
 20
598.8002988287594
 30
3.646124999999996
  0
VERTEX
  5
56EAA
330
56EA0
100
AcDbEntity
  8
0
 62
     0
100
AcDbVertex
100
AcDb2dVertex
 10
804.0360658308181
 20
598.7865575039364
 30
3.646124999999996
  0
VERTEX
  5
56EAB
330
56EA0
100
AcDbEntity
  8
0
 62
     0
100
AcDbVertex
100
AcDb2dVertex
 10
803.7571074441149
 20
598.7675575587148
 30
3.646124999999996
  0
VERTEX
  5
56EAC
330
56EA0
100
AcDbEntity
  8
0
 62
     0
100
AcDbVertex
100
AcDb2dVertex
 10
803.4843529936704
 20
598.7442380352584
 30
3.646124999999996
  0
VERTEX
  5
56EAD
330
56EA0
100
AcDbEntity
  8
0
 62
     0
100
AcDbVertex
100
AcDb2dVertex
 10
803.2202464534229
 20
598.7175379757283
 30
3.646124999999996
  0
VERTEX
  5
56EAE
330
56EA0
100
AcDbEntity
  8
0
 62
     0
100
AcDbVertex
100
AcDb2dVertex
 10
802.9672317973076
 20
598.6883964222827
 30
3.646124999999996
  0
VERTEX
  5
56EAF
330
56EA0
100
AcDbEntity
  8
0
 62
     0
100
AcDbVertex
100
AcDb2dVertex
 10
802.7269070081374
 20
598.6576272111424
 30
3.646124999999996
  0
VERTEX
  5
56EB0
330
56EA0
100
AcDbEntity
  8
0
 62
     0
100
AcDbVertex
100
AcDb2dVertex
 10
802.4974861041984
 20
598.625543354719
 30
3.646124999999996
  0
VERTEX
  5
56EB1
330
56EA0
100
AcDbEntity
  8
0
 62
     0
100
AcDbVertex
100
AcDb2dVertex
 10
802.2763371126506
 20
598.592332659481
 30
3.646124999999996
  0
VERTEX
  5
56EB2
330
56EA0
100
AcDbEntity
  8
0
 62
     0
100
AcDbVertex
100
AcDb2dVertex
 10
802.0608280606605
 20
598.5581829319029
 30
3.646124999999996
  0
VERTEX
  5
56EB3
330
56EA0
100
AcDbEntity
  8
0
 62
     0
100
AcDbVertex
100
AcDb2dVertex
 10
801.8483269753827
 20
598.5232819784475
 30
3.646124999999996
  0
VERTEX
  5
56EB4
330
56EA0
100
AcDbEntity
  8
0
 62
     0
100
AcDbVertex
100
AcDb2dVertex
 10
801.6362018839831
 20
598.4878176055864
 30
3.646124999999996
  0
VERTEX
  5
56EB5
330
56EA0
100
AcDbEntity
  8
0
 62
     0
100
AcDbVertex
100
AcDb2dVertex
 10
801.4218208136194
 20
598.4519776197879
 30
3.646124999999996
  0
VERTEX
  5
56EB6
330
56EA0
100
AcDbEntity
  8
0
 62
     0
100
AcDbVertex
100
AcDb2dVertex
 10
801.2025517914517
 20
598.4159498275182
 30
3.646124999999996
  0
VERTEX
  5
56EB7
330
56EA0
100
AcDbEntity
  8
0
 62
     0
100
AcDbVertex
100
AcDb2dVertex
 10
800.9763268393836
 20
598.3805793628002
 30
3.646124999999996
  0
VERTEX
  5
56EB8
330
56EA0
100
AcDbEntity
  8
0
 62
     0
100
AcDbVertex
100
AcDb2dVertex
 10
800.7433339582803
 20
598.3493406698485
 30
3.646124999999996
  0
VERTEX
  5
56EB9
330
56EA0
100
AcDbEntity
  8
0
 62
     0
100
AcDbVertex
100
AcDb2dVertex
 10
800.5043251437468
 20
598.3263655204318
 30
3.646124999999996
  0
VERTEX
  5
56EBA
330
56EA0
100
AcDbEntity
  8
0
 62
     0
100
AcDbVertex
100
AcDb2dVertex
 10
800.2600523913885
 20
598.3157856863165
 30
3.646124999999996
  0
VERTEX
  5
56EBB
330
56EA0
100
AcDbEntity
  8
0
 62
     0
100
AcDbVertex
100
AcDb2dVertex
 10
800.0112676968136
 20
598.3217329392715
 30
3.646124999999996
  0
VERTEX
  5
56EBC
330
56EA0
100
AcDbEntity
  8
0
 62
     0
100
AcDbVertex
100
AcDb2dVertex
 10
799.758723055624
 20
598.3483390510571
 30
3.646124999999996
  0
VERTEX
  5
56EBD
330
56EA0
100
AcDbEntity
  8
0
 62
     0
100
AcDbVertex
100
AcDb2dVertex
 10
799.5031704634311
 20
598.3997357934481
 30
3.646124999999996
  0
VERTEX
  5
56EBE
330
56EA0
100
AcDbEntity
  8
0
 62
     0
100
AcDbVertex
100
AcDb2dVertex
 10
799.2453619158372
 20
598.4800549382107
 30
3.646124999999996
  0
VERTEX
  5
56EBF
330
56EA0
100
AcDbEntity
  8
0
 62
     0
100
AcDbVertex
100
AcDb2dVertex
 10
798.9863940711363
 20
598.5924579168124
 30
3.646124999999996
  0
VERTEX
  5
56EC0
330
56EA0
100
AcDbEntity
  8
0
 62
     0
100
AcDbVertex
100
AcDb2dVertex
 10
798.7287422383835
 20
598.73622479955
 30
3.646124999999996
  0
VERTEX
  5
56EC1
330
56EA0
100
AcDbEntity
  8
0
 62
     0
100
AcDbVertex
100
AcDb2dVertex
 10
798.4752263893169
 20
598.9096653164243
 30
3.646124999999996
  0
VERTEX
  5
56EC2
330
56EA0
100
AcDbEntity
  8
0
 62
     0
100
AcDbVertex
100
AcDb2dVertex
 10
798.2286664956801
 20
599.1110891974336
 30
3.646124999999996
  0
VERTEX
  5
56EC3
330
56EA0
100
AcDbEntity
  8
0
 62
     0
100
AcDbVertex
100
AcDb2dVertex
 10
797.9918825292113
 20
599.3388061725786
 30
3.646124999999996
  0
VERTEX
  5
56EC4
330
56EA0
100
AcDbEntity
  8
0
 62
     0
100
AcDbVertex
100
AcDb2dVertex
 10
797.7676944616487
 20
599.5911259718546
 30
3.646124999999996
  0
VERTEX
  5
56EC5
330
56EA0
100
AcDbEntity
  8
0
 62
     0
100
AcDbVertex
100
AcDb2dVertex
 10
797.5589222647388
 20
599.8663583252657
 30
3.646124999999996
  0
VERTEX
  5
56EC6
330
56EA0
100
AcDbEntity
  8
0
 62
     0
100
AcDbVertex
100
AcDb2dVertex
 10
797.3683859102171
 20
600.1628129628069
 30
3.646124999999996
  0
VERTEX
  5
56EC7
330
56EA0
100
AcDbEntity
  8
0
 62
     0
100
AcDbVertex
100
AcDb2dVertex
 10
797.1979027122945
 20
600.4782674922262
 30
3.646124999999996
  0
VERTEX
  5
56EC8
330
56EA0
100
AcDbEntity
  8
0
 62
     0
100
AcDbVertex
100
AcDb2dVertex
 10
797.0452793550302
 20
600.8083710322453
 30
3.646124999999996
  0
VERTEX
  5
56EC9
330
56EA0
100
AcDbEntity
  8
0
 62
     0
100
AcDbVertex
100
AcDb2dVertex
 10
796.9073198649562
 20
601.1482405793299
 30
3.646124999999996
  0
VERTEX
  5
56ECA
330
56EA0
100
AcDbEntity
  8
0
 62
     0
100
AcDbVertex
100
AcDb2dVertex
 10
796.7808282685988
 20
601.4929931299487
 30
3.646124999999996
  0
VERTEX
  5
56ECB
330
56EA0
100
AcDbEntity
  8
0
 62
     0
100
AcDbVertex
100
AcDb2dVertex
 10
796.6626085924931
 20
601.8377456805648
 30
3.646124999999996
  0
VERTEX
  5
56ECC
330
56EA0
100
AcDbEntity
  8
0
 62
     0
100
AcDbVertex
100
AcDb2dVertex
 10
796.5494648631595
 20
602.1776152276494
 30
3.646124999999996
  0
VERTEX
  5
56ECD
330
56EA0
100
AcDbEntity
  8
0
 62
     0
100
AcDbVertex
100
AcDb2dVertex
 10
796.438201107136
 20
602.5077187676685
 30
3.646124999999996
  0
VERTEX
  5
56ECE
330
56EA0
100
AcDbEntity
  8
0
 62
     0
100
AcDbVertex
100
AcDb2dVertex
 10
796.3256213509461
 20
602.8231732970878
 30
3.646124999999996
  0
VERTEX
  5
56ECF
330
56EA0
100
AcDbEntity
  8
0
 62
     0
100
AcDbVertex
100
AcDb2dVertex
 10
796.2090936165147
 20
603.1198470438148
 30
3.646124999999996
  0
VERTEX
  5
56ED0
330
56EA0
100
AcDbEntity
  8
0
 62
     0
100
AcDbVertex
100
AcDb2dVertex
 10
796.0882419073503
 20
603.3966131615072
 30
3.646124999999996
  0
VERTEX
  5
56ED1
330
56EA0
100
AcDbEntity
  8
0
 62
     0
100
AcDbVertex
100
AcDb2dVertex
 10
795.9632542223543
 20
603.6530960352666
 30
3.646124999999996
  0
VERTEX
  5
56ED2
330
56EA0
100
AcDbEntity
  8
0
 62
     0
100
AcDbVertex
100
AcDb2dVertex
 10
795.8343185604249
 20
603.8889200501897
 30
3.646124999999996
  0
VERTEX
  5
56ED3
330
56EA0
100
AcDbEntity
  8
0
 62
     0
100
AcDbVertex
100
AcDb2dVertex
 10
795.7016229204693
 20
604.1037095913757
 30
3.646124999999996
  0
VERTEX
  5
56ED4
330
56EA0
100
AcDbEntity
  8
0
 62
     0
100
AcDbVertex
100
AcDb2dVertex
 10
795.5653553013831
 20
604.2970890439236
 30
3.646124999999996
  0
VERTEX
  5
56ED5
330
56EA0
100
AcDbEntity
  8
0
 62
     0
100
AcDbVertex
100
AcDb2dVertex
 10
795.4257037020703
 20
604.4686827929354
 30
3.646124999999996
  0
VERTEX
  5
56ED6
330
56EA0
100
AcDbEntity
  8
0
 62
     0
100
AcDbVertex
100
AcDb2dVertex
 10
795.2828561214325
 20
604.6181152235049
 30
3.646124999999996
  0
VERTEX
  5
56ED7
330
56EA0
100
AcDbEntity
  8
0
 62
     0
100
AcDbVertex
100
AcDb2dVertex
 10
795.1368752264223
 20
604.745824554327
 30
3.646124999999996
  0
VERTEX
  5
56ED8
330
56EA0
100
AcDbEntity
  8
0
 62
     0
100
AcDbVertex
100
AcDb2dVertex
 10
794.9873223562146
 20
604.8555043384786
 30
3.646124999999996
  0
VERTEX
  5
56ED9
330
56EA0
100
AcDbEntity
  8
0
 62
     0
100
AcDbVertex
100
AcDb2dVertex
 10
794.8336335180267
 20
604.9516619626236
 30
3.646124999999996
  0
VERTEX
  5
56EDA
330
56EA0
100
AcDbEntity
  8
0
 62
     0
100
AcDbVertex
100
AcDb2dVertex
 10
794.6752447190818
 20
605.0388048134347
 30
3.646124999999996
  0
VERTEX
  5
56EDB
330
56EA0
100
AcDbEntity
  8
0
 62
     0
100
AcDbVertex
100
AcDb2dVertex
 10
794.5115919666061
 20
605.121440277576
 30
3.646124999999996
  0
VERTEX
  5
56EDC
330
56EA0
100
AcDbEntity
  8
0
 62
     0
100
AcDbVertex
100
AcDb2dVertex
 10
794.34211126782
 20
605.2040757417172
 30
3.646124999999996
  0
VERTEX
  5
56EDD
330
56EA0
100
AcDbEntity
  8
0
 62
     0
100
AcDbVertex
100
AcDb2dVertex
 10
794.1662386299468
 20
605.2912185925253
 30
3.646124999999996
  0
VERTEX
  5
56EDE
330
56EA0
100
AcDbEntity
  8
0
 62
     0
100
AcDbVertex
100
AcDb2dVertex
 10
793.9834100602097
 20
605.3873762166732
 30
3.646124999999996
  0
VERTEX
  5
56EDF
330
56EA0
100
AcDbEntity
  8
0
 62
     0
100
AcDbVertex
100
AcDb2dVertex
 10
793.7938135588182
 20
605.4960856605291
 30
3.646124999999996
  0
VERTEX
  5
56EE0
330
56EA0
100
AcDbEntity
  8
0
 62
     0
100
AcDbVertex
100
AcDb2dVertex
 10
793.600645097932
 20
605.6170026092906
 30
3.646124999999996
  0
VERTEX
  5
56EE1
330
56EA0
100
AcDbEntity
  8
0
 62
     0
100
AcDbVertex
100
AcDb2dVertex
 10
793.4078526427056
 20
605.7488124078563
 30
3.646124999999996
  0
VERTEX
  5
56EE2
330
56EA0
100
AcDbEntity
  8
0
 62
     0
100
AcDbVertex
100
AcDb2dVertex
 10
793.219384158285
 20
605.8902004011311
 30
3.646124999999996
  0
VERTEX
  5
56EE3
330
56EA0
100
AcDbEntity
  8
0
 62
     0
100
AcDbVertex
100
AcDb2dVertex
 10
793.039187609822
 20
606.0398519340109
 30
3.646124999999996
  0
VERTEX
  5
56EE4
330
56EA0
100
AcDbEntity
  8
0
 62
     0
100
AcDbVertex
100
AcDb2dVertex
 10
792.8712109624655
 20
606.1964523514006
 30
3.646124999999996
  0
VERTEX
  5
56EE5
330
56EA0
100
AcDbEntity
  8
0
 62
     0
100
AcDbVertex
100
AcDb2dVertex
 10
792.7194021813639
 20
606.3586869981959
 30
3.646124999999996
  0
VERTEX
  5
56EE6
330
56EA0
100
AcDbEntity
  8
0
 62
     0
100
AcDbVertex
100
AcDb2dVertex
 10
792.5877092316693
 20
606.5252412193016
 30
3.646124999999996
  0
VERTEX
  5
56EE7
330
56EA0
100
AcDbEntity
  8
0
 62
     0
100
AcDbVertex
100
AcDb2dVertex
 10
792.4795944169891
 20
606.695003818586
 30
3.646124999999996
  0
VERTEX
  5
56EE8
330
56EA0
100
AcDbEntity
  8
0
 62
     0
100
AcDbVertex
100
AcDb2dVertex
 10
792.396577394788
 20
606.867677435809
 30
3.646124999999996
  0
VERTEX
  5
56EE9
330
56EA0
100
AcDbEntity
  8
0
 62
     0
100
AcDbVertex
100
AcDb2dVertex
 10
792.3396921609844
 20
607.0431681697028
 30
3.646124999999996
  0
VERTEX
  5
56EEA
330
56EA0
100
AcDbEntity
  8
0
 62
     0
100
AcDbVertex
100
AcDb2dVertex
 10
792.3099727114988
 20
607.2213821189911
 30
3.646124999999996
  0
VERTEX
  5
56EEB
330
56EA0
100
AcDbEntity
  8
0
 62
     0
100
AcDbVertex
100
AcDb2dVertex
 10
792.308453042258
 20
607.4022253824057
 30
3.646124999999996
  0
VERTEX
  5
56EEC
330
56EA0
100
AcDbEntity
  8
0
 62
     0
100
AcDbVertex
100
AcDb2dVertex
 10
792.3361671491826
 20
607.5856040586761
 30
3.646124999999996
  0
VERTEX
  5
56EED
330
56EA0
100
AcDbEntity
  8
0
 62
     0
100
AcDbVertex
100
AcDb2dVertex
 10
792.3941490281906
 20
607.7714242465288
 30
3.646124999999996
  0
VERTEX
  5
56EEE
330
56EA0
100
AcDbEntity
  8
0
 62
     0
100
AcDbVertex
100
AcDb2dVertex
 10
792.4834326752057
 20
607.9595920446989
 30
3.646124999999996
  0
VERTEX
  5
56EEF
330
56EA0
100
AcDbEntity
  8
0
 62
     0
100
AcDbVertex
100
AcDb2dVertex
 10
792.6035480975545
 20
608.1510151913188
 30
3.646124999999996
  0
VERTEX
  5
56EF0
330
56EA0
100
AcDbEntity
  8
0
 62
     0
100
AcDbVertex
100
AcDb2dVertex
 10
792.7480093481949
 20
608.3506079821638
 30
3.646124999999996
  0
VERTEX
  5
56EF1
330
56EA0
100
AcDbEntity
  8
0
 62
     0
100
AcDbVertex
100
AcDb2dVertex
 10
792.9088264914821
 20
608.5642863524243
 30
3.646124999999996
  0
VERTEX
  5
56EF2
330
56EA0
100
AcDbEntity
  8
0
 62
     0
100
AcDbVertex
100
AcDb2dVertex
 10
793.0780095917744
 20
608.7979662372756
 30
3.646124999999996
  0
VERTEX
  5
56EF3
330
56EA0
100
AcDbEntity
  8
0
 62
     0
100
AcDbVertex
100
AcDb2dVertex
 10
793.2475687134353
 20
609.0575635719081
 30
3.646124999999996
  0
VERTEX
  5
56EF4
330
56EA0
100
AcDbEntity
  8
0
 62
     0
100
AcDbVertex
100
AcDb2dVertex
 10
793.40951392082
 20
609.3489942915058
 30
3.646124999999996
  0
VERTEX
  5
56EF5
330
56EA0
100
AcDbEntity
  8
0
 62
     0
100
AcDbVertex
100
AcDb2dVertex
 10
793.5558552782923
 20
609.6781743312475
 30
3.646124999999996
  0
VERTEX
  5
56EF6
330
56EA0
100
AcDbEntity
  8
0
 62
     0
100
AcDbVertex
100
AcDb2dVertex
 10
793.6786028502047
 20
610.0510196263233
 30
3.646124999999996
  0
SEQEND
  5
56EF7
330
56EA0
100
AcDbEntity
  8
0
 62
     0
  0
LINE
  5
56EF8
330
458D6
100
AcDbEntity
  8
0
 62
     0
100
AcDbLine
 10
796.6981548355467
 20
606.2553077183722
 30
3.646124999999996
 11
792.8161378834531
 21
606.2553077183722
 31
3.646124999999996
  0
LINE
  5
56EF9
330
458D6
100
AcDbEntity
  8
0
 62
     0
100
AcDbLine
 10
796.6430928057438
 20
607.1443077183743
 30
3.646124999999996
 11
792.3228258510243
 21
607.1443077183743
 31
3.646124999999996
  0
ARC
  5
56EFA
330
458D6
100
AcDbEntity
  8
0
 62
     0
100
AcDbCircle
 10
795.9361548355444
 20
604.6678077183722
 30
3.646124999999996
 40
1.587499999999999
100
AcDbArc
 50
353.109005217459
 51
90.0
  0
CIRCLE
  5
56EFB
330
458D6
100
AcDbEntity
  8
0
 62
     0
100
AcDbCircle
 10
803.8175767153118
 20
603.7153077183745
 30
3.646124999999996
 40
2.222499999999999
  0
ARC
  5
56EFC
330
458D6
100
AcDbEntity
  8
0
 62
     0
100
AcDbCircle
 10
812.7075767153124
 20
603.7153077183745
 30
3.646124999999996
 40
5.08
100
AcDbArc
 50
118.9550243718606
 51
270.0
  0
INSERT
  5
56EFD
330
458D6
100
AcDbEntity
  8
0
 62
     0
100
AcDbBlockReference
  2
PHILL
 10
813.088576715312
 20
603.7153077183745
 30
3.646124999999996
 41
25.4
 42
25.4
 43
25.4
  0
CIRCLE
  5
56EFE
330
458D6
100
AcDbEntity
  8
0
 62
     0
100
AcDbCircle
 10
813.088576715312
 20
603.7153077183745
 30
3.646124999999996
 40
3.96875
  0
ARC
  5
56EFF
330
458D6
100
AcDbEntity
  8
0
  6
Continuous
 62
     0
100
AcDbCircle
 10
816.2635767153121
 20
607.0173077183745
 30
3.646124999999996
 40
3.174999999999999
100
AcDbArc
 50
0.0
 51
90.0
  0
LINE
  5
56F00
330
458D6
100
AcDbEntity
  8
0
 62
     0
100
AcDbLine
 10
807.4626987105094
 20
598.2543077183737
 30
3.646124999999996
 11
813.6600767153129
 21
598.2543077183737
 31
3.646124999999996
  0
LINE
  5
56F01
330
458D6
100
AcDbEntity
  8
0
 62
     0
100
AcDbLine
 10
808.6708986805582
 20
597.3653077183745
 30
3.646124999999996
 11
813.6600767153129
 21
597.3653077183745
 31
3.646124999999996
  0
POLYLINE
  5
56F02
330
458D6
100
AcDbEntity
  8
0
 62
     0
100
AcDb2dPolyline
 66
     1
 10
0.0
 20
0.0
 30
3.646124999999996
  0
VERTEX
  5
56F03
330
56F02
100
AcDbEntity
  8
0
 62
     0
100
AcDbVertex
100
AcDb2dVertex
 10
819.3413891397925
 20
596.2764269976652
 30
3.646124999999996
  0
VERTEX
  5
56F04
330
56F02
100
AcDbEntity
  8
0
 62
     0
100
AcDbVertex
100
AcDb2dVertex
 10
818.6605073640873
 20
596.2418756401092
 30
3.646124999999996
  0
VERTEX
  5
56F05
330
56F02
100
AcDbEntity
  8
0
 62
     0
100
AcDbVertex
100
AcDb2dVertex
 10
818.0946240280098
 20
596.193800826554
 30
3.646124999999996
  0
VERTEX
  5
56F06
330
56F02
100
AcDbEntity
  8
0
 62
     0
100
AcDbVertex
100
AcDb2dVertex
 10
817.6268810735066
 20
596.1344564343467
 30
3.646124999999996
  0
VERTEX
  5
56F07
330
56F02
100
AcDbEntity
  8
0
 62
     0
100
AcDbVertex
100
AcDb2dVertex
 10
817.240420442536
 20
596.0660963408489
 30
3.646124999999996
  0
VERTEX
  5
56F08
330
56F02
100
AcDbEntity
  8
0
 62
     0
100
AcDbVertex
100
AcDb2dVertex
 10
816.9183840770442
 20
595.9909744234139
 30
3.646124999999996
  0
VERTEX
  5
56F09
330
56F02
100
AcDbEntity
  8
0
 62
     0
100
AcDbVertex
100
AcDb2dVertex
 10
816.6439139189833
 20
595.9113445593917
 30
3.646124999999996
  0
VERTEX
  5
56F0A
330
56F02
100
AcDbEntity
  8
0
 62
     0
100
AcDbVertex
100
AcDb2dVertex
 10
816.4001519103058
 20
595.829460626144
 30
3.646124999999996
  0
VERTEX
  5
56F0B
330
56F02
100
AcDbEntity
  8
0
 62
     0
100
AcDbVertex
100
AcDb2dVertex
 10
816.1702399929609
 20
595.747576501018
 30
3.646124999999996
  0
VERTEX
  5
56F0C
330
56F02
100
AcDbEntity
  8
0
 62
     0
100
AcDbVertex
100
AcDb2dVertex
 10
815.9400357861196
 20
595.6677425722215
 30
3.646124999999996
  0
VERTEX
  5
56F0D
330
56F02
100
AcDbEntity
  8
0
 62
     0
100
AcDbVertex
100
AcDb2dVertex
 10
815.7062596178226
 20
595.5911952713583
 30
3.646124999999996
  0
VERTEX
  5
56F0E
330
56F02
100
AcDbEntity
  8
0
 62
     0
100
AcDbVertex
100
AcDb2dVertex
 10
815.4683474933271
 20
595.5189675408725
 30
3.646124999999996
  0
VERTEX
  5
56F0F
330
56F02
100
AcDbEntity
  8
0
 62
     0
100
AcDbVertex
100
AcDb2dVertex
 10
815.2257354178955
 20
595.4520923232228
 30
3.646124999999996
  0
VERTEX
  5
56F10
330
56F02
100
AcDbEntity
  8
0
 62
     0
100
AcDbVertex
100
AcDb2dVertex
 10
814.9778593967877
 20
595.3916025608532
 30
3.646124999999996
  0
VERTEX
  5
56F11
330
56F02
100
AcDbEntity
  8
0
 62
     0
100
AcDbVertex
100
AcDb2dVertex
 10
814.7241554352572
 20
595.3385311962194
 30
3.646124999999996
  0
VERTEX
  5
56F12
330
56F02
100
AcDbEntity
  8
0
 62
     0
100
AcDbVertex
100
AcDb2dVertex
 10
814.4640595385695
 20
595.2939111717715
 30
3.646124999999996
  0
VERTEX
  5
56F13
330
56F02
100
AcDbEntity
  8
0
 62
     0
100
AcDbVertex
100
AcDb2dVertex
 10
814.197007711979
 20
595.2587754299563
 30
3.646124999999996
  0
VERTEX
  5
56F14
330
56F02
100
AcDbEntity
  8
0
 62
     0
100
AcDbVertex
100
AcDb2dVertex
 10
813.9228746232133
 20
595.2340160582163
 30
3.646124999999996
  0
VERTEX
  5
56F15
330
56F02
100
AcDbEntity
  8
0
 62
     0
100
AcDbVertex
100
AcDb2dVertex
 10
813.6432895898702
 20
595.2199617239215
 30
3.646124999999996
  0
VERTEX
  5
56F16
330
56F02
100
AcDbEntity
  8
0
 62
     0
100
AcDbVertex
100
AcDb2dVertex
 10
813.3603205920064
 20
595.2168002394309
 30
3.646124999999996
  0
VERTEX
  5
56F17
330
56F02
100
AcDbEntity
  8
0
 62
     0
100
AcDbVertex
100
AcDb2dVertex
 10
813.0760356096878
 20
595.2247194171071
 30
3.646124999999996
  0
VERTEX
  5
56F18
330
56F02
100
AcDbEntity
  8
0
 62
     0
100
AcDbVertex
100
AcDb2dVertex
 10
812.7925026229744
 20
595.2439070693063
 30
3.646124999999996
  0
VERTEX
  5
56F19
330
56F02
100
AcDbEntity
  8
0
 62
     0
100
AcDbVertex
100
AcDb2dVertex
 10
812.5117896119322
 20
595.2745510083911
 30
3.646124999999996
  0
VERTEX
  5
56F1A
330
56F02
100
AcDbEntity
  8
0
 62
     0
100
AcDbVertex
100
AcDb2dVertex
 10
812.2359645566151
 20
595.3168390467206
 30
3.646124999999996
  0
VERTEX
  5
56F1B
330
56F02
100
AcDbEntity
  8
0
 62
     0
100
AcDbVertex
100
AcDb2dVertex
 10
811.9670954370919
 20
595.3709589966544
 30
3.646124999999996
  0
VERTEX
  5
56F1C
330
56F02
100
AcDbEntity
  8
0
 62
     0
100
AcDbVertex
100
AcDb2dVertex
 10
811.7068115706279
 20
595.4370047650249
 30
3.646124999999996
  0
VERTEX
  5
56F1D
330
56F02
100
AcDbEntity
  8
0
 62
     0
100
AcDbVertex
100
AcDb2dVertex
 10
811.4549876233141
 20
595.5146946365703
 30
3.646124999999996
  0
VERTEX
  5
56F1E
330
56F02
100
AcDbEntity
  8
0
 62
     0
100
AcDbVertex
100
AcDb2dVertex
 10
811.2110595984432
 20
595.6036529904903
 30
3.646124999999996
  0
VERTEX
  5
56F1F
330
56F02
100
AcDbEntity
  8
0
 62
     0
100
AcDbVertex
100
AcDb2dVertex
 10
810.9744634993147
 20
595.7035042059992
 30
3.646124999999996
  0
VERTEX
  5
56F20
330
56F02
100
AcDbEntity
  8
0
 62
     0
100
AcDbVertex
100
AcDb2dVertex
 10
810.7446353292214
 20
595.8138726623054
 30
3.646124999999996
  0
VERTEX
  5
56F21
330
56F02
100
AcDbEntity
  8
0
 62
     0
100
AcDbVertex
100
AcDb2dVertex
 10
810.5210110914597
 20
595.9343827386143
 30
3.646124999999996
  0
VERTEX
  5
56F22
330
56F02
100
AcDbEntity
  8
0
 62
     0
100
AcDbVertex
100
AcDb2dVertex
 10
810.3030267893254
 20
596.0646588141344
 30
3.646124999999996
  0
VERTEX
  5
56F23
330
56F02
100
AcDbEntity
  8
0
 62
     0
100
AcDbVertex
100
AcDb2dVertex
 10
810.090118426112
 20
596.204325268074
 30
3.646124999999996
  0
VERTEX
  5
56F24
330
56F02
100
AcDbEntity
  8
0
 62
     0
100
AcDbVertex
100
AcDb2dVertex
 10
809.8818160058767
 20
596.3527247692832
 30
3.646124999999996
  0
VERTEX
  5
56F25
330
56F02
100
AcDbEntity
  8
0
 62
     0
100
AcDbVertex
100
AcDb2dVertex
 10
809.6780255357156
 20
596.5080731451841
 30
3.646124999999996
  0
VERTEX
  5
56F26
330
56F02
100
AcDbEntity
  8
0
 62
     0
100
AcDbVertex
100
AcDb2dVertex
 10
809.47874702348
 20
596.6683045128348
 30
3.646124999999996
  0
VERTEX
  5
56F27
330
56F02
100
AcDbEntity
  8
0
 62
     0
100
AcDbVertex
100
AcDb2dVertex
 10
809.2839804770244
 20
596.831352989299
 30
3.646124999999996
  0
VERTEX
  5
56F28
330
56F02
100
AcDbEntity
  8
0
 62
     0
100
AcDbVertex
100
AcDb2dVertex
 10
809.0937259042059
 20
596.9951526916376
 30
3.646124999999996
  0
VERTEX
  5
56F29
330
56F02
100
AcDbEntity
  8
0
 62
     0
100
AcDbVertex
100
AcDb2dVertex
 10
808.9079833128792
 20
597.1576377369115
 30
3.646124999999996
  0
VERTEX
  5
56F2A
330
56F02
100
AcDbEntity
  8
0
 62
     0
100
AcDbVertex
100
AcDb2dVertex
 10
808.7267527108927
 20
597.3167422421873
 30
3.646124999999996
  0
VERTEX
  5
56F2B
330
56F02
100
AcDbEntity
  8
0
 62
     0
100
AcDbVertex
100
AcDb2dVertex
 10
808.5500341061095
 20
597.4704003245233
 30
3.646124999999996
  0
VERTEX
  5
56F2C
330
56F02
100
AcDbEntity
  8
0
 62
     0
100
AcDbVertex
100
AcDb2dVertex
 10
808.377482839762
 20
597.6168591134002
 30
3.646124999999996
  0
VERTEX
  5
56F2D
330
56F02
100
AcDbEntity
  8
0
 62
     0
100
AcDbVertex
100
AcDb2dVertex
 10
808.2073755866222
 20
597.7556177879657
 30
3.646124999999996
  0
VERTEX
  5
56F2E
330
56F02
100
AcDbEntity
  8
0
 62
     0
100
AcDbVertex
100
AcDb2dVertex
 10
808.0376443548509
 20
597.8864885397878
 30
3.646124999999996
  0
VERTEX
  5
56F2F
330
56F02
100
AcDbEntity
  8
0
 62
     0
100
AcDbVertex
100
AcDb2dVertex
 10
807.8662211526012
 20
598.0092835604369
 30
3.646124999999996
  0
VERTEX
  5
56F30
330
56F02
100
AcDbEntity
  8
0
 62
     0
100
AcDbVertex
100
AcDb2dVertex
 10
807.6910379880279
 20
598.1238150414782
 30
3.646124999999996
  0
VERTEX
  5
56F31
330
56F02
100
AcDbEntity
  8
0
 62
     0
100
AcDbVertex
100
AcDb2dVertex
 10
807.510026869293
 20
598.2298951744823
 30
3.646124999999996
  0
VERTEX
  5
56F32
330
56F02
100
AcDbEntity
  8
0
 62
     0
100
AcDbVertex
100
AcDb2dVertex
 10
807.3211198045516
 20
598.3273361510139
 30
3.646124999999996
  0
VERTEX
  5
56F33
330
56F02
100
AcDbEntity
  8
0
 62
     0
100
AcDbVertex
100
AcDb2dVertex
 10
807.1222488019564
 20
598.4159501626408
 30
3.646124999999996
  0
VERTEX
  5
56F34
330
56F02
100
AcDbEntity
  8
0
 62
     0
100
AcDbVertex
100
AcDb2dVertex
 10
806.9118158682298
 20
598.4955807020083
 30
3.646124999999996
  0
VERTEX
  5
56F35
330
56F02
100
AcDbEntity
  8
0
 62
     0
100
AcDbVertex
100
AcDb2dVertex
 10
806.6901030043407
 20
598.5661964660756
 30
3.646124999999996
  0
SEQEND
  5
56F36
330
56F02
100
AcDbEntity
  8
0
 62
     0
  0
ARC
  5
56F37
330
458D6
100
AcDbEntity
  8
0
 62
     0
100
AcDbCircle
 10
813.6600767153129
 20
595.7778077183745
 30
3.646124999999996
 40
1.587499999999999
100
AcDbArc
 50
0.0
 51
90.0
  0
ARC
  5
56F38
330
458D6
100
AcDbEntity
  8
0
 62
     0
100
AcDbCircle
 10
813.6600767153129
 20
595.7778077183745
 30
3.646124999999996
 40
2.4765
100
AcDbArc
 50
0.0
 51
90.0
  0
DIMENSION
  5
56F57
330
458D6
100
AcDbEntity
  8
AREA1
100
AcDbDimension
  2
*D4
 10
819.4385767153121
 20
644.3943957599965
 30
3.646124999999996
 11
771.4864274978438
 21
644.3943957599965
 31
3.646124999999996
 70
   160
 71
     5
 42
98.04400000000043
  3
ABECAD_3D
100
AcDbAlignedDimension
 13
721.3945767153116
 23
607.0173077183745
 33
3.646124999999996
 14
819.4385767153121
 24
607.0173077183745
 34
3.646124999999996
100
AcDbRotatedDimension
  0
DIMENSION
  5
56F65
330
458D6
100
AcDbEntity
  8
AREA1
100
AcDbDimension
  2
*D5
 10
891.9057016964204
 20
498.9403077183744
 30
3.646124999999996
 11
891.4795523497812
 21
555.9728802843921
 31
3.646124999999996
 70
   160
 71
     5
 42
111.2519999999999
  3
ABECAD_3D
100
AcDbAlignedDimension
 13
816.2635767153119
 23
610.1923077183744
 33
3.646124999999996
 14
816.2635767153119
 24
498.9403077183744
 34
3.646124999999996
 50
90.0
100
AcDbRotatedDimension
  0
DIMENSION
  5
56F73
330
458D6
100
AcDbEntity
  8
AREA1
100
AcDbDimension
  2
*D6
 10
865.3864156283477
 20
505.4173077183744
 30
3.646124999999996
 11
865.3864156283477
 21
554.7741821030513
 31
3.646124999999996
 70
   160
 71
     5
 42
98.29800000000018
  3
ABECAD_3D
100
AcDbAlignedDimension
 13
813.088576715312
 23
603.7153077183745
 33
3.646124999999996
 14
813.088576715312
 24
505.4173077183744
 34
3.646124999999996
 50
90.0
100
AcDbRotatedDimension
  0
DIMENSION
  5
56F8B
330
458D6
100
AcDbEntity
  8
AREA1
100
AcDbDimension
  2
*D7
 10
813.088576715312
 20
631.1202898515187
 30
3.646124999999996
 11
770.398848171948
 21
631.1202898515187
 31
3.646124999999996
 70
   160
 71
     5
 42
85.34400000000028
  3
ABECAD_3D
100
AcDbAlignedDimension
 13
727.7445767153117
 23
603.7153077183745
 33
3.646124999999996
 14
813.088576715312
 24
603.7153077183745
 34
3.646124999999996
100
AcDbRotatedDimension
  0
DIMENSION
  5
56F99
330
458D6
100
AcDbEntity
  8
AREA1
100
AcDbDimension
  2
*D8
 10
803.8175767153118
 20
619.6447903255972
 30
3.646124999999996
 11
770.7816796861926
 21
619.6447903255972
 31
3.646124999999996
 70
   160
 71
     5
 42
66.80199999999979
  3
ABECAD_3D
100
AcDbAlignedDimension
 13
737.015576715312
 23
603.7153077183745
 33
3.646124999999996
 14
803.8175767153118
 24
603.7153077183745
 34
3.646124999999996
100
AcDbRotatedDimension
  0
DIMENSION
  5
56FA7
330
458D6
100
AcDbEntity
  8
AREA1
100
AcDbDimension
  2
*D9
 10
687.3123602222189
 20
567.5282073009213
 30
3.646124999999996
 11
678.5072387200853
 21
587.4674616235115
 31
3.646124999999996
 70
   160
 71
     5
 42
42.66410041745302
  3
ABECAD_3D
100
AcDbAlignedDimension
 13
724.5695767153117
 23
610.1923077183744
 33
3.646124999999996
 14
701.2142767153124
 24
567.5282073009213
 34
3.646124999999996
 50
90.0
100
AcDbRotatedDimension
  0
DIMENSION
  5
56FBD
330
458D6
100
AcDbEntity
  8
AREA1
100
AcDbDimension
  2
*D10
 10
687.6951917364635
 20
531.9682073009219
 30
3.646124999999996
 11
678.8900702343299
 21
518.2319488951223
 31
3.646124999999996
 70
   160
 71
     5
 42
33.02789958254732
  3
ABECAD_3D
100
AcDbAlignedDimension
 13
724.5695767153117
 23
498.9403077183744
 33
3.646124999999996
 14
701.1545003837369
 24
531.9682073009219
 34
3.646124999999996
 50
90.0
100
AcDbRotatedDimension
  0
DIMENSION
  5
56FD4
330
458D6
100
AcDbEntity
  8
AREA1
100
AcDbDimension
  2
*D11
 10
863.3182589009102
 20
390.1138649525738
 30
3.646124999999996
 11
872.2827865221137
 21
417.1263718479474
 31
3.646124999999996
 70
   160
 71
     5
 42
54.87936150095549
  3
ABECAD_3D
100
AcDbAlignedDimension
 13
818.1685767153133
 23
444.9932264535293
 33
3.646124999999996
 14
818.1685767153133
 24
390.1138649525738
 34
3.646124999999996
 50
90.0
100
AcDbRotatedDimension
  0
LINE
  5
5701A
330
458D6
100
AcDbEntity
  8
SCALE
100
AcDbLine
 10
608.1272281338497
 20
592.4425764404193
 30
3.646124999999996
 11
633.5272281338498
 21
592.4425764404193
 31
3.646124999999996
  0
LINE
  5
5701B
330
458D6
100
AcDbEntity
  8
SCALE
100
AcDbLine
 10
633.5272281338498
 20
589.9025764404193
 30
3.646124999999996
 11
633.5272281338498
 21
594.9825764404194
 31
3.646124999999996
  0
LINE
  5
5701C
330
458D6
100
AcDbEntity
  8
SCALE
100
AcDbLine
 10
608.1272281338497
 20
589.9025764404193
 30
3.646124999999996
 11
608.1272281338497
 21
594.9825764404194
 31
3.646124999999996
  0
LINE
  5
5701D
330
458D6
100
AcDbEntity
  8
SCALE
100
AcDbLine
 10
608.1272281338499
 20
597.6290001777126
 30
3.646124999999996
 11
608.1272281338499
 21
602.7090001777126
 31
3.646124999999996
  0
LINE
  5
5701E
330
458D6
100
AcDbEntity
  8
SCALE
100
AcDbLine
 10
618.12720813385
 20
597.6290001777126
 30
3.646124999999996
 11
618.12720813385
 21
602.7090001777126
 31
3.646124999999996
  0
LINE
  5
5701F
330
458D6
100
AcDbEntity
  8
SCALE
100
AcDbLine
 10
608.1272281338499
 20
600.1690001777126
 30
3.646124999999996
 11
618.12720813385
 21
600.1690001777126
 31
3.646124999999996
  0
TEXT
  5
57020
330
458D6
100
AcDbEntity
  8
SCALE
100
AcDbText
 10
609.6365508746237
 20
601.3307871676752
 30
3.646124999999996
 40
1.587499999999999
  1
10 mm
100
AcDbText
  0
TEXT
  5
57021
330
458D6
100
AcDbEntity
  8
SCALE
100
AcDbText
 10
615.7251208669379
 20
594.1964133028987
 30
3.646124999999996
 40
1.587499999999999
  1
[1 Inch]
100
AcDbText
  0
TEXT
  5
57022
330
458D6
100
AcDbEntity
  8
SCALE
100
AcDbText
 10
607.9333122139792
 20
605.7025377925644
 30
3.646124999999996
 40
1.587499999999999
  1
SCALE:
100
AcDbText
  0
LWPOLYLINE
  5
57023
330
458D6
100
AcDbEntity
  8
SCALE
100
AcDbPolyline
 90
        4
 70
     1
 43
0.0
 38
3.646124999999996
 10
606.4212774053576
 20
608.3746482073017
 10
635.2662494217236
 20
608.3746482073017
 10
635.2662494217236
 20
586.9977652111401
 10
606.4212774053576
 20
586.9977652111401
  0
VIEWPORT
  5
48102
102
{ACAD_XDICTIONARY
360
5702B
102
}
330
458D3
100
AcDbEntity
 67
     1
  8
0
100
AcDbViewport
 10
128.5912307667807
 20
110.2672517513029
 30
0.0
 40
354.7658559645883
 41
183.7447629521232
 68
     1
 69
     1
 12
128.5912307667807
 22
110.2672517513029
 13
0.0
 23
0.0
 14
0.5
 24
0.5
 15
0.5
 25
0.5
 16
0.0
 26
0.0
 36
1.0
 17
0.0
 27
0.0
 37
0.0
 42
50.0
 43
0.0
 44
0.0
 45
183.7447629521232
 50
0.0
 51
0.0
 72
 20000
 90
    32800
  1

281
     0
 71
     1
 74
     0
110
0.0
120
0.0
130
0.0
111
1.0
121
0.0
131
0.0
112
0.0
122
1.0
132
0.0
 79
     0
146
0.0
  0
VIEWPORT
  5
48104
102
{ACAD_XDICTIONARY
360
5702D
102
}
330
458D3
100
AcDbEntity
 67
     1
  8
AREA1
100
AcDbViewport
 10
128.5935853097791
 20
93.57174786820314
 30
0.0
 40
205.4128293804416
 41
148.1434957364063
 68
     2
 69
     2
 12
506.9047305835454
 22
509.8214954933789
 13
0.0
 23
0.0
 14
0.25
 24
0.25
 15
0.25
 25
0.25
 16
0.0
 26
0.0
 36
1.0
 17
272.824838996967
 27
8.306349224220612
 37
23.31369335295995
 42
50.0
 43
0.0
 44
0.0
 45
296.0374318743012
 50
0.0
 51
0.0
 72
 20000
 90
    32800
  1

281
     0
 71
     1
 74
     0
110
266.8673580196576
120
8.203180508612135
130
3.646124999999996
111
1.0
121
0.0
131
0.0
112
0.0
122
1.0
132
0.0
 79
     1
146
0.0
  0
TEXT
  5
4810E
330
458D3
100
AcDbEntity
 67
     1
  8
0
100
AcDbText
 10
133.2323326534653
 20
186.9455936734827
 30
0.0
 40
5.113019999999999
  1
1485P-P2T5-T5C
100
AcDbText
  0
TEXT
  5
4810F
330
458D3
100
AcDbEntity
 67
     1
  8
0
100
AcDbText
 10
133.2323326534653
 20
178.4238936734827
 30
0.0
 40
5.113
  1
2-Port DeviceBox,
100
AcDbText
  0
TEXT
  5
566D3
330
458D3
100
AcDbEntity
 67
     1
  8
0
100
AcDbText
 10
133.3449136584272
 20
170.2051663405579
 30
0.0
 40
5.113
  1
Thin Cable
100
AcDbText
  0
ENDSEC
  0
SECTION
  2
OBJECTS
  0
DICTIONARY
  5
458CB
330
0
100
AcDbDictionary
281
     1
  3
ACAD_COLOR
350
459D8
  3
ACAD_GROUP
350
458CC
  3
ACAD_LAYOUT
350
458FB
  3
ACAD_MATERIAL
350
459D7
  3
ACAD_MLINESTYLE
350
458D9
  3
ACAD_PLOTSETTINGS
350
458FC
  3
ACAD_PLOTSTYLENAME
350
458F9
  3
ACAD_TABLESTYLE
350
46C32
  3
ACDBVARIABLEDICTIONARY
350
458E1
  3
DWGPROPS
350
57026
  0
DICTIONARY
  5
480DB
330
458C1
100
AcDbDictionary
280
     1
281
     1
  3
ACAD_LAYERFILTERS
360
480DF
  3
ACAD_LAYERSTATES
360
48105
  3
ACLYDICTIONARY
360
480DE
  0
DICTIONARY
  5
45930
330
458D6
100
AcDbDictionary
280
     1
281
     1
  3
ACAD_LAYOUTSELFREF
360
459C8
  0
DICTIONARY
  5
4592E
330
458D3
100
AcDbDictionary
280
     1
281
     1
  3
ACAD_LAYOUTSELFREF
360
459C7
  0
DICTIONARY
  5
5702B
330
48102
100
AcDbDictionary
280
     1
281
     1
  3
ACAD_XREC_ROUNDTRIP
360
5702C
  0
DICTIONARY
  5
5702D
330
48104
100
AcDbDictionary
280
     1
281
     1
  3
ACAD_XREC_ROUNDTRIP
360
5702E
  0
DICTIONARY
  5
459D8
102
{ACAD_REACTORS
330
458CB
102
}
330
458CB
100
AcDbDictionary
281
     1
  0
DICTIONARY
  5
458CC
102
{ACAD_REACTORS
330
458CB
102
}
330
458CB
100
AcDbDictionary
281
     1
  0
DICTIONARY
  5
458FB
102
{ACAD_REACTORS
330
458CB
102
}
330
458CB
100
AcDbDictionary
281
     1
  3
Layout1
350
458FE
  3
Model
350
458FD
  0
DICTIONARY
  5
459D7
102
{ACAD_REACTORS
330
458CB
102
}
330
458CB
100
AcDbDictionary
281
     1
  0
DICTIONARY
  5
458D9
102
{ACAD_REACTORS
330
458CB
102
}
330
458CB
100
AcDbDictionary
281
     1
  3
STANDARD
350
458DA
  0
DICTIONARY
  5
458FC
102
{ACAD_REACTORS
330
458CB
102
}
330
458CB
100
AcDbDictionary
281
     1
  0
ACDBDICTIONARYWDFLT
  5
458F9
102
{ACAD_REACTORS
330
458CB
102
}
330
458CB
100
AcDbDictionary
281
     1
  3
Normal
350
458FA
100
AcDbDictionaryWithDefault
340
458FA
  0
DICTIONARY
  5
46C32
102
{ACAD_REACTORS
330
458CB
102
}
330
458CB
100
AcDbDictionary
281
     1
  3
Standard
350
46C33
  0
DICTIONARY
  5
458E1
102
{ACAD_REACTORS
330
458CB
102
}
330
458CB
100
AcDbDictionary
281
     1
  3
CTABLESTYLE
350
46C39
  3
DIMADEC
350
458E2
  3
DIMASSOC
350
46C46
  3
PROJECTNAME
350
46C47
  0
XRECORD
  5
57026
102
{ACAD_REACTORS
330
458CB
102
}
330
458CB
100
AcDbXrecord
280
     1
  1
DWGPROPS COOKIE
  2

  3

  4

  6

  7

  8
TModica
  9

300
=
301
=
302
=
303
=
304
=
305
=
306
=
307
=
308
=
309
=
 40
0.1777123263888889
 41
2453042.595653843
 42
2453597.710590717
  1

 90
        0
  0
DICTIONARY
  5
480DF
102
{ACAD_REACTORS
330
480DB
102
}
330
480DB
100
AcDbDictionary
281
     1
  0
DICTIONARY
  5
48105
102
{ACAD_REACTORS
330
480DB
102
}
330
480DB
100
AcDbDictionary
281
     1
  0
DICTIONARY
  5
480DE
102
{ACAD_REACTORS
330
480DB
102
}
330
480DB
100
AcDbDictionary
281
     1
1001
ACAD
1000
<All
  0
XRECORD
  5
459C8
102
{ACAD_REACTORS
330
45930
102
}
330
45930
100
AcDbXrecord
280
     1
340
458D6
  0
XRECORD
  5
459C7
102
{ACAD_REACTORS
330
4592E
102
}
330
4592E
100
AcDbXrecord
280
     1
340
458D3
  0
XRECORD
  5
5702C
102
{ACAD_REACTORS
330
5702B
102
}
330
5702B
100
AcDbXrecord
280
     1
102
SHADEPLOT
 70
     0
  0
XRECORD
  5
5702E
102
{ACAD_REACTORS
330
5702D
102
}
330
5702D
100
AcDbXrecord
280
     1
102
SHADEPLOT
 70
     0
  0
LAYOUT
  5
458FE
102
{ACAD_XDICTIONARY
360
48133
102
}
102
{ACAD_REACTORS
330
458FB
102
}
330
458FB
100
AcDbPlotSettings
  1

  2
\\usmkevprnt001\USMKEPD0487
  4
Letter
  6

 40
7.143749713897705
 41
5.027085304260253
 42
7.14373779296875
 43
5.027069091796875
 44
215.8999938964843
 45
279.3999938964843
 46
-0.0000000000000113
 47
14.56436523858406
 48
0.0
 49
0.0
140
0.0
141
0.0
142
1.0
143
21.73966717538989
 70
   692
 72
     0
 73
     1
 74
     1
  7
acad.ctb
 75
     0
147
0.0459988642849159
148
-652.7799999999996
149
-495.2999999999999
100
AcDbLayout
  1
Layout1
 70
     1
 71
     1
 10
8.931840085394117
 20
13.38571885179438
 11
248.0681737907302
 21
198.1728846186557
 12
0.0
 22
0.0
 32
0.0
 14
25.88717061955833
 24
19.5
 34
0.0
 15
231.3
 25
192.0586136734827
 35
0.0
146
0.0
 13
0.0
 23
0.0
 33
0.0
 16
1.0
 26
0.0
 36
0.0
 17
0.0
 27
1.0
 37
0.0
 76
     0
330
458D3
331
48102
1001
ACAD_PSEXT
1000
\\usmkevprnt001\USMKEPD0487
1000
RICOH Aficio 2035 PCL 5e
1000
MKE - 7H29
1000
IKON ID: N/A FAX: N/A UNIX: N/A MAINFRAME: R5074
1070
     0
  0
LAYOUT
  5
458FD
102
{ACAD_XDICTIONARY
360
57028
102
}
102
{ACAD_REACTORS
330
458FB
102
}
330
458FB
100
AcDbPlotSettings
  1

  2
\\usmkevprnt001\USMKEPD0487
  4
Letter
  6

 40
7.143749713897705
 41
5.027085304260253
 42
7.14373779296875
 43
5.027069091796875
 44
215.8999938964843
 45
279.3999938964843
 46
69.08278724492785
 47
0.0
 48
0.0
 49
0.0
140
0.0
141
0.0
142
1.0
143
46.08643047371788
 70
 11956
 72
     0
 73
     1
 74
     1
  7
acad.ctb
 75
     0
147
0.0216983608780524
148
12526.7129110102
149
-10456.17513608382
100
AcDbLayout
  1
Model
 70
     1
 71
     0
 10
0.0
 20
0.0
 11
12.0
 21
9.0
 12
0.0
 22
0.0
 32
0.0
 14
0.0
 24
0.0
 34
0.0
 15
0.0
 25
0.0
 35
0.0
146
0.0
 13
0.0
 23
0.0
 33
0.0
 16
1.0
 26
0.0
 36
0.0
 17
0.0
 27
1.0
 37
0.0
 76
     0
330
458D6
1001
ACAD_PSEXT
1000
\\usmkevprnt001\USMKEPD0487
1000
RICOH Aficio 2035 PCL 5e
1000
MKE - 7H29
1000
IKON ID: N/A FAX: N/A UNIX: N/A MAINFRAME: R5074
1070
     0
  0
MLINESTYLE
  5
458DA
102
{ACAD_REACTORS
330
458D9
102
}
330
458D9
100
AcDbMlineStyle
  2
STANDARD
 70
     0
  3

 62
   256
 51
90.0
 52
90.0
 71
     2
 49
0.5
 62
   256
  6
BYLAYER
 49
-0.5
 62
   256
  6
BYLAYER
  0
ACDBPLACEHOLDER
  5
458FA
102
{ACAD_REACTORS
330
458F9
102
}
330
458F9
  0
ACAD_PROXY_OBJECT
  5
46C33
102
{ACAD_REACTORS
330
46C32
102
}
330
46C32
100
AcDbProxyObject
 90
      499
 91
      512
 95
   393239
 70
     0
 93
     1841
310
4214DD185B99185C9928000000000000F83F0000000000003E0FC00000000000004901028000000C1008070000C3001FDFF8000000C1003FBFF000000182007F7FE00000030400FEFFC00000060801FDFF8000000C1003FBFF000000182000000000000000C2020B0000001820100E000186003FBFF000000182007F7FE000
310
00030400FEFFC00000060801FDFF8000000C1003FBFF000000182007F7FE0000003040000000000000012404160000003040201C00030C007F7FE00000030400FEFFC00000060801FDFF8000000C1003FBFF000000182007F7FE00000030400FEFFC00000060801A
340
458CE
340
458CE
340
458CE
 94
        0
  0
DICTIONARYVAR
  5
46C39
102
{ACAD_REACTORS
330
458E1
102
}
330
458E1
100
DictionaryVariables
280
     0
  1
STANDARD
  0
DICTIONARYVAR
  5
458E2
102
{ACAD_REACTORS
330
458E1
102
}
330
458E1
100
DictionaryVariables
280
     0
  1
0
  0
DICTIONARYVAR
  5
46C46
102
{ACAD_REACTORS
330
458E1
102
}
330
458E1
100
DictionaryVariables
280
     0
  1
1
  0
DICTIONARYVAR
  5
46C47
102
{ACAD_REACTORS
330
458E1
102
}
330
458E1
100
DictionaryVariables
280
     0
  1

  0
DICTIONARY
  5
48133
330
458FE
100
AcDbDictionary
280
     1
281
     1
  3
ACAD_XREC_ROUNDTRIP
360
5702A
  3
ADSK_XREC_LAYOUTTHUMBNAIL
360
48134
  0
DICTIONARY
  5
57028
330
458FD
100
AcDbDictionary
280
     1
281
     1
  3
ACAD_XREC_ROUNDTRIP
360
57029
  0
XRECORD
  5
5702A
102
{ACAD_REACTORS
330
48133
102
}
330
48133
100
AcDbXrecord
280
     1
102
SHADEPLOT
 70
     0
102
SHADEPLOTRESLEVEL
 70
     2
102
SHADEPLOTCUSTOMDPI
 70
   300
  0
XRECORD
  5
48134
102
{ACAD_REACTORS
330
48133
102
}
330
48133
100
AcDbXrecord
280
     1
310
28000000B40000008B0000000100080000000000BC61000000000000000000000001000000000000FFFFFF0000000000FFFFFF000000000000000000000000000000000000000000000000000000000000000000330000006600000099000000CC000000FF00000000330000333300006633000099330000CC330000FF3300
310
0000660000336600006666000099660000CC660000FF66000000990000339900006699000099990000CC990000FF99000000CC000033CC000066CC000099CC0000CCCC0000FFCC000000FF000033FF000066FF000099FF0000CCFF0000FFFF000000003300330033006600330099003300CC003300FF003300003333003333
310
33006633330099333300CC333300FF33330000663300336633006666330099663300CC663300FF66330000993300339933006699330099993300CC993300FF99330000CC330033CC330066CC330099CC3300CCCC3300FFCC330000FF330033FF330066FF330099FF3300CCFF3300FFFF330000006600330066006600660099
310
006600CC006600FF00660000336600333366006633660099336600CC336600FF33660000666600336666006666660099666600CC666600FF66660000996600339966006699660099996600CC996600FF99660000CC660033CC660066CC660099CC6600CCCC6600FFCC660000FF660033FF660066FF660099FF6600CCFF6600
310
FFFF660000009900330099006600990099009900CC009900FF00990000339900333399006633990099339900CC339900FF33990000669900336699006666990099669900CC669900FF66990000999900339999006699990099999900CC999900FF99990000CC990033CC990066CC990099CC9900CCCC9900FFCC990000FF99
310
0033FF990066FF990099FF9900CCFF9900FFFF99000000CC003300CC006600CC009900CC00CC00CC00FF00CC000033CC003333CC006633CC009933CC00CC33CC00FF33CC000066CC003366CC006666CC009966CC00CC66CC00FF66CC000099CC003399CC006699CC009999CC00CC99CC00FF99CC0000CCCC0033CCCC0066CC
310
CC0099CCCC00CCCCCC00FFCCCC0000FFCC0033FFCC0066FFCC0099FFCC00CCFFCC00FFFFCC000000FF003300FF006600FF009900FF00CC00FF00FF00FF000033FF003333FF006633FF009933FF00CC33FF00FF33FF000066FF003366FF006666FF009966FF00CC66FF00FF66FF000099FF003399FF006699FF009999FF00CC
310
99FF00FF99FF0000CCFF0033CCFF0066CCFF0099CCFF00CCCCFF00FFCCFF0000FFFF0033FFFF0066FFFF0099FFFF00CCFFFF00FFFFFF00000000000D0D0D001A1A1A00282828003535350043434300505050005D5D5D006B6B6B00787878008686860093939300A1A1A100AEAEAE00BBBBBB00C9C9C900D6D6D600E4E4E400
310
F1F1F100FFFFFF0000000000000000000000000000000000000000000000000000000000000000000000000000000000E2E2E2E2E2E2E2E2E2E2E2E2E2E2E2E2E2E2E2E2E2E2E2E2E2E2E2E2E2E2E2E2E2E2E2E2E2E2E2E2E2E2E2E2E2E2E2E2E2E2E2E2E2E2E2E2E2E2E2E2E2E2E2E2E2E2E2E2E2E2E2E2E2E2E2E2E2E2E2
310
E2E2E2E2E2E2E2E2E2E2E2E2E2E2E2E2E2E2E2E2E2E2E2E2E2E2E2E2E2E2E2E2E2E2E2E2E2E2E2E2E2E2E2E2E2E2E2E2E2E2E2E2E2E2E2E2E2E2E2E2E2E2E2E2E2E2E2E2E2E2E2E2E2E2E2E2E2E2E2E2E2E2E2E2E2E2E2E2E2E2E2E2E2E2E2E2E2E2E2E2E2E2F5F5F5F5F5F5F5F5F5F5F5F5F5F5F5F5F5F5F5F5F5F5F5F5F5
310
F5F5F5F5F5F5F5F5F5F5F5F5F5F5F5F5F5F5F5F5F5F5F5F5F5F5F5F5F5F5F5F5F5F5F5F5F5F5F5F5F5F5F5F5F5F5F5F5F5F5F5F5F5F5F5F5F5F5F5F5F5F5F5F5F5F5F5F5F5F5F5F5F5F5F5F5F5F5F5F5F5F5F5F5F5F5F5F5F5F5F5F5F5F5F5F5F5F5F5F5F5F5F5F5F5F5F5F5F5F5F5F5F5F5F5F5F5F5F5F5F5F5F5F5F5F5F5
310
F5F5F5F5F5F5F5F5F5F5F5F5F5F5F5F5F5F5F5F5F5F5F5F5E2E2E2E2F5F5F5F5F5F5F5F5F5F5F5F5F5F5F5F5F5F5F5F5F5F5F5F5F5F5F5F5F5F5F5F5F5F5F5F5F5F5F5F5F5F5F5F5F5F5F5F5F5F5F5F5F5F5F5F5F5F5F5F5F5F5F5F5F5F5F5F5F5F5F5F5F5F5F5F5F5F5F5F5F5F5F5F5F5F5F5F5F5F5F5F5F5F5F5F5F5F5F5
310
F5F5F5F5F5F5F5F5F5F5F5F5F5F5F5F5F5F5F5F5F5F5F5F5F5F5F5F5F5F5F5F5F5F5F5F5F5F5F5F5F5F5F5F5F5F5F5F5F5F5F5F5F5F5F5F5F5F5F5F5F5F5F5F5F5F5F5F5F5F5F5F5F5F5F5F5F5E2E2E2E2F5F5F5F5F5F5F5F5F5F5F5F5F5F5F5F5F5F5F5F5F5F5F5F5F5F5F5F5F5F5F5F5F5F5F5F5F5F5F5F5F5F5F5F5F5F5
310
F5F5F5F5F5F5F5F5F5F5F5F5F5F5F5F5F5F5F5F5F5F5F5F5F5F5F5F5F5F5F5F5F5F5F5F5F5F5F5F5F5F5F5F5F5F5F5F5F5F5F5F5F5F5F5F5F5F5F5F5F5F5F5F5F5F5F5F5F5F5F5F5F5F5F5F5F5F5F5F5F5F5F5F5F5F5F5F5F5F5F5F5F5F5F5F5F5F5F5F5F5F5F5F5F5F5F5F5F5F5F5F5F5F5F5F5F5F5F5F5F5F5F5F5F5F5F5
310
F5F5F5E2E2E2E2F5F5F5F5F5F5F5F5F5F5F5F5F5F5F5F5F5F5F5F5F5F5F5F5F5F5F5F5F5F5F5F5F5F5F5F5F5F5F5F5F5F5F5F5F5F5F5F5F5F5F5F5F5F5F5F5F5F5F5F5F5F5F5F5F5F5F5F5F5F5F5F5F5F5F5F5F5F5F5F5F5F5F5F5F5F5F5F5F5F5F5F5F5F5F5F5F5F5F5F5F5F5F5F5F5F5F5F5F5F5F5F5F5F5F5F5F5F5F5F5
310
F5F5F5F5F5F5F5F5F5F5F5F5F5F5F5F5F5F5F5F5F5F5F5F5F5F5F5F5F5F5F5F5F5F5F5F5F5F5F5F5F5F5F5F5F5F5F5F5F5F5F5F5F5F5F5F5E2E2E2E2F5F5E2E2E2E2E2E2E2E2F5E2E2E2E2E2E2E2E2E2E2E2E2E2E2E2E2E2E2E2E2E2E2E2E2E2E2E2E2E2E2E2E2E2E2E2E2E2E2E2E2E2E2E2E2E2E2E2E2E2E2E2E2E2E2E2E2
310
E2E2E2E2E2E2E2E2E2E2E2E2E2E2E2E2E2E2E2E2E2E2E2E2E2E2E2E2E2E2E2E2E2E2E2E2E2E2E2E2E2E2E2E2E2E2E2E2E2E2E2E2E2E2E2E2E2E2E2E2E2E2E2E2E2E2E2E2E2E2E2E2E2E2E2E2E2E2E2E2E2E2E2E2E2E2E2E2E2E2E2E2E2E2E2E2E2E2F5E2E2E2E2E2E2E2E2F5F5E2E2E2E2F5F5E2F5F5F5F5F5F5F5F5E2F5F5
310
F5F5F5F5F5F5F5F5F5F5F5F5F5F5F5F5F5F5F5F5F5F5F5F5F5F5F5F5F5F5F5F5F5F5F5F5F5F5F5F5F5F5F5F5F5F5F5F5F5F5F5F5F5F5F5F5F5F5F5F5F5F5F5F5F5F5F5F5F5F5F5F5F5F5F5F5F5F5F5F5F5F5F5F5F5F5F5F5F5F5F5F5F5F5F5F5F5F5F5F5F5F5F5F5F5F5F5F5F5F5F5F5F5F5F5F5F5F5F5F5F5F5F5F5F5F5F5
310
F5F5F5F5F5F5F5F5F5F5F5F5F5F5F5F5F5F5F5F5F5F5F5E2F5F5F5F5F5F5F5F5E2F5F5E2E2E2E2F5F5E2F5F5F5F5F5F5F5F5E2F5F5F5F5F5F5F5F5F5F5F5F5F5F5F5F5F5F5F5F5F5F5F5F5F5F5F5F5F5F5F5F5F5F5F5F5F5F5F5F5F5F5F5F5F5F5F5F5F5F5F5F5F5F5F5F5F5F5F5F5F5F5F5F5F5F5F5F5F5F5F5F5F5F5F5F5
310
F5F5F5F5F5F5F5F5F5F5F5F5F5F5F5F5F5F5F5F5F5F5F5F5F5F5F5F5F5F5F5F5F5F5F5F5F5F5F5F5F5F5F5F5F5F5F5F5F5F5F5F5F5F5F5F5F5F5F5F5F5F5F5F5F5F5F5F5F5F5F5F5F5F5F5F5E2F5F5F5F5F5F5F5F5E2F5F5E2E2E2E2F5F5E2F5F5F5F5F5F5F5F5E2F5F5F5F5F5F5F5F5F5F5F5F5F5F5F5F5F5F5F5F5F5F5F5
310
F5F5F5F5F5F5F5F5F5F5F5F5F5F5F5F5F5F5F5F5F5F5F5F5F5F5F5F5F5F5F5F5F5F5F5F5F5F5F5F5F5F5F5F5F5F5F5F5F5F5F5F5F5F5F5F5F5F5F5F5F5F5F5F5F5F5F5F5F5F5F5F5F5F5F5F5F5F5F5F5F5F5F5F5F5F5F5F5F5F5F5F5F5F5F5F5F5F5F5F5F5F5F5F5F5F5F5F5F5F5F5F5F5F5F5F5F5F5F5F5F5F5F5F5F5F5F5
310
F5F5E2F5F5F5F5F5F5F5F5E2F5F5E2E2E2E2F5F5E2F5F5F5F5F5F5F5F5E2F5F5F5F5F5F5F5F5F5F5F5F5F5F5F5F5F5F5F5F5F5F5F5F5F5F5F5F5F5F5F5F5F5F5F5F5F5F5F5F5F5F5F5F5F5F5F5F5F5F5F5F5F5F5F5F5F5F5F5F5F5F5F5F5F5F5F5F5F5F5F5F5F5F5F5F5F5F5F5F5F5F5F5F5F5F5F5F5F5F5F5F5F5F5F5F5F5
310
F5F5F5F5F5F5F5F5F5F5F5F5F5F5F5F5F5F5F5F5F5F5F5F5F5F5F5F5F5F5F5F5F5F5F5F5F5F5F5F5F5F5F5F5F5F5F5F5F5F5F5F5F5F5F5E2F5F5F5F5F5F5F5F5E2F5F5E2E2E2E2F5F5E2F5F5F5F5F5F5F5F5E2F5F5F5F5F5F5F5F5F5F5F5F5F5F5F5F5F5F5F5F5F5F5F5F5F5F5F5F5F5F5F5F5F5F5F5F5F5F5F5F5F5F5F5F5
310
F5F5F5F5F5F5F5F5F5F5F5F5F5F5F5F5F5F5F5F5F5F5F5F5F5F5F5F5F5F5F5F5F5F5F5F5F5F5F5F5F5F5F5F5F5F5F5F5F5F5F5F5F5F5F5F5F5F5F5F5F5F5F5F5F5F5F5F5F5F5F5F5F5F5F5F5F5F5F5F5F5F5F5F5F5F5F5F5F5F5F5F5F5F5F5F5F5F5F5F5F5F5F5F5F5F5F5F5E2F5F5F5F5F5F5F5F5E2F5F5E2E2E2E2F5F5E2
310
F5F5F5F5F5F5F5F5E2F5F5F5F5F5F5F5F5F5F5F5F5F5F5F5F5F5F5F5F5F5F5F5F5F5F5F5F5F5F5F5F5F5F5F5F5F5F5F5F5F5F5F5F5F5F5F5F5F5F5F5F5F5F5F5F5F5F5F5F5F5F5F5F5F5F5F5F5F5F5F5F5F5F5F5F5F5F5F5F5F5F5F5F5F5F5F5F5F5F5F5F5F5F5F5F5F5F5F5F5F5F5F5F5F5F5F5F5F5F5F5F5F5F5F5F5F5F5
310
F5F5F5F5F5F5F5F5F5F5F5F5F5F5F5F5F5F5F5F5F5F5F5F5F5F5F5F5F5F5F5F5F5F5E2F5F5F5F5F5F5F5F5E2F5F5E2E2E2E2F5F5E2F5F5F5F5F5F5F5F5E2F5F5F5F5F5F5F5F5F5F5F5F5F5F5F5F5F5F5F5F5F5F5F5F5F5F5F5F5F5F5F5F5F5F5F5F5F5F5F5F5F5F5F5F5F5F5F5F5F5F5F5F5F5F5E2E2E2E2E2E2E2E2E2E2E2
310
E2E2E2E2E2E2E2E2E2E2E2E2E2E2E2E2E2E2E2E2E2E2E2E2E2E2E2E2E2E2E2E2E2E2E2E2E2E2E2E2E2E2E2E2E2E2E2F5F5F5F5F5F5F5F5F5F5F5F5F5F5F5F5F5F5F5F5F5F5F5F5F5F5F5F5F5F5F5F5F5F5F5F5F5F5F5F5E2F5F5F5F5F5F5F5F5E2F5F5E2E2E2E2F5F5E2F5F5F5F5F5F5F5F5E2F5F5F5F5F5F5F5F5F5F5F5F5
310
F5F5F5F5F5F5F5F5F5F5F5F5F5F5F5F5F5F5F5F5F5F5F5F5F5F5F5F5F5F5F5F5F5F5F5F5F5F5F5F5F5F5E2F5F5F5F5F5F5F5F5F5F5F5F5F5F5F5F5F5F5F5F5F5F5F5F5F5F5F5F5F5F5F5F5F5F5F5E2F5F5F5F5F5F5F5F5F5F5F5F5F5F5F5F5E2F5E2E2E2F5F5F5F5F5F5F5F5F5F5F5F5F5F5F5F5F5F5F5F5F5F5F5F5F5F5F5
310
F5F5F5F5F5F5F5F5F5F5F5F5F5E2F5F5F5F5F5F5F5F5E2F5F5E2E2E2E2F5F5F5F5F5F5F5F5F5F5F5E2F5F5F5F5F5F5F5F5F5F5F5F5F5F5F5F5F5F5F5F5F5F5F5F5F5F5F5F5F5F5F5F5F5F5F5F5F5F5F5F5F5F5F5F5F5F5F5F5F5F5F5F5F5F5E2F5F5F5F5F5F5F5F5F5F5F5F5F5F5F5F5F5F5F5F5F5F5F5F5F5F5F5F5F5F5F5
310
F5F5F5F5E2F5F5F5F5F5F5F5F5F5F5F5F5F5F5F5E2E2F5E2E2E2F5F5F5F5F5F5F5F5F5F5F5F5F5F5F5F5F5F5F5F5F5F5F5F5F5F5F5F5F5F5F5F5F5F5F5F5F5F5F5F5E2F5F5F5F5F5F5F5F5F5F5F5E2E2E2E2F5F5F5F5F5F5F5F5F5F5F5E2F5F5F5F5F5F5F5F5F5F5F5F5F5F5F5F5F5F5F5F5F5F5F5F5F5F5F5F5F5F5F5F5F5
310
F5F5F5F5F5F5F5F5F5F5F5F5F5F5F5F5F5F5F5F5F5E2F5F5F5F5F5F5F5F5F5F5F5F5F5F5F5F5F5F5F5F5F5F5F5F5F5F5F5F5F5F5F5F5F5F5F5E2F5F5F5F5F5F5F5F5F5F5F5F5F5F5F5F5E2F5F5E2E2F5F5F5F5F5F5F5F5F5F5F5F5F5F5F5F5F5F5F5F5F5F5F5F5F5F5F5F5F5F5F5F5F5F5F5F5F5F5F5F5E2F5F5F5F5F5F5F5
310
F5F5F5F5E2E2E2E2F5F5F5F5F5F5F5F5F5F5F5E2F5F5F5F5F5F5F5F5F5F5F5F5F5F5F5F5F5F5F5F5F5F5F5F5F5F5F5F5F5F5F5F5F5F5F5F5F5F5F5F5F5F5F5F5F5F5F5F5F5F5F5F5F5F5E2F5F5F5F5F5F5F5F5F5F5F5F5F5F5F5F5F5F5F5F5F5F5F5F5F5F5F5F5F5F5F5F5F5F5F5E2F5F5F5F5F5F5F5F5F5F5F5F5F5F5F5F5
310
E2F5E2E2E2F5F5F5F5F5F5F5F5F5F5F5F5F5F5F5F5F5F5F5F5F5F5F5F5F5F5F5F5F5F5F5F5F5F5F5F5F5F5F5F5E2F5F5F5F5F5F5F5F5F5F5F5E2E2E2E2F5F5F5F5F5F5F5F5F5F5F5E2F5F5F5F5F5F5F5F5F5F5F5F5F5F5F5F5F5F5F5F5F5F5F5F5F5F5F5F5F5F5F5F5F5F5F5F5F5F5F5F5F5F5F5F5F5F5F5F5F5F5F5F5F5F5
310
E2F5F5F5F5F5F5F5F5F5F5F5F5F5F5F5F5F5F5F5F5F5F5F5F5F5F5F5F5F5F5F5F5F5F5F5E2F5F5F5F5F5F5F5F5F5F5F5F5F5F5F5F5E2F5E2E2E2F5F5F5F5F5F5F5F5F5F5F5F5F5F5F5F5F5F5F5F5F5F5F5F5F5F5F5F5F5F5F5F5F5F5F5F5F5F5F5F5E2F5F5F5F5F5F5F5F5F5F5F5E2E2E2E2F5F5F5F5F5F5F5F5F5F5F5E2F5
310
F5F5F5F5F5F5F5F5F5F5F5F5F5F5F5F5F5F5F5F5F5F5F5F5F5F5F5F5F5F5F5F5F5F5F5F5F5F5F5F5F5F5F5F5F5F5F5E2E2E2E2E2E2E2F5F5F5F5F5F5F5F5F5F5F5F5F5F5F5F5F5F5F5F5F5F5F5F5F5F5F5F5F5F5F5F5F5F5F5E2E2E2E2E2E2E2F5F5F5F5F5F5F5F5F5F5E2F5E2E2E2F5F5F5F5F5F5F5F5F5F5F5F5F5F5F5F5
310
F5F5F5F5F5F5F5F5F5F5F5F5F5F5F5F5F5F5F5F5F5F5F5F5E2F5F5F5F5F5F5F5F5F5F5F5E2E2E2E2F5F5F5F5F5F5F5F5F5F5F5E2F5F5F5F5F5F5F5F5F5F5F5F5F5F5F5F5F5F5F5F5F5F5F5F5F5F5F5F5F5F5F5F5F5F5F5F5F5F5F5F5F5F5F5F5F5F5E2E2E2F5F5E2E2F5E2F5F5F5F5F5F5F5F5F5F5F5F5F5F5F5F5F5F5F5F5
310
F5F5F5F5F5F5F5F5F5F5F5F5F5F5F5E2F5E2E2F5F5E2E2E2F5F5F5F5F5F5F5F5E2F5F5E2E2F5F5F5F5F5F5F5F5F5F5F5F5F5F5F5F5F5F5F5F5F5F5F5F5F5F5F5F5F5F5F5F5F5F5F5F5F5F5F5F5E2F5F5F5F5F5F5F5F5F5F5F5E2E2E2E2F5F5F5F5F5F5F5F5F5F5F5E2F5F5F5F5F5F5F5F5F5F5F5F5F5F5F5F5F5F5F5F5F5F5
310
F5F5F5F5F5F5F5F5F5F5F5F5F5F5F5F5F5F5F5F5F5F5F5F5E2E2E2E2E2E2E2E2E2F5F5F5F5F5F5F5F5F5F5F5F5F5F5F5F5F5F5F5F5F5F5F5F5F5F5F5F5F5F5F5F5F5F5F5E2E2E2E2E2E2E2E2E2F5F5F5F5F5F5F5F5E2F5F5F5F5F5F5F5F5F5F5F5F5F5F5F5F5F5F5F5F5F5F5F5F5F5F5F5F5F5F5F5F5F5F5F5F5F5F5F5F5F5
310
F5F5F5E2F5F5F5F5F5F5F5F5F5F5F5E2E2E2E2F5F5F5F5F5F5F5F5F5F5F5E2F5F5F5F5F5F5F5F5F5F5F5F5F5F5F5F5F5F5F5F5F5F5F5F5F5F5F5F5F5F5F5F5F5F5F5F5F5F5F5F5F5F5F5F5F5F5E2E2E2E2E2E2E2E2E2F5F5F5F5F5F5F5F5F5F5F5F5F5F5F5F5F5F5F5F5F5F5F5F5F5F5F5F5F5F5F5F5F5F5F5E2E2E2E2E2E2
310
E2E2E2F5F5F5F5F5F5F5F5E2F5E2E2E2F5F5F5F5F5F5F5F5F5F5F5F5F5F5F5F5F5F5F5F5F5F5F5F5F5F5F5F5F5F5F5F5F5F5F5F5F5F5F5F5E2F5F5F5F5F5F5F5F5F5F5F5E2E2E2E2F5F5F5F5F5F5F5F5F5F5F5E2F5F5F5F5F5F5F5F5F5F5F5F5F5F5F5F5F5F5F5F5F5F5F5F5F5F5F5F5F5F5F5F5F5F5F5F5F5F5F5F5F5F5F5
310
F5F5F5E2E2F5F5F5E2E2F5E2F5F5F5F5F5F5F5F5F5F5F5F5F5F5F5F5F5F5F5F5F5F5F5F5F5F5F5F5F5F5F5F5F5F5F5E2F5E2E2F5F5F5E2E2F5F5F5F5F5F5F5F5E2F5E2E2E2F5F5F5F5F5F5F5F5F5F5F5F5F5F5F5F5F5F5F5F5F5F5F5F5F5F5F5F5F5F5F5F5F5F5F5F5F5F5F5F5E2F5F5F5F5F5F5F5F5F5F5F5E2E2E2E2F5F5
310
E2F5F5F5F5F5F5F5F5E2F5F5F5F5F5F5F5F5F5F5F5F5F5F5F5F5F5F5F5F5F5F5F5F5F5F5F5F5F5F5F5F5F5F5F5F5F5F5F5F5F5F5F5F5F5F5E2E2E2F5F5E2E2F5E2F5F5F5F5F5F5F5F5F5F5F5F5F5F5F5F5F5F5F5F5F5F5F5F5F5F5F5F5F5F5F5F5F5F5F5E2F5E2E2F5F5E2E2E2F5F5F5F5F5F5F5F5E2F5E2E2E2F5F5F5F5F5
310
F5F5F5F5F5F5F5F5F5F5F5F5F5F5F5F5F5F5F5F5F5F5F5F5F5F5F5F5F5F5F5F5F5F5F5E2F5F5F5F5F5F5F5F5E2F5F5E2E2E2E2F5F5E2F5F5F5F5F5F5F5F5E2F5F5F5F5F5F5F5F5F5F5F5F5F5F5F5F5F5F5F5F5F5F5F5F5F5F5F5F5F5F5F5F5F5F5F5F5F5F5F5F5F5F5F5F5F5F5E2E2E2E2E2E2E2E2E2F5F5F5F5F5F5F5F5F5
310
F5F5F5F5F5F5F5F5F5F5F5F5F5F5F5F5F5F5F5F5F5F5F5F5F5F5E2E2E2E2E2E2E2E2E2F5F5F5F5F5F5F5F5E2F5F5F5F5F5F5F5F5F5F5F5F5F5F5F5F5F5F5F5F5F5F5F5F5F5F5F5F5F5F5F5F5F5F5F5F5F5F5F5F5F5F5F5F5E2F5F5F5F5F5F5F5F5E2F5F5E2E2E2E2F5F5E2F5F5F5F5F5F5F5F5E2F5F5F5F5F5F5F5F5F5F5F5
310
F5F5F5F5F5F5F5F5F5F5F5F5F5F5F5F5F5F5F5F5F5F5F5F5F5F5F5F5F5F5F5F5F5F5F5E2E2E2E2E2E2E2E2E2F5F5F5F5F5F5F5F5F5F5F5F5F5F5F5F5F5F5F5F5F5F5F5F5F5F5F5F5F5F5F5F5F5F5F5E2E2E2E2E2E2E2E2E2F5F5F5F5F5F5F5F5E2F5E2E2E2F5F5F5F5F5F5F5F5F5F5F5F5F5F5F5F5F5F5F5F5F5F5F5F5F5F5
310
F5F5F5F5F5F5F5F5F5F5F5F5F5F5E2F5F5F5F5F5F5F5F5E2F5F5E2E2E2E2F5F5E2F5F5F5F5F5F5F5F5E2F5F5F5F5F5F5F5F5F5F5F5F5F5F5F5F5F5F5F5F5F5F5F5F5F5F5F5F5F5F5F5F5F5F5F5F5F5F5F5F5F5F5F5F5F5F5E2E2E2E2E2E2E2E2E2F5F5F5F5F5F5F5F5F5F5F5F5F5F5F5F5F5F5F5F5F5F5F5F5F5F5F5F5F5F5
310
F5F5F5F5F5E2E2E2E2E2E2E2E2E2F5F5F5F5F5F5F5F5E2F5E2E2E2F5F5F5F5F5F5F5F5F5F5F5F5F5F5F5F5F5F5F5F5F5F5F5F5F5F5F5F5F5F5F5F5F5F5F5F5F5F5F5F5E2F5F5F5F5F5F5F5F5E2F5F5E2E2E2E2F5F5E2F5F5F5F5F5F5F5F5E2F5F5F5F5F5F5F5F5F5F5F5F5F5F5F5F5F5F5F5F5F5F5F5F5F5F5F5F5F5F5F5F5
310
F5F5F5F5F5F5F5F5F5F5F5F5F5F5F5F5F5F5F5F5F5F5E2F5F5F5F5F5F5F5F5F5F5F5F5F5F5F5F5F5F5F5F5F5F5F5F5F5F5F5F5F5F5F5F5F5F5F5E2F5F5F5F5F5F5F5F5F5F5F5F5F5F5F5F5E2F5E2E2E2F5F5F5F5F5F5F5F5F5F5F5F5F5F5F5F5F5F5F5F5F5F5F5F5F5F5F5F5F5F5F5F5F5F5F5F5F5F5F5F5E2F5F5F5F5F5F5
310
F5F5E2F5F5E2E2E2E2F5F5E2F5F5F5F5F5F5F5F5E2F5F5F5F5F5F5F5F5F5F5F5F5F5F5F5F5F5F5F5F5F5F5F5F5F5F5F5F5F5F5F5F5F5F5F5F5F5F5F5F5F5F5F5F5F5F5F5F5F5F5F5F5F5F5E2F5F5F5F5F5F5F5F5F5F5F5F5F5F5F5F5F5F5F5F5F5F5F5F5F5F5F5F5F5F5F5F5F5F5F5E2F5F5F5F5F5F5F5F5F5F5F5F5F5F5F5
310
F5E2F5E2E2F5F5F5F5F5F5F5F5F5F5F5F5F5F5F5F5F5F5F5F5F5F5F5F5F5F5F5F5F5F5F5F5F5F5F5F5F5F5F5F5F5E2F5F5F5F5F5F5F5F5E2F5F5E2E2E2E2F5F5E2F5F5F5F5F5F5F5F5E2F5F5F5F5F5F5F5F5F5F5F5F5F5F5F5F5F5F5F5F5F5F5F5F5F5F5F5F5F5F5F5F5F5F5F5F5F5F5F5F5F5F5F5F5F5F5F5F5F5F5F5F5F5
310
F5E2E2E2E2E2E2E2E2E2E2E2E2E2E2E2E2E2E2E2E2E2E2E2E2E2E2E2E2E2E2E2E2E2E2E2E2E2F5F5F5F5F5F5F5F5F5F5F5F5F5F5F5F5E2F5E2E2E2F5F5F5F5F5F5F5F5F5F5F5F5F5F5F5F5F5F5F5F5F5F5F5F5F5F5F5F5F5F5F5F5F5F5F5F5F5F5F5F5E2F5F5F5F5F5F5F5F5E2F5F5E2E2E2E2F5F5E2F5F5F5F5F5F5F5F5E2
310
F5F5F5F5F5F5F5F5F5F5F5F5F5F5F5F5F5F5F5F5F5F5F5F5F5F5F5F5F5F5F5F5F5F5F5F5F5F5F5F5F5F5F5F5F5F5F5F5F5F5F5F5F5F5E2F5F5F5F5F5F5F5F5F5F5F5F5F5F5F5F5F5F5F5F5F5F5F5F5F5F5F5F5F5F5F5F5F5F5F5E2F5F5F5F5F5F5F5F5F5F5F5F5F5F5F5F5E2F5E2E2E2F5F5F5F5F5F5F5F5F5F5F5F5F5F5F5
310
F5F5F5F5F5F5F5F5F5F5F5F5F5F5F5F5F5F5F5F5F5F5F5F5F5E2F5F5F5F5F5F5F5F5E2F5F5E2E2E2E2F5F5E2F5F5F5F5F5F5F5F5E2F5F5F5F5F5F5F5F5F5F5F5F5F5F5F5F5F5F5F5F5F5F5F5F5F5F5F5F5F5F5F5F5F5F5F5F5F5F5F5F5F5F5F5F5F5F5F5F5F5F5F5F5F5F5E2F5F5F5F5F5F5F5F5F5F5F5F5F5F5F5F5F5F5F5
310
F5F5F5F5F5F5F5F5F5F5F5F5F5F5F5F5E2F5F5F5F5F5F5F5F5F5F5F5F5F5F5F5E2E2F5E2E2E2F5F5F5F5F5F5F5F5F5F5F5F5F5F5F5F5F5F5F5F5F5F5F5F5F5F5F5F5F5F5F5F5F5F5F5F5F5F5F5F5E2F5F5F5F5F5F5F5F5E2F5F5E2E2E2E2F5F5E2F5F5F5F5F5F5F5F5E2F5F5F5F5F5F5F5F5F5F5F5F5F5F5F5F5F5F5F5F5F5
310
F5F5F5F5F5F5F5F5F5F5F5F5F5F5F5F5F5F5F5F5F5F5F5F5F5F5F5F5F5F5F5F5F5E2F5F5F5F5F5F5F5F5F5F5F5F5F5F5F5F5F5F5F5F5F5F5F5F5F5F5F5F5F5F5F5F5F5F5F5E2F5F5F5F5F5F5F5F5F5F5F5F5F5F5F5F5E2F5E2E2E2F5F5F5F5F5F5F5F5F5F5F5F5F5F5F5F5F5F5F5F5F5F5F5F5F5F5F5F5F5F5F5F5F5F5F5F5
310
F5F5F5F5E2F5F5F5F5F5F5F5F5E2F5F5E2E2E2E2F5F5E2F5F5F5F5F5F5F5F5E2F5F5F5F5F5F5F5F5F5F5F5F5F5F5F5F5F5F5F5F5F5F5F5F5F5F5F5F5F5F5F5F5F5F5F5F5F5F5F5F5F5F5F5F5F5F5F5F5F5F5F5F5F5F5E2E2E2E2E2E2E2E2E2E2E2E2E2E2E2E2E2E2E2E2E2E2E2E2E2E2E2E2E2E2E2E2E2E2E2E2E2E2E2E2E2
310
E2E2E2E2E2E2E2E2E2E2E2E2E2E2E2E2E2F5F5F5F5F5F5F5F5F5F5F5F5F5F5F5F5F5F5F5F5F5F5F5F5F5F5F5F5F5F5F5F5F5F5F5F5F5F5F5F5E2F5F5F5F5F5F5F5F5E2F5F5E2E2E2E2F5F5E2F5F5F5F5F5F5F5F5E2F5F5F5F5F5F5F5F5F5F5F5F5F5F5F5F5F5F5F5F5F5F5F5F5F5F5F5F5F5F5F5F5F5F5F5F5F5F5F5F5F5F5
310
F5F5F5F5F5F5F5F5F5F5F5F5F5F5F5F5F5F5F5F5F5F5F5F5F5F5F5F5F5F5F5F5F5F5F5F5F5F5F5F5F5F5F5F5F5F5F5F5F5F5F5F5F5F5F5F5F5F5F5F5F5F5F5F5F5F5F5F5F5F5F5F5F5F5F5F5F5F5F5F5F5F5F5F5F5F5F5F5F5F5F5F5F5F5F5F5F5F5F5F5F5F5F5F5F5F5F5F5F5F5E2F5F5F5F5F5F5F5F5E2F5F5E2E2E2E2F5
310
F5E2F5F5F5F5F5F5F5F5E2F5F5F5F5F5F5F5F5F5F5F5F5F5F5F5F5F5F5F5F5F5F5F5F5F5F5F5F5F5F5F5F5F5F5F5F5F5F5F5F5F5F5F5F5F5F5F5F5F5F5F5F5F5F5F5F5F5F5F5F5F5F5F5F5F5F5F5F5F5F5F5F5F5F5F5F5F5F5F5F5F5F5F5F5F5F5F5F5F5F5F5F5F5F5F5F5F5F5F5F5F5F5F5F5F5F5F5F5F5F5F5F5F5F5F5F5
310
F5F5F5F5F5F5F5F5F5F5F5F5F5F5F5F5F5F5F5F5F5F5F5F5F5F5F5F5F5F5F5F5F5F5F5F5E2F5F5F5F5F5F5F5F5E2F5F5E2E2E2E2F5F5E2F5F5F5F5F5F5F5F5E2F5F5F5F5F5F5F5F5F5F5F5F5F5F5F5F5F5F5F5F5F5F5F5F5F5F5F5F5F5F5F5F5F5F5F5F5F5F5F5F5F5F5F5F5F5F5F5F5F5F5F5F5F5F5F5F5F5F5F5F5F5F5F5
310
F5F5F5F5F5F5F5F5F5F5F5F5F5F5F5F5F5F5F5F5F5F5F5F5F5F5F5F5F5F5F5F5F5F5F5F5F5F5F5F5F5F5F5F5F5F5F5F5F5F5F5F5F5F5F5F5F5F5F5F5F5F5F5F5F5F5F5F5F5F5F5F5F5F5F5F5F5F5F5F5F5F5F5F5F5F5F5F5F5E2F5F5F5F5F5F5F5F5E2F5F5E2E2E2E2F5F5E2F5F5F5F5F5F5F5F5E2F5F5F5F5F5F5F5F5F5F5
310
F5F5F5F5F5F5F5F5F5F5F5F5F5F5F5F5F5F5F5F5F5F5F5F5F5F5F5F5F5F5F5F5F5F5F5F5F5F5F5F5F5F5F5F5F5F5F5F5F5F5F5F5F5F5F5F5F5F5F5F5F5F5F5F5F5F5F5F5F5F5F5F5F5F5F5F5F5F5F5F5F5F5F5F5F5F5F5F5F5F5F5F5F5F5F5F5F5F5F5F5F5F5F5F5F5F5F5F5F5F5F5F5F5F5F5F5F5F5F5F5F5F5F5F5F5F5F5
310
F5F5F5F5F5F5F5F5F5F5F5F5F5F5F5E2F5F5F5F5F5F5F5F5E2F5F5E2E2E2E2F5F5E2F5F5F5F5F5F5F5F5E2F5F5F5F5F5F5F5F5F5F5F5F5F5F5F5F5F5F5F5F5F5F5F5F5F5F5F5F5F5F5F5F5F5F5F5F5F5F5F5F5F5F5F5F5F5F5F5F5F5F5F5F5F5F5F5F5F5F5F5F5F5F5F5F5F5F5F5F5F5F5F5F5F5F5F5F5F5F5F5F5F5F5F5F5
310
F5F5F5F5F5F5F5F5F5F5F5F5F5F5F5F5F5F5F5F5F5F5F5F5F5F5F5F5F5F5F5F5F5F5F5F5F5F5F5F5F5F5F5F5F5F5F5F5F5F5F5F5F5F5F5F5F5F5F5F5F5F5F5F5F5F5F5F5E2F5F5F5F5F5F5F5F5E2F5F5E2E2E2E2F5F5F5F5F5F5F5F5F5F5F5E2F5F5F5F5F5F5F5F5F5F5F5F5F5F5F5F5F5F5F5F5F5F5F5F5F5F5F5F5F5F5F5
310
F5F5F5F5F5F5F5F5F5F5F5F5F5F5F5F5F5F5F5F5F5F5F5F5F5F5F5F5F5F5F5F5F5F5F5F5F5F5F5F5F5F5F5F5F5F5F5F5F5F5F5F5F5F5F5F5F5F5F5F5F5F5F5F5F5F5F5F5F5F5F5F5F5F5F5F5F5F5F5F5F5F5F5F5F5F5F5F5F5F5F5F5F5F5F5F5F5F5F5F5F5F5F5F5F5F5F5F5F5F5F5F5F5F5F5F5F5F5F5F5F5E2F5F5F5F5F5
310
F5F5F5F5F5F5E2E2E2E2F5F5F5F5F5F5F5F5F5F5F5E2F5F5F5F5F5F5F5F5F5F5F5F5F5F5F5F5F5F5F5F5F5F5F5F5F5F5F5F5F5F5F5F5F5F5F5F5F5F5F5F5F5F5F5F5F5F5F5F5F5F5F5F5F5F5F5F5F5F5F5F5F5F5F5F5F5F5F5F5F5F5F5F5F5F5F5F5F5F5F5F5F5F5F5F5F5F5F5F5F5F5F5F5F5F5F5F5F5F5F5F5F5F5F5F5F5
310
F5F5F5F5F5F5F5F5F5F5F5F5F5F5F5F5F5F5F5F5F5F5F5F5F5F5F5F5F5F5F5F5F5F5F5F5F5F5F5F5F5F5F5F5F5F5F5E2F5F5F5F5F5F5F5F5F5F5F5E2E2E2E2F5F5F5F5F5F5F5F5F5F5F5E2F5F5F5F5F5F5F5F5F5F5F5F5F5F5F5F5F5F5F5F5F5F5F5F5F5F5F5F5F5F5F5F5F5F5F5F5F5F5F5F5F5F5F5F5F5F5F5F5F5F5F5F5
310
F5F5F5F5F5F5F5F5F5F5F5F5F5F5F5F5F5F5F5F5F5F5F5F5F5F5F5F5F5F5F5F5F5F5F5F5F5F5F5F5F5F5F5F5F5F5F5F5F5F5F5F5F5F5F5F5F5F5F5F5F5F5F5F5F5F5F5F5F5F5F5F5F5F5F5F5F5F5F5F5F5F5F5F5F5F5F5F5F5F5F5F5F5F5F5F5F5F5F5F5E2F5F5F5F5F5F5F5F5F5F5F5E2E2E2E2F5F5F5F5F5F5F5F5F5F5F5
310
E2F5F5F5F5F5F5F5F5F5F5F5F5F5F5F5F5F5F5F5F5F5F5F5F5F5F5F5F5F5F5F5F5F5F5F5F5F5F5F5F5F5F5F5F5F5F5F5F5F5F5F5F5F5F5F5F5F5F5F5F5F5F5F5F5F5F5F5F5F5F5F5F5F5F5F5F5F5F5F5F5F5F5F5F5F5F5F5F5F5F5F5F5F5F5F5F5F5F5F5F5F5F5F5F5F5F5F5F5F5F5F5F5F5F5F5F5F5F5F5F5F5F5F5F5F5F5
310
F5F5F5F5F5F5F5F5F5F5F5F5F5F5F5F5F5F5F5F5F5F5F5F5F5F5E2F5F5F5F5F5F5F5F5F5F5F5E2E2E2E2F5F5F5F5F5F5F5F5F5F5F5E2F5F5F5F5F5F5F5F5F5F5F5F5F5F5F5F5F5F5F5F5F5F5F5F5F5F5F5F5F5F5F5F5F5F5F5F5F5F5F5F5F5F5F5F5F5F5F5F5F5F5F5F5F5F5F5F5F5F5F5F5F5F5F5F5F5F5F5F5F5F5F5F5F5
310
F5F5F5F5F5F5F5F5F5F5F5F5F5F5F5F5F5F5F5F5F5F5F5F5F5F5F5F5F5F5F5F5F5F5F5F5F5F5F5F5F5F5F5F5F5F5F5F5F5F5F5F5F5F5F5F5F5F5F5F5F5F5F5F5F5F5F5F5F5F5F5F5F5F5F5F5F5F5F5E2F5F5F5F5F5F5F5F5F5F5F5E2E2E2E2F5F5F5F5F5F5F5F5F5F5F5E2F5F5F5F5F5F5F5F5F5F5F5F5F5F5F5F5F5F5F5F5
310
F5F5F5F5F5F5F5F5F5F5F5F5F5F5F5F5F5F5F5F5F5F5F5F5F5F5F5F5F5F5F5F5F5F5F5F5F5F5F5F5F5F5F5F5F5F5F5F5F5F5F5F5F5F5F5F5F5F5F5F5F5F5F5F5F5F5F5F5F5F5F5F5F5F5F5F5F5F5F5F5F5F5F5F5F5F5F5F5F5F5F5F5F5F5F5F5F5F5F5F5F5F5F5F5F5F5F5F5F5F5F5F5F5F5F5F5F5F5F5F5F5F5F5F5F5F5F5
310
F5F5F5F5F5E2F5F5F5F5F5F5F5F5F5F5F5E2E2E2E2F5F5F5F5F5F5F5F5F5F5F5E2F5F5F5F5F5F5F5F5F5F5F5F5F5F5F5F5F5F5F5F5F5F5F5F5F5F5F5F5F5F5F5F5F5F5F5F5F5F5F5F5F5F5F5F5F5F5F5F5F5F5F5F5F5F5F5F5F5F5F5F5F5F5F5F5F5F5F5F5F5F5F5F5F5F5F5F5F5F5F5F5F5F5F5F5F5F5F5F5F5F5F5F5F5F5
310
F5F5F5F5F5F5F5F5F5F5F5F5F5F5F5F5F5F5F5F5F5F5F5F5F5F5F5F5F5F5F5F5F5F5F5F5F5F5F5F5F5F5F5F5F5F5F5F5F5F5F5F5F5F5F5F5F5F5E2F5F5F5F5F5F5F5F5F5F5F5E2E2E2E2F5F5F5F5F5F5F5F5F5F5F5E2F5F5F5F5F5F5F5F5F5F5F5F5F5F5F5F5F5F5F5F5F5F5F5F5F5F5F5F5F5F5F5F5F5F5F5F5F5F5F5F5F5
310
F5F5F5F5F5F5F5F5F5F5F5F5F5F5F5F5F5F5F5F5F5F5F5F5F5F5F5F5F5F5F5F5F5F5F5F5F5F5F5F5F5F5F5F5F5F5F5F5F5F5F5F5F5F5F5F5F5F5F5F5F5F5F5F5F5F5F5F5F5F5F5F5F5F5F5F5F5F5F5F5F5F5F5F5F5F5F5F5F5F5F5F5F5F5F5F5F5F5F5F5F5F5F5F5F5F5F5F5F5F5F5E2F5F5F5F5F5F5F5F5F5F5F5E2E2E2E2
310
F5F5F5F5F5F5F5F5F5F5F5E2F5F5F5F5F5F5F5F5F5F5F5F5F5F5F5F5F5F5F5F5F5F5F5F5F5F5F5F5F5F5F5F5F5F5F5F5F5F5F5F5F5F5F5F5F5F5F5F5F5F5F5F5F5F5F5F5F5F5F5F5F5F5F5F5F5F5F5F5F5F5F5F5F5F5F5F5F5F5F5F5F5F5F5F5F5F5F5F5F5F5F5F5F5F5F5F5F5F5F5F5F5F5F5F5F5F5F5F5F5F5F5F5F5F5F5
310
F5F5F5F5F5F5F5F5F5F5F5F5F5F5F5F5F5F5F5F5F5F5F5F5F5F5F5F5F5F5F5F5F5F5F5F5F5E2F5F5F5F5F5F5F5F5F5F5F5E2E2E2E2F5F5F5F5F5F5F5F5F5F5F5E2F5F5F5F5F5F5F5F5F5F5F5F5F5F5F5F5F5F5F5F5F5F5F5F5F5F5F5F5F5F5F5F5F5F5F5F5F5F5F5F5F5F5F5F5F5F5F5F5F5F5F5F5F5F5F5F5F5F5F5F5F5F5
310
F5F5F5F5F5F5F5F5F5F5F5F5F5F5F5F5F5F5F5F5F5F5F5F5F5F5F5F5F5F5F5F5F5F5F5F5F5F5F5F5F5F5F5F5F5F5F5F5F5F5F5F5F5F5F5F5F5F5F5F5F5F5F5F5F5F5F5F5F5F5F5F5F5F5F5F5F5F5F5F5F5F5F5F5F5F5F5F5F5F5E2F5F5F5F5F5F5F5F5F5F5F5E2E2E2E2F5F5E2F5F5F5F5F5F5F5F5E2F5F5F5F5F5F5F5F5F5
310
F5F5F5F5F5F5F5F5F5F5F5F5F5F5F5F5F5F5F5F5F5F5F5F5F5F5F5F5E2E2F5F5F5F5F5F5F5F5F5F5F5F5F5F5F5F5F5F5F5F5F5F5F5F5F5F5F5F5F5F5F5F5F5F5F5F5F5F5F5F5F5F5F5F5F5F5F5F5F5F5F5F5F5F5F5F5F5F5F5F5F5F5F5F5F5F5F5F5F5F5F5F5F5F5F5F5F5F5F5F5F5F5F5F5F5F5F5F5F5F5F5F5F5F5F5F5F5
310
F5F5F5F5F5F5F5F5F5F5F5F5F5F5F5F5E2F5F5F5F5F5F5F5F5E2F5F5E2E2E2E2F5F5E2F5F5F5F5F5F5F5F5E2F5F5F5F5F5F5F5F5F5F5F5F5F5F5F5F5F5F5F5F5F5F5F5F5F5F5F5F5F5F5F5F5F5F5F5F5F5E2E2E2F5F5F5F5F5F5F5F5F5F5F5F5F5F5F5F5F5F5F5F5F5F5F5F5F5F5F5F5F5F5F5F5F5F5F5F5F5F5F5F5F5F5F5
310
F5F5F5F5F5F5F5F5F5F5F5F5F5F5F5F5F5F5F5F5F5F5F5F5F5F5F5F5F5F5F5F5F5F5F5F5F5F5F5F5F5F5F5F5F5F5F5F5F5F5F5F5F5F5F5F5F5F5F5F5F5F5F5F5F5F5F5F5F5E2F5F5F5F5F5F5F5F5E2F5F5E2E2E2E2F5F5E2F5F5F5F5F5F5F5F5E2F5F5F5F5F5F5F5F5F5F5F5F5F5F5F5F5F5F5F5F5F5F5F5F5F5F5F5F5F5F5
310
F5F5F5F5F5F5F5E2E2E2F5F5F5F5F5F5F5F5F5F5F5F5F5F5F5F5F5F5F5F5F5F5F5F5F5F5F5F5F5F5F5F5F5F5F5F5F5F5F5F5F5F5F5F5F5F5F5F5F5F5F5F5F5F5F5F5F5F5F5F5F5F5F5F5F5F5F5F5F5F5F5F5F5F5F5F5F5F5F5F5F5F5F5F5F5F5F5F5F5F5F5F5F5F5F5F5F5F5F5F5F5F5F5F5F5F5F5F5F5F5F5F5E2F5F5F5F5
310
F5F5F5F5E2F5F5E2E2E2E2F5F5E2F5F5F5F5F5F5F5F5E2F5F5F5F5F5F5F5F5F5F5F5F5F5F5F5F5F5F5F5F5F5F5F5F5F5F5F5F5F5F5F5F5F5F5F5F5F5E2E2E2F5F5F5F5F5F5F5F5F5F5F5F5F5F5F5F5F5F5F5F5F5F5F5F5F5F5F5F5F5F5F5F5F5F5F5F5F5F5F5F5F5F5F5F5F5F5F5F5F5F5F5F5F5F5F5F5F5F5F5F5F5F5F5F5
310
F5F5F5F5F5F5F5F5F5F5F5F5F5F5F5F5F5F5F5F5F5F5F5F5F5F5F5F5F5F5F5F5F5F5F5F5F5F5F5F5F5F5F5F5F5F5F5F5E2F5F5F5F5F5F5F5F5E2F5F5E2E2E2E2F5F5E2F5F5F5F5F5F5F5F5E2F5F5F5F5F5F5F5F5F5F5F5F5F5F5F5F5F5F5F5F5F5F5F5F5F5F5F5F5F5F5F5F5F5F5F5F5F5E2E2E2E2E2E2E2E2E2E2E2E2E2E2
310
E2E2E2E2E2E2E2E2E2E2E2E2E2E2E2E2E2E2E2E2E2E2E2E2E2E2E2E2E2E2E2E2E2E2E2E2E2E2E2E2E2E2E2E2E2E2E2E2E2E2E2E2E2E2E2E2E2E2E2E2E2E2E2E2E2E2E2E2E2F5F5F5F5F5F5F5F5F5F5F5F5F5F5F5F5F5F5F5F5F5F5F5F5F5F5F5F5F5F5F5F5E2F5F5F5F5F5F5F5F5E2F5F5E2E2E2E2F5F5E2F5F5F5F5F5F5F5
310
F5E2F5F5F5F5F5F5F5F5F5F5F5F5F5F5F5F5F5F5F5F5F5F5F5F5F5F5F5F5F5F5F5F5F5F5F5F5F5E2E2E2F5E2F5F5F5F5F5F5F5F5F5F5F5F5E2E2E2E2E2E2E2E2E2E2E2F5F5F5F5F5F5F5F5F5F5F5F5F5F5F5E2E2E2E2E2E2E2E2E2E2E2F5F5F5F5F5F5F5F5F5F5F5F5F5F5F5F5F5F5F5F5F5F5F5F5F5F5E2E2F5F5F5F5F5F5
310
F5F5F5F5F5F5F5F5F5F5F5F5F5F5F5F5F5F5F5F5F5F5F5F5F5F5F5E2F5F5F5F5F5F5F5F5E2F5F5E2E2E2E2F5F5E2F5F5F5F5F5F5F5F5E2F5F5F5F5F5F5F5F5F5F5F5F5F5F5F5F5F5F5F5F5F5F5F5F5F5F5F5F5F5F5F5F5F5F5F5F5F5E2E2E2F5E2F5F5F5F5F5F5F5F5F5F5F5F5E2E2E2E2E2E2E2F5E2E2F5F5F5F5F5F5F5F5
310
F5F5F5F5F5F5F5F5F5E2E2F5E2E2E2E2E2E2E2E2E2E2E2E2E2E2E2E2E2E2E2E2E2E2E2E2E2E2F5F5F5F5F5F5F5E2E2F5F5F5F5F5F5F5F5F5F5F5F5F5F5F5F5F5F5F5F5F5F5F5F5F5F5F5F5F5F5F5F5F5E2F5F5F5F5F5F5F5F5E2F5F5E2E2E2E2F5F5E2F5F5F5F5F5F5F5F5E2F5F5F5F5F5F5F5F5F5F5F5F5F5F5F5F5F5F5F5
310
F5F5F5F5F5F5F5F5F5F5F5F5F5F5F5F5F5F5E2E2E2F5E2F5F5F5F5F5F5F5F5F5F5F5F5E2E2E2E2E2E2E2E2E2F5F5F5F5F5F5F5F5F5F5F5F5F5F5F5F5F5F5F5E2E2E2E2E2E2E2E2E2F5F5F5F5F5F5F5F5F5F5F5F5F5F5F5F5F5E2F5F5F5F5F5F5F5F5E2F5F5F5F5F5F5F5F5F5F5F5F5F5F5F5F5F5F5F5F5F5F5F5F5F5F5F5F5
310
F5F5F5F5F5F5E2F5F5F5F5F5F5F5F5E2F5F5E2E2E2E2F5F5E2F5F5F5F5F5F5F5F5E2F5F5F5F5F5F5F5F5F5F5F5F5F5F5F5F5F5F5F5F5F5F5F5F5F5F5F5F5F5F5F5F5F5F5F5F5F5F5F5F5F5E2F5F5F5F5F5F5F5F5F5F5F5F5E2E2E2E2E2E2E2E2E2F5F5F5F5F5F5F5F5F5F5F5F5F5F5F5F5F5F5F5E2E2E2E2E2E2E2E2E2F5F5
310
F5F5F5F5F5F5F5F5F5F5F5F5F5F5E2E2F5F5F5F5F5F5F5F5E2F5F5F5F5F5F5F5F5F5F5F5F5F5F5F5F5F5F5F5F5F5F5F5F5F5F5F5F5F5F5F5F5F5F5E2F5F5F5F5F5F5F5F5E2F5F5E2E2E2E2F5F5E2F5F5F5F5F5F5F5F5E2F5F5F5F5F5F5F5F5F5F5F5F5F5F5F5F5F5F5F5F5F5F5F5F5F5F5F5F5F5F5F5F5F5F5F5F5F5E2E2E2
310
F5E2F5F5F5F5F5F5F5F5F5F5F5F5E2E2E2E2E2F5F5F5F5F5F5F5F5F5F5F5F5F5F5F5F5F5F5F5F5F5F5F5F5F5F5F5E2E2E2E2E2F5F5F5F5F5F5F5F5F5F5F5F5F5F5F5F5F5E2F5F5F5F5F5F5F5F5E2F5F5F5F5F5F5F5F5F5F5F5F5F5F5F5F5F5F5F5F5F5F5F5F5F5F5F5F5F5F5F5F5F5F5E2F5F5F5F5F5F5F5F5E2F5F5E2E2E2
310
E2F5F5E2F5F5F5F5F5F5F5F5E2F5F5F5F5F5F5F5F5F5F5F5F5F5F5F5F5F5F5F5F5F5F5F5F5F5F5F5F5F5F5F5F5F5F5F5F5F5E2F5E2F5E2F5F5F5F5F5F5F5F5F5F5F5F5E2F5F5F5F5F5F5F5F5F5F5F5F5F5F5F5F5F5F5F5F5F5F5F5F5F5F5F5F5F5F5F5F5F5F5F5E2F5F5F5F5F5F5F5F5F5F5F5F5F5F5F5F5F5E2F5F5F5F5F5
310
F5F5F5E2F5F5F5F5F5F5F5F5F5F5F5F5F5F5F5F5F5F5F5F5F5F5F5F5F5F5F5F5F5F5F5F5F5F5E2F5F5F5F5F5F5F5F5E2F5F5E2E2E2E2F5F5E2F5F5F5F5F5F5F5F5E2F5F5F5F5F5F5F5F5F5F5F5F5F5F5F5F5F5F5F5F5F5F5F5F5F5F5F5F5F5F5F5F5F5F5F5F5F5E2E2E2F5E2F5F5F5F5F5F5F5F5F5F5F5F5E2F5F5F5F5F5F5
310
F5F5F5F5F5F5F5F5F5F5F5F5F5F5F5F5F5F5F5F5F5F5F5F5F5F5F5F5F5E2F5F5F5F5F5F5F5F5F5F5F5F5F5F5F5F5F5E2F5F5F5F5F5F5F5F5E2F5F5F5F5F5F5F5F5F5F5F5F5F5F5F5F5F5F5F5F5F5F5F5F5F5F5F5F5F5F5F5F5F5F5E2F5F5F5F5F5F5F5F5E2F5F5E2E2E2E2F5F5E2F5F5F5F5F5F5F5F5E2F5F5F5F5F5F5F5F5
310
F5F5F5F5F5F5F5F5F5F5F5F5F5F5F5F5F5F5F5F5F5F5F5F5F5F5F5F5F5F5F5F5F5E2F5F5F5F5F5F5E2E2E2E2E2E2E2F5F5F5F5F5F5F5F5F5F5F5F5F5F5F5F5F5F5F5F5F5F5F5F5F5F5F5F5F5F5F5F5F5F5F5E2E2E2E2E2E2E2F5F5F5F5F5F5F5F5F5F5F5E2F5F5F5F5F5F5F5F5E2F5F5F5F5F5F5F5F5F5F5F5F5F5F5F5F5F5
310
F5F5F5F5F5F5F5F5F5F5F5F5F5F5F5F5F5E2F5F5F5F5F5F5F5F5E2F5F5E2E2E2E2F5F5E2F5F5F5F5F5F5F5F5E2F5F5F5F5F5F5F5F5F5F5F5F5F5F5F5F5F5F5F5F5F5F5F5F5F5F5F5F5F5F5F5F5F5F5F5F5F5E2E2E2F5E2F5F5F5F5E2E2E2F5F5E2E2F5E2F5F5F5F5F5F5F5F5F5F5F5F5F5F5F5F5F5F5F5F5F5F5F5F5F5F5F5
310
F5F5F5F5F5F5F5F5E2F5E2E2F5F5E2E2E2F5F5F5F5F5F5F5F5F5E2F5F5F5F5F5F5F5F5E2F5F5F5F5F5F5F5F5F5F5F5F5F5F5F5F5F5F5F5F5F5F5F5F5F5F5F5F5F5F5F5F5F5F5E2F5F5F5F5F5F5F5F5E2F5F5E2E2E2E2F5F5E2F5F5F5F5F5F5F5F5E2F5F5F5F5F5F5F5F5F5F5F5F5F5F5F5F5F5F5F5F5F5F5F5F5F5F5F5F5F5
310
F5F5F5F5F5F5F5F5E2F5E2F5E2F5F5F5F5E2E2E2E2E2E2E2E2E2F5F5F5F5F5F5F5F5F5F5F5F5F5F5F5F5F5F5F5F5F5F5F5F5F5F5F5F5F5F5F5F5F5F5F5E2E2E2E2E2E2E2E2E2F5F5F5F5F5F5F5F5F5E2F5F5F5F5F5F5F5F5E2F5F5F5F5F5F5F5F5F5F5F5F5F5F5F5F5F5F5F5F5F5F5F5F5F5F5F5F5F5F5F5F5F5F5E2F5F5F5
310
F5F5F5F5F5E2F5F5E2E2E2E2F5F5E2F5F5F5F5F5F5F5F5E2F5F5F5F5F5F5F5F5F5F5F5F5F5F5F5F5F5F5F5F5F5F5F5F5F5F5F5F5F5F5F5F5F5F5F5F5F5E2E2E2F5E2F5F5F5F5E2E2E2E2E2E2E2E2E2F5F5F5F5F5F5F5F5F5F5F5F5F5F5F5F5F5F5F5F5F5F5F5F5F5F5F5F5F5F5F5F5F5F5F5E2E2E2E2E2E2E2E2E2F5F5F5F5
310
F5F5F5F5E2E2F5F5F5F5F5F5F5F5E2E2F5F5F5F5F5F5F5F5F5F5F5F5F5F5F5F5F5F5F5F5F5F5F5F5F5F5F5F5F5F5F5F5F5E2F5F5F5F5F5F5F5F5E2F5F5E2E2E2E2F5F5F5F5F5F5F5F5F5F5F5E2F5F5F5F5F5F5F5F5F5F5F5F5F5F5F5F5F5F5F5F5F5F5F5F5F5F5F5F5F5F5F5F5F5F5F5F5F5F5F5E2E2E2E2E2E2E2E2E2F5F5
310
F5E2E2F5E2F5F5F5F5F5F5F5F5F5F5F5F5F5F5F5F5F5F5F5F5F5F5F5F5F5F5F5F5F5F5F5F5F5F5F5E2F5E2E2F5F5F5E2E2F5F5F5F5F5F5F5F5E2E2F5F5F5F5F5F5F5E2E2E2F5F5F5F5F5F5F5F5F5F5F5F5F5F5F5F5F5F5F5F5F5F5F5F5F5F5F5F5F5F5F5F5F5E2F5F5F5F5F5F5F5F5F5F5F5E2E2E2E2F5F5F5F5F5F5F5F5F5
310
F5F5E2F5F5F5F5F5F5F5F5F5F5F5F5F5F5F5F5F5F5F5F5F5F5F5F5F5F5F5F5F5F5F5F5F5F5F5F5F5E2E2F5F5F5F5F5F5F5E2E2E2F5F5E2E2F5E2F5F5F5F5F5F5F5F5F5F5F5F5F5F5F5F5F5F5F5F5F5F5F5F5F5F5F5F5F5F5F5F5F5F5F5E2F5E2E2F5F5E2E2E2F5F5F5F5F5F5F5F5E2E2F5F5F5F5F5F5F5E2E2E2F5F5F5F5F5
310
F5F5F5F5F5F5F5F5F5F5F5F5F5F5F5F5F5F5F5F5F5F5F5F5F5F5F5F5E2F5F5F5F5F5F5F5F5F5F5F5E2E2E2E2F5F5F5F5F5F5F5F5F5F5F5E2F5F5F5F5F5F5F5F5F5F5F5F5F5F5F5F5F5F5F5F5F5F5F5F5F5F5F5F5F5F5F5F5F5F5F5F5F5E2E2E2F5F5F5F5F5F5E2E2E2E2E2E2E2E2E2F5F5F5F5F5F5F5F5F5F5F5F5F5F5F5F5
310
F5F5F5F5F5F5F5F5F5F5F5F5F5F5F5F5F5F5F5E2E2E2E2E2E2E2E2E2F5F5F5F5F5F5F5F5E2E2F5F5F5F5F5F5F5E2E2E2F5F5F5F5F5F5F5F5F5F5F5F5F5F5F5F5F5F5F5F5F5F5F5F5F5F5F5F5F5F5F5F5F5E2F5F5F5F5F5F5F5F5F5F5F5E2E2E2E2F5F5F5F5F5F5F5F5F5F5F5E2F5F5F5F5F5F5F5F5F5F5F5F5F5F5F5F5F5F5
310
F5F5F5F5F5F5F5F5F5F5F5F5F5F5F5F5F5F5F5E2E2E2F5F5F5F5F5F5E2E2E2F5F5E2E2F5E2F5F5F5F5F5F5F5F5F5F5F5F5F5F5F5F5F5F5F5F5F5F5F5F5F5F5F5F5F5F5F5F5F5F5F5E2F5E2E2F5F5E2E2E2F5F5F5F5F5F5F5F5E2E2F5F5F5F5F5F5F5F5E2E2F5F5F5F5F5F5F5F5F5F5F5F5F5F5F5F5F5F5F5F5F5F5F5F5F5F5
310
F5F5F5F5F5F5F5E2F5F5F5F5F5F5F5F5F5F5F5E2E2E2E2F5F5F5F5F5F5F5F5F5F5F5E2F5F5F5F5F5F5F5F5F5F5F5F5F5F5F5F5F5F5F5F5F5F5F5F5F5F5F5F5F5F5F5F5F5F5F5F5F5E2E2E2F5F5F5F5F5F5F5E2E2E2E2E2E2E2E2F5F5F5F5F5F5F5F5F5F5F5F5F5F5F5F5F5F5F5F5F5F5F5F5F5F5F5F5F5F5F5F5F5F5F5E2E2
310
E2E2E2E2E2E2F5F5F5F5F5F5F5F5F5E2E2F5F5F5F5F5F5F5E2E2E2F5F5F5F5F5F5F5F5F5F5F5F5F5F5F5F5F5F5F5F5F5F5F5F5F5F5F5F5F5F5F5F5F5E2F5F5F5F5F5F5F5F5F5F5F5E2E2E2E2F5F5F5F5F5F5F5F5F5F5F5E2F5F5F5F5F5F5F5F5F5F5F5F5F5F5F5F5F5F5F5F5F5F5F5F5F5F5F5F5F5F5F5F5F5F5F5F5F5E2E2
310
E2F5F5F5F5F5F5F5F5F5F5F5F5F5F5E2F5F5F5F5F5F5F5F5F5F5F5F5F5F5F5F5F5F5F5F5F5F5F5F5F5F5F5F5F5F5F5F5F5F5F5E2F5F5F5F5F5F5F5F5F5F5F5F5F5F5F5F5E2E2F5F5F5F5F5F5F5E2E2E2F5F5F5F5F5F5F5F5F5F5F5F5F5F5F5F5F5F5F5F5F5F5F5F5F5F5F5F5F5F5F5F5F5E2F5F5F5F5F5F5F5F5F5F5F5E2E2
310
E2E2F5F5F5F5F5F5F5F5F5F5F5E2F5F5F5F5F5F5F5F5F5F5F5F5F5F5F5F5F5F5F5F5F5F5F5F5F5F5F5F5F5F5F5F5F5F5F5F5F5E2E2E2F5F5F5F5F5F5F5F5F5F5F5F5F5F5E2F5F5F5F5F5F5F5F5F5F5F5F5F5F5F5F5F5F5F5F5F5F5F5F5F5F5F5F5F5F5F5F5F5F5F5E2F5F5F5F5F5F5F5F5F5F5F5F5F5F5F5F5E2E2F5F5F5F5
310
F5F5F5E2E2E2F5F5F5F5F5F5F5F5F5F5F5F5F5F5F5F5F5F5F5F5F5F5F5F5F5F5F5F5F5F5F5F5F5E2F5F5F5F5F5F5F5F5F5F5F5E2E2E2E2F5F5F5F5F5F5F5F5F5F5F5E2F5F5F5F5F5F5F5F5F5F5F5F5F5F5F5F5F5F5F5F5F5F5F5F5F5F5F5F5F5F5F5F5F5F5F5F5F5F5F5F5F5F5F5F5F5F5F5F5F5F5F5F5F5F5E2F5F5F5F5F5
310
F5F5F5F5F5F5F5F5F5F5F5F5F5F5F5F5F5F5F5F5F5F5F5F5F5F5F5F5F5F5E2F5F5F5F5F5F5F5F5F5F5F5F5F5F5F5F5F5F5F5F5F5F5F5F5F5F5F5F5F5F5F5F5F5F5F5F5F5F5F5F5F5F5F5F5F5F5F5F5F5F5F5F5F5F5F5F5F5F5F5F5F5E2F5F5F5F5F5F5F5F5F5F5F5E2E2E2E2F5F5F5F5F5F5F5F5F5F5F5E2F5F5F5F5F5F5F5
310
F5F5F5F5F5F5F5F5F5F5F5F5F5F5F5F5F5F5F5F5F5F5F5F5F5F5F5F5F5F5F5F5F5F5F5F5F5F5F5F5F5F5F5F5F5F5F5E2F5F5F5F5F5F5F5F5F5F5F5F5F5F5F5F5F5F5F5F5F5F5F5F5F5F5F5F5F5F5F5F5F5F5F5E2F5F5F5F5F5F5F5F5F5F5F5F5F5F5F5F5E2E2F5F5F5F5F5F5F5F5F5F5F5F5F5F5F5F5F5F5F5F5F5F5F5F5F5
310
F5F5F5F5F5F5F5F5F5F5F5F5F5F5F5F5F5F5E2F5F5F5F5F5F5F5F5F5F5F5E2E2E2E2F5F5E2F5F5F5F5F5F5F5F5E2F5F5F5F5F5F5F5F5F5F5F5F5F5F5F5F5F5F5F5F5F5F5F5F5F5F5F5F5F5F5F5F5F5F5F5F5F5F5F5F5F5F5F5F5F5F5F5F5F5F5F5F5F5F5E2F5F5F5F5F5F5F5F5F5F5F5F5F5F5F5F5F5F5F5F5F5F5F5F5F5F5
310
F5F5F5F5F5F5F5F5F5E2F5F5F5F5F5F5F5F5F5F5F5F5F5F5F5F5E2E2F5F5F5F5F5F5F5E2E2E2F5F5F5F5F5F5F5F5F5F5F5F5F5F5F5F5F5F5F5F5F5F5F5F5F5F5F5F5F5F5F5F5F5E2F5F5F5F5F5F5F5F5E2F5F5E2E2E2E2F5F5E2F5F5F5F5F5F5F5F5E2F5F5F5F5F5F5F5F5F5F5F5F5F5F5F5F5F5F5F5F5F5F5F5F5F5F5F5F5
310
F5F5F5F5F5F5F5F5F5F5E2F5F5F5F5F5F5F5E2E2E2E2E2E2E2E2E2F5F5F5F5F5F5F5F5F5F5F5F5F5F5F5F5F5F5F5F5F5F5F5F5F5F5F5F5F5F5F5F5F5F5F5E2E2E2E2E2E2E2E2E2F5F5F5F5F5F5F5F5E2E2F5F5F5F5F5F5F5F5F5E2F5F5F5F5F5F5F5F5F5F5F5F5F5F5F5F5F5F5F5F5F5F5F5F5F5F5F5F5F5F5F5F5F5E2F5F5
310
F5F5F5F5F5F5E2F5F5E2E2E2E2F5F5E2F5F5F5F5F5F5F5F5E2F5F5F5F5F5F5F5F5F5F5F5F5F5F5F5F5F5F5F5F5F5F5F5F5F5F5F5F5F5F5F5F5F5F5F5F5F5E2E2F5F5F5F5F5F5F5E2E2E2E2E2E2E2E2E2F5F5F5F5F5F5F5F5F5F5F5F5F5F5F5F5F5F5F5F5F5F5F5F5F5F5F5F5F5F5F5F5F5F5F5E2E2E2E2E2E2E2E2E2F5F5F5
310
F5F5F5F5F5F5F5F5F5F5F5F5F5F5E2E2E2F5F5F5F5F5F5F5F5F5F5F5F5F5F5F5F5F5F5F5F5F5F5F5F5F5F5F5F5F5F5F5F5F5E2F5F5F5F5F5F5F5F5E2F5F5E2E2E2E2F5F5E2F5F5F5F5F5F5F5F5E2F5F5F5F5F5F5F5F5F5F5F5F5F5F5F5F5F5F5F5F5F5F5F5F5F5F5F5F5F5F5F5F5F5F5F5F5F5E2E2F5F5F5F5F5F5F5E2E2E2
310
E2E2E2E2E2E2F5F5F5F5F5F5F5F5F5F5F5F5F5F5F5F5F5F5F5F5F5F5F5F5F5F5F5F5F5F5F5F5F5F5F5E2E2E2E2E2E2E2E2E2F5F5F5F5F5F5F5F5F5F5F5F5F5F5F5F5F5F5F5F5F5F5F5F5F5F5F5F5F5F5F5F5F5F5F5F5F5F5F5F5F5F5F5F5F5F5F5F5F5F5F5F5F5E2F5F5F5F5F5F5F5F5E2F5F5E2E2E2E2F5F5E2F5F5F5F5F5
310
F5F5F5E2F5F5F5F5F5F5F5F5F5F5F5F5F5F5F5F5F5F5F5F5F5F5F5F5F5F5F5F5F5F5F5F5F5F5F5F5F5E2E2E2E2E2E2E2E2E2E2E2F5F5F5E2E2F5E2F5F5F5F5F5F5F5F5F5F5F5F5F5F5F5F5F5F5F5F5F5F5F5F5F5F5F5F5F5F5F5F5F5F5F5E2F5E2E2F5F5F5E2E2F5F5F5F5F5F5F5F5E2E2F5F5F5F5F5F5F5E2E2E2F5F5F5F5
310
F5F5F5F5F5F5F5F5F5F5F5F5F5F5F5F5F5F5F5F5F5F5F5F5F5F5F5F5F5E2F5F5F5F5F5F5F5F5E2F5F5E2E2E2E2F5F5E2F5F5F5F5F5F5F5F5E2F5F5F5F5F5F5F5F5F5F5F5F5F5F5F5F5F5F5F5F5F5F5F5F5F5F5F5F5F5F5F5F5F5F5F5F5F5E2E2F5F5E2F5F5F5F5E2E2F5F5F5E2E2F5E2F5F5F5F5F5F5F5F5F5F5F5F5F5F5F5
310
F5F5F5F5F5F5F5F5F5F5F5F5F5F5F5F5F5F5F5F5E2F5E2E2F5F5F5E2E2F5F5F5F5F5F5F5F5E2E2F5F5F5F5F5F5F5E2E2E2F5F5F5F5F5F5F5F5F5F5F5F5F5F5F5F5F5F5F5F5F5F5F5F5F5F5F5F5F5F5F5F5F5E2F5F5F5F5F5F5F5F5E2F5F5E2E2E2E2F5F5E2F5F5F5F5F5F5F5F5E2F5F5F5F5F5F5F5F5F5F5F5F5F5F5F5F5F5
310
F5F5F5F5F5F5F5F5F5F5F5F5F5F5F5F5F5F5F5F5E2E2F5F5E2F5F5F5F5E2E2E2E2E2E2E2E2E2F5F5F5F5F5F5F5F5F5F5F5F5F5F5F5F5F5F5F5F5F5F5F5F5F5F5F5F5F5F5F5F5F5F5F5E2E2E2E2E2E2E2E2E2F5F5F5F5F5F5F5F5E2F5F5F5F5F5F5F5F5F5F5E2F5F5F5F5F5F5F5F5F5F5F5F5F5F5F5F5F5F5F5F5F5F5F5F5F5
310
F5F5F5F5F5F5F5F5E2F5F5F5F5F5F5F5F5E2F5F5E2E2E2E2F5F5E2F5F5F5F5F5F5F5F5E2F5F5F5F5F5F5F5F5F5F5F5F5F5F5F5F5F5F5F5F5F5F5F5F5F5F5F5F5F5F5F5F5F5F5F5F5F5E2E2F5F5E2F5F5F5F5E2E2E2E2E2E2E2E2E2F5F5F5F5F5F5F5F5F5F5F5F5F5F5F5F5F5F5F5F5F5F5F5F5F5F5F5F5F5F5F5F5F5F5F5E2
310
E2E2E2E2E2E2E2E2F5F5F5F5F5F5F5F5E2E2F5F5F5F5F5F5F5E2E2F5F5F5F5F5F5F5F5F5F5F5F5F5F5F5F5F5F5F5F5F5F5F5F5F5F5F5F5F5F5F5F5F5F5E2F5F5F5F5F5F5F5F5E2F5F5E2E2E2E2F5F5E2F5F5F5F5F5F5F5F5E2F5F5F5F5F5F5F5F5F5F5F5F5F5F5F5F5F5F5F5F5F5F5F5F5F5F5F5F5F5F5F5F5F5F5F5F5F5F5
310
E2F5F5E2F5F5F5F5E2E2E2E2E2E2E2E2E2F5F5F5F5F5F5F5F5F5F5F5F5F5F5F5F5F5F5F5F5F5F5F5F5F5F5F5F5F5F5F5F5F5F5F5E2E2E2E2E2E2E2E2E2F5F5F5F5F5F5F5F5E2E2F5F5F5F5F5F5F5E2E2E2F5F5F5F5F5F5F5F5F5F5F5F5F5F5F5F5F5F5F5F5F5F5F5F5F5F5F5F5F5F5F5F5F5E2F5F5F5F5F5F5F5F5E2F5F5E2
310
E2E2E2F5F5E2F5F5F5F5F5F5F5F5E2F5F5F5F5F5F5F5F5F5F5F5F5F5F5F5F5F5F5F5F5F5F5F5F5F5F5F5F5F5F5F5F5F5F5F5F5F5F5F5F5F5E2F5F5F5F5F5F5F5F5F5F5F5F5E2F5F5F5F5F5F5F5F5F5F5F5F5F5F5F5F5F5F5F5F5F5F5F5F5F5F5F5F5F5F5F5F5F5F5F5E2F5F5F5F5F5F5F5F5F5F5F5F5F5F5F5F5E2E2F5F5F5
310
F5F5F5F5E2E2E2F5F5F5F5F5F5F5F5F5F5F5F5F5F5F5F5F5F5F5F5F5F5F5F5F5F5F5F5F5F5F5F5F5E2F5F5F5F5F5F5F5F5E2F5F5E2E2E2E2F5F5E2F5F5F5F5F5F5F5F5E2F5F5F5F5F5F5F5F5F5F5F5F5F5F5F5F5F5F5F5F5F5F5F5F5F5F5F5F5F5F5F5F5F5F5F5F5F5E2E2F5F5E2F5F5F5F5F5F5F5F5F5F5F5F5E2F5F5F5F5
310
F5F5F5F5F5F5F5F5F5F5F5F5F5F5F5F5F5F5F5F5F5F5F5F5F5F5F5F5F5F5F5E2F5F5F5F5F5F5F5F5F5F5F5F5F5F5F5F5F5E2F5F5F5F5F5F5F5E2E2E2F5F5F5F5F5F5F5F5F5F5F5F5F5F5F5F5F5F5F5F5F5F5F5F5F5F5F5F5F5F5F5F5F5E2F5F5F5F5F5F5F5F5E2F5F5E2E2E2E2F5F5E2F5F5F5F5F5F5F5F5E2F5F5F5F5F5F5
310
F5F5F5F5F5F5F5F5F5F5F5F5F5F5F5F5F5F5F5F5F5F5F5F5F5F5F5F5F5F5F5E2E2F5F5E2F5F5F5F5F5F5F5F5F5F5F5F5E2F5F5F5F5F5F5F5F5F5F5F5F5F5F5F5F5F5F5F5F5F5F5F5F5F5F5F5F5F5F5F5F5F5F5F5E2F5F5F5F5F5F5F5F5F5F5F5F5F5F5F5F5F5E2F5F5F5F5F5F5F5F5E2F5F5F5F5F5F5F5F5F5F5F5F5F5F5F5
310
F5F5F5F5F5F5F5F5F5F5F5F5F5F5F5F5F5F5F5E2F5F5F5F5F5F5F5F5E2F5F5E2E2E2E2F5F5E2F5F5F5F5F5F5F5F5E2F5F5F5F5F5F5F5F5F5F5F5F5F5F5F5F5F5F5F5F5F5F5F5F5F5F5F5F5F5F5F5F5F5F5F5F5F5F5E2F5F5E2F5F5F5F5F5F5F5F5F5F5F5F5E2F5F5F5F5F5F5F5F5F5F5F5F5F5F5F5F5F5F5F5F5F5F5F5F5F5
310
F5F5F5F5F5F5F5F5F5F5E2F5F5F5F5F5F5F5F5F5F5F5F5F5F5F5F5F5E2F5F5F5F5F5F5F5F5E2F5F5F5F5F5F5F5F5F5F5F5F5F5F5F5F5F5F5F5F5F5F5F5F5F5F5F5F5F5F5F5F5F5F5E2F5F5F5F5F5F5F5F5E2F5F5E2E2E2E2F5F5E2F5F5F5F5F5F5F5F5E2F5F5F5F5F5F5F5F5F5F5F5F5F5F5F5F5F5F5F5F5F5F5F5F5F5F5F5
310
F5F5F5F5F5F5F5F5F5F5F5F5F5F5E2F5F5F5F5F5F5F5F5F5F5F5F5E2F5F5F5F5F5F5F5F5F5F5F5F5F5F5F5F5F5F5F5F5F5F5F5F5F5F5F5F5F5F5F5F5F5F5F5E2F5F5F5F5F5F5F5F5F5F5F5F5F5F5F5F5F5E2F5F5F5F5F5F5F5F5E2F5F5F5F5F5F5F5F5F5F5F5F5F5F5F5F5F5F5F5F5F5F5F5F5F5F5F5F5F5F5F5F5F5F5E2F5
310
F5F5F5F5F5F5F5E2F5F5E2E2E2E2F5F5E2F5F5F5F5F5F5F5F5E2F5F5F5F5F5F5F5F5F5F5F5F5F5F5F5F5F5F5F5F5F5F5F5F5F5F5F5F5F5F5F5F5F5F5F5F5F5F5E2F5F5E2F5F5F5F5F5F5F5F5F5F5F5F5E2F5F5F5F5F5F5F5F5F5F5F5F5F5F5F5F5F5F5F5F5F5F5F5F5F5F5F5F5F5F5F5F5F5F5F5E2F5F5F5F5F5F5F5F5F5F5
310
F5F5F5F5F5F5F5E2F5F5F5F5F5F5F5F5E2F5F5F5F5F5F5F5F5F5F5F5F5F5F5F5F5F5F5F5F5F5F5F5F5F5F5F5F5F5F5F5F5F5F5E2F5F5F5F5F5F5F5F5E2F5F5E2E2E2E2F5F5E2F5F5F5F5F5F5F5F5E2F5F5F5F5F5F5F5F5F5F5F5F5F5F5F5F5F5F5F5F5F5F5F5F5F5F5F5F5F5F5F5F5F5F5F5F5F5E2E2F5F5E2F5F5F5F5F5F5
310
F5F5F5F5F5F5E2E2E2E2E2F5F5F5F5F5F5F5F5F5F5F5F5F5F5F5F5F5F5F5F5F5F5F5F5F5F5F5E2E2E2E2E2F5F5F5F5F5F5F5F5F5F5F5F5F5F5F5F5F5E2F5F5F5F5F5F5F5F5E2F5F5F5F5F5F5F5F5F5F5F5F5F5F5F5F5F5F5F5F5F5F5F5F5F5F5F5F5F5F5F5F5F5F5E2F5F5F5F5F5F5F5F5E2F5F5E2E2E2E2F5F5F5F5F5F5F5
310
F5F5F5F5E2F5F5F5F5F5F5F5F5F5F5F5F5F5F5F5F5F5F5F5F5F5F5F5F5F5F5F5F5F5F5F5F5F5F5F5F5F5E2E2F5F5E2F5F5F5F5F5F5F5F5F5F5F5F5E2E2E2E2E2E2E2E2E2F5F5F5F5F5F5F5F5F5F5F5F5F5F5F5F5F5F5F5E2E2E2E2E2E2E2E2E2F5F5F5F5F5F5F5F5F5F5F5F5F5F5F5F5E2E2F5F5F5F5F5F5F5F5E2F5F5F5F5
310
F5F5F5F5F5F5F5F5F5F5F5F5F5F5F5F5F5F5F5F5F5F5F5F5F5F5F5F5F5F5E2F5F5F5F5F5F5F5F5F5F5F5E2E2E2E2F5F5F5F5F5F5F5F5F5F5F5E2F5F5F5F5F5F5F5F5F5F5F5F5F5F5F5F5F5F5F5F5F5F5F5F5F5F5F5F5F5F5F5F5F5F5F5F5F5E2E2F5F5E2F5F5F5F5F5F5F5F5F5F5F5F5E2E2E2E2E2E2E2E2E2F5F5F5F5F5F5
310
F5F5F5F5F5F5F5F5F5F5F5F5F5E2E2E2E2E2E2E2E2E2F5F5F5F5F5F5F5F5F5F5F5F5F5F5F5F5F5E2F5F5F5F5F5F5F5F5E2F5F5F5F5F5F5F5F5F5F5F5F5F5F5F5F5F5F5F5F5F5F5F5F5F5F5F5F5F5F5F5F5F5F5E2F5F5F5F5F5F5F5F5F5F5F5E2E2E2E2F5F5F5F5F5F5F5F5F5F5F5E2F5F5F5F5F5F5F5F5F5F5F5F5F5F5F5F5
310
F5F5F5F5F5F5F5F5F5F5F5F5F5F5F5F5F5F5F5F5F5E2F5F5F5E2F5F5F5F5F5F5F5F5F5F5F5F5E2E2E2E2E2E2E2F5E2E2F5F5F5F5F5F5F5F5F5F5F5F5F5F5F5F5F5E2E2E2E2E2E2E2E2E2E2E2E2E2E2E2E2E2E2E2E2E2E2E2E2E2E2E2E2E2F5F5F5F5F5F5F5E2F5F5F5F5F5F5F5F5F5F5F5F5F5F5F5F5F5F5F5F5F5F5F5F5F5
310
F5F5F5F5F5F5F5F5F5E2F5F5F5F5F5F5F5F5F5F5F5E2E2E2E2F5F5F5F5F5F5F5F5F5F5F5E2F5F5F5F5F5F5F5F5F5F5F5F5F5F5F5F5F5F5F5F5F5F5F5F5F5F5F5F5F5F5F5F5F5F5F5F5F5E2E2F5F5E2F5F5F5F5F5F5F5F5F5F5F5F5E2E2E2E2E2E2E2F5E2E2E2F5F5F5F5F5F5F5F5F5F5F5F5F5F5F5E2E2E2F5E2E2E2E2E2E2
310
E2F5F5F5F5F5F5F5F5F5F5F5F5F5F5F5F5F5F5F5F5F5F5F5F5F5F5E2E2F5F5F5F5F5F5F5F5F5F5F5F5F5F5F5F5F5F5F5F5F5F5F5F5F5F5F5F5F5F5F5F5F5E2F5F5F5F5F5F5F5F5F5F5F5E2E2E2E2F5F5F5F5F5F5F5F5F5F5F5E2F5F5F5F5F5F5F5F5F5F5F5F5F5F5F5F5F5F5F5F5F5F5F5F5F5F5F5F5F5F5F5F5F5F5F5F5F5
310
E2E2E2E2E2E2E2E2E2E2E2E2E2E2E2E2E2E2E2E2E2E2E2E2E2E2E2E2E2E2E2E2E2E2E2E2E2E2E2E2E2E2E2E2E2E2E2E2E2E2E2E2E2E2E2E2E2E2E2E2E2E2E2E2E2E2E2E2E2E2E2E2E2E2E2E2E2E2E2E2E2E2E2F5F5F5F5F5F5F5F5F5F5F5F5F5F5F5F5F5F5F5F5F5F5F5F5F5F5F5F5F5F5F5F5E2F5F5F5F5F5F5F5F5F5F5F5
310
E2E2E2E2F5F5F5F5F5F5F5F5F5F5F5E2F5F5F5F5F5F5F5F5F5F5F5F5F5F5F5F5F5F5F5F5F5F5F5F5F5F5F5F5F5F5F5F5F5F5F5F5F5F5E2F5F5F5F5F5F5F5F5F5F5F5F5F5F5F5E2F5E2F5F5F5E2F5F5F5F5F5F5F5F5F5F5F5F5F5F5F5F5F5F5F5F5F5F5F5F5E2F5F5E2F5E2F5F5F5F5F5F5F5F5F5F5F5F5F5F5F5F5F5F5F5F5
310
F5F5F5F5F5F5F5F5F5F5F5F5F5F5F5F5F5F5F5F5F5F5F5F5F5F5F5F5F5F5F5F5F5F5F5F5F5F5F5F5F5E2F5F5F5F5F5F5F5F5F5F5F5E2E2E2E2F5F5F5F5F5F5F5F5F5F5F5E2F5F5F5F5F5F5F5F5F5F5F5F5F5F5F5F5F5F5F5F5F5F5F5F5F5F5F5F5F5F5F5F5F5F5F5F5F5E2E2F5F5F5F5F5F5F5F5F5F5F5F5F5F5F5E2F5E2F5
310
F5F5E2F5F5F5F5F5F5F5F5F5F5F5F5F5F5F5F5F5F5F5F5F5F5F5F5E2F5F5E2F5E2F5F5F5F5F5F5F5F5F5F5F5F5F5F5F5F5F5F5F5F5F5F5F5F5F5F5F5F5F5F5F5F5F5F5F5F5F5F5F5F5F5F5F5F5F5F5F5F5F5F5F5F5F5F5F5F5F5F5F5F5F5E2F5F5F5F5F5F5F5F5F5F5F5E2E2E2E2F5F5F5F5F5F5F5F5F5F5F5E2F5F5F5F5F5
310
F5F5F5F5F5F5F5F5F5F5F5F5F5F5F5F5F5F5F5F5F5F5F5F5F5F5F5F5F5F5F5F5E2E2F5F5F5F5F5F5F5F5F5F5F5F5F5F5F5E2F5E2F5F5F5E2F5F5E2E2E2E2E2E2E2F5E2E2E2E2F5E2E2E2E2E2E2E2F5F5E2F5F5E2F5E2F5F5F5F5F5F5F5F5F5F5F5F5F5F5F5F5F5F5F5F5F5F5F5F5F5F5F5F5F5F5F5F5F5F5F5F5F5F5F5F5F5
310
F5F5F5F5F5F5F5F5F5F5F5F5F5F5F5F5F5F5F5F5E2F5F5F5F5F5F5F5F5F5F5F5E2E2E2E2F5F5F5F5F5F5F5F5F5F5F5E2F5F5F5F5F5F5F5F5F5F5F5F5F5F5F5F5F5F5F5F5F5F5F5F5F5F5F5F5F5F5F5F5F5F5F5F5F5F5F5F5F5F5F5F5F5F5F5F5F5F5F5F5F5F5E2F5E2F5F5F5E2E2E2E2E2E2F5E2E2E2F5E2F5E2E2F5E2E2F5
310
E2E2E2E2E2E2E2F5F5E2F5E2F5F5F5F5F5F5F5F5F5F5F5F5F5F5F5F5F5F5F5F5F5F5F5F5F5F5F5F5F5F5F5F5F5F5F5F5F5F5F5F5F5F5F5F5F5F5F5F5F5F5F5F5F5F5F5F5F5F5F5F5F5E2F5F5F5F5F5F5F5F5F5F5F5E2E2E2E2F5F5F5F5F5F5F5F5F5F5F5E2F5F5F5F5F5F5F5F5F5F5F5F5F5F5F5F5F5F5F5F5F5F5F5F5F5F5
310
F5F5F5F5F5F5F5F5F5F5F5F5F5F5F5F5F5F5F5F5F5F5F5F5F5F5F5F5E2F5E2F5F5F5E2F5F5E2F5E2F5E2E2E2F5E2E2E2E2F5E2E2F5E2E2E2E2F5F5E2F5F5E2F5E2F5F5F5F5F5F5F5F5F5F5F5F5F5F5F5F5F5F5F5F5F5F5F5F5F5F5F5F5F5F5F5F5F5F5F5F5F5F5F5F5F5F5F5F5F5F5F5F5F5F5F5F5F5F5F5F5F5F5F5F5F5E2
310
F5F5F5F5F5F5F5F5F5F5F5E2E2E2E2F5F5E2F5F5F5F5F5F5F5F5E2F5F5F5F5F5F5F5F5F5F5F5F5F5F5F5F5F5F5F5F5F5F5F5F5F5F5F5F5F5F5F5F5F5F5F5F5F5F5F5F5F5F5F5F5F5F5F5F5F5F5F5F5F5F5E2F5E2F5F5F5E2F5F5F5F5F5F5F5F5F5F5F5F5F5F5F5F5F5F5F5F5F5F5F5F5E2F5F5E2F5E2F5F5F5F5F5F5F5F5F5
310
F5F5F5F5F5F5F5F5F5F5F5F5F5F5F5F5F5F5F5F5F5F5F5F5F5F5F5F5F5F5F5F5F5F5F5F5F5F5F5F5F5F5F5F5F5F5F5F5F5F5F5F5E2F5F5F5F5F5F5F5F5E2F5F5E2E2E2E2F5F5E2F5F5F5F5F5F5F5F5E2F5F5F5F5F5F5F5F5F5F5F5F5F5F5F5F5F5F5F5F5F5F5F5F5F5F5F5F5F5F5F5F5F5F5F5F5F5F5F5F5F5F5F5F5F5F5F5
310
F5F5F5F5F5F5F5E2F5E2F5F5F5F5E2F5E2E2E2F5E2F5F5E2E2E2F5E2E2E2E2E2F5E2F5E2E2F5F5F5F5E2F5E2F5F5F5F5F5F5F5F5F5F5F5F5F5F5F5F5F5F5F5F5F5F5F5F5F5F5F5F5F5F5F5F5F5F5F5F5F5F5F5F5F5F5F5F5F5F5F5F5F5F5F5F5F5F5F5F5F5F5F5F5F5E2F5F5F5F5F5F5F5F5E2F5F5E2E2E2E2F5F5E2F5F5F5
310
F5F5F5F5F5E2F5F5F5F5F5F5F5F5F5F5F5F5F5F5F5F5F5F5F5F5F5F5F5F5F5F5F5F5F5F5F5F5F5F5F5F5F5F5F5F5F5F5F5F5F5F5F5F5F5F5F5F5F5F5E2F5E2E2E2E2E2E2E2E2E2E2E2E2F5F5E2E2E2F5E2E2E2E2F5E2E2E2E2E2E2E2E2E2E2F5E2F5F5F5F5F5F5F5F5F5F5F5F5F5F5F5F5F5F5F5F5F5F5F5F5F5F5F5F5F5F5
310
F5F5F5F5F5F5F5F5F5F5F5F5F5F5F5F5F5F5F5F5F5F5F5F5F5F5F5F5F5F5F5E2F5F5F5F5F5F5F5F5E2F5F5E2E2E2E2F5F5E2F5F5F5F5F5F5F5F5E2F5F5F5F5F5F5F5F5F5F5F5F5F5F5F5F5F5F5F5F5F5F5F5F5F5F5F5F5F5F5F5F5F5F5F5F5F5F5F5F5F5F5F5F5F5F5F5F5F5F5F5F5F5F5E2F5E2E2E2F5F5E2E2E2F5E2E2E2
310
F5F5E2E2E2F5E2E2E2E2F5E2E2F5E2E2F5F5E2E2E2F5E2F5F5F5F5F5F5F5F5F5F5F5F5F5F5F5F5F5F5F5F5F5F5F5F5F5F5F5F5F5F5F5F5F5F5F5F5F5F5F5F5F5F5F5F5F5F5F5F5F5F5F5F5F5F5F5F5F5F5F5F5F5E2F5F5F5F5F5F5F5F5E2F5F5E2E2E2E2F5F5E2F5F5F5F5F5F5F5F5E2F5F5F5F5F5F5F5F5F5F5F5F5F5F5F5
310
F5F5F5F5F5F5F5F5F5F5F5F5F5F5F5F5F5F5F5F5F5F5F5F5F5F5F5F5F5F5F5F5F5F5F5F5F5F5F5E2F5E2F5F5F5F5F5F5F5F5F5F5F5F5F5F5F5F5F5F5F5F5F5F5F5F5F5F5F5F5F5F5F5E2F5E2F5F5F5F5F5F5F5F5F5F5F5F5F5F5F5F5F5F5F5F5F5F5F5F5F5F5F5F5F5F5F5F5F5F5F5F5F5F5F5F5F5F5F5F5F5F5F5F5F5F5F5
310
F5F5F5F5F5F5F5F5F5F5E2F5F5F5F5F5F5F5F5E2F5F5E2E2E2E2F5F5E2F5F5F5F5F5F5F5F5E2F5F5F5F5F5F5F5F5F5F5F5F5F5F5F5F5F5F5F5F5F5F5F5F5F5F5F5F5F5F5F5F5F5F5F5F5F5F5F5F5F5F5F5F5F5F5F5F5F5F5F5F5F5F5E2F5F5F5F5F5F5F5F5F5F5F5F5F5F5F5F5F5F5F5F5F5F5F5F5F5F5F5F5F5F5F5F5F5F5
310
F5E2F5F5F5F5F5F5F5F5F5F5F5F5F5F5F5F5F5F5F5F5F5F5F5F5F5F5F5F5F5F5F5F5F5F5F5F5F5F5F5F5F5F5F5F5F5F5F5F5F5F5F5F5F5F5F5F5F5F5F5F5F5E2F5F5F5F5F5F5F5F5E2F5F5E2E2E2E2F5F5E2F5F5F5F5F5F5F5F5E2F5F5F5F5F5F5F5F5F5F5F5F5F5F5F5F5F5F5F5F5F5F5F5F5F5F5F5F5F5F5F5F5F5F5F5F5
310
F5F5F5F5F5F5F5F5F5F5F5F5F5F5F5F5F5F5E2F5F5F5F5F5F5E2E2E2E2E2E2E2F5F5E2E2E2F5F5E2F5E2E2F5E2E2E2E2E2F5F5F5F5F5E2F5F5F5F5F5F5F5F5F5F5F5F5F5F5F5F5F5F5F5F5F5F5F5F5F5F5F5F5F5F5F5F5F5F5F5F5F5F5F5F5F5F5F5F5F5F5F5F5F5F5F5F5F5F5F5F5F5F5F5F5F5E2F5F5F5F5F5F5F5F5E2F5
310
F5E2E2E2E2F5F5E2F5F5F5F5F5F5F5F5E2F5F5F5F5F5F5F5F5F5F5F5F5F5F5F5F5F5F5F5F5F5F5F5F5F5F5F5F5F5F5F5F5F5F5F5F5F5F5F5F5F5F5F5F5F5F5F5F5F5F5F5F5F5F5E2E2E2E2E2E2E2E2E2E2E2E2E2E2E2F5E2E2E2F5F5E2E2E2F5E2E2E2E2E2E2E2E2E2E2E2E2F5F5F5F5F5F5F5F5F5F5F5F5F5F5F5F5F5F5F5
310
F5F5F5F5F5F5F5F5F5F5F5F5F5F5F5F5F5F5F5F5F5F5F5F5F5F5F5F5F5F5F5F5F5F5F5F5F5F5F5F5F5F5E2F5F5F5F5F5F5F5F5E2F5F5E2E2E2E2F5F5E2F5F5F5F5F5F5F5F5E2F5F5F5F5F5F5F5F5F5F5F5F5F5F5F5F5F5F5F5F5F5F5F5F5F5F5F5F5F5F5F5F5F5F5F5F5F5F5F5F5F5F5F5F5F5F5F5F5F5F5F5F5F5F5E2F5F5
310
F5F5F5F5E2E2E2E2E2E2E2F5F5E2E2E2F5F5E2E2E2F5E2E2E2E2E2E2F5F5F5F5F5E2F5F5F5F5F5F5F5F5F5F5F5F5F5F5F5F5F5F5F5F5F5F5F5F5F5F5F5F5F5F5F5F5F5F5F5F5F5F5F5F5F5F5F5F5F5F5F5F5F5F5F5F5F5F5F5F5F5F5F5F5F5E2F5F5F5F5F5F5F5F5E2F5F5E2E2E2E2F5F5E2F5F5F5F5F5F5F5F5E2F5F5F5F5
310
F5F5F5F5F5F5F5F5F5F5F5F5F5F5F5F5F5F5F5F5F5F5F5F5F5F5F5F5F5F5F5F5F5F5F5F5F5F5F5F5F5F5F5F5F5F5F5F5F5F5E2F5F5F5F5F5F5F5F5F5F5F5F5F5F5F5F5F5F5F5F5F5F5F5F5F5F5F5F5F5F5F5F5F5F5F5E2F5F5F5F5F5F5F5F5F5F5F5F5F5F5F5F5F5F5F5F5F5F5F5F5F5F5F5F5F5F5F5F5F5F5F5F5F5F5F5F5
310
F5F5F5F5F5F5F5F5F5F5F5F5F5F5F5F5F5F5F5F5F5E2F5F5F5F5F5F5F5F5E2F5F5E2E2E2E2F5F5E2F5F5F5F5F5F5F5F5E2F5F5F5F5F5F5F5F5F5F5F5F5F5F5F5F5F5F5F5F5F5F5F5F5F5F5F5F5F5F5F5F5F5F5F5F5F5F5F5F5F5F5F5F5F5F5F5F5F5F5F5F5F5F5F5F5F5F5F5F5F5F5F5F5F5F5F5F5F5F5F5F5F5F5F5F5F5F5
310
F5F5F5F5F5F5F5F5F5F5F5F5F5F5F5F5F5F5F5F5F5F5F5F5F5F5F5F5F5F5F5F5F5F5F5F5F5F5F5F5F5F5F5F5F5F5F5F5F5F5F5F5F5F5F5F5F5F5F5F5F5F5F5F5F5F5F5F5F5F5F5F5F5F5E2F5F5F5F5F5F5F5F5E2F5F5E2E2E2E2F5F5E2F5F5F5F5F5F5F5F5E2F5F5F5F5F5F5F5F5F5F5F5F5F5F5F5F5F5F5F5F5F5F5F5F5F5
310
F5F5F5F5F5F5F5F5F5F5F5F5F5F5F5F5F5F5F5F5F5F5F5F5F5F5F5F5F5F5F5F5F5F5F5F5F5F5F5F5F5F5F5F5F5F5F5F5F5F5F5F5F5F5F5F5F5F5F5F5F5F5F5F5F5F5F5F5F5F5F5F5F5F5F5F5F5F5F5F5F5F5F5F5F5F5F5F5F5F5F5F5F5F5F5F5F5F5F5F5F5F5F5F5F5F5F5F5F5F5F5F5F5F5F5F5F5F5F5F5F5F5F5F5F5F5F5
310
E2F5F5F5F5F5F5F5F5E2F5F5E2E2E2E2F5F5E2F5F5F5F5F5F5F5F5E2F5F5F5F5F5F5F5F5F5F5F5F5F5F5F5F5F5F5F5F5F5F5F5F5F5F5F5F5F5F5F5F5F5F5F5F5F5F5F5F5F5F5F5F5F5F5F5F5F5F5F5F5F5F5F5F5F5F5F5F5F5F5F5F5F5F5F5F5F5F5F5F5F5F5F5F5F5F5F5F5F5F5F5F5F5F5F5F5F5F5F5F5F5F5F5F5F5F5F5
310
F5F5F5F5F5F5F5F5F5F5F5F5F5F5F5F5F5F5F5F5F5F5F5F5F5F5F5F5F5F5F5F5F5F5F5F5F5F5F5F5F5F5F5F5F5F5F5F5F5F5F5F5F5E2F5F5F5F5F5F5F5F5E2F5F5E2E2E2E2F5F5E2F5F5F5F5F5F5F5F5E2F5F5F5F5F5F5F5F5F5F5F5F5F5F5F5F5F5F5F5F5F5F5F5F5F5F5F5F5F5F5F5F5F5F5F5F5F5F5F5F5F5F5F5F5F5F5
310
F5F5F5F5F5F5F5F5F5F5F5F5F5F5F5F5F5F5F5F5F5F5F5F5F5F5F5F5F5F5F5F5F5F5F5F5F5F5F5F5F5F5F5F5F5F5F5F5F5F5F5F5F5F5F5F5F5F5F5F5F5F5F5F5F5F5F5F5F5F5F5F5F5F5F5F5F5F5F5F5F5F5F5F5F5F5F5F5F5F5F5F5F5F5F5F5F5F5F5F5F5F5F5F5F5F5E2F5F5F5F5F5F5F5F5E2F5F5E2E2E2E2F5F5E2F5F5
310
F5F5F5F5F5F5E2F5F5F5F5F5F5F5F5F5F5F5F5F5F5F5F5F5F5F5F5F5F5F5F5F5F5F5F5F5F5F5F5F5F5F5F5F5F5F5F5F5F5F5F5F5F5F5F5F5F5F5F5F5F5F5F5F5F5F5F5F5F5F5F5F5F5F5F5F5F5F5F5F5F5F5F5F5F5F5F5F5F5F5F5F5F5F5F5F5F5F5F5F5F5F5F5F5F5F5F5F5F5F5F5F5F5F5F5F5F5F5F5F5F5F5F5F5F5F5F5
310
F5F5F5F5F5F5F5F5F5F5F5F5F5F5F5F5F5F5F5F5F5F5F5F5F5F5F5F5F5F5F5F5E2F5F5F5F5F5F5F5F5E2F5F5E2E2E2E2F5F5E2F5F5F5F5F5F5F5F5E2E2E2E2E2E2E2E2E2E2E2E2E2E2E2E2E2E2E2E2E2E2E2E2E2E2E2E2E2E2E2E2E2E2E2E2E2E2E2E2E2E2E2E2E2E2E2E2E2E2E2E2E2E2E2E2E2E2E2E2E2E2E2E2E2E2E2E2
310
E2E2E2E2E2E2E2E2E2E2E2E2E2E2E2E2E2E2E2E2E2E2E2E2E2E2E2E2E2E2E2E2E2E2E2E2E2E2E2E2E2E2E2E2E2E2E2E2E2E2E2E2E2E2E2E2E2E2E2E2E2E2E2E2E2E2E2E2E2E2E2E2E2E2E2E2E2E2E2E2E2E2E2E2E2E2F5F5F5F5F5F5F5F5E2F5F5E2E2E2E2F5F5F5F5F5F5F5F5F5F5F5F5F5F5F5F5F5F5F5F5F5F5F5F5F5F5
310
F5F5F5F5F5F5F5F5F5F5F5F5F5F5F5F5F5F5F5F5F5F5F5F5F5F5F5F5F5F5F5F5F5F5F5F5F5F5F5F5F5F5F5F5F5F5F5F5F5F5F5F5F5F5F5F5F5F5F5F5F5F5F5F5F5F5F5F5F5F5F5F5F5F5F5F5F5F5F5F5F5F5F5F5F5F5F5F5F5F5F5F5F5F5F5F5F5F5F5F5F5F5F5F5F5F5F5F5F5F5F5F5F5F5F5F5F5F5F5F5F5F5F5F5F5F5F5
310
F5F5F5F5F5F5F5F5F5F5F5F5F5F5F5F5F5F5F5F5F5F5F5E2E2E2E2F5F5F5F5F5F5F5F5F5F5F5F5F5F5F5F5F5F5F5F5F5F5F5F5F5F5F5F5F5F5F5F5F5F5F5F5F5F5F5F5F5F5F5F5F5F5F5F5F5F5F5F5F5F5F5F5F5F5F5F5F5F5F5F5F5F5F5F5F5F5F5F5F5F5F5F5F5F5F5F5F5F5F5F5F5F5F5F5F5F5F5F5E2F5F5E2F5E2F5E2
310
E2F5F5E2F5F5F5F5E2E2E2E2E2E2E2E2E2E2E2E2E2E2E2E2F5F5F5F5F5F5F5F5F5F5F5F5F5F5F5F5F5F5F5F5F5F5F5F5F5F5F5F5F5F5F5F5F5F5F5F5F5F5F5F5F5F5F5F5F5F5F5F5F5F5F5F5E2E2E2E2F5F5F5F5F5F5F5F5F5F5F5F5F5F5F5F5F5F5F5F5F5F5F5F5F5F5F5F5F5F5F5F5F5F5F5F5F5F5F5F5F5F5F5F5F5F5F5
310
F5F5F5F5F5F5F5F5F5F5F5F5F5F5F5F5F5F5F5F5F5F5F5F5F5F5F5F5F5F5F5F5F5F5F5F5F5F5F5F5F5F5F5F5F5E2F5F5E2F5E2F5E2E2F5F5E2F5F5F5F5E2F5F5E2F5E2F5E2F5F5E2E2F5E2E2E2F5F5F5F5F5F5F5F5F5F5F5F5F5F5F5F5F5F5F5F5F5F5F5F5F5F5F5F5F5F5F5F5F5F5F5F5F5F5F5F5F5F5F5F5F5F5F5F5F5F5
310
F5F5E2E2E2E2F5F5F5F5F5F5F5F5F5F5F5F5F5F5F5F5F5F5F5F5F5F5F5F5F5F5F5F5F5F5F5F5F5F5F5F5F5F5F5F5F5F5F5F5F5F5F5F5F5F5F5F5F5F5F5F5F5F5F5F5F5F5F5F5F5F5F5F5F5F5F5F5F5F5F5F5F5F5F5F5F5F5F5F5F5F5F5F5F5F5F5F5E2F5F5E2E2E2F5E2E2E2E2E2F5F5F5F5E2F5F5E2E2E2F5E2E2E2E2E2F5
310
E2E2E2F5F5F5F5F5F5F5F5F5F5F5F5F5F5F5F5F5F5F5F5F5F5F5F5F5F5F5F5F5F5F5F5F5F5F5F5F5F5F5F5F5F5F5F5F5F5F5F5F5F5F5F5E2E2E2E2F5F5F5F5F5F5F5F5F5F5F5F5F5F5F5F5F5F5F5F5F5F5F5F5F5F5F5F5F5F5F5F5F5F5F5F5F5F5F5F5F5F5F5F5F5F5F5F5F5F5F5F5F5F5F5F5F5F5F5F5F5F5F5F5F5F5F5F5
310
F5F5F5F5F5F5F5F5F5F5F5F5F5F5F5F5F5F5F5F5F5F5F5F5E2F5F5E2F5F5F5E2F5F5F5F5F5F5F5F5E2F5E2F5F5F5F5E2F5F5F5E2F5F5F5F5F5F5F5F5F5F5F5F5F5F5F5F5F5F5F5F5F5F5F5F5F5F5F5F5F5F5F5F5F5F5F5F5F5F5F5F5F5F5F5F5F5F5F5F5F5F5F5F5F5F5F5F5E2E2E2E2F5F5F5F5F5F5F5F5F5F5F5F5F5F5F5
310
F5F5F5F5F5F5F5F5F5F5F5F5F5F5F5F5F5F5F5F5F5F5F5F5F5F5F5F5F5F5F5F5F5F5F5F5F5F5F5F5F5F5F5F5F5F5F5F5F5F5F5F5F5F5F5F5F5F5F5F5F5F5F5F5F5F5F5F5F5F5F5F5F5F5F5F5E2E2E2E2E2F5F5F5E2F5F5F5F5F5F5F5F5E2E2F5F5F5F5F5E2F5F5F5E2F5F5F5F5F5F5F5F5F5F5F5F5F5F5F5F5F5F5F5F5F5F5
310
F5F5F5F5F5F5F5F5F5F5F5F5F5F5F5F5F5F5F5F5F5F5F5F5F5F5F5F5F5F5F5F5F5F5E2E2E2E2F5F5F5F5F5F5F5F5F5F5F5F5F5F5F5F5F5F5F5F5F5F5F5F5F5F5F5F5F5F5F5F5F5F5F5F5F5F5F5F5F5F5F5F5F5F5F5F5F5F5F5F5F5F5F5F5F5F5F5F5F5F5F5F5F5F5F5F5F5F5F5F5F5F5F5F5F5F5F5F5F5F5F5F5F5F5F5F5F5
310
F5F5F5F5F5F5F5F5F5F5F5F5F5F5F5F5F5F5F5F5F5F5F5F5F5F5F5F5F5F5F5F5F5F5F5F5F5F5F5F5F5F5F5F5F5F5F5F5F5F5F5F5F5F5F5F5F5F5F5F5E2F5F5F5F5F5F5F5F5F5F5F5F5F5F5F5F5F5F5F5F5F5F5F5F5F5F5E2E2E2E2F5F5F5F5F5F5F5F5F5F5F5F5F5F5F5F5F5F5F5F5F5F5F5F5F5F5F5F5F5F5F5F5F5F5F5F5
310
F5F5F5F5F5F5F5F5F5F5F5F5F5F5F5F5F5F5F5F5F5F5F5F5F5F5F5F5F5F5F5F5F5F5F5F5F5F5F5F5F5F5F5F5F5F5F5F5F5F5F5F5F5F5F5E2E2E2E2F5F5F5F5E2F5F5F5E2E2F5E2F5F5F5F5F5E2F5F5F5F5F5E2E2E2F5E2E2F5F5F5E2F5E2F5E2E2E2F5E2E2F5E2E2E2F5E2E2E2F5E2F5E2F5E2F5F5F5F5F5F5F5F5F5F5F5F5
310
F5F5F5F5F5F5F5F5F5F5F5F5F5E2E2E2E2F5F5F5F5F5F5F5F5F5F5F5F5F5F5F5F5F5F5F5F5F5F5F5F5F5F5F5F5F5F5F5F5F5F5F5F5F5F5F5F5F5F5F5F5F5F5F5F5F5F5F5F5F5F5F5F5F5F5F5F5F5F5F5F5F5F5F5F5F5F5F5F5F5F5F5F5F5F5F5F5F5F5F5F5F5F5F5F5F5F5F5E2F5F5F5F5F5F5F5E2F5F5E2F5F5E2E2F5F5F5
310
F5E2F5E2F5F5F5F5E2F5E2E2E2E2F5F5E2F5E2E2E2F5F5F5E2E2E2F5F5E2E2F5E2F5E2F5F5E2F5F5E2F5F5F5F5F5F5F5F5F5F5F5F5F5F5F5F5F5F5F5F5F5F5F5F5F5E2E2E2E2F5F5E2F5F5F5F5F5F5F5F5F5F5F5F5F5F5F5F5F5F5F5F5F5F5F5F5F5F5F5F5F5F5F5F5F5F5F5F5F5F5F5F5F5F5F5F5F5F5F5F5F5F5F5F5F5F5
310
F5F5F5F5F5F5F5F5F5F5F5F5F5F5F5F5F5F5F5F5F5F5F5F5F5F5F5F5F5F5F5F5F5F5F5E2E2E2E2E2E2F5E2E2E2E2E2E2E2E2E2E2E2E2E2E2E2F5F5F5F5E2F5E2E2E2E2E2E2F5F5E2E2E2E2E2E2E2E2E2E2F5E2E2F5E2E2E2F5E2F5E2F5F5F5F5F5F5F5F5F5F5F5F5F5F5F5F5F5F5F5F5F5F5F5F5E2F5F5E2E2E2E2F5F5E2F5
310
F5F5F5F5F5F5F5F5F5F5F5F5F5F5F5F5F5F5F5F5F5F5F5F5F5F5F5F5F5F5F5F5F5F5F5F5F5F5F5F5F5F5F5F5F5F5F5F5F5F5F5F5F5F5F5F5F5F5F5F5F5F5F5F5F5F5F5F5F5F5F5F5F5F5F5F5F5F5F5F5F5F5F5F5F5F5F5E2F5F5E2F5F5F5F5E2F5E2F5F5F5F5F5F5F5F5F5E2F5F5F5F5F5F5E2F5E2F5F5F5F5F5F5F5F5E2F5
310
F5F5F5F5F5F5F5F5E2E2F5F5F5F5F5F5F5F5F5F5F5F5F5F5F5F5F5F5F5F5F5F5F5F5F5F5F5F5F5F5F5F5E2F5F5E2E2E2E2F5F5E2F5F5F5F5F5F5F5F5F5F5F5F5F5F5F5F5F5F5F5F5F5F5F5F5F5F5F5F5F5F5F5F5F5F5F5F5F5F5F5F5F5F5F5F5F5F5F5F5F5F5F5F5F5F5F5F5F5F5F5F5F5F5F5F5F5F5F5F5F5F5F5F5F5F5F5
310
F5F5F5F5F5F5F5F5F5F5F5F5F5F5E2E2F5F5F5F5F5E2E2E2F5F5F5F5F5F5F5F5F5E2F5F5F5F5F5F5E2E2E2F5F5F5F5F5F5F5F5E2F5F5F5F5F5F5F5F5E2E2E2F5F5F5F5F5F5F5F5F5F5F5F5F5F5F5F5F5F5F5F5F5F5F5F5F5F5F5F5F5F5F5F5E2F5F5E2E2E2E2F5F5E2F5F5F5F5F5F5F5F5F5F5F5F5F5F5F5F5F5F5F5F5F5F5
310
F5F5F5F5F5F5F5F5F5F5F5F5F5F5F5F5F5F5F5F5F5F5F5F5F5F5F5F5F5F5F5F5F5F5F5F5F5F5F5F5F5F5F5F5F5F5F5F5F5F5F5F5F5F5F5F5F5F5F5F5F5F5F5F5F5F5F5F5F5F5F5F5F5F5F5F5F5F5F5F5F5F5F5F5F5F5F5F5F5F5F5F5F5F5F5F5F5F5F5F5F5F5F5F5F5F5F5F5F5F5F5F5F5F5F5F5F5F5F5F5F5F5F5F5F5F5F5
310
F5F5F5F5F5F5F5F5F5F5F5F5F5F5F5F5F5F5F5F5F5E2F5F5E2E2E2E2F5F5E2F5F5F5F5F5F5F5F5F5F5F5F5F5F5F5F5F5F5F5F5F5F5F5F5F5F5F5F5F5F5F5F5F5F5F5F5F5F5F5F5F5F5F5F5F5F5F5F5F5F5F5F5F5F5F5F5F5F5F5F5F5F5F5F5F5F5F5F5F5F5F5F5F5F5F5F5F5F5F5F5F5F5F5F5F5F5F5F5E2E2F5F5E2F5F5E2
310
E2F5F5E2E2F5E2F5F5F5F5F5F5F5E2F5F5E2E2E2E2F5E2F5F5F5E2E2F5F5F5F5F5F5E2F5F5E2E2F5F5E2E2F5F5F5F5F5F5F5F5F5F5F5F5F5F5F5F5F5F5F5F5F5F5F5F5F5F5F5F5F5F5F5E2F5F5E2E2E2E2F5F5E2F5F5F5F5F5F5F5F5F5F5F5F5F5F5F5F5F5F5F5F5F5F5F5F5F5F5F5F5F5F5F5F5F5F5F5F5F5F5F5F5F5F5F5
310
F5F5F5F5F5F5F5F5F5F5F5F5F5F5F5F5F5F5F5F5F5F5F5F5F5F5F5F5F5F5F5F5F5F5F5F5F5F5F5F5F5F5F5F5F5F5E2F5F5E2F5E2F5F5E2E2F5F5E2E2F5F5F5F5F5F5F5E2F5F5E2F5F5F5F5E2F5F5E2F5F5E2F5F5F5F5F5E2F5E2F5F5E2E2F5F5E2F5F5F5F5F5F5F5F5F5F5F5F5F5F5F5F5F5F5F5F5F5F5F5F5F5F5F5F5F5F5
310
E2F5F5E2E2E2E2F5F5E2F5F5F5F5F5F5F5F5F5F5F5F5F5F5F5F5F5F5F5F5F5F5F5F5F5F5F5F5F5F5F5F5F5F5F5F5F5F5F5F5F5F5F5F5F5F5F5F5F5F5F5F5F5F5F5F5F5F5F5F5F5F5F5F5F5F5F5F5F5F5F5F5F5F5F5F5F5F5F5F5F5F5F5F5F5F5F5F5F5E2F5E2E2E2E2E2E2E2F5F5F5E2E2E2E2F5E2E2E2F5E2E2F5E2E2E2F5
310
F5E2F5F5F5F5F5E2E2E2E2F5F5E2F5F5F5F5E2E2F5F5F5F5F5F5F5F5F5F5F5F5F5F5F5F5F5F5F5F5F5F5F5F5F5F5F5F5F5F5F5F5F5E2F5F5E2E2E2E2F5F5E2F5F5F5F5F5F5F5F5F5F5F5F5F5F5F5F5F5F5F5F5F5F5F5F5F5F5F5F5F5F5F5F5F5F5F5F5F5F5F5F5F5F5F5F5F5F5F5F5F5F5F5F5F5F5F5F5F5F5F5F5F5F5F5F5
310
F5F5F5F5F5F5F5F5F5F5F5F5F5F5F5F5F5F5F5F5F5F5F5F5E2E2F5F5E2F5E2F5F5E2E2E2E2F5E2F5F5E2F5F5F5F5E2F5E2E2F5F5E2F5E2F5F5E2E2E2F5F5F5F5F5F5E2F5E2E2E2F5E2F5F5E2F5F5F5F5F5F5F5F5F5F5F5F5F5F5F5F5F5F5F5F5F5F5F5F5F5F5F5F5F5F5E2F5F5E2E2E2E2F5F5E2E2E2E2E2E2E2E2F5F5F5F5
310
F5F5F5F5F5E2E2E2E2E2E2E2E2E2E2E2E2E2E2E2E2F5F5F5F5F5F5F5F5F5E2E2E2E2E2E2E2E2E2E2E2E2E2E2E2F5F5F5F5F5F5F5F5F5E2E2E2E2E2E2E2E2E2E2E2E2E2E2E2E2F5F5F5F5F5F5F5F5E2E2E2E2E2E2E2E2E2E2E2E2E2E2E2E2F5F5F5F5F5E2E2F5F5E2E2E2E2E2E2E2E2E2E2E2E2E2E2E2E2E2E2E2E2E2E2F5E2
310
E2E2E2E2E2E2E2E2E2E2E2E2E2E2E2E2F5F5F5F5F5F5F5F5F5E2E2E2E2E2E2E2E2F5F5E2E2E2E2F5F5F5F5F5F5F5F5F5F5F5F5F5F5F5F5F5F5F5F5F5F5F5F5F5F5F5F5F5F5F5F5F5F5F5F5F5F5F5F5F5F5F5F5F5F5F5F5F5F5F5F5F5F5F5F5F5F5F5F5F5F5F5F5F5F5F5F5F5F5F5F5F5F5F5F5F5F5F5F5F5F5F5F5F5F5F5F5
310
F5F5F5F5F5F5F5F5F5F5F5F5F5F5F5F5F5F5F5F5F5F5F5F5F5F5F5F5F5F5F5F5F5F5F5F5F5F5F5F5F5F5F5F5F5F5F5F5F5F5F5F5F5F5F5F5F5F5F5F5F5F5F5F5F5F5F5F5F5F5F5F5F5F5F5F5F5F5F5F5F5F5F5F5F5F5F5F5E2E2E2E2F5F5F5F5F5F5F5F5F5F5F5F5F5F5F5F5F5F5F5F5F5F5F5F5F5F5F5F5F5F5F5F5F5F5F5
310
F5F5F5F5F5F5F5F5F5F5F5F5F5F5F5F5F5F5F5F5F5F5F5F5F5F5F5F5F5F5F5F5F5F5F5F5F5F5F5F5F5F5F5F5F5F5F5F5F5F5F5F5F5F5F5F5F5F5F5F5F5F5F5F5F5F5F5F5F5F5F5F5F5F5F5F5F5F5F5F5F5F5F5F5F5F5F5F5F5F5F5F5F5F5F5F5F5F5F5F5F5F5F5F5F5F5F5F5F5F5F5F5F5F5F5F5F5F5F5F5F5F5F5F5F5F5F5
310
F5F5F5F5F5F5F5F5F5F5F5F5F5F5E2E2E2E2F5F5F5F5F5F5F5F5F5F5F5F5F5F5F5F5F5F5F5F5F5F5F5F5F5F5F5F5F5F5F5F5F5F5F5F5F5F5F5F5F5F5F5F5F5F5F5F5F5F5F5F5F5F5F5F5F5F5F5F5F5F5F5F5F5F5F5F5F5F5F5F5F5F5F5F5F5F5F5F5F5F5F5F5F5F5F5F5F5F5F5F5F5F5F5F5F5F5F5F5F5F5F5F5F5F5F5F5F5
310
F5F5F5F5F5F5F5F5F5F5F5F5F5F5F5F5F5F5F5F5F5F5F5F5F5F5F5F5F5F5F5F5F5F5F5F5F5F5F5F5F5F5F5F5F5F5F5F5F5F5F5F5F5F5F5F5F5F5F5F5F5F5F5F5F5F5F5E2EFEFE2F5F5F5F5F5F5F5F5F5F5F5F5F5F5F5F5F5F5F5F5F5F5F5F5F5F5F5F5F5F5F5F5F5F5F5F5F5F5F5F5F5F5F5F5F5F5F5F5F5F5F5F5F5F5F5F5
310
F5F5F5F5F5F5F5F5F5F5F5F5F5F5F5F5F5F5F5F5F5F5F5F5F5F5F5F5F5F5F5F5F5F5F5F5F5F5F5F5F5F5F5F5F5F5F5F5F5F5F5F5F5F5F5F5F5F5F5F5F5F5F5F5F5F5F5F5F5F5F5F5F5F5F5F5F5F5F5F5F5F5F5F5F5F5F5F5F5F5F5F5F5F5F5F5F5F5F5F5F5F5F5F5F5F5F5F5F5F5F5F5F5F5F5F5F5F5F5F5E2EFEFE2E2E2E2
310
E2E2E2E2E2E2E2E2E2E2E2E2E2E2E2E2E2E2E2E2E2E2E2E2E2E2E2E2E2E2E2E2E2E2E2E2E2E2E2E2E2E2E2E2E2E2E2E2E2E2E2E2E2E2E2E2E2E2E2E2E2E2E2E2E2E2E2E2E2E2E2E2E2E2E2E2E2E2E2E2E2E2E2E2E2E2E2E2E2E2E2E2E2E2E2E2E2E2E2E2E2E2E2E2E2E2E2E2E2E2E2E2E2E2E2E2E2E2E2E2E2E2E2E2E2E2E2
310
E2E2E2E2E2E2E2E2E2E2E2E2E2E2E2E2E2E2E2E2E2E2E2E2E2E2E2E2E2E2E2E2E2E2E2E2E2E2E2E2E2E2E2E2E2E2E2EFEF
  0
XRECORD
  5
57029
102
{ACAD_REACTORS
330
57028
102
}
330
57028
100
AcDbXrecord
280
     1
102
SHADEPLOT
 70
     0
102
SHADEPLOTRESLEVEL
 70
     2
102
SHADEPLOTCUSTOMDPI
 70
   300
  0
ENDSEC
  0
EOF
