999
DXF file: DXF_937a-pr08.dxf
999
Pro/ENGINEER 2017380 by Parametric Technology Corporation
  0
SECTION
  2
HEADER
  9
$ACADVER
  1
AC1027
  9
$DWGCODEPAGE
  3
ANSI_1252
  9
$EXTMAX
 10
558.8
 20
431.8
 30
0.0
  9
$EXTMIN
 10
0.0
 20
0.0
 30
0.0
  9
$LIMMIN
 10
0.0
 20
0.0
  9
$LIMMAX
 10
558.8
 20
431.8
  9
$VIEWCTR
 10
279.4
 20
215.9
  9
$VIEWSIZE
 40
431.8
  9
$CLAYER
  8
0
  9
$LTSCALE
 40
30.734
  9
$CELTYPE
  6
BYLAYER
  9
$DIMSCALE
 40
1.0
  9
$DIMASZ
 40
3.5
  9
$DIMEXO
 40
0.0
  9
$DIMDLI
 40
21.2344
  9
$DIMEXE
 40
1.0
  9
$DIMCEN
 40
5.0292
  9
$DIMLFAC
 40
1.0
  9
$DIMBLK
  1
_FILLED
  9
$DIMALT
 70
2
  9
$DIMALTD
 70
1
  9
$DIMALTTD
 70
2
  9
$DIMALTF
 40
0.0393700787
  9
$DIMTXT
 40
3.5
  9
$DIMTOL
 70
1
  9
$DIMLIM
 70
0
  9
$DIMTFAC
 40
1.0
  9
$DIMTP
 40
0.05
  9
$DIMTM
 40
0.05
  9
$DIMGAP
 40
0.625
  9
$DIMDSEP
 70
46
  9
$AUNITS
 70
0
  9
$PDMODE
 70
3
  9
$PDSIZE
 40
8.0
  9
$HANDSEED
  5
5BD
  9
$TILEMODE
 70
1
  9
$MEASUREMENT
 70
1
  9
$INSUNITS
 70
4
  0
ENDSEC
  0
SECTION
  2
CLASSES
  0
CLASS
  1
ACDBDICTIONARYWDFLT
  2
AcDbDictionaryWithDefault
  3
AutoCAD 2000
 90
0
 91
1
280
0
281
0
  0
CLASS
  1
ACDBPLACEHOLDER
  2
AcDbPlaceHolder
  3
AutoCAD 2000
 90
0
 91
1
280
0
281
0
  0
CLASS
  1
LAYOUT
  2
AcDbLayout
  3
AutoCAD 2000
 90
0
 91
0
280
0
281
0
  0
ENDSEC
  0
SECTION
  2
TABLES
  0
TABLE
  2
VPORT
  5
8
100
AcDbSymbolTable
 70
2
  0
VPORT
  5
1F4
100
AcDbSymbolTableRecord
100
AcDbViewportTableRecord
  2
*ACTIVE
 70
0
 10
0.0
 20
0.0
 11
1.0
 21
1.0
 12
279.4
 22
215.9
 13
0.0
 23
0.0
 14
1.0
 24
1.0
 15
0.0
 25
0.0
 16
0.0
 26
0.0
 36
1.0
 17
0.0
 27
0.0
 37
0.0
 40
431.8
 41
1.2941176471
 42
50.0
 43
0.0
 44
0.0
 50
0.0
 51
0.0
 71
0
 72
100
 73
1
 74
1
 75
0
 76
0
 77
0
 78
0
  0
ENDTAB
  0
TABLE
  2
LTYPE
  5
5
100
AcDbSymbolTable
 70
6
  0
LTYPE
  5
14
100
AcDbSymbolTableRecord
100
AcDbLinetypeTableRecord
  2
BYBLOCK
 70
0
  3

 72
65
 73
0
 40
0.0
  0
LTYPE
  5
15
100
AcDbSymbolTableRecord
100
AcDbLinetypeTableRecord
  2
BYLAYER
 70
0
  3

 72
65
 73
0
 40
0.0
  0
LTYPE
  5
16
100
AcDbSymbolTableRecord
100
AcDbLinetypeTableRecord
  2
CONTINUOUS
 70
64
  3
Solid line
 72
65
 73
0
 40
0.0
  0
LTYPE
  5
1F5
100
AcDbSymbolTableRecord
100
AcDbLinetypeTableRecord
  2
CENTER
 70
64
  3
____ _ ____ _ ____ _ ____ _ ____ _ ____ _ ____
 72
65
 73
4
 40
0.6
 49
0.375
 74
0
 49
-0.075
 74
0
 49
0.075
 74
0
 49
-0.075
 74
0
  0
LTYPE
  5
1F6
100
AcDbSymbolTableRecord
100
AcDbLinetypeTableRecord
  2
HIDDEN
 70
64
  3
- - - - - - - - - - - - - - - - - - - -
 72
65
 73
2
 40
0.2
 49
0.1
 74
0
 49
-0.1
 74
0
  0
LTYPE
  5
1F7
100
AcDbSymbolTableRecord
100
AcDbLinetypeTableRecord
  2
PHANTOM
 70
64
  3
_____ _ _ _____ _ _ _____ _ _ _____
 72
65
 73
6
 40
0.8
 49
0.45
 74
0
 49
-0.05
 74
0
 49
0.1
 74
0
 49
-0.05
 74
0
 49
0.1
 74
0
 49
-0.05
 74
0
  0
LTYPE
  5
1F8
100
AcDbSymbolTableRecord
100
AcDbLinetypeTableRecord
  2
DOT
 70
64
  3
. . . . . . . . . . . . . . . . . . . .
 72
65
 73
2
 40
0.2
 49
0.1
 74
0
 49
-0.1
 74
0
  0
LTYPE
  5
1F9
100
AcDbSymbolTableRecord
100
AcDbLinetypeTableRecord
  2
DASHED
 70
64
  3
- - - - - - - - - - - - - - - - - - - -
 72
65
 73
2
 40
0.2
 49
0.1
 74
0
 49
-0.1
 74
0
  0
ENDTAB
  0
TABLE
  2
LAYER
  5
2
100
AcDbSymbolTable
 70
36
  0
LAYER
  5
10
100
AcDbSymbolTableRecord
100
AcDbLayerTableRecord
  2
0
 70
0
 62
7
  6
CONTINUOUS
370
-3
390
F
  0
LAYER
  5
1FA
100
AcDbSymbolTableRecord
100
AcDbLayerTableRecord
  2
DEFAULT_1
 70
0
 62
7
  6
CENTER
370
-3
390
F
  0
LAYER
  5
1FB
100
AcDbSymbolTableRecord
100
AcDbLayerTableRecord
  2
DEFAULT_2
 70
0
 62
8
  6
HIDDEN
370
-3
390
F
  0
LAYER
  5
1FC
100
AcDbSymbolTableRecord
100
AcDbLayerTableRecord
  2
DEFAULT_3
 70
0
 62
7
  6
PHANTOM
370
-3
390
F
  0
LAYER
  5
1FD
100
AcDbSymbolTableRecord
100
AcDbLayerTableRecord
  2
AXIS_PART
 70
0
 62
7
  6
CONTINUOUS
370
-3
390
F
  0
LAYER
  5
1FE
100
AcDbSymbolTableRecord
100
AcDbLayerTableRecord
  2
CSYS_PART
 70
0
 62
7
  6
CONTINUOUS
370
-3
390
F
  0
LAYER
  5
1FF
100
AcDbSymbolTableRecord
100
AcDbLayerTableRecord
  2
DEF_DATUMS
 70
0
 62
7
  6
CONTINUOUS
370
-3
390
F
  0
ENDTAB
  0
TABLE
  2
STYLE
  5
3
100
AcDbSymbolTable
 70
1
  0
STYLE
  5
11
100
AcDbSymbolTableRecord
100
AcDbTextStyleTableRecord
  2
STANDARD
 70
0
 40
0.0
 41
0.7
 50
0.0
 71
0
 42
0.2
  3
txt
  4

  0
STYLE
  5
200
100
AcDbSymbolTableRecord
100
AcDbTextStyleTableRecord
  2
TEXTSTYLE_1
 70
0
 40
0.0
 41
0.8
 50
0.0
 71
0
 42
0.2
  3
gdt
  4

  0
ENDTAB
  0
TABLE
  2
VIEW
  5
6
100
AcDbSymbolTable
 70
0
  0
ENDTAB
  0
TABLE
  2
UCS
  5
7
100
AcDbSymbolTable
 70
0
  0
ENDTAB
  0
TABLE
  2
APPID
  5
9
100
AcDbSymbolTable
 70
1
  0
APPID
  5
201
100
AcDbSymbolTableRecord
100
AcDbRegAppTableRecord
  2
ACAD
 70
0
  0
ENDTAB
  0
TABLE
  2
BLOCK_RECORD
  5
1
100
AcDbSymbolTable
 70
0
  0
BLOCK_RECORD
  5
202
100
AcDbSymbolTableRecord
100
AcDbBlockTableRecord
  2
*Model_Space
  0
BLOCK_RECORD
  5
203
100
AcDbSymbolTableRecord
100
AcDbBlockTableRecord
  2
*Paper_Space
  0
BLOCK_RECORD
  5
204
100
AcDbSymbolTableRecord
100
AcDbBlockTableRecord
  2
_FILLED
  0
BLOCK_RECORD
  5
205
100
AcDbSymbolTableRecord
100
AcDbBlockTableRecord
  2
*D0
  0
BLOCK_RECORD
  5
206
100
AcDbSymbolTableRecord
100
AcDbBlockTableRecord
  2
*D1
  0
BLOCK_RECORD
  5
207
100
AcDbSymbolTableRecord
100
AcDbBlockTableRecord
  2
*D2
  0
BLOCK_RECORD
  5
208
100
AcDbSymbolTableRecord
100
AcDbBlockTableRecord
  2
*D3
  0
BLOCK_RECORD
  5
209
100
AcDbSymbolTableRecord
100
AcDbBlockTableRecord
  2
*D4
  0
BLOCK_RECORD
  5
20A
100
AcDbSymbolTableRecord
100
AcDbBlockTableRecord
  2
*D5
  0
BLOCK_RECORD
  5
20B
100
AcDbSymbolTableRecord
100
AcDbBlockTableRecord
  2
*D6
  0
ENDTAB
  0
TABLE
  2
DIMSTYLE
  5
A
100
AcDbSymbolTable
 70
1
100
AcDbDimStyleTable
 71
0
  0
DIMSTYLE
105
20C
100
AcDbSymbolTableRecord
100
AcDbDimStyleTableRecord
  2
STANDARD
 70
0
  3

  4

 40
1.0
 41
3.5
 42
0.0
 43
0.38
 44
1.0
 45
0.0
 46
0.0
 47
0.05
 48
0.05
140
3.5
141
0.09
142
0.0
143
0.0393700787
144
1.0
145
0.0
146
1.0
147
0.625
 71
1.0
 72
0.0
 73
1
 74
1
 75
0
 76
0
 77
0
 78
8
 79
2
170
2
171
1
172
0
173
0
174
0
175
0
176
0
177
0
178
0
270
2
179
2
271
2
272
2
273
2
274
2
275
0
280
0
281
0
282
0
283
1
284
8
285
0
286
0
287
3
288
0
340
11
278
46
341
204
342
204
343
204
344
204
  0
DIMSTYLE
105
20D
100
AcDbSymbolTableRecord
100
AcDbDimStyleTableRecord
  2
DIMSTYLE_1
 70
0
  3

  4

 40
1.0
 41
3.5
 42
0.0
 43
0.38
 44
1.0
 45
0.0
 46
0.0
 47
0.8
 48
0.8
140
3.5
141
0.09
142
0.0
143
0.0393700787
144
1.0
145
0.0
146
1.0
147
1.75
 71
0.0
 72
0.0
 73
1
 74
1
 75
0
 76
0
 77
0
 78
8
 79
2
170
2
171
1
172
0
173
0
174
0
175
0
176
0
177
0
178
0
270
2
179
2
271
2
272
2
273
2
274
0
275
0
280
0
281
0
282
0
283
1
284
8
285
0
286
0
287
3
288
0
340
11
278
46
341
204
342
204
343
204
344
204
  0
DIMSTYLE
105
20E
100
AcDbSymbolTableRecord
100
AcDbDimStyleTableRecord
  2
DIMSTYLE_2
 70
0
  3

  4

 40
1.0
 41
3.5
 42
0.0
 43
0.38
 44
1.0
 45
0.0
 46
0.0
 47
0.1
 48
0.1
140
3.5
141
0.09
142
0.0
143
0.0393700787
144
1.0
145
0.0
146
1.0
147
1.75
 71
0.0
 72
0.0
 73
1
 74
1
 75
0
 76
0
 77
0
 78
8
 79
2
170
2
171
2
172
0
173
0
174
0
175
0
176
0
177
0
178
0
270
2
179
2
271
2
272
2
273
2
274
2
275
0
280
0
281
0
282
0
283
1
284
8
285
0
286
0
287
3
288
0
340
11
278
46
341
204
342
204
343
204
344
204
  0
DIMSTYLE
105
20F
100
AcDbSymbolTableRecord
100
AcDbDimStyleTableRecord
  2
DIMSTYLE_3
 70
0
  3

  4

 40
1.0
 41
3.5
 42
0.0
 43
0.38
 44
1.0
 45
0.0
 46
0.0
 47
0.5
 48
0.5
140
3.5
141
0.09
142
0.0
143
0.0393700787
144
1.0
145
0.0
146
1.0
147
1.75
 71
0.0
 72
0.0
 73
1
 74
1
 75
0
 76
0
 77
0
 78
8
 79
2
170
2
171
1
172
0
173
0
174
0
175
0
176
0
177
0
178
0
270
2
179
2
271
2
272
2
273
2
274
0
275
0
280
0
281
0
282
0
283
1
284
8
285
0
286
0
287
3
288
0
340
11
278
46
341
204
342
204
343
204
344
204
  0
DIMSTYLE
105
210
100
AcDbSymbolTableRecord
100
AcDbDimStyleTableRecord
  2
DIMSTYLE_4
 70
0
  3

  4

 40
1.0
 41
3.5
 42
0.0
 43
0.38
 44
1.0
 45
0.0
 46
0.0
 47
0.2
 48
0.2
140
3.5
141
0.09
142
0.0
143
0.0393700787
144
1.0
145
0.0
146
1.0
147
1.75
 71
0.0
 72
0.0
 73
1
 74
1
 75
0
 76
0
 77
0
 78
8
 79
2
170
2
171
1
172
0
173
0
174
0
175
0
176
0
177
0
178
0
270
2
179
2
271
2
272
2
273
2
274
0
275
0
280
0
281
0
282
0
283
1
284
8
285
0
286
0
287
3
288
0
340
11
278
46
341
204
342
204
343
204
344
204
  0
DIMSTYLE
105
211
100
AcDbSymbolTableRecord
100
AcDbDimStyleTableRecord
  2
DIMSTYLE_5
 70
0
  3

  4

 40
1.0
 41
3.5
 42
0.0
 43
0.38
 44
1.0
 45
0.0
 46
0.0
 47
0.3
 48
0.3
140
3.5
141
0.09
142
0.0
143
0.0393700787
144
1.0
145
0.0
146
1.0
147
1.75
 71
0.0
 72
0.0
 73
1
 74
1
 75
0
 76
0
 77
0
 78
8
 79
2
170
2
171
1
172
0
173
0
174
0
175
0
176
0
177
0
178
0
270
2
179
1
271
1
272
1
273
2
274
1
275
0
280
0
281
0
282
0
283
1
284
8
285
0
286
0
287
3
288
0
340
11
278
46
341
204
342
204
343
204
344
204
  0
DIMSTYLE
105
212
100
AcDbSymbolTableRecord
100
AcDbDimStyleTableRecord
  2
DIMSTYLE_6
 70
0
  3

  4

 40
1.0
 41
3.5
 42
0.0
 43
0.38
 44
1.0
 45
0.0
 46
0.0
 47
0.1
 48
0.1
140
3.5
141
0.09
142
0.0
143
0.0393700787
144
1.0
145
0.0
146
1.0
147
1.75
 71
0.0
 72
0.0
 73
1
 74
1
 75
0
 76
0
 77
0
 78
8
 79
2
170
2
171
1
172
0
173
0
174
0
175
0
176
0
177
0
178
0
270
2
179
2
271
2
272
2
273
2
274
0
275
0
280
0
281
0
282
0
283
1
284
8
285
0
286
0
287
3
288
0
340
11
278
46
341
204
342
204
343
204
344
204
  0
ENDTAB
  0
ENDSEC
  0
SECTION
  2
BLOCKS
  0
BLOCK
  5
20
100
AcDbEntity
  8
0
100
AcDbBlockBegin
  2
*Model_Space
 70
0
 10
0.0
 20
0.0
 30
0.0
  3
*Model_Space
  1

  0
ENDBLK
  5
21
100
AcDbEntity
  8
0
100
AcDbBlockEnd
  0
BLOCK
  5
1C
100
AcDbEntity
  8
0
100
AcDbBlockBegin
  2
*Paper_Space
 70
0
 10
0.0
 20
0.0
 30
0.0
  3
*Paper_Space
  1

  0
ENDBLK
  5
1D
100
AcDbEntity
  8
0
100
AcDbBlockEnd
  0
BLOCK
  5
213
100
AcDbEntity
  8
0
100
AcDbBlockBegin
  2
_FILLED
 70
64
 10
0.0
 20
0.0
  3
_FILLED
  1

  0
SOLID
  5
214
100
AcDbEntity
  8
0
  6
BYBLOCK
 62
0
100
AcDbTrace
 10
0.0
 20
0.0
 11
-1.0
 21
0.1785714286
 12
-1.0
 22
-0.1785714286
 13
-1.0
 23
-0.1785714286
  0
ENDBLK
  5
215
100
AcDbEntity
  8
0
  6
BYBLOCK
 62
0
100
AcDbBlockEnd
  0
BLOCK
  5
216
100
AcDbEntity
  8
0
100
AcDbBlockBegin
 62
2
  6
CONTINUOUS
  2
*D0
 70
65
 10
0.0
 20
0.0
  3
*D0
  1

  0
MTEXT
  5
217
100
AcDbEntity
  8
0
100
AcDbMText
 62
2
  6
CONTINUOUS
  7
STANDARD
 71
2
 72
1
 10
440.8869221406
 20
276.1098907265
 30
0.0
 11
1.0
 21
0.0
 31
0.0
 73
2
 44
0.9
  1
31.5\P[800]
 40
3.5
 41
12.25
  0
LINE
  5
218
100
AcDbEntity
  8
0
100
AcDbLine
 62
2
  6
CONTINUOUS
 10
392.6112151019
 20
258.6161267325
 11
392.6112151019
 21
275.3598907265
  0
LINE
  5
219
100
AcDbEntity
  8
0
100
AcDbLine
 62
2
  6
CONTINUOUS
 10
493.3536295141
 20
258.3681646844
 11
493.3536295141
 21
275.3598907265
  0
LINE
  5
21A
100
AcDbEntity
  8
0
100
AcDbLine
 62
2
  6
CONTINUOUS
 10
392.6112151019
 20
274.3598907265
 11
434.2369221406
 21
274.3598907265
  0
LINE
  5
21B
100
AcDbEntity
  8
0
100
AcDbLine
 62
2
  6
CONTINUOUS
 10
493.3536295141
 20
274.3598907265
 11
449.9869221406
 21
274.3598907265
  0
INSERT
  5
21C
100
AcDbEntity
  8
0
100
AcDbBlockReference
 62
2
  6
CONTINUOUS
  2
_FILLED
 10
392.6112151019
 20
274.3598907265
 41
3.5
 42
3.5
 43
3.5
 50
180.0
  0
INSERT
  5
21D
100
AcDbEntity
  8
0
100
AcDbBlockReference
 62
2
  6
CONTINUOUS
  2
_FILLED
 10
493.3536295141
 20
274.3598907265
 41
3.5
 42
3.5
 43
3.5
  0
ENDBLK
  5
21E
100
AcDbEntity
  8
0
  6
BYBLOCK
 62
0
100
AcDbBlockEnd
  0
BLOCK
  5
21F
100
AcDbEntity
  8
0
100
AcDbBlockBegin
 62
2
  6
CONTINUOUS
  2
*D1
 70
65
 10
0.0
 20
0.0
  3
*D1
  1

  0
MTEXT
  5
220
100
AcDbEntity
  8
0
100
AcDbMText
 62
2
  6
CONTINUOUS
  7
STANDARD
 71
1
 72
1
 10
503.5768486512
 20
276.1098907265
 30
0.0
 11
1.0
 21
0.0
 31
0.0
 73
2
 44
0.9
  1
.08\P[2]
 40
3.5
 41
7.35
  0
LINE
  5
221
100
AcDbEntity
  8
0
100
AcDbLine
 62
2
  6
CONTINUOUS
 10
495.3536295141
 20
255.0045388141
 11
495.3536295141
 21
275.3598907265
  0
LINE
  5
222
100
AcDbEntity
  8
0
100
AcDbLine
 62
2
  6
CONTINUOUS
 10
493.3536295141
 20
258.1615296443
 11
493.3536295141
 21
275.3598907265
  0
LINE
  5
223
100
AcDbEntity
  8
0
100
AcDbLine
 62
2
  6
CONTINUOUS
 10
495.3536295141
 20
274.3598907265
 11
501.8268486512
 21
274.3598907265
  0
LINE
  5
224
100
AcDbEntity
  8
0
100
AcDbLine
 62
2
  6
CONTINUOUS
 10
493.3536295141
 20
274.3598907265
 11
487.3536295141
 21
274.3598907265
  0
INSERT
  5
225
100
AcDbEntity
  8
0
100
AcDbBlockReference
 62
2
  6
CONTINUOUS
  2
_FILLED
 10
495.3536295141
 20
274.3598907265
 41
3.5
 42
3.5
 43
3.5
 50
180.0
  0
INSERT
  5
226
100
AcDbEntity
  8
0
100
AcDbBlockReference
 62
2
  6
CONTINUOUS
  2
_FILLED
 10
493.3536295141
 20
274.3598907265
 41
3.5
 42
3.5
 43
3.5
  0
ENDBLK
  5
227
100
AcDbEntity
  8
0
  6
BYBLOCK
 62
0
100
AcDbBlockEnd
  0
BLOCK
  5
228
100
AcDbEntity
  8
0
100
AcDbBlockBegin
 62
2
  6
CONTINUOUS
  2
*D2
 70
65
 10
0.0
 20
0.0
  3
*D2
  1

  0
MTEXT
  5
229
100
AcDbEntity
  8
0
100
AcDbMText
 62
2
  6
CONTINUOUS
  7
STANDARD
 71
2
 72
1
 10
149.1847563898
 20
274.797785862
 30
0.0
 11
1.0
 21
0.0
 31
0.0
 73
2
 44
0.9
  1
4.9\P[125]
 40
3.5
 41
12.25
  0
LINE
  5
22A
100
AcDbEntity
  8
0
100
AcDbLine
 62
2
  6
CONTINUOUS
 10
89.1347563898
 20
239.7117129781
 11
89.1347563898
 21
274.047785862
  0
LINE
  5
22B
100
AcDbEntity
  8
0
100
AcDbLine
 62
2
  6
CONTINUOUS
 10
214.1347563898
 20
240.528513035
 11
214.1347563898
 21
274.047785862
  0
LINE
  5
22C
100
AcDbEntity
  8
0
100
AcDbLine
 62
2
  6
CONTINUOUS
 10
89.1347563898
 20
273.047785862
 11
143.7597563898
 21
273.047785862
  0
LINE
  5
22D
100
AcDbEntity
  8
0
100
AcDbLine
 62
2
  6
CONTINUOUS
 10
214.1347563898
 20
273.047785862
 11
159.5097563898
 21
273.047785862
  0
INSERT
  5
22E
100
AcDbEntity
  8
0
100
AcDbBlockReference
 62
2
  6
CONTINUOUS
  2
_FILLED
 10
89.1347563898
 20
273.047785862
 41
3.5
 42
3.5
 43
3.5
 50
180.0
  0
INSERT
  5
22F
100
AcDbEntity
  8
0
100
AcDbBlockReference
 62
2
  6
CONTINUOUS
  2
_FILLED
 10
214.1347563898
 20
273.047785862
 41
3.5
 42
3.5
 43
3.5
  0
ENDBLK
  5
230
100
AcDbEntity
  8
0
  6
BYBLOCK
 62
0
100
AcDbBlockEnd
  0
BLOCK
  5
231
100
AcDbEntity
  8
0
100
AcDbBlockBegin
 62
2
  6
CONTINUOUS
  2
*D3
 70
65
 10
0.0
 20
0.0
  3
*D3
  1

  0
MTEXT
  5
232
100
AcDbEntity
  8
0
100
AcDbMText
 62
2
  6
CONTINUOUS
  7
STANDARD
 71
1
 72
1
 10
309.5775350738
 20
202.0822659371
 30
0.0
 11
1.0
 21
0.0
 31
0.0
 73
2
 44
0.9
  1
.9\P[23,8]
 40
3.5
 41
14.7
  0
LINE
  5
233
100
AcDbEntity
  8
0
100
AcDbLine
 62
2
  6
CONTINUOUS
 10
280.5406024149
 20
221.3866560503
 11
280.5406024149
 21
199.3322659371
  0
LINE
  5
234
100
AcDbEntity
  8
0
100
AcDbLine
 62
2
  6
CONTINUOUS
 10
304.3406024149
 20
231.9417587277
 11
304.3406024149
 21
199.3322659371
  0
LINE
  5
235
100
AcDbEntity
  8
0
100
AcDbLine
 62
2
  6
CONTINUOUS
 10
280.5406024149
 20
200.3322659371
 11
292.4406024149
 21
200.3322659371
  0
LINE
  5
236
100
AcDbEntity
  8
0
100
AcDbLine
 62
2
  6
CONTINUOUS
 10
304.3406024149
 20
200.3322659371
 11
292.4406024149
 21
200.3322659371
  0
LINE
  5
237
100
AcDbEntity
  8
0
100
AcDbLine
 62
2
  6
CONTINUOUS
 10
292.4406024149
 20
200.3322659371
 11
307.8275350738
 21
200.3322659371
  0
INSERT
  5
238
100
AcDbEntity
  8
0
100
AcDbBlockReference
 62
2
  6
CONTINUOUS
  2
_FILLED
 10
280.5406024149
 20
200.3322659371
 41
3.5
 42
3.5
 43
3.5
 50
180.0
  0
INSERT
  5
239
100
AcDbEntity
  8
0
100
AcDbBlockReference
 62
2
  6
CONTINUOUS
  2
_FILLED
 10
304.3406024149
 20
200.3322659371
 41
3.5
 42
3.5
 43
3.5
  0
ENDBLK
  5
23A
100
AcDbEntity
  8
0
  6
BYBLOCK
 62
0
100
AcDbBlockEnd
  0
BLOCK
  5
23B
100
AcDbEntity
  8
0
100
AcDbBlockBegin
 62
2
  6
CONTINUOUS
  2
*D4
 70
65
 10
0.0
 20
0.0
  3
*D4
  1

  0
MTEXT
  5
23C
100
AcDbEntity
  8
0
100
AcDbMText
 62
2
  6
CONTINUOUS
  7
STANDARD
 71
2
 72
1
 10
325.333535939
 20
237.359120307
 30
0.0
 11
1.0
 21
0.0
 31
0.0
 73
2
 44
0.9
  1
 1.7\P[43,6]
 40
3.5
 41
14.7
  0
LINE
  5
23D
100
AcDbEntity
  8
0
100
AcDbLine
 62
2
  6
CONTINUOUS
 10
298.2019913514
 20
213.8143727833
 11
328.783535939
 21
213.8143727833
  0
LINE
  5
23E
100
AcDbEntity
  8
0
100
AcDbLine
 62
2
  6
CONTINUOUS
 10
298.3901195445
 20
257.4038678306
 11
328.783535939
 21
257.4038678306
  0
LINE
  5
23F
100
AcDbEntity
  8
0
100
AcDbLine
 62
2
  6
CONTINUOUS
 10
327.783535939
 20
213.8143727833
 11
327.783535939
 21
226.859120307
  0
LINE
  5
240
100
AcDbEntity
  8
0
100
AcDbLine
 62
2
  6
CONTINUOUS
 10
327.783535939
 20
257.4038678306
 11
327.783535939
 21
239.109120307
  0
INSERT
  5
241
100
AcDbEntity
  8
0
100
AcDbBlockReference
 62
2
  6
CONTINUOUS
  2
_FILLED
 10
327.783535939
 20
213.8143727833
 41
3.5
 42
3.5
 43
3.5
 50
270.0
  0
INSERT
  5
242
100
AcDbEntity
  8
0
100
AcDbBlockReference
 62
2
  6
CONTINUOUS
  2
_FILLED
 10
327.783535939
 20
257.4038678306
 41
3.5
 42
3.5
 43
3.5
 50
90.0
  0
ENDBLK
  5
243
100
AcDbEntity
  8
0
  6
BYBLOCK
 62
0
100
AcDbBlockEnd
  0
BLOCK
  5
244
100
AcDbEntity
  8
0
100
AcDbBlockBegin
 62
2
  6
CONTINUOUS
  2
*D5
 70
65
 10
0.0
 20
0.0
  3
*D5
  1

  0
MTEXT
  5
245
100
AcDbEntity
  8
0
100
AcDbMText
 62
2
  6
CONTINUOUS
  7
STANDARD
 71
1
 72
1
 10
37.3609436934
 20
251.9794989008
 30
0.0
 11
1.0
 21
0.0
 31
0.0
 73
2
 44
0.9
  1
.2\P[4,5]
 40
3.5
 41
12.25
  0
LINE
  5
246
100
AcDbEntity
  8
0
100
AcDbLine
 62
2
  6
CONTINUOUS
 10
84.4678478385
 20
237.859120307
 11
31.3609436934
 21
237.859120307
  0
LINE
  5
247
100
AcDbEntity
  8
0
100
AcDbLine
 62
2
  6
CONTINUOUS
 10
84.1857221305
 20
233.359120307
 11
31.3609436934
 21
233.359120307
  0
LINE
  5
248
100
AcDbEntity
  8
0
100
AcDbLine
 62
2
  6
CONTINUOUS
 10
32.3609436934
 20
237.859120307
 11
32.3609436934
 21
250.2294989008
  0
LINE
  5
249
100
AcDbEntity
  8
0
100
AcDbLine
 62
2
  6
CONTINUOUS
 10
32.3609436934
 20
250.2294989008
 11
35.6109436934
 21
250.2294989008
  0
LINE
  5
24A
100
AcDbEntity
  8
0
100
AcDbLine
 62
2
  6
CONTINUOUS
 10
32.3609436934
 20
233.359120307
 11
32.3609436934
 21
227.359120307
  0
INSERT
  5
24B
100
AcDbEntity
  8
0
100
AcDbBlockReference
 62
2
  6
CONTINUOUS
  2
_FILLED
 10
32.3609436934
 20
237.859120307
 41
3.5
 42
3.5
 43
3.5
 50
270.0
  0
INSERT
  5
24C
100
AcDbEntity
  8
0
100
AcDbBlockReference
 62
2
  6
CONTINUOUS
  2
_FILLED
 10
32.3609436934
 20
233.359120307
 41
3.5
 42
3.5
 43
3.5
 50
90.0
  0
ENDBLK
  5
24D
100
AcDbEntity
  8
0
  6
BYBLOCK
 62
0
100
AcDbBlockEnd
  0
BLOCK
  5
24E
100
AcDbEntity
  8
0
100
AcDbBlockBegin
 62
2
  6
CONTINUOUS
  2
*D6
 70
65
 10
0.0
 20
0.0
  3
*D6
  1

  0
MTEXT
  5
24F
100
AcDbEntity
  8
0
100
AcDbMText
 62
2
  6
CONTINUOUS
  7
STANDARD
 71
3
 72
1
 10
72.5428560061
 20
206.0675735125
 30
0.0
 11
1.0
 21
0.0
 31
0.0
 73
2
 44
0.9
  1
.5\P[12]
 40
3.5
 41
9.8
  0
LINE
  5
250
100
AcDbEntity
  8
0
100
AcDbLine
 62
2
  6
CONTINUOUS
 10
83.1347563898
 20
234.9390717503
 11
83.1347563898
 21
203.3175735125
  0
LINE
  5
251
100
AcDbEntity
  8
0
100
AcDbLine
 62
2
  6
CONTINUOUS
 10
95.1347563898
 20
234.7627431827
 11
95.1347563898
 21
203.3175735125
  0
LINE
  5
252
100
AcDbEntity
  8
0
100
AcDbLine
 62
2
  6
CONTINUOUS
 10
83.1347563898
 20
204.3175735125
 11
89.1347563898
 21
204.3175735125
  0
LINE
  5
253
100
AcDbEntity
  8
0
100
AcDbLine
 62
2
  6
CONTINUOUS
 10
89.1347563898
 20
204.3175735125
 11
79.1928560061
 21
204.3175735125
  0
LINE
  5
254
100
AcDbEntity
  8
0
100
AcDbLine
 62
2
  6
CONTINUOUS
 10
95.1347563898
 20
204.3175735125
 11
89.1347563898
 21
204.3175735125
  0
INSERT
  5
255
100
AcDbEntity
  8
0
100
AcDbBlockReference
 62
2
  6
CONTINUOUS
  2
_FILLED
 10
83.1347563898
 20
204.3175735125
 41
3.5
 42
3.5
 43
3.5
 50
180.0
  0
INSERT
  5
256
100
AcDbEntity
  8
0
100
AcDbBlockReference
 62
2
  6
CONTINUOUS
  2
_FILLED
 10
95.1347563898
 20
204.3175735125
 41
3.5
 42
3.5
 43
3.5
  0
ENDBLK
  5
257
100
AcDbEntity
  8
0
  6
BYBLOCK
 62
0
100
AcDbBlockEnd
  0
ENDSEC
  0
SECTION
  2
ENTITIES
  0
DIMENSION
  5
258
100
AcDbEntity
  8
0
100
AcDbDimension
 62
2
  6
CONTINUOUS
  2
*D0
 10
493.3536295141
 20
274.3598907265
 11
442.1119221406
 21
271.7348907265
 70
160
 71
2
 42
800.0
  1
<>\P[]
  3
DIMSTYLE_1
100
AcDbAlignedDimension
 13
392.6112151019
 23
258.6161267325
 14
493.3536295141
 24
258.3681646844
100
AcDbRotatedDimension
  0
DIMENSION
  5
259
100
AcDbEntity
  8
0
100
AcDbDimension
 62
2
  6
CONTINUOUS
  2
*D1
 10
493.3536295141
 20
274.3598907265
 11
507.2518486512
 21
271.7348907265
 70
160
 71
1
 42
2.0
  1
<>\P[]
  3
DIMSTYLE_2
100
AcDbAlignedDimension
 13
495.3536295141
 23
255.0045388141
 14
493.3536295141
 24
258.1615296443
 50
180.0
100
AcDbRotatedDimension
  0
DIMENSION
  5
25A
100
AcDbEntity
  8
0
100
AcDbDimension
 62
2
  6
CONTINUOUS
  2
*D2
 10
214.1347563898
 20
273.047785862
 11
151.6347563898
 21
270.422785862
 70
160
 71
2
 42
125.0
  1
<>\P[]
  3
DIMSTYLE_3
100
AcDbAlignedDimension
 13
89.1347563898
 23
239.7117129781
 14
214.1347563898
 24
240.528513035
100
AcDbRotatedDimension
  0
DIMENSION
  5
25B
100
AcDbEntity
  8
0
100
AcDbDimension
 62
2
  6
CONTINUOUS
  2
*D3
 10
304.3406024149
 20
200.3322659371
 11
316.9275350738
 21
197.7072659371
 70
160
 71
1
 42
23.8
  1
<>\P[]
  3
DIMSTYLE_4
100
AcDbAlignedDimension
 13
280.5406024149
 23
221.3866560503
 14
304.3406024149
 24
231.9417587277
100
AcDbRotatedDimension
  0
DIMENSION
  5
25C
100
AcDbEntity
  8
0
100
AcDbDimension
 62
2
  6
CONTINUOUS
  2
*D4
 10
327.783535939
 20
257.4038678306
 11
327.783535939
 21
232.984120307
 70
160
 71
2
 42
43.5894950473
  1
<>\P[]
  3
DIMSTYLE_5
100
AcDbAlignedDimension
 13
298.2019913514
 23
213.8143727833
 14
298.3901195445
 24
257.4038678306
 50
90.0
100
AcDbRotatedDimension
  0
DIMENSION
  5
25D
100
AcDbEntity
  8
0
100
AcDbDimension
 62
2
  6
CONTINUOUS
  2
*D5
 10
32.3609436934
 20
233.359120307
 11
43.4859436934
 21
247.6044989008
 70
160
 71
1
 42
4.5
  1
<>\P[]
  3
DIMSTYLE_6
100
AcDbAlignedDimension
 13
84.4678478385
 23
237.859120307
 14
84.1857221305
 24
233.359120307
 50
270.0
100
AcDbRotatedDimension
  0
DIMENSION
  5
25E
100
AcDbEntity
  8
0
100
AcDbDimension
 62
2
  6
CONTINUOUS
  2
*D6
 10
95.1347563898
 20
204.3175735125
 11
72.5428560061
 21
201.6925735125
 70
160
 71
3
 42
12.0
  1
<>\P[]
  3
DIMSTYLE_4
100
AcDbAlignedDimension
 13
83.1347563898
 23
234.9390717503
 14
95.1347563898
 24
234.7627431827
100
AcDbRotatedDimension
  0
MTEXT
  5
25F
100
AcDbEntity
  8
0
100
AcDbMText
 62
2
  6
CONTINUOUS
  7
STANDARD
 71
1
 72
1
 10
398.025167296
 20
46.6861643635
 30
0.0
 11
1.0
 21
0.0
 31
0.0
 73
2
 44
0.9
  1
APPROXIMATE DIMENSIONS.\PDIMENSIONS IN INCHES [MILLIMETERS].
 40
3.5
 41
85.75
  0
LINE
  5
260
100
AcDbEntity
  8
0
100
AcDbLine
 62
7
  6
CONTINUOUS
 10
0.0
 20
0.0
 11
0.0
 21
431.8
  0
LINE
  5
261
100
AcDbEntity
  8
0
100
AcDbLine
 62
7
  6
CONTINUOUS
 10
0.0
 20
0.0
 11
558.8
 21
0.0
  0
LINE
  5
262
100
AcDbEntity
  8
0
100
AcDbLine
 62
7
  6
CONTINUOUS
 10
0.0
 20
431.8
 11
558.8
 21
431.8
  0
LINE
  5
263
100
AcDbEntity
  8
0
100
AcDbLine
 62
7
  6
CONTINUOUS
 10
558.8
 20
0.0
 11
558.8
 21
431.8
  0
LINE
  5
264
100
AcDbEntity
  8
0
100
AcDbLine
 62
7
  6
CONTINUOUS
 10
297.7298255527
 20
213.8196900698
 11
292.3669542372
 21
214.7653089768
  0
LINE
  5
265
100
AcDbEntity
  8
0
100
AcDbLine
 62
7
  6
CONTINUOUS
 10
292.9406024149
 20
216.709120307
 11
297.8406024149
 21
216.709120307
  0
LINE
  5
266
100
AcDbEntity
  8
0
100
AcDbLine
 62
7
  6
CONTINUOUS
 10
297.5406024149
 20
217.109120307
 11
295.6406024149
 21
217.109120307
  0
LINE
  5
267
100
AcDbEntity
  8
0
100
AcDbLine
 62
7
  6
CONTINUOUS
 10
292.9145551883
 20
215.8872640887
 11
297.8513792771
 21
215.0167688028
  0
LINE
  5
268
100
AcDbEntity
  8
0
100
AcDbLine
 62
7
  6
CONTINUOUS
 10
295.3406024149
 20
217.959120307
 11
294.5406024149
 21
217.959120307
  0
LINE
  5
269
100
AcDbEntity
  8
0
100
AcDbLine
 62
7
  6
CONTINUOUS
 10
294.5406024149
 20
218.109120307
 11
295.3406024149
 21
218.109120307
  0
LINE
  5
26A
100
AcDbEntity
  8
0
100
AcDbLine
 62
7
  6
CONTINUOUS
 10
294.7406024149
 20
221.109120307
 11
282.1406024149
 21
221.109120307
  0
LINE
  5
26B
100
AcDbEntity
  8
0
100
AcDbLine
 62
7
  6
CONTINUOUS
 10
280.5406024149
 20
222.709120307
 11
280.5406024149
 21
248.509120307
  0
LINE
  5
26C
100
AcDbEntity
  8
0
100
AcDbLine
 62
7
  6
CONTINUOUS
 10
302.7406024149
 20
231.609120307
 11
299.4406024149
 21
231.609120307
  0
LINE
  5
26D
100
AcDbEntity
  8
0
100
AcDbLine
 62
7
  6
CONTINUOUS
 10
291.5406024149
 20
255.4681238842
 11
291.5406024149
 21
254.3489061415
  0
LINE
  5
26E
100
AcDbEntity
  8
0
100
AcDbLine
 62
7
  6
CONTINUOUS
 10
291.5406024149
 20
216.8693344725
 11
291.5406024149
 21
215.7501167298
  0
LINE
  5
26F
100
AcDbEntity
  8
0
100
AcDbLine
 62
7
  6
CONTINUOUS
 10
294.2143259612
 20
250.6308045917
 11
294.5406024149
 21
253.109120307
  0
LINE
  5
270
100
AcDbEntity
  8
AXIS_PART
100
AcDbLine
 62
7
  6
CENTER
 10
299.8406024149
 20
235.609120307
 11
279.4276274825
 21
235.609120307
  0
LINE
  5
271
100
AcDbEntity
  8
AXIS_PART
100
AcDbLine
 62
7
  6
CENTER
 10
299.8406024149
 20
235.609120307
 11
305.0503724548
 21
235.609120307
  0
LINE
  5
272
100
AcDbEntity
  8
0
100
AcDbLine
 62
7
  6
CONTINUOUS
 10
294.5406024149
 20
218.109120307
 11
294.2143259612
 21
220.5874360223
  0
LINE
  5
273
100
AcDbEntity
  8
0
100
AcDbLine
 62
7
  6
CONTINUOUS
 10
292.7906024149
 20
216.0349852516
 11
292.7906024149
 21
216.559120307
  0
LINE
  5
274
100
AcDbEntity
  8
0
100
AcDbLine
 62
7
  6
CONTINUOUS
 10
292.7906024149
 20
254.659120307
 11
292.7906024149
 21
255.1832553623
  0
LINE
  5
275
100
AcDbEntity
  8
0
100
AcDbLine
 62
7
  6
CONTINUOUS
 10
294.5406024149
 20
217.959120307
 11
294.5406024149
 21
218.659120307
  0
LINE
  5
276
100
AcDbEntity
  8
0
100
AcDbLine
 62
7
  6
CONTINUOUS
 10
294.5406024149
 20
252.559120307
 11
294.5406024149
 21
253.259120307
  0
LINE
  5
277
100
AcDbEntity
  8
0
100
AcDbLine
 62
7
  6
CONTINUOUS
 10
295.3406024149
 20
217.409120307
 11
295.3406024149
 21
220.509120307
  0
LINE
  5
278
100
AcDbEntity
  8
0
100
AcDbLine
 62
7
  6
CONTINUOUS
 10
295.3406024149
 20
250.709120307
 11
295.3406024149
 21
253.809120307
  0
LINE
  5
279
100
AcDbEntity
  8
0
100
AcDbLine
 62
7
  6
CONTINUOUS
 10
299.4406024149
 20
239.609120307
 11
302.7406024149
 21
239.609120307
  0
LINE
  5
27A
100
AcDbEntity
  8
0
100
AcDbLine
 62
7
  6
CONTINUOUS
 10
297.8406024149
 20
253.809120307
 11
297.8406024149
 21
241.209120307
  0
LINE
  5
27B
100
AcDbEntity
  8
0
100
AcDbLine
 62
7
  6
CONTINUOUS
 10
297.8406024149
 20
230.009120307
 11
297.8406024149
 21
217.409120307
  0
LINE
  5
27C
100
AcDbEntity
  8
0
100
AcDbLine
 62
7
  6
CONTINUOUS
 10
298.1406024149
 20
214.1643727833
 11
298.1406024149
 21
214.6720860893
  0
LINE
  5
27D
100
AcDbEntity
  8
0
100
AcDbLine
 62
7
  6
CONTINUOUS
 10
298.1406024149
 20
217.009120307
 11
298.1406024149
 21
230.9374994141
  0
LINE
  5
27E
100
AcDbEntity
  8
0
100
AcDbLine
 62
7
  6
CONTINUOUS
 10
298.1406024149
 20
234.381742015
 11
298.1406024149
 21
236.8363201163
  0
LINE
  5
27F
100
AcDbEntity
  8
0
100
AcDbLine
 62
7
  6
CONTINUOUS
 10
298.1406024149
 20
240.2807411998
 11
298.1406024149
 21
254.209120307
  0
LINE
  5
280
100
AcDbEntity
  8
0
100
AcDbLine
 62
7
  6
CONTINUOUS
 10
298.1406024149
 20
256.5461545247
 11
298.1406024149
 21
257.0538678306
  0
LINE
  5
281
100
AcDbEntity
  8
AXIS_PART
100
AcDbLine
 62
7
  6
CENTER
 10
299.8406024149
 20
235.609120307
 11
299.8406024149
 21
232.609020307
  0
LINE
  5
282
100
AcDbEntity
  8
AXIS_PART
100
AcDbLine
 62
7
  6
CENTER
 10
299.8406024149
 20
235.609120307
 11
299.8406024149
 21
238.609220307
  0
LINE
  5
283
100
AcDbEntity
  8
0
100
AcDbLine
 62
7
  6
CONTINUOUS
 10
304.3406024149
 20
238.009120307
 11
304.3406024149
 21
233.209120307
  0
LINE
  5
284
100
AcDbEntity
  8
0
100
AcDbLine
 62
7
  6
CONTINUOUS
 10
282.1406024149
 20
250.109120307
 11
294.7406024149
 21
250.109120307
  0
LINE
  5
285
100
AcDbEntity
  8
0
100
AcDbLine
 62
7
  6
CONTINUOUS
 10
292.0406024149
 20
217.7353598763
 11
294.0906024149
 21
218.9189279281
  0
LINE
  5
286
100
AcDbEntity
  8
0
100
AcDbLine
 62
7
  6
CONTINUOUS
 10
294.0906024149
 20
252.2993126859
 11
292.0406024149
 21
253.4828807377
  0
LINE
  5
287
100
AcDbEntity
  8
0
100
AcDbLine
 62
7
  6
CONTINUOUS
 10
295.3406024149
 20
253.109120307
 11
294.5406024149
 21
253.109120307
  0
LINE
  5
288
100
AcDbEntity
  8
0
100
AcDbLine
 62
7
  6
CONTINUOUS
 10
294.5406024149
 20
253.259120307
 11
295.3406024149
 21
253.259120307
  0
LINE
  5
289
100
AcDbEntity
  8
0
100
AcDbLine
 62
7
  6
CONTINUOUS
 10
297.8513792771
 20
256.2014718111
 11
292.9680892478
 21
255.3404160243
  0
LINE
  5
28A
100
AcDbEntity
  8
0
100
AcDbLine
 62
7
  6
CONTINUOUS
 10
295.6406024149
 20
254.109120307
 11
297.5406024149
 21
254.109120307
  0
LINE
  5
28B
100
AcDbEntity
  8
0
100
AcDbLine
 62
7
  6
CONTINUOUS
 10
297.8406024149
 20
254.509120307
 11
292.9406024149
 21
254.509120307
  0
LINE
  5
28C
100
AcDbEntity
  8
0
100
AcDbLine
 62
7
  6
CONTINUOUS
 10
292.3669542372
 20
256.4529316372
 11
297.7298255527
 21
257.3985505442
  0
LWPOLYLINE
  5
28D
100
AcDbEntity
  8
0
100
AcDbPolyline
 62
7
  6
CONTINUOUS
 90
7
 70
0
 10
337.1499165944
 20
71.9595213314
 10
337.1513515061
 20
71.9532460301
 10
337.1536560497
 20
71.9472017371
 10
337.1568779138
 20
71.9412707068
 10
337.1608740323
 20
71.9358061758
 10
337.1655013386
 20
71.9311613801
 10
337.1708075216
 20
71.9272185745
  0
LINE
  5
28E
100
AcDbEntity
  8
0
100
AcDbLine
 62
7
  6
CONTINUOUS
 10
342.4667396895
 20
68.7471805765
 11
342.3230174031
 21
69.1176041492
  0
LINE
  5
28F
100
AcDbEntity
  8
0
100
AcDbLine
 62
7
  6
CONTINUOUS
 10
336.9912481809
 20
71.9617037041
 11
336.8575174726
 21
72.9146717216
  0
LINE
  5
290
100
AcDbEntity
  8
0
100
AcDbLine
 62
7
  6
CONTINUOUS
 10
337.0268099705
 20
72.8367818861
 11
337.0764901378
 21
72.4827599027
  0
LINE
  5
291
100
AcDbEntity
  8
0
100
AcDbLine
 62
7
  6
CONTINUOUS
 10
337.1392914027
 20
72.0352366849
 11
337.1499165944
 21
71.9595213314
  0
LINE
  5
292
100
AcDbEntity
  8
0
100
AcDbLine
 62
7
  6
CONTINUOUS
 10
337.0398704455
 20
72.1416267091
 11
337.0398704455
 21
72.4518977061
  0
LINE
  5
293
100
AcDbEntity
  8
0
100
AcDbLine
 62
7
  6
CONTINUOUS
 10
337.2661446154
 20
71.8966715712
 11
337.2661446154
 21
71.9595213314
  0
LINE
  5
294
100
AcDbEntity
  8
0
100
AcDbLine
 62
7
  6
CONTINUOUS
 10
337.2661446154
 20
72.6028279316
 11
337.2661446154
 21
72.6968441424
  0
LINE
  5
295
100
AcDbEntity
  8
0
100
AcDbLine
 62
7
  6
CONTINUOUS
 10
337.6055558704
 20
69.6104758271
 11
337.6055558704
 21
71.6680624388
  0
LINE
  5
296
100
AcDbEntity
  8
0
100
AcDbLine
 62
7
  6
CONTINUOUS
 10
339.0904801109
 20
71.578266185
 11
339.0904801109
 21
72.1171579166
  0
LINE
  5
297
100
AcDbEntity
  8
0
100
AcDbLine
 62
7
  6
CONTINUOUS
 10
340.2218509608
 20
71.4639703204
 11
340.2218509608
 21
70.9250785888
  0
LINE
  5
298
100
AcDbEntity
  8
0
100
AcDbLine
 62
7
  6
CONTINUOUS
 10
340.5046936733
 20
71.6272672194
 11
340.5046936733
 21
71.0883754878
  0
LINE
  5
299
100
AcDbEntity
  8
0
100
AcDbLine
 62
7
  6
CONTINUOUS
 10
341.4805010313
 20
67.1120274704
 11
337.8318300404
 21
69.2185574683
  0
LINE
  5
29A
100
AcDbEntity
  8
0
100
AcDbLine
 62
7
  6
CONTINUOUS
 10
342.7474954677
 20
68.5034382893
 11
342.5892141766
 21
68.5948206826
  0
LINE
  5
29B
100
AcDbEntity
  8
0
100
AcDbLine
 62
7
  6
CONTINUOUS
 10
337.28880232
 20
71.6549695984
 11
337.1305210289
 21
71.7463519918
  0
LINE
  5
29C
100
AcDbEntity
  8
0
100
AcDbLine
 62
7
  6
CONTINUOUS
 10
337.1708075216
 20
71.9272185745
 11
337.244931412
 21
71.8844237599
  0
LINE
  5
29D
100
AcDbEntity
  8
0
100
AcDbLine
 62
7
  6
CONTINUOUS
 10
342.6330850847
 20
68.7736178329
 11
342.707208975
 21
68.7308230183
  0
LINE
  5
29E
100
AcDbEntity
  8
0
100
AcDbLine
 62
7
  6
CONTINUOUS
 10
342.2300342194
 20
69.096138454
 11
341.791628015
 21
69.3492486476
  0
LINE
  5
29F
100
AcDbEntity
  8
0
100
AcDbLine
 62
7
  6
CONTINUOUS
 10
337.5207030567
 20
71.8150318233
 11
337.0822968523
 21
72.0681420169
  0
LINE
  5
2A0
100
AcDbEntity
  8
0
100
AcDbLine
 62
7
  6
CONTINUOUS
 10
342.4173106521
 20
69.1839693339
 11
342.4350951859
 21
69.1737015805
  0
LINE
  5
2A1
100
AcDbEntity
  8
0
100
AcDbLine
 62
7
  6
CONTINUOUS
 10
337.0822968523
 20
72.4763933287
 11
338.8642059409
 21
71.4476228646
  0
LINE
  5
2A2
100
AcDbEntity
  8
0
100
AcDbLine
 62
7
  6
CONTINUOUS
 10
340.4481251308
 20
70.5331602299
 11
342.2300342194
 21
69.5043897659
  0
LINE
  5
2A3
100
AcDbEntity
  8
0
100
AcDbLine
 62
7
  6
CONTINUOUS
 10
337.3651395648
 20
72.6396902278
 11
339.0904801109
 21
71.6435791435
  0
LINE
  5
2A4
100
AcDbEntity
  8
0
100
AcDbLine
 62
7
  6
CONTINUOUS
 10
340.7309678433
 20
70.696457129
 11
342.5128769319
 21
69.6676866649
  0
LINE
  5
2A5
100
AcDbEntity
  8
0
100
AcDbLine
 62
7
  6
CONTINUOUS
 10
336.9062629694
 20
72.9536089896
 11
336.9780644737
 21
72.9121549854
  0
LINE
  5
2A6
100
AcDbEntity
  8
0
100
AcDbLine
 62
7
  6
CONTINUOUS
 10
337.3085710223
 20
72.721339765
 11
339.0904801109
 21
71.6925693009
  0
LINE
  5
2A7
100
AcDbEntity
  8
0
100
AcDbLine
 62
7
  6
CONTINUOUS
 10
339.7654307457
 20
71.3028921383
 11
339.9497200936
 21
71.1964942086
  0
LINE
  5
2A8
100
AcDbEntity
  8
0
100
AcDbLine
 62
7
  6
CONTINUOUS
 10
340.5996752108
 20
70.8212480011
 11
342.5694454743
 21
69.6840174425
  0
LINE
  5
2A9
100
AcDbEntity
  8
0
100
AcDbLine
 62
7
  6
CONTINUOUS
 10
342.899952023
 20
69.4932022222
 11
342.9717535273
 21
69.4517482179
  0
LWPOLYLINE
  5
2AA
100
AcDbEntity
  8
0
100
AcDbPolyline
 62
7
  6
CONTINUOUS
 90
7
 70
0
 10
342.6118718812
 20
68.8103601791
 10
342.6126316429
 20
68.8035661893
 10
342.6145680828
 20
68.7968527633
 10
342.6177434223
 20
68.7900440803
 10
342.6219709975
 20
68.7836676031
 10
342.6270641445
 20
68.7782507942
 10
342.6330850847
 20
68.7736178329
  0
LINE
  5
2AB
100
AcDbEntity
  8
0
100
AcDbLine
 62
7
  6
CONTINUOUS
 10
341.7067752013
 20
69.3002574025
 11
341.7067752013
 21
67.2426707908
  0
LINE
  5
2AC
100
AcDbEntity
  8
0
100
AcDbLine
 62
7
  6
CONTINUOUS
 10
341.9896179138
 20
69.2349408182
 11
341.9896179138
 21
67.4059676898
  0
LINE
  5
2AD
100
AcDbEntity
  8
0
100
AcDbLine
 62
7
  6
CONTINUOUS
 10
342.2724606262
 20
69.4309050736
 11
342.2724606262
 21
69.1206340766
  0
LINE
  5
2AE
100
AcDbEntity
  8
0
100
AcDbLine
 62
7
  6
CONTINUOUS
 10
342.4350951859
 20
69.1737015805
 11
342.4350951859
 21
69.1942370873
  0
LINE
  5
2AF
100
AcDbEntity
  8
0
100
AcDbLine
 62
7
  6
CONTINUOUS
 10
342.5553033387
 20
69.5942019727
 11
342.5553033387
 21
69.2839309757
  0
LINE
  5
2B0
100
AcDbEntity
  8
0
100
AcDbLine
 62
7
  6
CONTINUOUS
 10
342.6118718812
 20
69.6105327503
 11
342.6118718812
 21
68.8103601791
  0
LWPOLYLINE
  5
2B1
100
AcDbEntity
  8
0
100
AcDbPolyline
 62
7
  6
CONTINUOUS
 90
4
 70
0
 10
337.244931412
 20
71.8844237599
 10
337.2504352638
 20
71.8821234604
 10
337.2552810197
 20
71.8815618281
 10
337.2599369661
 20
71.8829279989
  0
LWPOLYLINE
  5
2B2
100
AcDbEntity
  8
0
100
AcDbPolyline
 62
7
  6
CONTINUOUS
 90
5
 70
0
 10
342.707208975
 20
68.7308230183
 10
342.7121035718
 20
68.7286830583
 10
342.7165239598
 20
68.7279330935
 10
342.7205553591
 20
68.7285624876
 10
342.72221922
 20
68.7293191729
  0
LINE
  5
2B3
100
AcDbEntity
  8
0
100
AcDbLine
 62
7
  6
CONTINUOUS
 10
339.3167542809
 20
72.2478012369
 11
339.9955767908
 21
71.8558886792
  0
LINE
  5
2B4
100
AcDbEntity
  8
0
100
AcDbLine
 62
7
  6
CONTINUOUS
 10
339.5995969934
 20
72.411098136
 11
340.2784195033
 21
72.0191855783
  0
LINE
  5
2B5
100
AcDbEntity
  8
0
100
AcDbLine
 62
7
  6
CONTINUOUS
 10
342.7280999022
 20
68.7390033673
 11
342.8512065262
 21
69.4741147411
  0
LINE
  5
2B6
100
AcDbEntity
  8
0
100
AcDbLine
 62
7
  6
CONTINUOUS
 10
343.0204990241
 20
69.3565253317
 11
342.8867683158
 21
68.5579739493
  0
LINE
  5
2B7
100
AcDbEntity
  8
0
100
AcDbLine
 62
7
  6
CONTINUOUS
 10
337.517618628
 20
71.8171998749
 11
337.4112768072
 21
71.6659102293
  0
LWPOLYLINE
  5
2B8
100
AcDbEntity
  8
0
100
AcDbPolyline
 62
7
  6
CONTINUOUS
 90
4
 70
0
 10
337.2599369661
 20
71.8829279989
 10
337.2629982438
 20
71.8856545655
 10
337.2651427862
 20
71.8902975348
 10
337.2661446154
 20
71.8966715712
  0
LWPOLYLINE
  5
2B9
100
AcDbEntity
  8
0
100
AcDbPolyline
 62
7
  6
CONTINUOUS
 90
4
 70
0
 10
342.72221922
 20
68.7293191729
 10
342.7239421094
 20
68.7306031496
 10
342.7264285504
 20
68.7340869882
 10
342.7280999022
 20
68.7390033673
  0
LINE
  5
2BA
100
AcDbEntity
  8
0
100
AcDbLine
 62
7
  6
CONTINUOUS
 10
336.8712633579
 20
72.9570758085
 11
450.0083483478
 21
138.275835431
  0
LINE
  5
2BB
100
AcDbEntity
  8
0
100
AcDbLine
 62
9
  6
CONTINUOUS
 10
450.0433479592
 20
138.2723686121
 11
336.9062629694
 21
72.9536089896
  0
LINE
  5
2BC
100
AcDbEntity
  8
0
100
AcDbLine
 62
9
  6
CONTINUOUS
 10
336.9780644737
 20
72.9121549854
 11
450.1151494635
 21
138.2309146078
  0
LINE
  5
2BD
100
AcDbEntity
  8
0
100
AcDbLine
 62
9
  6
CONTINUOUS
 10
450.1638949603
 20
138.1555415085
 11
337.0268099705
 21
72.836781886
  0
LINE
  5
2BE
100
AcDbEntity
  8
0
100
AcDbLine
 62
7
  6
CONTINUOUS
 10
337.2785713554
 20
72.7243113241
 11
450.4156563452
 21
138.0430709465
  0
LINE
  5
2BF
100
AcDbEntity
  8
0
100
AcDbLine
 62
9
  6
CONTINUOUS
 10
450.4456560122
 20
138.0400993875
 11
337.3085710223
 21
72.721339765
  0
LINE
  5
2C0
100
AcDbEntity
  8
0
100
AcDbLine
 62
7
  6
CONTINUOUS
 10
337.3351398979
 20
72.6426617868
 11
337.0522971854
 21
72.4793648878
  0
LINE
  5
2C1
100
AcDbEntity
  8
0
100
AcDbLine
 62
7
  6
CONTINUOUS
 10
450.5270785863
 20
137.9930907382
 11
450.7550676002
 21
138.1247183084
  0
LINE
  5
2C2
100
AcDbEntity
  8
0
100
AcDbLine
 62
9
  6
CONTINUOUS
 10
450.7850672671
 20
138.1217467493
 11
450.5446519035
 21
137.9829449289
  0
LINE
  5
2C3
100
AcDbEntity
  8
0
100
AcDbLine
 62
9
  6
CONTINUOUS
 10
337.3651395648
 20
72.6396902278
 11
337.0822968523
 21
72.4763933287
  0
LINE
  5
2C4
100
AcDbEntity
  8
0
100
AcDbLine
 62
9
  6
CONTINUOUS
 10
337.1499165944
 20
71.9595213314
 11
337.2098737123
 21
71.9941370771
  0
LINE
  5
2C5
100
AcDbEntity
  8
0
100
AcDbLine
 62
9
  6
CONTINUOUS
 10
337.2485972745
 20
71.9721298445
 11
337.1708075216
 21
71.9272185745
  0
LINE
  5
2C6
100
AcDbEntity
  8
0
100
AcDbLine
 62
9
  6
CONTINUOUS
 10
337.244931412
 20
71.8844237599
 11
337.2661448509
 21
71.8966711633
  0
LINE
  5
2C7
100
AcDbEntity
  8
0
100
AcDbLine
 62
9
  6
CONTINUOUS
 10
337.4112768072
 20
71.6659102293
 11
337.5750777901
 21
71.7604793711
  0
LINE
  5
2C8
100
AcDbEntity
  8
0
100
AcDbLine
 62
7
  6
CONTINUOUS
 10
337.3888012099
 20
71.6450644014
 11
337.5787486317
 21
71.7547289733
  0
LINE
  5
2C9
100
AcDbEntity
  8
0
100
AcDbLine
 62
7
  6
CONTINUOUS
 10
339.4395987696
 20
72.4269464511
 11
339.1567560571
 21
72.2636495521
  0
LINE
  5
2CA
100
AcDbEntity
  8
0
100
AcDbLine
 62
7
  6
CONTINUOUS
 10
452.5766837594
 20
137.7457060736
 11
452.8595264719
 21
137.9090029727
  0
LINE
  5
2CB
100
AcDbEntity
  8
0
100
AcDbLine
 62
9
  6
CONTINUOUS
 10
453.0195246957
 20
137.8931546575
 11
452.7366819832
 21
137.7298577585
  0
LINE
  5
2CC
100
AcDbEntity
  8
0
100
AcDbLine
 62
9
  6
CONTINUOUS
 10
339.5995969934
 20
72.411098136
 11
339.3167542809
 21
72.2478012369
  0
LINE
  5
2CD
100
AcDbEntity
  8
0
100
AcDbLine
 62
9
  6
CONTINUOUS
 10
338.8642059409
 20
71.4476228646
 11
339.0904826228
 21
71.5782618341
  0
LINE
  5
2CE
100
AcDbEntity
  8
0
100
AcDbLine
 62
9
  6
CONTINUOUS
 10
452.3265609921
 20
136.9541744649
 11
452.5104103252
 21
137.0603183557
  0
LINE
  5
2CF
100
AcDbEntity
  8
0
100
AcDbLine
 62
9
  6
CONTINUOUS
 10
339.9955767908
 20
71.8558886792
 11
340.2784195033
 21
72.0191855783
  0
LINE
  5
2D0
100
AcDbEntity
  8
0
100
AcDbLine
 62
9
  6
CONTINUOUS
 10
453.4155044932
 20
137.3379452007
 11
453.6983472056
 21
137.5012420998
  0
LINE
  5
2D1
100
AcDbEntity
  8
0
100
AcDbLine
 62
9
  6
CONTINUOUS
 10
453.9246213756
 20
137.109323741
 11
453.6417786631
 21
136.9460268419
  0
LINE
  5
2D2
100
AcDbEntity
  8
0
100
AcDbLine
 62
9
  6
CONTINUOUS
 10
340.5046936733
 20
71.6272672194
 11
340.2218509608
 21
71.4639703204
  0
LINE
  5
2D3
100
AcDbEntity
  8
0
100
AcDbLine
 62
9
  6
CONTINUOUS
 10
340.2218509608
 20
70.9250785888
 11
340.5046936733
 21
71.0883754878
  0
LINE
  5
2D4
100
AcDbEntity
  8
0
100
AcDbLine
 62
9
  6
CONTINUOUS
 10
453.6417786631
 20
136.4071351103
 11
453.9246213756
 21
136.5704320093
  0
LINE
  5
2D5
100
AcDbEntity
  8
0
100
AcDbLine
 62
9
  6
CONTINUOUS
 10
454.1508955456
 20
136.1785136505
 11
453.910480182
 21
136.0397118302
  0
LINE
  5
2D6
100
AcDbEntity
  8
0
100
AcDbLine
 62
9
  6
CONTINUOUS
 10
340.7309678433
 20
70.696457129
 11
340.4481251308
 21
70.5331602299
  0
LINE
  5
2D7
100
AcDbEntity
  8
0
100
AcDbLine
 62
9
  6
CONTINUOUS
 10
341.791628957
 20
69.349247016
 11
341.7067752013
 21
69.3002574025
  0
LINE
  5
2D8
100
AcDbEntity
  8
0
100
AcDbLine
 62
9
  6
CONTINUOUS
 10
342.2300342194
 20
69.5043897659
 11
342.5128769319
 21
69.6676866649
  0
LINE
  5
2D9
100
AcDbEntity
  8
0
100
AcDbLine
 62
9
  6
CONTINUOUS
 10
455.6994600244
 20
135.0150236073
 11
455.9328046342
 21
135.1497431865
  0
LINE
  5
2DA
100
AcDbEntity
  8
0
100
AcDbLine
 62
9
  6
CONTINUOUS
 10
342.5694454743
 20
69.6840174425
 11
455.7065304642
 21
135.002777065
  0
LINE
  5
2DB
100
AcDbEntity
  8
0
100
AcDbLine
 62
9
  6
CONTINUOUS
 10
455.975231041
 20
135.0762584942
 11
455.7469799404
 21
134.9444796104
  0
LINE
  5
2DC
100
AcDbEntity
  8
0
100
AcDbLine
 62
9
  6
CONTINUOUS
 10
342.5553033387
 20
69.5942019727
 11
342.2724606262
 21
69.4309050736
  0
LINE
  5
2DD
100
AcDbEntity
  8
0
100
AcDbLine
 62
9
  6
CONTINUOUS
 10
455.7489568711
 20
134.9292923727
 11
342.6118718812
 21
69.6105327503
  0
LINE
  5
2DE
100
AcDbEntity
  8
0
100
AcDbLine
 62
7
  6
CONTINUOUS
 10
342.8649524115
 20
69.4966690411
 11
456.0020374014
 21
134.8154286636
  0
LINE
  5
2DF
100
AcDbEntity
  8
0
100
AcDbLine
 62
9
  6
CONTINUOUS
 10
456.0370370128
 20
134.8119618446
 11
342.899952023
 21
69.4932022222
  0
LINE
  5
2E0
100
AcDbEntity
  8
0
100
AcDbLine
 62
9
  6
CONTINUOUS
 10
342.2724606262
 20
69.1206340766
 11
342.5553033387
 21
69.2839309757
  0
LINE
  5
2E1
100
AcDbEntity
  8
0
100
AcDbLine
 62
7
  6
CONTINUOUS
 10
342.5428765988
 20
69.256463794
 11
342.2600338863
 21
69.093166895
  0
LINE
  5
2E2
100
AcDbEntity
  8
0
100
AcDbLine
 62
9
  6
CONTINUOUS
 10
342.9717535273
 20
69.4517482179
 11
456.1088385171
 21
134.7705078404
  0
LINE
  5
2E3
100
AcDbEntity
  8
0
100
AcDbLine
 62
9
  6
CONTINUOUS
 10
456.157584014
 20
134.6752849541
 11
343.0204990241
 21
69.3565253317
  0
LINE
  5
2E4
100
AcDbEntity
  8
0
100
AcDbLine
 62
9
  6
CONTINUOUS
 10
342.6118718812
 20
68.8103601791
 11
342.7537691959
 21
68.8922834192
  0
LINE
  5
2E5
100
AcDbEntity
  8
0
100
AcDbLine
 62
9
  6
CONTINUOUS
 10
342.7446869491
 20
68.8380502457
 11
342.6330850847
 21
68.7736178329
  0
LINE
  5
2E6
100
AcDbEntity
  8
0
100
AcDbLine
 62
9
  6
CONTINUOUS
 10
342.707208975
 20
68.7308230183
 11
342.7264194552
 21
68.74191403
  0
LINE
  5
2E7
100
AcDbEntity
  8
0
100
AcDbLine
 62
9
  6
CONTINUOUS
 10
342.8867683158
 20
68.5579739493
 11
456.0238533057
 21
133.8767335718
  0
LINE
  5
2E8
100
AcDbEntity
  8
0
100
AcDbLine
 62
7
  6
CONTINUOUS
 10
342.8474943576
 20
68.4935330923
 11
455.9845793474
 21
133.8122927148
  0
LINE
  5
2E9
100
AcDbEntity
  8
0
100
AcDbLine
 62
9
  6
CONTINUOUS
 10
341.7067752013
 20
67.2426707908
 11
455.4095456161
 21
132.8880242113
  0
LINE
  5
2EA
100
AcDbEntity
  8
0
100
AcDbLine
 62
7
  6
CONTINUOUS
 10
341.6404992551
 20
67.0961791553
 11
455.3432696699
 21
132.7415325759
  0
LINE
  5
2EB
100
AcDbEntity
  8
0
100
AcDbLine
 62
7
  6
CONTINUOUS
 10
452.5104078132
 20
137.5992144381
 11
452.5104078132
 21
137.0603227065
  0
LINE
  5
2EC
100
AcDbEntity
  8
0
100
AcDbLine
 62
7
  6
CONTINUOUS
 10
456.0238533057
 20
133.8767335718
 11
456.157584014
 21
134.6752849541
  0
LINE
  5
2ED
100
AcDbEntity
  8
0
100
AcDbLine
 62
7
  6
CONTINUOUS
 10
453.6417786631
 20
136.4071351103
 11
453.6417786631
 21
136.9460268419
  0
LINE
  5
2EE
100
AcDbEntity
  8
0
100
AcDbLine
 62
7
  6
CONTINUOUS
 10
453.9246213756
 20
136.5704320093
 11
453.9246213756
 21
137.109323741
  0
LINE
  5
2EF
100
AcDbEntity
  8
0
100
AcDbLine
 62
7
  6
CONTINUOUS
 10
455.1267029036
 20
133.3170048503
 11
455.1267029036
 21
132.7247273123
  0
LINE
  5
2F0
100
AcDbEntity
  8
0
100
AcDbLine
 62
7
  6
CONTINUOUS
 10
455.4095456161
 20
132.8880242113
 11
455.4095456161
 21
133.4803017493
  0
LINE
  5
2F1
100
AcDbEntity
  8
0
100
AcDbLine
 62
7
  6
CONTINUOUS
 10
455.7489568711
 20
134.9292923727
 11
455.7489568711
 21
134.6693147141
  0
LINE
  5
2F2
100
AcDbEntity
  8
0
100
AcDbLine
 62
7
  6
CONTINUOUS
 10
455.975231041
 20
134.7999522333
 11
455.975231041
 21
135.0762584942
  0
LINE
  5
2F3
100
AcDbEntity
  8
0
100
AcDbLine
 62
7
  6
CONTINUOUS
 10
450.0433479592
 20
138.2723686121
 11
450.1151494635
 21
138.2309146078
  0
LINE
  5
2F4
100
AcDbEntity
  8
0
100
AcDbLine
 62
7
  6
CONTINUOUS
 10
450.4456560122
 20
138.0400993875
 11
455.7065304642
 21
135.002777065
  0
LINE
  5
2F5
100
AcDbEntity
  8
0
100
AcDbLine
 62
7
  6
CONTINUOUS
 10
456.0370370128
 20
134.8119618446
 11
456.1088385171
 21
134.7705078404
  0
LINE
  5
2F6
100
AcDbEntity
  8
0
100
AcDbLine
 62
7
  6
CONTINUOUS
 10
455.9328046342
 20
135.1497431865
 11
454.1508955456
 21
136.1785136505
  0
LINE
  5
2F7
100
AcDbEntity
  8
0
100
AcDbLine
 62
7
  6
CONTINUOUS
 10
452.5104078132
 20
137.125635665
 11
450.7850672671
 21
138.1217467493
  0
LINE
  5
2F8
100
AcDbEntity
  8
0
100
AcDbLine
 62
7
  6
CONTINUOUS
 10
453.4155044932
 20
137.3379452007
 11
452.7366819832
 21
137.7298577585
  0
LINE
  5
2F9
100
AcDbEntity
  8
0
100
AcDbLine
 62
7
  6
CONTINUOUS
 10
453.6983472056
 20
137.5012420998
 11
453.0195246957
 21
137.8931546575
  0
LINE
  5
2FA
100
AcDbEntity
  8
0
100
AcDbLine
 62
7
  6
CONTINUOUS
 10
450.1973638333
 20
137.9170415715
 11
450.1638949603
 21
138.1555415085
  0
LINE
  5
2FB
100
AcDbEntity
  8
0
100
AcDbLine
 62
7
  6
CONTINUOUS
 10
406.3278199617
 20
71.2938351013
 11
406.4952017608
 21
70.8624325293
  0
LWPOLYLINE
  5
2FC
100
AcDbEntity
  8
0
100
AcDbPolyline
 62
7
  6
CONTINUOUS
 90
7
 70
0
 10
406.4952017608
 20
70.8624325293
 10
406.4969158988
 20
70.8576367957
 10
406.4983271961
 20
70.852888627
 10
406.4994392878
 20
70.8481702601
 10
406.5002412691
 20
70.8435349837
 10
406.5007222354
 20
70.8390360863
 10
406.5008858215
 20
70.8346558051
  0
LINE
  5
2FD
100
AcDbEntity
  8
0
100
AcDbLine
 62
7
  6
CONTINUOUS
 10
410.9799383674
 20
68.253002848
 11
411.330425137
 21
67.9973710963
  0
LWPOLYLINE
  5
2FE
100
AcDbEntity
  8
0
100
AcDbPolyline
 62
7
  6
CONTINUOUS
 90
7
 70
0
 10
411.6446430568
 20
68.0814943464
 10
411.6432081451
 20
68.0877696477
 10
411.6409036015
 20
68.0938139407
 10
411.6376817374
 20
68.0997449709
 10
411.633685619
 20
68.105209502
 10
411.6290583126
 20
68.1098542976
 10
411.6237521296
 20
68.1137971032
  0
LWPOLYLINE
  5
2FF
100
AcDbEntity
  8
0
100
AcDbPolyline
 62
7
  6
CONTINUOUS
 90
7
 70
0
 10
406.18268777
 20
71.2306554987
 10
406.1819280083
 20
71.2374494885
 10
406.1799915684
 20
71.2441629145
 10
406.1768162289
 20
71.2509715974
 10
406.1725886537
 20
71.2573480747
 10
406.1674955067
 20
71.2627648835
 10
406.1614745666
 20
71.2673978449
  0
LINE
  5
300
100
AcDbEntity
  8
0
100
AcDbLine
 62
7
  6
CONTINUOUS
 10
405.9564136
 20
70.2835168061
 11
405.9564136
 21
70.5937878031
  0
LINE
  5
301
100
AcDbEntity
  8
0
100
AcDbLine
 62
7
  6
CONTINUOUS
 10
406.18268777
 20
70.7447180285
 11
406.18268777
 21
71.2306554987
  0
LINE
  5
302
100
AcDbEntity
  8
0
100
AcDbLine
 62
7
  6
CONTINUOUS
 10
406.3594644653
 20
70.8673140972
 11
406.3594644653
 21
70.7366736774
  0
LINE
  5
303
100
AcDbEntity
  8
0
100
AcDbLine
 62
7
  6
CONTINUOUS
 10
406.3806776687
 20
70.6917663051
 11
406.3806776687
 21
70.8550668298
  0
LINE
  5
304
100
AcDbEntity
  8
0
100
AcDbLine
 62
7
  6
CONTINUOUS
 10
406.522099025
 20
70.4141644772
 11
406.522099025
 21
72.4717510889
  0
LINE
  5
305
100
AcDbEntity
  8
0
100
AcDbLine
 62
7
  6
CONTINUOUS
 10
408.0070232655
 20
68.2504515593
 11
408.0070232655
 21
68.7893432909
  0
LINE
  5
306
100
AcDbEntity
  8
0
100
AcDbLine
 62
7
  6
CONTINUOUS
 10
409.1383941154
 20
68.1361556947
 11
409.1383941154
 21
67.597263963
  0
LINE
  5
307
100
AcDbEntity
  8
0
100
AcDbLine
 62
7
  6
CONTINUOUS
 10
409.4212368278
 20
68.2341396352
 11
409.4212368278
 21
67.7605608621
  0
LINE
  5
308
100
AcDbEntity
  8
0
100
AcDbLine
 62
7
  6
CONTINUOUS
 10
408.9121199454
 20
67.4666206427
 11
408.2332974354
 21
67.8585332004
  0
LINE
  5
309
100
AcDbEntity
  8
0
100
AcDbLine
 62
7
  6
CONTINUOUS
 10
411.1465773739
 20
67.238028551
 11
409.3646682853
 21
68.266799015
  0
LINE
  5
30A
100
AcDbEntity
  8
0
100
AcDbLine
 62
7
  6
CONTINUOUS
 10
407.7807490955
 20
69.1812616497
 11
405.9988400069
 21
70.2100321138
  0
LINE
  5
30B
100
AcDbEntity
  8
0
100
AcDbLine
 62
7
  6
CONTINUOUS
 10
411.8882966818
 20
67.0874066882
 11
411.8164951775
 21
67.1288606924
  0
LINE
  5
30C
100
AcDbEntity
  8
0
100
AcDbLine
 62
7
  6
CONTINUOUS
 10
411.4859886289
 20
67.3196759128
 11
411.4045660548
 21
67.366684562
  0
LINE
  5
30D
100
AcDbEntity
  8
0
100
AcDbLine
 62
7
  6
CONTINUOUS
 10
405.8946076282
 20
70.5478134556
 11
405.8228061239
 21
70.5892674598
  0
LINE
  5
30E
100
AcDbEntity
  8
0
100
AcDbLine
 62
7
  6
CONTINUOUS
 10
405.9988400069
 20
70.6182834256
 11
406.4372462112
 21
70.3651732321
  0
LINE
  5
30F
100
AcDbEntity
  8
0
100
AcDbLine
 62
7
  6
CONTINUOUS
 10
410.7081711696
 20
67.8993900563
 11
411.1465773739
 21
67.6462798628
  0
LINE
  5
310
100
AcDbEntity
  8
0
100
AcDbLine
 62
7
  6
CONTINUOUS
 10
406.2816827194
 20
70.7815803247
 11
406.522099025
 21
70.6427779605
  0
LINE
  5
311
100
AcDbEntity
  8
0
100
AcDbLine
 62
7
  6
CONTINUOUS
 10
410.9910138821
 20
68.0626869554
 11
411.4294200864
 21
67.8095767619
  0
LINE
  5
312
100
AcDbEntity
  8
0
100
AcDbLine
 62
7
  6
CONTINUOUS
 10
411.3516383405
 20
67.9851238289
 11
411.2526433911
 21
68.0422777436
  0
LINE
  5
313
100
AcDbEntity
  8
0
100
AcDbLine
 62
7
  6
CONTINUOUS
 10
406.4584594147
 20
70.8101601826
 11
406.3594644653
 21
70.8673140972
  0
LINE
  5
314
100
AcDbEntity
  8
0
100
AcDbLine
 62
7
  6
CONTINUOUS
 10
411.6237521296
 20
68.1137971032
 11
411.5496282392
 21
68.1565919178
  0
LINE
  5
315
100
AcDbEntity
  8
0
100
AcDbLine
 62
7
  6
CONTINUOUS
 10
406.1614745666
 20
71.2673978449
 11
406.0873506762
 21
71.3101926595
  0
LINE
  5
316
100
AcDbEntity
  8
0
100
AcDbLine
 62
7
  6
CONTINUOUS
 10
406.0470641835
 20
71.5375773885
 11
406.2053454746
 21
71.4461949951
  0
LINE
  5
317
100
AcDbEntity
  8
0
100
AcDbLine
 62
7
  6
CONTINUOUS
 10
411.5057573312
 20
68.3860460794
 11
411.6640386223
 21
68.294663686
  0
LINE
  5
318
100
AcDbEntity
  8
0
100
AcDbLine
 62
7
  6
CONTINUOUS
 10
406.748373195
 20
72.6023944092
 11
410.3970441859
 21
70.4958644114
  0
LINE
  5
319
100
AcDbEntity
  8
0
100
AcDbLine
 62
7
  6
CONTINUOUS
 10
407.0312159074
 20
72.7656913083
 11
410.6798868983
 21
70.6591613105
  0
LINE
  5
31A
100
AcDbEntity
  8
0
100
AcDbLine
 62
7
  6
CONTINUOUS
 10
411.7677496807
 20
67.2042337917
 11
411.6446430568
 21
68.0814943464
  0
LINE
  5
31B
100
AcDbEntity
  8
0
100
AcDbLine
 62
7
  6
CONTINUOUS
 10
411.8033114704
 20
68.0793119737
 11
411.9370421787
 21
67.1263439562
  0
LINE
  5
31C
100
AcDbEntity
  8
0
100
AcDbLine
 62
7
  6
CONTINUOUS
 10
410.6233183559
 20
70.1039460526
 11
410.6233183559
 21
68.0463594409
  0
LINE
  5
31D
100
AcDbEntity
  8
0
100
AcDbLine
 62
7
  6
CONTINUOUS
 10
410.9061610683
 20
70.2672429516
 11
410.9061610683
 21
68.20965634
  0
LINE
  5
31E
100
AcDbEntity
  8
0
100
AcDbLine
 62
7
  6
CONTINUOUS
 10
411.1890037808
 20
67.5727951705
 11
411.1890037808
 21
67.2625241735
  0
LINE
  5
31F
100
AcDbEntity
  8
0
100
AcDbLine
 62
7
  6
CONTINUOUS
 10
411.330425137
 20
67.9973710963
 11
411.330425137
 21
67.8340705716
  0
LINE
  5
320
100
AcDbEntity
  8
0
100
AcDbLine
 62
7
  6
CONTINUOUS
 10
411.3516383405
 20
67.8340705716
 11
411.3516383405
 21
67.9851238289
  0
LINE
  5
321
100
AcDbEntity
  8
0
100
AcDbLine
 62
7
  6
CONTINUOUS
 10
411.4718464933
 20
67.7360920696
 11
411.4718464933
 21
67.4258210726
  0
LINE
  5
322
100
AcDbEntity
  8
0
100
AcDbLine
 62
7
  6
CONTINUOUS
 10
411.5284150358
 20
68.1443441066
 11
411.5284150358
 21
67.3441715353
  0
LINE
  5
323
100
AcDbEntity
  8
0
100
AcDbLine
 62
9
  6
CONTINUOUS
 10
412.2496639526
 20
74.0394071209
 11
412.2496639526
 21
73.7128060714
  0
LINE
  5
324
100
AcDbEntity
  8
0
100
AcDbLine
 62
9
  6
CONTINUOUS
 10
413.3103241244
 20
74.3251694429
 11
413.3103241244
 21
74.6517704924
  0
LWPOLYLINE
  5
325
100
AcDbEntity
  8
0
100
AcDbPolyline
 62
7
  6
CONTINUOUS
 90
7
 70
0
 10
411.2102169842
 20
68.1157624358
 10
411.2103805704
 20
68.1199538268
 10
411.2108615367
 20
68.1238973604
 10
411.211663518
 20
68.1276066023
 10
411.2127756096
 20
68.1310408553
 10
411.214186907
 20
68.1341594223
 10
411.215901045
 20
68.1369758691
  0
LINE
  5
326
100
AcDbEntity
  8
0
100
AcDbLine
 62
7
  6
CONTINUOUS
 10
405.7740606271
 20
70.6844903461
 11
405.9077913354
 21
71.4830417284
  0
LINE
  5
327
100
AcDbEntity
  8
0
100
AcDbLine
 62
7
  6
CONTINUOUS
 10
406.066459749
 20
71.3020123104
 11
405.9433531251
 21
70.5669009366
  0
LWPOLYLINE
  5
328
100
AcDbEntity
  8
0
100
AcDbPolyline
 62
7
  6
CONTINUOUS
 90
4
 70
0
 10
411.5496282392
 20
68.1565919178
 10
411.5441243874
 20
68.1588922174
 10
411.5392786315
 20
68.1594538497
 10
411.5346226851
 20
68.1580876789
  0
LINE
  5
329
100
AcDbEntity
  8
0
100
AcDbLine
 62
7
  6
CONTINUOUS
 10
406.3806776687
 20
70.8550668298
 11
406.522099025
 21
70.7949173022
  0
LWPOLYLINE
  5
32A
100
AcDbEntity
  8
0
100
AcDbPolyline
 62
7
  6
CONTINUOUS
 90
5
 70
0
 10
406.0873506762
 20
71.3101926595
 10
406.0824560794
 20
71.3123326195
 10
406.0780356914
 20
71.3130825842
 10
406.0740042921
 20
71.3124531901
 10
406.0723404312
 20
71.3116965049
  0
LINE
  5
32B
100
AcDbEntity
  8
0
100
AcDbLine
 62
9
  6
CONTINUOUS
 10
429.9273334822
 20
84.2454633119
 11
429.9273334822
 21
83.9188622625
  0
LINE
  5
32C
100
AcDbEntity
  8
0
100
AcDbLine
 62
9
  6
CONTINUOUS
 10
430.987993654
 20
84.5312256339
 11
430.987993654
 21
84.8578266834
  0
LINE
  5
32D
100
AcDbEntity
  8
0
100
AcDbLine
 62
7
  6
CONTINUOUS
 10
411.215901045
 20
68.1369758691
 11
411.3832828441
 21
68.3751054485
  0
LINE
  5
32E
100
AcDbEntity
  8
0
100
AcDbLine
 62
9
  6
CONTINUOUS
 10
447.6050030119
 20
94.4515195029
 11
447.6050030119
 21
94.1249184535
  0
LINE
  5
32F
100
AcDbEntity
  8
0
100
AcDbLine
 62
9
  6
CONTINUOUS
 10
448.6656631837
 20
94.7372818249
 11
448.6656631837
 21
95.0638828744
  0
LWPOLYLINE
  5
330
100
AcDbEntity
  8
0
100
AcDbPolyline
 62
7
  6
CONTINUOUS
 90
4
 70
0
 10
411.5346226851
 20
68.1580876789
 10
411.5315614074
 20
68.1553611123
 10
411.529416865
 20
68.150718143
 10
411.5284150358
 20
68.1443441066
  0
LWPOLYLINE
  5
331
100
AcDbEntity
  8
0
100
AcDbPolyline
 62
7
  6
CONTINUOUS
 90
4
 70
0
 10
406.0723404312
 20
71.3116965049
 10
406.0706175419
 20
71.3104125282
 10
406.0681311008
 20
71.3069286895
 10
406.066459749
 20
71.3020123104
  0
LINE
  5
332
100
AcDbEntity
  8
0
100
AcDbLine
 62
9
  6
CONTINUOUS
 10
465.2826725416
 20
104.6575756939
 11
465.2826725416
 21
104.3309746445
  0
LINE
  5
333
100
AcDbEntity
  8
0
100
AcDbLine
 62
7
  6
CONTINUOUS
 10
406.5883749712
 20
72.6182427244
 11
520.291145386
 21
138.2635961449
  0
LINE
  5
334
100
AcDbEntity
  8
0
100
AcDbLine
 62
9
  6
CONTINUOUS
 10
520.4511436098
 20
138.2477478298
 11
406.748373195
 21
72.6023944092
  0
LINE
  5
335
100
AcDbEntity
  8
0
100
AcDbLine
 62
7
  6
CONTINUOUS
 10
405.9470652936
 20
71.5474825855
 11
406.522099025
 21
71.8794735509
  0
LINE
  5
336
100
AcDbEntity
  8
0
100
AcDbLine
 62
9
  6
CONTINUOUS
 10
406.522099025
 20
71.8118348226
 11
406.0470641835
 21
71.5375773885
  0
LINE
  5
337
100
AcDbEntity
  8
0
100
AcDbLine
 62
9
  6
CONTINUOUS
 10
406.2053454746
 20
71.4461949951
 11
406.522099025
 21
71.6290700358
  0
LINE
  5
338
100
AcDbEntity
  8
0
100
AcDbLine
 62
9
  6
CONTINUOUS
 10
406.0856702292
 20
71.3131033222
 11
406.066459749
 21
71.3020123105
  0
LINE
  5
339
100
AcDbEntity
  8
0
100
AcDbLine
 62
9
  6
CONTINUOUS
 10
406.522099025
 20
71.4060005105
 11
406.3278199617
 21
71.2938351013
  0
LINE
  5
33A
100
AcDbEntity
  8
0
100
AcDbLine
 62
7
  6
CONTINUOUS
 10
406.2516830524
 20
70.7845518838
 11
405.9688403399
 21
70.6212549847
  0
LINE
  5
33B
100
AcDbEntity
  8
0
100
AcDbLine
 62
9
  6
CONTINUOUS
 10
406.2816827194
 20
70.7815803247
 11
405.9988400069
 21
70.6182834256
  0
LINE
  5
33C
100
AcDbEntity
  8
0
100
AcDbLine
 62
9
  6
CONTINUOUS
 10
405.9433531251
 20
70.5669009366
 11
405.9647908223
 21
70.5792778137
  0
LINE
  5
33D
100
AcDbEntity
  8
0
100
AcDbLine
 62
7
  6
CONTINUOUS
 10
405.9296072397
 20
70.5443466367
 11
405.9496829561
 21
70.5559371854
  0
LINE
  5
33E
100
AcDbEntity
  8
0
100
AcDbLine
 62
9
  6
CONTINUOUS
 10
406.4952017608
 20
70.8624325292
 11
406.522099025
 21
70.8779614421
  0
LINE
  5
33F
100
AcDbEntity
  8
0
100
AcDbLine
 62
7
  6
CONTINUOUS
 10
406.5174372643
 20
70.8239189374
 11
406.4884590816
 21
70.8071886235
  0
LINE
  5
340
100
AcDbEntity
  8
0
100
AcDbLine
 62
7
  6
CONTINUOUS
 10
412.2496639526
 20
74.0394071209
 11
413.3103241244
 21
74.6517704924
  0
LINE
  5
341
100
AcDbEntity
  8
0
100
AcDbLine
 62
7
  6
CONTINUOUS
 10
429.9273334822
 20
84.2454633119
 11
430.987993654
 21
84.8578266834
  0
LINE
  5
342
100
AcDbEntity
  8
0
100
AcDbLine
 62
7
  6
CONTINUOUS
 10
447.6050030119
 20
94.4515195029
 11
448.6656631837
 21
95.0638828744
  0
LINE
  5
343
100
AcDbEntity
  8
0
100
AcDbLine
 62
7
  6
CONTINUOUS
 10
465.2826725416
 20
104.6575756939
 11
466.3433327134
 21
105.2699390654
  0
LINE
  5
344
100
AcDbEntity
  8
0
100
AcDbLine
 62
7
  6
CONTINUOUS
 10
482.9603420712
 20
114.863631885
 11
484.021002243
 21
115.4759952564
  0
LINE
  5
345
100
AcDbEntity
  8
0
100
AcDbLine
 62
7
  6
CONTINUOUS
 10
500.6380116009
 20
125.069688076
 11
501.6986717727
 21
125.6820514474
  0
LINE
  5
346
100
AcDbEntity
  8
0
100
AcDbLine
 62
7
  6
CONTINUOUS
 10
518.3156811306
 20
135.275744267
 11
519.3763413023
 21
135.8881076384
  0
LINE
  5
347
100
AcDbEntity
  8
0
100
AcDbLine
 62
9
  6
CONTINUOUS
 10
406.4372462112
 20
70.3651732321
 11
406.5220999669
 21
70.4141628456
  0
LINE
  5
348
100
AcDbEntity
  8
0
100
AcDbLine
 62
7
  6
CONTINUOUS
 10
412.2496639526
 20
73.7128060714
 11
413.3103241244
 21
74.3251694429
  0
LINE
  5
349
100
AcDbEntity
  8
0
100
AcDbLine
 62
7
  6
CONTINUOUS
 10
429.9273334822
 20
83.9188622625
 11
430.987993654
 21
84.5312256339
  0
LINE
  5
34A
100
AcDbEntity
  8
0
100
AcDbLine
 62
7
  6
CONTINUOUS
 10
447.6050030119
 20
94.1249184535
 11
448.6656631837
 21
94.7372818249
  0
LINE
  5
34B
100
AcDbEntity
  8
0
100
AcDbLine
 62
7
  6
CONTINUOUS
 10
465.2826725416
 20
104.3309746445
 11
466.3433327134
 21
104.9433380159
  0
LINE
  5
34C
100
AcDbEntity
  8
0
100
AcDbLine
 62
7
  6
CONTINUOUS
 10
482.9603420712
 20
114.5370308355
 11
484.021002243
 21
115.1493942069
  0
LINE
  5
34D
100
AcDbEntity
  8
0
100
AcDbLine
 62
7
  6
CONTINUOUS
 10
500.6380116009
 20
124.7430870265
 11
501.6986717727
 21
125.355450398
  0
LINE
  5
34E
100
AcDbEntity
  8
0
100
AcDbLine
 62
7
  6
CONTINUOUS
 10
518.3156811306
 20
134.9491432175
 11
519.3763413023
 21
135.561506589
  0
LINE
  5
34F
100
AcDbEntity
  8
0
100
AcDbLine
 62
9
  6
CONTINUOUS
 10
412.3669227676
 20
73.6246466179
 11
413.7039549888
 21
74.3965711047
  0
LINE
  5
350
100
AcDbEntity
  8
0
100
AcDbLine
 62
9
  6
CONTINUOUS
 10
430.0445922973
 20
83.8307028089
 11
431.3816245184
 21
84.6026272957
  0
LINE
  5
351
100
AcDbEntity
  8
0
100
AcDbLine
 62
9
  6
CONTINUOUS
 10
447.7222618269
 20
94.0367589999
 11
449.0592940481
 21
94.8086834867
  0
LINE
  5
352
100
AcDbEntity
  8
0
100
AcDbLine
 62
9
  6
CONTINUOUS
 10
465.3999313566
 20
104.2428151909
 11
466.7369635777
 21
105.0147396777
  0
LINE
  5
353
100
AcDbEntity
  8
0
100
AcDbLine
 62
9
  6
CONTINUOUS
 10
483.0776008863
 20
114.448871382
 11
484.4146331074
 21
115.2207958687
  0
LINE
  5
354
100
AcDbEntity
  8
0
100
AcDbLine
 62
9
  6
CONTINUOUS
 10
500.7552704159
 20
124.654927573
 11
502.0923026371
 21
125.4268520597
  0
LINE
  5
355
100
AcDbEntity
  8
0
100
AcDbLine
 62
9
  6
CONTINUOUS
 10
518.4329399456
 20
134.860983764
 11
519.3156787591
 21
135.3706257118
  0
LINE
  5
356
100
AcDbEntity
  8
0
100
AcDbLine
 62
9
  6
CONTINUOUS
 10
519.3156787591
 20
135.2791012655
 11
518.5499896823
 21
134.8370370143
  0
LINE
  5
357
100
AcDbEntity
  8
0
100
AcDbLine
 62
9
  6
CONTINUOUS
 10
502.2133403827
 20
125.405207754
 11
500.8723201526
 21
124.6309808233
  0
LINE
  5
358
100
AcDbEntity
  8
0
100
AcDbLine
 62
9
  6
CONTINUOUS
 10
484.535670853
 20
115.199151563
 11
483.1946506229
 21
114.4249246323
  0
LINE
  5
359
100
AcDbEntity
  8
0
100
AcDbLine
 62
9
  6
CONTINUOUS
 10
466.8580013233
 20
104.993095372
 11
465.5169810933
 21
104.2188684413
  0
LINE
  5
35A
100
AcDbEntity
  8
0
100
AcDbLine
 62
9
  6
CONTINUOUS
 10
449.1803317937
 20
94.787039181
 11
447.8393115636
 21
94.0128122503
  0
LINE
  5
35B
100
AcDbEntity
  8
0
100
AcDbLine
 62
9
  6
CONTINUOUS
 10
431.502662264
 20
84.58098299
 11
430.161642034
 21
83.8067560593
  0
LINE
  5
35C
100
AcDbEntity
  8
0
100
AcDbLine
 62
9
  6
CONTINUOUS
 10
413.8249927343
 20
74.374926799
 11
412.4839725043
 21
73.6006998683
  0
LINE
  5
35D
100
AcDbEntity
  8
0
100
AcDbLine
 62
9
  6
CONTINUOUS
 10
519.3156787591
 20
135.2080393907
 11
518.668157624
 21
134.8341984226
  0
LINE
  5
35E
100
AcDbEntity
  8
0
100
AcDbLine
 62
9
  6
CONTINUOUS
 10
502.2961876
 20
125.3819770344
 11
500.9904880943
 21
124.6281422316
  0
LINE
  5
35F
100
AcDbEntity
  8
0
100
AcDbLine
 62
9
  6
CONTINUOUS
 10
484.6185180703
 20
115.1759208434
 11
483.3128185647
 21
114.4220860406
  0
LINE
  5
360
100
AcDbEntity
  8
0
100
AcDbLine
 62
9
  6
CONTINUOUS
 10
466.9408485407
 20
104.9698646524
 11
465.635149035
 21
104.2160298496
  0
LINE
  5
361
100
AcDbEntity
  8
0
100
AcDbLine
 62
9
  6
CONTINUOUS
 10
449.263179011
 20
94.7638084614
 11
447.9574795054
 21
94.0099736586
  0
LINE
  5
362
100
AcDbEntity
  8
0
100
AcDbLine
 62
9
  6
CONTINUOUS
 10
431.5855094813
 20
84.5577522704
 11
430.2798099757
 21
83.8039174676
  0
LINE
  5
363
100
AcDbEntity
  8
0
100
AcDbLine
 62
9
  6
CONTINUOUS
 10
413.9078399517
 20
74.3516960794
 11
412.602140446
 21
73.5978612766
  0
LINE
  5
364
100
AcDbEntity
  8
0
100
AcDbLine
 62
9
  6
CONTINUOUS
 10
519.6494181644
 20
135.4007248434
 11
519.4285394983
 21
135.2732023247
  0
LINE
  5
365
100
AcDbEntity
  8
0
100
AcDbLine
 62
9
  6
CONTINUOUS
 10
412.6335368575
 20
73.5996576824
 11
413.9149110195
 21
74.3394484494
  0
LINE
  5
366
100
AcDbEntity
  8
0
100
AcDbLine
 62
9
  6
CONTINUOUS
 10
430.3112063871
 20
83.8057138734
 11
431.5925805491
 21
84.5455046404
  0
LINE
  5
367
100
AcDbEntity
  8
0
100
AcDbLine
 62
9
  6
CONTINUOUS
 10
447.9888759168
 20
94.0117700644
 11
449.2702500788
 21
94.7515608314
  0
LINE
  5
368
100
AcDbEntity
  8
0
100
AcDbLine
 62
9
  6
CONTINUOUS
 10
465.6665454465
 20
104.2178262554
 11
466.9479196085
 21
104.9576170224
  0
LINE
  5
369
100
AcDbEntity
  8
0
100
AcDbLine
 62
9
  6
CONTINUOUS
 10
483.3442149761
 20
114.4238824464
 11
484.6255891381
 21
115.1636732134
  0
LINE
  5
36A
100
AcDbEntity
  8
0
100
AcDbLine
 62
9
  6
CONTINUOUS
 10
501.0218845058
 20
124.6299386375
 11
502.3032586678
 21
125.3697294044
  0
LINE
  5
36B
100
AcDbEntity
  8
0
100
AcDbLine
 62
9
  6
CONTINUOUS
 10
518.6995540355
 20
134.8359948285
 11
519.3054603563
 21
135.1858098279
  0
LINE
  5
36C
100
AcDbEntity
  8
0
100
AcDbLine
 62
9
  6
CONTINUOUS
 10
519.4568226926
 20
135.2242143952
 11
519.7059851754
 21
135.3680663477
  0
LINE
  5
36D
100
AcDbEntity
  8
0
100
AcDbLine
 62
7
  6
CONTINUOUS
 10
502.3350678758
 20
125.3146334245
 11
501.274407704
 21
124.7022700531
  0
LINE
  5
36E
100
AcDbEntity
  8
0
100
AcDbLine
 62
7
  6
CONTINUOUS
 10
484.6573983461
 20
115.1085772335
 11
483.5967381743
 21
114.4962138621
  0
LINE
  5
36F
100
AcDbEntity
  8
0
100
AcDbLine
 62
7
  6
CONTINUOUS
 10
466.9797288164
 20
104.9025210425
 11
465.9190686446
 21
104.2901576711
  0
LINE
  5
370
100
AcDbEntity
  8
0
100
AcDbLine
 62
7
  6
CONTINUOUS
 10
449.3020592868
 20
94.6964648515
 11
448.241399115
 21
94.0841014801
  0
LINE
  5
371
100
AcDbEntity
  8
0
100
AcDbLine
 62
7
  6
CONTINUOUS
 10
431.6243897571
 20
84.4904086605
 11
430.5637295853
 21
83.8780452891
  0
LINE
  5
372
100
AcDbEntity
  8
0
100
AcDbLine
 62
7
  6
CONTINUOUS
 10
413.9467202274
 20
74.2843524695
 11
412.8860600557
 21
73.671989098
  0
LINE
  5
373
100
AcDbEntity
  8
0
100
AcDbLine
 62
7
  6
CONTINUOUS
 10
518.9520772336
 20
134.9083262441
 11
520.0127374054
 21
135.5206896156
  0
LINE
  5
374
100
AcDbEntity
  8
0
100
AcDbLine
 62
9
  6
CONTINUOUS
 10
410.3970441859
 20
70.4958644114
 11
524.0998146007
 21
136.141217832
  0
LINE
  5
375
100
AcDbEntity
  8
0
100
AcDbLine
 62
9
  6
CONTINUOUS
 10
519.4285394983
 20
135.4955884517
 11
519.4570633049
 21
135.5114865467
  0
LINE
  5
376
100
AcDbEntity
  8
0
100
AcDbLine
 62
9
  6
CONTINUOUS
 10
466.3433327134
 20
104.9433380159
 11
466.3433327134
 21
105.2699390654
  0
LINE
  5
377
100
AcDbEntity
  8
0
100
AcDbLine
 62
9
  6
CONTINUOUS
 10
524.3260887707
 20
135.7492994731
 11
410.6233183559
 21
70.1039460526
  0
LINE
  5
378
100
AcDbEntity
  8
0
100
AcDbLine
 62
9
  6
CONTINUOUS
 10
409.3646707973
 20
68.2667946642
 11
409.1383941154
 21
68.1361556947
  0
LINE
  5
379
100
AcDbEntity
  8
0
100
AcDbLine
 62
9
  6
CONTINUOUS
 10
409.1383941154
 20
67.597263963
 11
409.4212368278
 21
67.7605608621
  0
LINE
  5
37A
100
AcDbEntity
  8
0
100
AcDbLine
 62
7
  6
CONTINUOUS
 10
409.3549608816
 20
67.6140692266
 11
409.0721181692
 21
67.4507723276
  0
LINE
  5
37B
100
AcDbEntity
  8
0
100
AcDbLine
 62
9
  6
CONTINUOUS
 10
410.9061610683
 20
68.3927396407
 11
524.0432460582
 21
133.7114992631
  0
LINE
  5
37C
100
AcDbEntity
  8
0
100
AcDbLine
 62
9
  6
CONTINUOUS
 10
524.1170233572
 20
133.5717624705
 11
410.9799383674
 21
68.253002848
  0
LINE
  5
37D
100
AcDbEntity
  8
0
100
AcDbLine
 62
9
  6
CONTINUOUS
 10
410.6233183559
 20
68.0463594409
 11
410.9061610683
 21
68.20965634
  0
LINE
  5
37E
100
AcDbEntity
  8
0
100
AcDbLine
 62
9
  6
CONTINUOUS
 10
524.1173488917
 20
133.57119862
 11
524.3260887707
 21
133.6917128615
  0
LINE
  5
37F
100
AcDbEntity
  8
0
100
AcDbLine
 62
7
  6
CONTINUOUS
 10
411.4057584413
 20
68.3959512763
 11
524.5428434312
 21
133.7147108988
  0
LINE
  5
380
100
AcDbEntity
  8
0
100
AcDbLine
 62
9
  6
CONTINUOUS
 10
524.642842321
 20
133.7048057018
 11
411.5057573312
 21
68.3860460794
  0
LINE
  5
381
100
AcDbEntity
  8
0
100
AcDbLine
 62
9
  6
CONTINUOUS
 10
410.9910138821
 20
68.0626869554
 11
410.7081711696
 21
67.8993900563
  0
LINE
  5
382
100
AcDbEntity
  8
0
100
AcDbLine
 62
9
  6
CONTINUOUS
 10
411.6640386223
 20
68.294663686
 11
524.8011236121
 21
133.6134233085
  0
LINE
  5
383
100
AcDbEntity
  8
0
100
AcDbLine
 62
9
  6
CONTINUOUS
 10
411.5496284747
 20
68.1565915099
 11
411.5284150358
 21
68.1443441066
  0
LINE
  5
384
100
AcDbEntity
  8
0
100
AcDbLine
 62
9
  6
CONTINUOUS
 10
524.9403964602
 20
133.3980715962
 11
411.8033114704
 21
68.0793119737
  0
LINE
  5
385
100
AcDbEntity
  8
0
100
AcDbLine
 62
9
  6
CONTINUOUS
 10
411.1465773739
 20
67.6462798628
 11
411.4294200864
 21
67.8095767619
  0
LINE
  5
386
100
AcDbEntity
  8
0
100
AcDbLine
 62
9
  6
CONTINUOUS
 10
411.4718464933
 20
67.7360920696
 11
411.1890037808
 21
67.5727951705
  0
LINE
  5
387
100
AcDbEntity
  8
0
100
AcDbLine
 62
9
  6
CONTINUOUS
 10
411.1890037808
 20
67.2625241735
 11
411.4718464933
 21
67.4258210726
  0
LINE
  5
388
100
AcDbEntity
  8
0
100
AcDbLine
 62
7
  6
CONTINUOUS
 10
411.4594197534
 20
67.3983538909
 11
411.1765770409
 21
67.2350569919
  0
LINE
  5
389
100
AcDbEntity
  8
0
100
AcDbLine
 62
9
  6
CONTINUOUS
 10
411.5284150358
 20
67.3441715353
 11
411.7316465423
 21
67.4615055635
  0
LINE
  5
38A
100
AcDbEntity
  8
0
100
AcDbLine
 62
7
  6
CONTINUOUS
 10
411.5159882959
 20
67.3167043537
 11
411.7342808078
 21
67.4427337287
  0
LINE
  5
38B
100
AcDbEntity
  8
0
100
AcDbLine
 62
9
  6
CONTINUOUS
 10
411.9370421787
 20
67.1263439562
 11
525.0741271685
 21
132.4451035786
  0
LINE
  5
38C
100
AcDbEntity
  8
0
100
AcDbLine
 62
7
  6
CONTINUOUS
 10
411.9232962933
 20
67.0839398692
 11
525.0603812831
 21
132.4026994917
  0
LINE
  5
38D
100
AcDbEntity
  8
0
100
AcDbLine
 62
9
  6
CONTINUOUS
 10
482.9603420712
 20
114.863631885
 11
482.9603420712
 21
114.5370308355
  0
LINE
  5
38E
100
AcDbEntity
  8
0
100
AcDbLine
 62
9
  6
CONTINUOUS
 10
484.021002243
 20
115.1493942069
 11
484.021002243
 21
115.4759952564
  0
LINE
  5
38F
100
AcDbEntity
  8
0
100
AcDbLine
 62
9
  6
CONTINUOUS
 10
500.6380116009
 20
125.069688076
 11
500.6380116009
 21
124.7430870265
  0
LINE
  5
390
100
AcDbEntity
  8
0
100
AcDbLine
 62
9
  6
CONTINUOUS
 10
501.6986717727
 20
125.355450398
 11
501.6986717727
 21
125.6820514474
  0
LINE
  5
391
100
AcDbEntity
  8
0
100
AcDbLine
 62
9
  6
CONTINUOUS
 10
518.3156811306
 20
135.275744267
 11
518.3156811306
 21
134.9491432175
  0
LINE
  5
392
100
AcDbEntity
  8
0
100
AcDbLine
 62
7
  6
CONTINUOUS
 10
519.3156787591
 20
135.1681107732
 11
519.3156787591
 21
135.5264835717
  0
LINE
  5
393
100
AcDbEntity
  8
0
100
AcDbLine
 62
9
  6
CONTINUOUS
 10
519.3763413023
 20
135.561506589
 11
519.3763413023
 21
135.8881076384
  0
LINE
  5
394
100
AcDbEntity
  8
0
100
AcDbLine
 62
7
  6
CONTINUOUS
 10
519.4285394983
 20
135.4955884517
 11
519.4285394983
 21
135.2732023247
  0
LINE
  5
395
100
AcDbEntity
  8
0
100
AcDbLine
 62
7
  6
CONTINUOUS
 10
519.3580867062
 20
135.1427324527
 11
519.3164533639
 21
135.1667691182
  0
LINE
  5
396
100
AcDbEntity
  8
0
100
AcDbLine
 62
7
  6
CONTINUOUS
 10
519.4568226926
 20
135.2242143952
 11
519.478021176
 21
135.2119756262
  0
LINE
  5
397
100
AcDbEntity
  8
0
100
AcDbLine
 62
7
  6
CONTINUOUS
 10
519.7271837068
 20
135.3558275511
 11
519.4568226926
 21
135.511918245
  0
LINE
  5
398
100
AcDbEntity
  8
0
100
AcDbLine
 62
7
  6
CONTINUOUS
 10
519.5165358588
 20
135.6159296897
 11
519.8471181767
 21
135.4250707246
  0
LINE
  5
399
100
AcDbEntity
  8
0
100
AcDbLine
 62
7
  6
CONTINUOUS
 10
519.7056012274
 20
135.6365135534
 11
519.9542916581
 21
135.4929341916
  0
LINE
  5
39A
100
AcDbEntity
  8
0
100
AcDbLine
 62
7
  6
CONTINUOUS
 10
524.0432460582
 20
135.5860025741
 11
524.0432460582
 21
133.7114992631
  0
LINE
  5
39B
100
AcDbEntity
  8
0
100
AcDbLine
 62
7
  6
CONTINUOUS
 10
524.3260887707
 20
133.6917128615
 11
524.3260887707
 21
135.7492994731
  0
LINE
  5
39C
100
AcDbEntity
  8
0
100
AcDbLine
 62
7
  6
CONTINUOUS
 10
524.642842321
 20
133.7048057018
 11
524.8011236121
 21
133.6134233085
  0
LINE
  5
39D
100
AcDbEntity
  8
0
100
AcDbLine
 62
7
  6
CONTINUOUS
 10
523.8169718882
 20
135.9779209329
 11
520.1683008973
 21
138.0844509307
  0
LINE
  5
39E
100
AcDbEntity
  8
0
100
AcDbLine
 62
7
  6
CONTINUOUS
 10
524.0998146007
 20
136.141217832
 11
520.4511436098
 21
138.2477478298
  0
LINE
  5
39F
100
AcDbEntity
  8
0
100
AcDbLine
 62
7
  6
CONTINUOUS
 10
524.1957674984
 20
133.5143294816
 11
524.1170233572
 21
133.5717624705
  0
LINE
  5
3A0
100
AcDbEntity
  8
0
100
AcDbLine
 62
7
  6
CONTINUOUS
 10
519.3164533639
 20
135.1667691182
 11
519.3156787591
 21
135.1681107732
  0
LINE
  5
3A1
100
AcDbEntity
  8
0
100
AcDbLine
 62
7
  6
CONTINUOUS
 10
525.0741271685
 20
132.4451035786
 11
524.9403964602
 21
133.3980715962
  0
LINE
  5
3A2
100
AcDbEntity
  8
0
100
AcDbLine
 62
7
  6
CONTINUOUS
 10
390.6112151019
 20
254.109120307
 11
390.6112151019
 21
217.109120307
  0
LINE
  5
3A3
100
AcDbEntity
  8
0
100
AcDbLine
 62
7
  6
CONTINUOUS
 10
392.6112151019
 20
213.8196900698
 11
392.6112151019
 21
216.559120307
  0
LINE
  5
3A4
100
AcDbEntity
  8
0
100
AcDbLine
 62
7
  6
CONTINUOUS
 10
392.6112151019
 20
216.709120307
 11
392.6112151019
 21
254.509120307
  0
LINE
  5
3A5
100
AcDbEntity
  8
0
100
AcDbLine
 62
7
  6
CONTINUOUS
 10
392.6112151019
 20
254.5654947236
 11
392.6112151019
 21
257.3985505442
  0
LINE
  5
3A6
100
AcDbEntity
  8
0
100
AcDbLine
 62
7
  6
CONTINUOUS
 10
438.9850979985
 20
213.8196900698
 11
392.6112151019
 21
213.8196900698
  0
LINE
  5
3A7
100
AcDbEntity
  8
0
100
AcDbLine
 62
9
  6
CONTINUOUS
 10
392.6112151019
 20
214.1643727833
 11
438.6627094238
 21
214.1643727833
  0
LINE
  5
3A8
100
AcDbEntity
  8
0
100
AcDbLine
 62
9
  6
CONTINUOUS
 10
438.198388662
 20
214.6720860893
 11
392.6112151019
 21
214.6720860893
  0
LINE
  5
3A9
100
AcDbEntity
  8
0
100
AcDbLine
 62
9
  6
CONTINUOUS
 10
392.6112151019
 20
215.0167688028
 11
437.9004482931
 21
215.0167688028
  0
LINE
  5
3AA
100
AcDbEntity
  8
0
100
AcDbLine
 62
9
  6
CONTINUOUS
 10
437.1480006756
 20
215.8872640887
 11
392.6112151019
 21
215.8872640887
  0
LINE
  5
3AB
100
AcDbEntity
  8
0
100
AcDbLine
 62
9
  6
CONTINUOUS
 10
392.6112151019
 20
216.0349852516
 11
437.0203119461
 21
216.0349852516
  0
LINE
  5
3AC
100
AcDbEntity
  8
0
100
AcDbLine
 62
9
  6
CONTINUOUS
 10
436.606927786
 20
216.559120307
 11
392.6112151019
 21
216.559120307
  0
LINE
  5
3AD
100
AcDbEntity
  8
0
100
AcDbLine
 62
7
  6
CONTINUOUS
 10
436.4963140721
 20
216.709120307
 11
392.6112151019
 21
216.709120307
  0
LINE
  5
3AE
100
AcDbEntity
  8
0
100
AcDbLine
 62
9
  6
CONTINUOUS
 10
392.6112151019
 20
217.009120307
 11
436.2750866444
 21
217.009120307
  0
LINE
  5
3AF
100
AcDbEntity
  8
0
100
AcDbLine
 62
7
  6
CONTINUOUS
 10
392.6112151019
 20
217.109120307
 11
390.6112151019
 21
217.109120307
  0
LINE
  5
3B0
100
AcDbEntity
  8
0
100
AcDbLine
 62
9
  6
CONTINUOUS
 10
390.6112151019
 20
217.409120307
 11
392.6112151019
 21
217.409120307
  0
LINE
  5
3B1
100
AcDbEntity
  8
0
100
AcDbLine
 62
9
  6
CONTINUOUS
 10
392.6112151019
 20
230.009120307
 11
390.6112151019
 21
230.009120307
  0
LINE
  5
3B2
100
AcDbEntity
  8
0
100
AcDbLine
 62
7
  6
CONTINUOUS
 10
392.6112151019
 20
231.609120307
 11
390.6112151019
 21
231.609120307
  0
LINE
  5
3B3
100
AcDbEntity
  8
0
100
AcDbLine
 62
9
  6
CONTINUOUS
 10
390.6112151019
 20
233.209120307
 11
392.6112151019
 21
233.209120307
  0
LINE
  5
3B4
100
AcDbEntity
  8
0
100
AcDbLine
 62
9
  6
CONTINUOUS
 10
392.6112151019
 20
238.009120307
 11
390.6112151019
 21
238.009120307
  0
LINE
  5
3B5
100
AcDbEntity
  8
0
100
AcDbLine
 62
2
  6
CONTINUOUS
 10
438.9850979985
 20
213.8196900698
 11
438.3270005895
 21
214.5232968926
  0
LINE
  5
3B6
100
AcDbEntity
  8
0
100
AcDbLine
 62
2
  6
CONTINUOUS
 10
438.3270005895
 20
214.5232968926
 11
436.8373518269
 21
216.2466490506
  0
LINE
  5
3B7
100
AcDbEntity
  8
0
100
AcDbLine
 62
7
  6
CONTINUOUS
 10
390.6112151019
 20
239.609120307
 11
392.6112151019
 21
239.609120307
  0
LINE
  5
3B8
100
AcDbEntity
  8
0
100
AcDbLine
 62
2
  6
CONTINUOUS
 10
436.8373518269
 20
216.2466490506
 11
435.2431169075
 21
218.4085440777
  0
LINE
  5
3B9
100
AcDbEntity
  8
0
100
AcDbLine
 62
9
  6
CONTINUOUS
 10
390.6112151019
 20
241.209120307
 11
392.6112151019
 21
241.209120307
  0
LINE
  5
3BA
100
AcDbEntity
  8
0
100
AcDbLine
 62
2
  6
CONTINUOUS
 10
435.2431169075
 20
218.4085440777
 11
434.1365620914
 21
220.5389255628
  0
LINE
  5
3BB
100
AcDbEntity
  8
0
100
AcDbLine
 62
2
  6
CONTINUOUS
 10
434.1365620914
 20
220.5389255628
 11
433.5711578927
 21
222.6123213125
  0
LINE
  5
3BC
100
AcDbEntity
  8
0
100
AcDbLine
 62
2
  6
CONTINUOUS
 10
433.5711578927
 20
222.6123213125
 11
433.4656758893
 21
224.7144051884
  0
LINE
  5
3BD
100
AcDbEntity
  8
0
100
AcDbLine
 62
2
  6
CONTINUOUS
 10
436.3611596102
 20
232.7247133763
 11
437.6343573652
 21
234.2193415593
  0
LINE
  5
3BE
100
AcDbEntity
  8
0
100
AcDbLine
 62
2
  6
CONTINUOUS
 10
440.3357924346
 20
236.9989790703
 11
441.6089439925
 21
238.493687269
  0
LINE
  5
3BF
100
AcDbEntity
  8
0
100
AcDbLine
 62
2
  6
CONTINUOUS
 10
437.6343573652
 20
234.2193415593
 11
440.3357924346
 21
236.9989790703
  0
LINE
  5
3C0
100
AcDbEntity
  8
0
100
AcDbLine
 62
2
  6
CONTINUOUS
 10
433.4656758893
 20
224.7144051884
 11
433.7443186988
 21
226.8927303892
  0
LINE
  5
3C1
100
AcDbEntity
  8
0
100
AcDbLine
 62
2
  6
CONTINUOUS
 10
433.7443186988
 20
226.8927303892
 11
434.3530130989
 21
229.0423674639
  0
LINE
  5
3C2
100
AcDbEntity
  8
0
100
AcDbLine
 62
2
  6
CONTINUOUS
 10
434.3530130989
 20
229.0423674639
 11
435.2431169075
 21
231.020266299
  0
LINE
  5
3C3
100
AcDbEntity
  8
0
100
AcDbLine
 62
2
  6
CONTINUOUS
 10
435.2431169075
 20
231.020266299
 11
436.3611596102
 21
232.7247133763
  0
LINE
  5
3C4
100
AcDbEntity
  8
0
100
AcDbLine
 62
2
  6
CONTINUOUS
 10
441.6089439925
 20
238.493687269
 11
442.7270790894
 21
240.1979743149
  0
LINE
  5
3C5
100
AcDbEntity
  8
0
100
AcDbLine
 62
9
  6
CONTINUOUS
 10
392.6112151019
 20
253.809120307
 11
390.6112151019
 21
253.809120307
  0
LINE
  5
3C6
100
AcDbEntity
  8
0
100
AcDbLine
 62
7
  6
CONTINUOUS
 10
390.6112151019
 20
254.109120307
 11
392.6112151019
 21
254.109120307
  0
LINE
  5
3C7
100
AcDbEntity
  8
0
100
AcDbLine
 62
9
  6
CONTINUOUS
 10
441.6943940413
 20
254.209120307
 11
392.6112151019
 21
254.209120307
  0
LINE
  5
3C8
100
AcDbEntity
  8
0
100
AcDbLine
 62
2
  6
CONTINUOUS
 10
442.7270790894
 20
240.1979743149
 11
443.6174600805
 21
242.1753930558
  0
LINE
  5
3C9
100
AcDbEntity
  8
0
100
AcDbLine
 62
7
  6
CONTINUOUS
 10
392.6112151019
 20
254.509120307
 11
441.4730132695
 21
254.509120307
  0
LINE
  5
3CA
100
AcDbEntity
  8
0
100
AcDbLine
 62
9
  6
CONTINUOUS
 10
392.6112151019
 20
254.659120307
 11
441.3623228836
 21
254.659120307
  0
LINE
  5
3CB
100
AcDbEntity
  8
0
100
AcDbLine
 62
9
  6
CONTINUOUS
 10
440.9477891828
 20
255.1832553623
 11
392.6112151019
 21
255.1832553623
  0
LINE
  5
3CC
100
AcDbEntity
  8
0
100
AcDbLine
 62
9
  6
CONTINUOUS
 10
392.6112151019
 20
255.3309765252
 11
440.8200195814
 21
255.3309765252
  0
LINE
  5
3CD
100
AcDbEntity
  8
0
100
AcDbLine
 62
9
  6
CONTINUOUS
 10
440.0670953997
 20
256.2014718111
 11
392.6112151019
 21
256.2014718111
  0
LINE
  5
3CE
100
AcDbEntity
  8
0
100
AcDbLine
 62
9
  6
CONTINUOUS
 10
392.6112151019
 20
256.5461545247
 11
439.7689663296
 21
256.5461545247
  0
LINE
  5
3CF
100
AcDbEntity
  8
0
100
AcDbLine
 62
2
  6
CONTINUOUS
 10
443.6174600805
 20
242.1753930558
 11
444.226293072
 21
244.3247900834
  0
LINE
  5
3D0
100
AcDbEntity
  8
0
100
AcDbLine
 62
9
  6
CONTINUOUS
 10
439.305729916
 20
257.0538678306
 11
392.6112151019
 21
257.0538678306
  0
LINE
  5
3D1
100
AcDbEntity
  8
0
100
AcDbLine
 62
7
  6
CONTINUOUS
 10
392.6112151019
 20
257.3985505442
 11
438.9850979985
 21
257.3985505442
  0
LINE
  5
3D2
100
AcDbEntity
  8
0
100
AcDbLine
 62
2
  6
CONTINUOUS
 10
444.226293072
 20
244.3247900834
 11
444.5045201077
 21
246.5038354256
  0
LINE
  5
3D3
100
AcDbEntity
  8
0
100
AcDbLine
 62
2
  6
CONTINUOUS
 10
444.5045201077
 20
246.5038354256
 11
444.3979755712
 21
248.6077596627
  0
LINE
  5
3D4
100
AcDbEntity
  8
0
100
AcDbLine
 62
2
  6
CONTINUOUS
 10
443.8320632045
 20
250.6820355852
 11
442.7270790894
 21
252.8096965362
  0
LINE
  5
3D5
100
AcDbEntity
  8
0
100
AcDbLine
 62
2
  6
CONTINUOUS
 10
444.3979755712
 20
248.6077596627
 11
443.8320632045
 21
250.6820355852
  0
LINE
  5
3D6
100
AcDbEntity
  8
0
100
AcDbLine
 62
2
  6
CONTINUOUS
 10
439.6490624379
 20
256.6847817265
 11
438.9850979985
 21
257.3985505442
  0
LINE
  5
3D7
100
AcDbEntity
  8
0
100
AcDbLine
 62
2
  6
CONTINUOUS
 10
441.1368171198
 20
254.9647102126
 11
439.6490624379
 21
256.6847817265
  0
LINE
  5
3D8
100
AcDbEntity
  8
0
100
AcDbLine
 62
2
  6
CONTINUOUS
 10
442.7270790894
 20
252.8096965362
 11
441.1368171198
 21
254.9647102126
  0
LINE
  5
3D9
100
AcDbEntity
  8
0
100
AcDbLine
 62
2
  6
CONTINUOUS
 10
453.828457894
 20
214.5232968926
 11
454.486555303
 21
213.8196900698
  0
LINE
  5
3DA
100
AcDbEntity
  8
0
100
AcDbLine
 62
2
  6
CONTINUOUS
 10
452.3388091314
 20
216.2466490506
 11
453.828457894
 21
214.5232968926
  0
LINE
  5
3DB
100
AcDbEntity
  8
0
100
AcDbLine
 62
2
  6
CONTINUOUS
 10
450.744574212
 20
218.4085440777
 11
452.3388091314
 21
216.2466490506
  0
LINE
  5
3DC
100
AcDbEntity
  8
0
100
AcDbLine
 62
2
  6
CONTINUOUS
 10
449.6380193959
 20
220.5389255628
 11
450.744574212
 21
218.4085440777
  0
LINE
  5
3DD
100
AcDbEntity
  8
0
100
AcDbLine
 62
2
  6
CONTINUOUS
 10
449.0726151972
 20
222.6123213125
 11
449.6380193959
 21
220.5389255628
  0
LINE
  5
3DE
100
AcDbEntity
  8
0
100
AcDbLine
 62
2
  6
CONTINUOUS
 10
448.9671331938
 20
224.7144051884
 11
449.0726151972
 21
222.6123213125
  0
LINE
  5
3DF
100
AcDbEntity
  8
0
100
AcDbLine
 62
2
  6
CONTINUOUS
 10
449.2457760033
 20
226.8927303892
 11
448.9671331938
 21
224.7144051884
  0
LINE
  5
3E0
100
AcDbEntity
  8
0
100
AcDbLine
 62
7
  6
CONTINUOUS
 10
493.3536295141
 20
213.8196900698
 11
454.486555303
 21
213.8196900698
  0
LINE
  5
3E1
100
AcDbEntity
  8
0
100
AcDbLine
 62
9
  6
CONTINUOUS
 10
454.1641667283
 20
214.1643727833
 11
493.3536295141
 21
214.1643727833
  0
LINE
  5
3E2
100
AcDbEntity
  8
0
100
AcDbLine
 62
9
  6
CONTINUOUS
 10
493.3536295141
 20
214.6720860893
 11
453.6998459665
 21
214.6720860893
  0
LINE
  5
3E3
100
AcDbEntity
  8
0
100
AcDbLine
 62
2
  6
CONTINUOUS
 10
449.8544704034
 20
229.0423674639
 11
449.2457760033
 21
226.8927303892
  0
LINE
  5
3E4
100
AcDbEntity
  8
0
100
AcDbLine
 62
9
  6
CONTINUOUS
 10
453.4019055976
 20
215.0167688028
 11
493.3536295141
 21
215.0167688028
  0
LINE
  5
3E5
100
AcDbEntity
  8
0
100
AcDbLine
 62
9
  6
CONTINUOUS
 10
493.3536295141
 20
215.8872640887
 11
452.6494579801
 21
215.8872640887
  0
LINE
  5
3E6
100
AcDbEntity
  8
0
100
AcDbLine
 62
9
  6
CONTINUOUS
 10
452.5217692506
 20
216.0349852516
 11
493.3536295141
 21
216.0349852516
  0
LINE
  5
3E7
100
AcDbEntity
  8
0
100
AcDbLine
 62
9
  6
CONTINUOUS
 10
493.3536295141
 20
216.559120307
 11
452.1083850905
 21
216.559120307
  0
LINE
  5
3E8
100
AcDbEntity
  8
0
100
AcDbLine
 62
7
  6
CONTINUOUS
 10
493.3536295141
 20
216.709120307
 11
451.9977713766
 21
216.709120307
  0
LINE
  5
3E9
100
AcDbEntity
  8
0
100
AcDbLine
 62
2
  6
CONTINUOUS
 10
450.744574212
 20
231.020266299
 11
449.8544704034
 21
229.0423674639
  0
LINE
  5
3EA
100
AcDbEntity
  8
0
100
AcDbLine
 62
9
  6
CONTINUOUS
 10
451.7765439489
 20
217.009120307
 11
493.3536295141
 21
217.009120307
  0
LINE
  5
3EB
100
AcDbEntity
  8
0
100
AcDbLine
 62
7
  6
CONTINUOUS
 10
495.3536295141
 20
217.109120307
 11
493.3536295141
 21
217.109120307
  0
LINE
  5
3EC
100
AcDbEntity
  8
0
100
AcDbLine
 62
9
  6
CONTINUOUS
 10
493.3536295141
 20
217.409120307
 11
495.3536295141
 21
217.409120307
  0
LINE
  5
3ED
100
AcDbEntity
  8
0
100
AcDbLine
 62
2
  6
CONTINUOUS
 10
459.1189173851
 20
242.1753930558
 11
458.228536394
 21
240.1979743149
  0
LINE
  5
3EE
100
AcDbEntity
  8
0
100
AcDbLine
 62
2
  6
CONTINUOUS
 10
451.8626169148
 20
232.7247133763
 11
450.744574212
 21
231.020266299
  0
LINE
  5
3EF
100
AcDbEntity
  8
0
100
AcDbLine
 62
2
  6
CONTINUOUS
 10
460.0059774122
 20
246.5038354256
 11
459.7277503765
 21
244.3247900834
  0
LINE
  5
3F0
100
AcDbEntity
  8
0
100
AcDbLine
 62
2
  6
CONTINUOUS
 10
459.7277503765
 20
244.3247900834
 11
459.1189173851
 21
242.1753930558
  0
LINE
  5
3F1
100
AcDbEntity
  8
0
100
AcDbLine
 62
2
  6
CONTINUOUS
 10
458.228536394
 20
240.1979743149
 11
457.110401297
 21
238.493687269
  0
LINE
  5
3F2
100
AcDbEntity
  8
0
100
AcDbLine
 62
2
  6
CONTINUOUS
 10
453.1358146697
 20
234.2193415593
 11
451.8626169148
 21
232.7247133763
  0
LINE
  5
3F3
100
AcDbEntity
  8
0
100
AcDbLine
 62
2
  6
CONTINUOUS
 10
457.110401297
 20
238.493687269
 11
455.8372497391
 21
236.9989790703
  0
LINE
  5
3F4
100
AcDbEntity
  8
0
100
AcDbLine
 62
2
  6
CONTINUOUS
 10
455.8372497391
 20
236.9989790703
 11
453.1358146697
 21
234.2193415593
  0
LINE
  5
3F5
100
AcDbEntity
  8
0
100
AcDbLine
 62
2
  6
CONTINUOUS
 10
459.8994328757
 20
248.6077596627
 11
460.0059774122
 21
246.5038354256
  0
LINE
  5
3F6
100
AcDbEntity
  8
0
100
AcDbLine
 62
2
  6
CONTINUOUS
 10
459.333520509
 20
250.6820355852
 11
459.8994328757
 21
248.6077596627
  0
LINE
  5
3F7
100
AcDbEntity
  8
0
100
AcDbLine
 62
9
  6
CONTINUOUS
 10
495.3536295141
 20
230.009120307
 11
493.3536295141
 21
230.009120307
  0
LINE
  5
3F8
100
AcDbEntity
  8
0
100
AcDbLine
 62
7
  6
CONTINUOUS
 10
495.3536295141
 20
231.609120307
 11
493.3536295141
 21
231.609120307
  0
LINE
  5
3F9
100
AcDbEntity
  8
0
100
AcDbLine
 62
2
  6
CONTINUOUS
 10
458.228536394
 20
252.8096965362
 11
459.333520509
 21
250.6820355852
  0
LINE
  5
3FA
100
AcDbEntity
  8
0
100
AcDbLine
 62
9
  6
CONTINUOUS
 10
493.3536295141
 20
233.209120307
 11
495.3536295141
 21
233.209120307
  0
LINE
  5
3FB
100
AcDbEntity
  8
0
100
AcDbLine
 62
2
  6
CONTINUOUS
 10
456.6382744243
 20
254.9647102126
 11
458.228536394
 21
252.8096965362
  0
LINE
  5
3FC
100
AcDbEntity
  8
0
100
AcDbLine
 62
9
  6
CONTINUOUS
 10
495.3536295141
 20
238.009120307
 11
493.3536295141
 21
238.009120307
  0
LINE
  5
3FD
100
AcDbEntity
  8
0
100
AcDbLine
 62
2
  6
CONTINUOUS
 10
454.486555303
 20
257.3985505442
 11
455.1505197424
 21
256.6847817265
  0
LINE
  5
3FE
100
AcDbEntity
  8
0
100
AcDbLine
 62
2
  6
CONTINUOUS
 10
455.1505197424
 20
256.6847817265
 11
456.6382744243
 21
254.9647102126
  0
LINE
  5
3FF
100
AcDbEntity
  8
0
100
AcDbLine
 62
7
  6
CONTINUOUS
 10
493.3536295141
 20
239.609120307
 11
495.3536295141
 21
239.609120307
  0
LINE
  5
400
100
AcDbEntity
  8
0
100
AcDbLine
 62
9
  6
CONTINUOUS
 10
493.3536295141
 20
241.209120307
 11
495.3536295141
 21
241.209120307
  0
LINE
  5
401
100
AcDbEntity
  8
0
100
AcDbLine
 62
9
  6
CONTINUOUS
 10
495.3536295141
 20
253.809120307
 11
493.3536295141
 21
253.809120307
  0
LINE
  5
402
100
AcDbEntity
  8
0
100
AcDbLine
 62
7
  6
CONTINUOUS
 10
493.3536295141
 20
254.109120307
 11
495.3536295141
 21
254.109120307
  0
LINE
  5
403
100
AcDbEntity
  8
0
100
AcDbLine
 62
9
  6
CONTINUOUS
 10
493.3536295141
 20
254.209120307
 11
457.1958513458
 21
254.209120307
  0
LINE
  5
404
100
AcDbEntity
  8
0
100
AcDbLine
 62
7
  6
CONTINUOUS
 10
456.974470574
 20
254.509120307
 11
493.3536295141
 21
254.509120307
  0
LINE
  5
405
100
AcDbEntity
  8
0
100
AcDbLine
 62
9
  6
CONTINUOUS
 10
456.8637801881
 20
254.659120307
 11
493.3536295141
 21
254.659120307
  0
LINE
  5
406
100
AcDbEntity
  8
0
100
AcDbLine
 62
7
  6
CONTINUOUS
 10
493.3536295141
 20
213.8196900698
 11
493.3536295141
 21
254.509120307
  0
LINE
  5
407
100
AcDbEntity
  8
0
100
AcDbLine
 62
7
  6
CONTINUOUS
 10
493.3536295141
 20
254.659120307
 11
493.3536295141
 21
257.3985505442
  0
LINE
  5
408
100
AcDbEntity
  8
0
100
AcDbLine
 62
9
  6
CONTINUOUS
 10
493.3536295141
 20
255.1832553623
 11
456.4492464873
 21
255.1832553623
  0
LINE
  5
409
100
AcDbEntity
  8
0
100
AcDbLine
 62
9
  6
CONTINUOUS
 10
456.3214768859
 20
255.3309765252
 11
493.3536295141
 21
255.3309765252
  0
LINE
  5
40A
100
AcDbEntity
  8
0
100
AcDbLine
 62
9
  6
CONTINUOUS
 10
493.3536295141
 20
256.2014718111
 11
455.5685527042
 21
256.2014718111
  0
LINE
  5
40B
100
AcDbEntity
  8
0
100
AcDbLine
 62
9
  6
CONTINUOUS
 10
455.2704236342
 20
256.5461545247
 11
493.3536295141
 21
256.5461545247
  0
LINE
  5
40C
100
AcDbEntity
  8
0
100
AcDbLine
 62
9
  6
CONTINUOUS
 10
493.3536295141
 20
257.0538678306
 11
454.8071872205
 21
257.0538678306
  0
LINE
  5
40D
100
AcDbEntity
  8
0
100
AcDbLine
 62
7
  6
CONTINUOUS
 10
495.3536295141
 20
217.109120307
 11
495.3536295141
 21
254.109120307
  0
LINE
  5
40E
100
AcDbEntity
  8
0
100
AcDbLine
 62
7
  6
CONTINUOUS
 10
454.486555303
 20
257.3985505442
 11
493.3536295141
 21
257.3985505442
  0
LINE
  5
40F
100
AcDbEntity
  8
0
100
AcDbLine
 62
7
  6
CONTINUOUS
 10
57.1347563898
 20
254.109120307
 11
57.1347563898
 21
217.109120307
  0
LINE
  5
410
100
AcDbEntity
  8
0
100
AcDbLine
 62
7
  6
CONTINUOUS
 10
59.1347563898
 20
257.3985505442
 11
59.1347563898
 21
221.109120307
  0
LINE
  5
411
100
AcDbEntity
  8
0
100
AcDbLine
 62
7
  6
CONTINUOUS
 10
59.1347563898
 20
220.5874360223
 11
59.1347563898
 21
213.8196900698
  0
LINE
  5
412
100
AcDbEntity
  8
AXIS_PART
100
AcDbLine
 62
7
  6
CENTER
 10
89.1347563898
 20
231.8902323186
 11
89.1347563898
 21
239.2085566554
  0
LINE
  5
413
100
AcDbEntity
  8
0
100
AcDbLine
 62
7
  6
CONTINUOUS
 10
59.1347563898
 20
213.8196900698
 11
230.9844523044
 21
213.8196900698
  0
LINE
  5
414
100
AcDbEntity
  8
0
100
AcDbLine
 62
9
  6
CONTINUOUS
 10
230.9185467024
 20
214.7653089768
 11
59.1347563898
 21
214.7653089768
  0
LINE
  5
415
100
AcDbEntity
  8
0
100
AcDbLine
 62
9
  6
CONTINUOUS
 10
59.1347563898
 20
215.7501167298
 11
230.849909805
 21
215.7501167298
  0
LINE
  5
416
100
AcDbEntity
  8
0
100
AcDbLine
 62
9
  6
CONTINUOUS
 10
230.7645095106
 20
216.8693344725
 11
59.1347563898
 21
216.8693344725
  0
LINE
  5
417
100
AcDbEntity
  8
0
100
AcDbLine
 62
7
  6
CONTINUOUS
 10
59.1347563898
 20
217.109120307
 11
57.1347563898
 21
217.109120307
  0
LINE
  5
418
100
AcDbEntity
  8
0
100
AcDbLine
 62
9
  6
CONTINUOUS
 10
57.1347563898
 20
217.409120307
 11
59.1347563898
 21
217.409120307
  0
LINE
  5
419
100
AcDbEntity
  8
0
100
AcDbLine
 62
9
  6
CONTINUOUS
 10
59.1347563898
 20
217.7353598763
 11
230.6784532922
 21
217.7353598763
  0
LINE
  5
41A
100
AcDbEntity
  8
0
100
AcDbLine
 62
9
  6
CONTINUOUS
 10
230.5608431271
 20
218.9189279281
 11
59.1347563898
 21
218.9189279281
  0
LINE
  5
41B
100
AcDbEntity
  8
0
100
AcDbLine
 62
7
  6
CONTINUOUS
 10
230.5568492441
 20
218.959120307
 11
59.1347563898
 21
218.959120307
  0
LINE
  5
41C
100
AcDbEntity
  8
0
100
AcDbLine
 62
9
  6
CONTINUOUS
 10
59.1347563898
 20
220.509120307
 11
57.1347563898
 21
220.509120307
  0
LINE
  5
41D
100
AcDbEntity
  8
0
100
AcDbLine
 62
9
  6
CONTINUOUS
 10
230.3950448765
 20
220.5874360223
 11
59.1347563898
 21
220.5874360223
  0
LINE
  5
41E
100
AcDbEntity
  8
0
100
AcDbLine
 62
7
  6
CONTINUOUS
 10
230.3432055464
 20
221.109120307
 11
57.1347563898
 21
221.109120307
  0
LINE
  5
41F
100
AcDbEntity
  8
0
100
AcDbLine
 62
9
  6
CONTINUOUS
 10
57.1347563898
 20
222.709120307
 11
230.5058526077
 21
222.709120307
  0
LINE
  5
420
100
AcDbEntity
  8
0
100
AcDbLine
 62
7
  6
CONTINUOUS
 10
217.8847563898
 20
233.359120307
 11
210.3847563898
 21
233.359120307
  0
LINE
  5
421
100
AcDbEntity
  8
0
100
AcDbLine
 62
7
  6
CONTINUOUS
 10
92.8847563898
 20
233.359120307
 11
85.3847563898
 21
233.359120307
  0
LINE
  5
422
100
AcDbEntity
  8
0
100
AcDbLine
 62
7
  6
CONTINUOUS
 10
85.3847563898
 20
237.859120307
 11
92.8847563898
 21
237.859120307
  0
LINE
  5
423
100
AcDbEntity
  8
0
100
AcDbLine
 62
7
  6
CONTINUOUS
 10
210.3847563898
 20
237.859120307
 11
217.8847563898
 21
237.859120307
  0
LINE
  5
424
100
AcDbEntity
  8
0
100
AcDbLine
 62
9
  6
CONTINUOUS
 10
229.5117911294
 20
248.509120307
 11
57.1347563898
 21
248.509120307
  0
LINE
  5
425
100
AcDbEntity
  8
0
100
AcDbLine
 62
7
  6
CONTINUOUS
 10
57.1347563898
 20
250.109120307
 11
229.5042067841
 21
250.109120307
  0
LINE
  5
426
100
AcDbEntity
  8
0
100
AcDbLine
 62
9
  6
CONTINUOUS
 10
59.1347563898
 20
250.6308045916
 11
229.740781816
 21
250.6308045916
  0
LINE
  5
427
100
AcDbEntity
  8
0
100
AcDbLine
 62
9
  6
CONTINUOUS
 10
57.1347563898
 20
250.709120307
 11
59.1347563898
 21
250.709120307
  0
LINE
  5
428
100
AcDbEntity
  8
0
100
AcDbLine
 62
7
  6
CONTINUOUS
 10
230.4791955531
 20
252.259120307
 11
59.1347563898
 21
252.259120307
  0
LINE
  5
429
100
AcDbEntity
  8
0
100
AcDbLine
 62
9
  6
CONTINUOUS
 10
59.1347563898
 20
252.2993126858
 11
230.4974221196
 21
252.2993126858
  0
LINE
  5
42A
100
AcDbEntity
  8
0
100
AcDbLine
 62
9
  6
CONTINUOUS
 10
231.034150286
 20
253.4828807377
 11
59.1347563898
 21
253.4828807377
  0
LINE
  5
42B
100
AcDbEntity
  8
0
100
AcDbLine
 62
9
  6
CONTINUOUS
 10
59.1347563898
 20
253.809120307
 11
57.1347563898
 21
253.809120307
  0
LINE
  5
42C
100
AcDbEntity
  8
0
100
AcDbLine
 62
7
  6
CONTINUOUS
 10
57.1347563898
 20
254.109120307
 11
59.1347563898
 21
254.109120307
  0
LINE
  5
42D
100
AcDbEntity
  8
0
100
AcDbLine
 62
9
  6
CONTINUOUS
 10
59.1347563898
 20
254.3489061415
 11
231.5280017359
 21
254.3489061415
  0
LINE
  5
42E
100
AcDbEntity
  8
0
100
AcDbLine
 62
9
  6
CONTINUOUS
 10
232.1891799189
 20
255.4681238842
 11
59.1347563898
 21
255.4681238842
  0
LINE
  5
42F
100
AcDbEntity
  8
0
100
AcDbLine
 62
9
  6
CONTINUOUS
 10
59.1347563898
 20
256.4529316372
 11
232.7709553642
 21
256.4529316372
  0
LINE
  5
430
100
AcDbEntity
  8
0
100
AcDbLine
 62
7
  6
CONTINUOUS
 10
233.258794204
 20
257.3985505442
 11
59.1347563898
 21
257.3985505442
  0
LINE
  5
431
100
AcDbEntity
  8
AXIS_PART
100
AcDbLine
 62
7
  6
CENTER
 10
214.1347563898
 20
231.3687691481
 11
214.1347563898
 21
239.4953378345
  0
LINE
  5
432
100
AcDbEntity
  8
0
100
AcDbLine
 62
2
  6
CONTINUOUS
 10
233.2732283694
 20
257.3031606278
 11
231.0928010253
 21
253.6122146269
  0
LINE
  5
433
100
AcDbEntity
  8
0
100
AcDbLine
 62
2
  6
CONTINUOUS
 10
231.0928010253
 20
253.6122146269
 11
229.2468714457
 21
249.5416563575
  0
LINE
  5
434
100
AcDbEntity
  8
0
100
AcDbLine
 62
2
  6
CONTINUOUS
 10
230.3710495399
 20
245.1601230826
 11
233.607602579
 21
241.4735202497
  0
LINE
  5
435
100
AcDbEntity
  8
0
100
AcDbLine
 62
2
  6
CONTINUOUS
 10
233.0836161332
 20
230.2484491056
 11
230.9284717069
 21
225.9992527003
  0
LINE
  5
436
100
AcDbEntity
  8
0
100
AcDbLine
 62
2
  6
CONTINUOUS
 10
235.3904400522
 20
234.2474913801
 11
233.0836161332
 21
230.2484491056
  0
LINE
  5
437
100
AcDbEntity
  8
0
100
AcDbLine
 62
2
  6
CONTINUOUS
 10
233.607602579
 20
241.4735202497
 11
235.9732724906
 21
237.938614555
  0
LINE
  5
438
100
AcDbEntity
  8
0
100
AcDbLine
 62
2
  6
CONTINUOUS
 10
230.324505118
 20
221.297311775
 11
230.7892755731
 21
216.6201015916
  0
LINE
  5
439
100
AcDbEntity
  8
0
100
AcDbLine
 62
2
  6
CONTINUOUS
 10
230.7892755731
 20
216.6201015916
 11
230.9844523044
 21
213.8196900698
  0
LINE
  5
43A
100
AcDbEntity
  8
0
100
AcDbLine
 62
2
  6
CONTINUOUS
 10
230.9284717069
 20
225.9992527003
 11
230.324505118
 21
221.297311775
  0
LINE
  5
43B
100
AcDbEntity
  8
0
100
AcDbLine
 62
2
  6
CONTINUOUS
 10
235.9732724906
 20
237.938614555
 11
235.3904400522
 21
234.2474913801
  0
LINE
  5
43C
100
AcDbEntity
  8
0
100
AcDbLine
 62
2
  6
CONTINUOUS
 10
229.2468714457
 20
249.5416563575
 11
230.3710495399
 21
245.1601230826
  0
LINE
  5
43D
100
AcDbEntity
  8
0
100
AcDbLine
 62
2
  6
CONTINUOUS
 10
233.258794204
 20
257.3985505442
 11
233.2732283694
 21
257.3031606278
  0
LINE
  5
43E
100
AcDbEntity
  8
0
100
AcDbLine
 62
2
  6
CONTINUOUS
 10
280.5406024149
 20
338.7845574363
 11
281.1902543066
 21
338.5153355629
  0
LINE
  5
43F
100
AcDbEntity
  8
0
100
AcDbLine
 62
7
  6
CONTINUOUS
 10
280.5406024149
 20
338.7845574363
 11
280.5406024149
 21
359.5833283278
  0
LINE
  5
440
100
AcDbEntity
  8
0
100
AcDbLine
 62
2
  6
CONTINUOUS
 10
281.1902543066
 20
338.5153355629
 11
282.3226124933
 21
338.268972738
  0
LINE
  5
441
100
AcDbEntity
  8
0
100
AcDbLine
 62
2
  6
CONTINUOUS
 10
282.3226124933
 20
338.268972738
 11
283.470632748
 21
338.2230161388
  0
LINE
  5
442
100
AcDbEntity
  8
0
100
AcDbLine
 62
9
  6
CONTINUOUS
 10
282.1406024149
 20
359.5833283278
 11
282.1406024149
 21
338.3085719723
  0
LINE
  5
443
100
AcDbEntity
  8
0
100
AcDbLine
 62
2
  6
CONTINUOUS
 10
283.470632748
 20
338.2230161388
 11
284.6602846746
 21
338.3444399119
  0
LINE
  5
444
100
AcDbEntity
  8
0
100
AcDbLine
 62
2
  6
CONTINUOUS
 10
284.6602846746
 20
338.3444399119
 11
285.8342745333
 21
338.6096695302
  0
LINE
  5
445
100
AcDbEntity
  8
0
100
AcDbLine
 62
2
  6
CONTINUOUS
 10
293.0072681453
 20
342.6457934328
 11
294.1813965952
 21
342.910783004
  0
LINE
  5
446
100
AcDbEntity
  8
0
100
AcDbLine
 62
2
  6
CONTINUOUS
 10
294.1813965952
 20
342.910783004
 11
295.370632748
 21
343.0329269184
  0
LINE
  5
447
100
AcDbEntity
  8
0
100
AcDbLine
 62
2
  6
CONTINUOUS
 10
295.370632748
 20
343.0329269184
 11
296.5175904697
 21
342.9888106804
  0
LINE
  5
448
100
AcDbEntity
  8
0
100
AcDbLine
 62
2
  6
CONTINUOUS
 10
296.5175904697
 20
342.9888106804
 11
297.6494404884
 21
342.7433280283
  0
LINE
  5
449
100
AcDbEntity
  8
0
100
AcDbLine
 62
2
  6
CONTINUOUS
 10
297.6494404884
 20
342.7433280283
 11
298.1406024149
 21
342.5389133826
  0
LINE
  5
44A
100
AcDbEntity
  8
0
100
AcDbLine
 62
7
  6
CONTINUOUS
 10
291.5406024149
 20
342.0564633579
 11
291.5406024149
 21
357.5833283278
  0
LINE
  5
44B
100
AcDbEntity
  8
0
100
AcDbLine
 62
9
  6
CONTINUOUS
 10
292.3669542372
 20
357.5833283278
 11
292.3669542372
 21
342.4162491495
  0
LINE
  5
44C
100
AcDbEntity
  8
0
100
AcDbLine
 62
9
  6
CONTINUOUS
 10
294.7406024149
 20
357.5833283278
 11
294.7406024149
 21
359.5833283278
  0
LINE
  5
44D
100
AcDbEntity
  8
0
100
AcDbLine
 62
7
  6
CONTINUOUS
 10
295.3406024149
 20
357.5833283278
 11
295.3406024149
 21
359.5833283278
  0
LINE
  5
44E
100
AcDbEntity
  8
0
100
AcDbLine
 62
9
  6
CONTINUOUS
 10
295.6406024149
 20
359.5833283278
 11
295.6406024149
 21
357.5833283278
  0
LINE
  5
44F
100
AcDbEntity
  8
0
100
AcDbLine
 62
9
  6
CONTINUOUS
 10
297.5406024149
 20
357.5833283278
 11
297.5406024149
 21
359.5833283278
  0
LINE
  5
450
100
AcDbEntity
  8
0
100
AcDbLine
 62
9
  6
CONTINUOUS
 10
297.7298255527
 20
342.7098729017
 11
297.7298255527
 21
357.5833283278
  0
LINE
  5
451
100
AcDbEntity
  8
0
100
AcDbLine
 62
7
  6
CONTINUOUS
 10
297.8406024149
 20
359.5833283278
 11
297.8406024149
 21
357.5833283278
  0
LINE
  5
452
100
AcDbEntity
  8
0
100
AcDbLine
 62
2
  6
CONTINUOUS
 10
288.6616828988
 20
340.0393532369
 11
290.1795364002
 21
341.216669836
  0
LINE
  5
453
100
AcDbEntity
  8
0
100
AcDbLine
 62
2
  6
CONTINUOUS
 10
290.1795364002
 20
341.216669836
 11
290.9957799893
 21
341.7714939763
  0
LINE
  5
454
100
AcDbEntity
  8
0
100
AcDbLine
 62
2
  6
CONTINUOUS
 10
287.8453931126
 20
339.4846091123
 11
288.6616828988
 21
340.0393532369
  0
LINE
  5
455
100
AcDbEntity
  8
0
100
AcDbLine
 62
7
  6
CONTINUOUS
 10
298.1406024149
 20
357.5833283278
 11
298.1406024149
 21
342.5389133826
  0
LINE
  5
456
100
AcDbEntity
  8
0
100
AcDbLine
 62
2
  6
CONTINUOUS
 10
286.914492748
 20
338.9974932982
 11
287.8453931126
 21
339.4846091123
  0
LINE
  5
457
100
AcDbEntity
  8
0
100
AcDbLine
 62
2
  6
CONTINUOUS
 10
290.9957799893
 20
341.7714939763
 11
291.926772748
 21
342.258449759
  0
LINE
  5
458
100
AcDbEntity
  8
0
100
AcDbLine
 62
2
  6
CONTINUOUS
 10
291.926772748
 20
342.258449759
 11
293.0072681453
 21
342.6457934328
  0
LINE
  5
459
100
AcDbEntity
  8
0
100
AcDbLine
 62
9
  6
CONTINUOUS
 10
299.4406024149
 20
359.5833283278
 11
299.4406024149
 21
357.5833283278
  0
LINE
  5
45A
100
AcDbEntity
  8
0
100
AcDbLine
 62
2
  6
CONTINUOUS
 10
285.8342745333
 20
338.6096695302
 11
286.914492748
 21
338.9974932982
  0
LINE
  5
45B
100
AcDbEntity
  8
0
100
AcDbLine
 62
7
  6
CONTINUOUS
 10
280.5406024149
 20
357.5833283278
 11
304.3406024149
 21
357.5833283278
  0
LINE
  5
45C
100
AcDbEntity
  8
0
100
AcDbLine
 62
9
  6
CONTINUOUS
 10
302.7406024149
 20
357.5833283278
 11
302.7406024149
 21
359.5833283278
  0
LINE
  5
45D
100
AcDbEntity
  8
0
100
AcDbLine
 62
7
  6
CONTINUOUS
 10
304.3406024149
 20
359.5833283278
 11
280.5406024149
 21
359.5833283278
  0
LINE
  5
45E
100
AcDbEntity
  8
0
100
AcDbLine
 62
7
  6
CONTINUOUS
 10
304.3406024149
 20
359.5833283278
 11
304.3406024149
 21
357.5833283278
  0
LINE
  5
45F
100
AcDbEntity
  8
0
100
AcDbLine
 62
7
  6
CONTINUOUS
 10
280.5406024149
 20
304.3439995932
 11
280.5406024149
 21
321.2171386565
  0
LINE
  5
460
100
AcDbEntity
  8
0
100
AcDbLine
 62
7
  6
CONTINUOUS
 10
280.5406024149
 20
304.3439995932
 11
304.3406024149
 21
304.3439995932
  0
LINE
  5
461
100
AcDbEntity
  8
0
100
AcDbLine
 62
9
  6
CONTINUOUS
 10
282.1406024149
 20
320.7411531924
 11
282.1406024149
 21
304.3439995932
  0
LINE
  5
462
100
AcDbEntity
  8
0
100
AcDbLine
 62
2
  6
CONTINUOUS
 10
290.9957799893
 20
324.2040751965
 11
290.1795364002
 21
323.6492510562
  0
LINE
  5
463
100
AcDbEntity
  8
0
100
AcDbLine
 62
2
  6
CONTINUOUS
 10
288.6616828988
 20
322.4719344571
 11
287.8453931126
 21
321.9171903325
  0
LINE
  5
464
100
AcDbEntity
  8
0
100
AcDbLine
 62
2
  6
CONTINUOUS
 10
287.8453931126
 20
321.9171903325
 11
286.914492748
 21
321.4300745184
  0
LINE
  5
465
100
AcDbEntity
  8
0
100
AcDbLine
 62
2
  6
CONTINUOUS
 10
291.926772748
 20
324.6910309792
 11
290.9957799893
 21
324.2040751965
  0
LINE
  5
466
100
AcDbEntity
  8
0
100
AcDbLine
 62
2
  6
CONTINUOUS
 10
293.0072681453
 20
325.0783746529
 11
291.926772748
 21
324.6910309792
  0
LINE
  5
467
100
AcDbEntity
  8
0
100
AcDbLine
 62
7
  6
CONTINUOUS
 10
280.5406024149
 20
306.3439995932
 11
304.3406024149
 21
306.3439995932
  0
LINE
  5
468
100
AcDbEntity
  8
0
100
AcDbLine
 62
2
  6
CONTINUOUS
 10
290.1795364002
 20
323.6492510562
 11
288.6616828988
 21
322.4719344571
  0
LINE
  5
469
100
AcDbEntity
  8
0
100
AcDbLine
 62
2
  6
CONTINUOUS
 10
286.914492748
 20
321.4300745184
 11
285.8342745333
 21
321.0422507504
  0
LINE
  5
46A
100
AcDbEntity
  8
0
100
AcDbLine
 62
7
  6
CONTINUOUS
 10
291.5406024149
 20
306.3439995932
 11
291.5406024149
 21
324.4890445781
  0
LINE
  5
46B
100
AcDbEntity
  8
0
100
AcDbLine
 62
9
  6
CONTINUOUS
 10
292.3669542372
 20
324.8488303697
 11
292.3669542372
 21
306.3439995932
  0
LINE
  5
46C
100
AcDbEntity
  8
0
100
AcDbLine
 62
2
  6
CONTINUOUS
 10
281.1902543066
 20
320.9479167831
 11
280.5406024149
 21
321.2171386565
  0
LINE
  5
46D
100
AcDbEntity
  8
0
100
AcDbLine
 62
9
  6
CONTINUOUS
 10
294.7406024149
 20
304.3439995932
 11
294.7406024149
 21
306.3439995932
  0
LINE
  5
46E
100
AcDbEntity
  8
0
100
AcDbLine
 62
7
  6
CONTINUOUS
 10
295.3406024149
 20
304.3439995932
 11
295.3406024149
 21
306.3439995932
  0
LINE
  5
46F
100
AcDbEntity
  8
0
100
AcDbLine
 62
9
  6
CONTINUOUS
 10
295.6406024149
 20
306.3439995932
 11
295.6406024149
 21
304.3439995932
  0
LINE
  5
470
100
AcDbEntity
  8
0
100
AcDbLine
 62
2
  6
CONTINUOUS
 10
282.3226124933
 20
320.7015539582
 11
281.1902543066
 21
320.9479167831
  0
LINE
  5
471
100
AcDbEntity
  8
0
100
AcDbLine
 62
9
  6
CONTINUOUS
 10
297.5406024149
 20
304.3439995932
 11
297.5406024149
 21
306.3439995932
  0
LINE
  5
472
100
AcDbEntity
  8
0
100
AcDbLine
 62
9
  6
CONTINUOUS
 10
297.7298255527
 20
306.3439995932
 11
297.7298255527
 21
325.1424541219
  0
LINE
  5
473
100
AcDbEntity
  8
0
100
AcDbLine
 62
7
  6
CONTINUOUS
 10
297.8406024149
 20
306.3439995932
 11
297.8406024149
 21
304.3439995932
  0
LINE
  5
474
100
AcDbEntity
  8
0
100
AcDbLine
 62
2
  6
CONTINUOUS
 10
283.470632748
 20
320.655597359
 11
282.3226124933
 21
320.7015539582
  0
LINE
  5
475
100
AcDbEntity
  8
0
100
AcDbLine
 62
7
  6
CONTINUOUS
 10
298.1406024149
 20
324.9714946028
 11
298.1406024149
 21
306.3439995932
  0
LINE
  5
476
100
AcDbEntity
  8
0
100
AcDbLine
 62
9
  6
CONTINUOUS
 10
299.4406024149
 20
306.3439995932
 11
299.4406024149
 21
304.3439995932
  0
LINE
  5
477
100
AcDbEntity
  8
0
100
AcDbLine
 62
2
  6
CONTINUOUS
 10
285.8342745333
 20
321.0422507504
 11
284.6602846746
 21
320.7770211321
  0
LINE
  5
478
100
AcDbEntity
  8
0
100
AcDbLine
 62
2
  6
CONTINUOUS
 10
284.6602846746
 20
320.7770211321
 11
283.470632748
 21
320.655597359
  0
LINE
  5
479
100
AcDbEntity
  8
0
100
AcDbLine
 62
9
  6
CONTINUOUS
 10
302.7406024149
 20
304.3439995932
 11
302.7406024149
 21
306.3439995932
  0
LINE
  5
47A
100
AcDbEntity
  8
0
100
AcDbLine
 62
2
  6
CONTINUOUS
 10
294.1813965952
 20
325.3433642241
 11
293.0072681453
 21
325.0783746529
  0
LINE
  5
47B
100
AcDbEntity
  8
0
100
AcDbLine
 62
2
  6
CONTINUOUS
 10
295.370632748
 20
325.4655081386
 11
294.1813965952
 21
325.3433642241
  0
LINE
  5
47C
100
AcDbEntity
  8
0
100
AcDbLine
 62
2
  6
CONTINUOUS
 10
296.5175904697
 20
325.4213919006
 11
295.370632748
 21
325.4655081386
  0
LINE
  5
47D
100
AcDbEntity
  8
0
100
AcDbLine
 62
2
  6
CONTINUOUS
 10
297.6494404884
 20
325.1759092485
 11
296.5175904697
 21
325.4213919006
  0
LINE
  5
47E
100
AcDbEntity
  8
0
100
AcDbLine
 62
2
  6
CONTINUOUS
 10
298.1406024149
 20
324.9714946028
 11
297.6494404884
 21
325.1759092485
  0
LINE
  5
47F
100
AcDbEntity
  8
0
100
AcDbLine
 62
7
  6
CONTINUOUS
 10
304.3406024149
 20
306.3439995932
 11
304.3406024149
 21
304.3439995932
  0
CIRCLE
  5
480
100
AcDbEntity
  8
0
100
AcDbCircle
 62
7
  6
CONTINUOUS
 10
299.8406024149
 20
235.609120307
 40
2.1
  0
ARC
  5
481
100
AcDbEntity
  8
0
100
AcDbCircle
 62
7
  6
CONTINUOUS
 10
299.4406024149
 20
241.209120307
 40
1.6
100
AcDbArc
 50
180.0
 51
270.0
  0
ARC
  5
482
100
AcDbEntity
  8
0
100
AcDbCircle
 62
7
  6
CONTINUOUS
 10
282.1406024149
 20
248.509120307
 40
1.6
100
AcDbArc
 50
90.0
 51
180.0
  0
ARC
  5
483
100
AcDbEntity
  8
0
100
AcDbCircle
 62
7
  6
CONTINUOUS
 10
282.1406024149
 20
222.709120307
 40
1.6
100
AcDbArc
 50
180.0
 51
270.0
  0
ARC
  5
484
100
AcDbEntity
  8
0
100
AcDbCircle
 62
7
  6
CONTINUOUS
 10
299.4406024149
 20
230.009120307
 40
1.6
100
AcDbArc
 50
90.0
 51
180.0
  0
ARC
  5
485
100
AcDbEntity
  8
0
100
AcDbCircle
 62
7
  6
CONTINUOUS
 10
302.7406024149
 20
233.209120307
 40
1.6
100
AcDbArc
 50
270.0
 51
360.0
  0
ARC
  5
486
100
AcDbEntity
  8
0
100
AcDbCircle
 62
7
  6
CONTINUOUS
 10
302.7406024149
 20
238.009120307
 40
1.6
100
AcDbArc
 50
0.0
 51
90.0
  0
ARC
  5
487
100
AcDbEntity
  8
0
100
AcDbCircle
 62
7
  6
CONTINUOUS
 10
292.5406024149
 20
255.4681238842
 40
1.0
100
AcDbArc
 50
100.0000000005
 51
180.0
  0
ARC
  5
488
100
AcDbEntity
  8
0
100
AcDbCircle
 62
7
  6
CONTINUOUS
 10
292.5406024149
 20
254.3489061415
 40
1.0
100
AcDbArc
 50
180.0
 51
240.0000000019
  0
ARC
  5
489
100
AcDbEntity
  8
0
100
AcDbCircle
 62
7
  6
CONTINUOUS
 10
292.5406024149
 20
216.8693344725
 40
1.0
100
AcDbArc
 50
119.9999999984
 51
179.9999999999
  0
ARC
  5
48A
100
AcDbEntity
  8
0
100
AcDbCircle
 62
7
  6
CONTINUOUS
 10
292.5406024149
 20
215.7501167298
 40
1.0
100
AcDbArc
 50
180.0
 51
260.0000000002
  0
ARC
  5
48B
100
AcDbEntity
  8
0
100
AcDbCircle
 62
7
  6
CONTINUOUS
 10
293.6194590443
 20
220.509120307
 40
0.6
100
AcDbArc
 50
7.4999999992
 51
90.0
  0
ARC
  5
48C
100
AcDbEntity
  8
0
100
AcDbCircle
 62
7
  6
CONTINUOUS
 10
293.6194590443
 20
250.709120307
 40
0.6
100
AcDbArc
 50
270.0
 51
352.5000000023
  0
ARC
  5
48D
100
AcDbEntity
  8
0
100
AcDbCircle
 62
7
  6
CONTINUOUS
 10
294.7406024149
 20
250.709120307
 40
0.6
100
AcDbArc
 50
270.0
 51
360.0
  0
ARC
  5
48E
100
AcDbEntity
  8
0
100
AcDbCircle
 62
7
  6
CONTINUOUS
 10
294.7406024149
 20
220.509120307
 40
0.6
100
AcDbArc
 50
0.0
 51
90.0
  0
ARC
  5
48F
100
AcDbEntity
  8
0
100
AcDbCircle
 62
7
  6
CONTINUOUS
 10
297.7906024149
 20
256.5461545247
 40
0.35
100
AcDbArc
 50
280.0000000026
 51
359.9999999998
  0
ARC
  5
490
100
AcDbEntity
  8
0
100
AcDbCircle
 62
7
  6
CONTINUOUS
 10
297.7906024149
 20
257.0538678306
 40
0.35
100
AcDbArc
 50
0.0
 51
99.9999999961
  0
ARC
  5
491
100
AcDbEntity
  8
0
100
AcDbCircle
 62
7
  6
CONTINUOUS
 10
297.7906024149
 20
214.1643727833
 40
0.35
100
AcDbArc
 50
260.000000002
 51
360.0
  0
ARC
  5
492
100
AcDbEntity
  8
0
100
AcDbCircle
 62
7
  6
CONTINUOUS
 10
297.7906024149
 20
214.6720860893
 40
0.35
100
AcDbArc
 50
0.0000000001
 51
79.9999999953
  0
ARC
  5
493
100
AcDbEntity
  8
0
100
AcDbCircle
 62
7
  6
CONTINUOUS
 10
294.2406024149
 20
252.559120307
 40
0.3
100
AcDbArc
 50
239.9999999912
 51
360.0
  0
ARC
  5
494
100
AcDbEntity
  8
0
100
AcDbCircle
 62
7
  6
CONTINUOUS
 10
294.2406024149
 20
218.659120307
 40
0.3
100
AcDbArc
 50
0.0000000001
 51
120.0000000067
  0
ARC
  5
495
100
AcDbEntity
  8
0
100
AcDbCircle
 62
7
  6
CONTINUOUS
 10
297.8406024149
 20
217.009120307
 40
0.3
100
AcDbArc
 50
269.9999999998
 51
360.0
  0
ARC
  5
496
100
AcDbEntity
  8
0
100
AcDbCircle
 62
7
  6
CONTINUOUS
 10
297.8406024149
 20
254.209120307
 40
0.3
100
AcDbArc
 50
0.0
 51
90.0000000002
  0
ARC
  5
497
100
AcDbEntity
  8
0
100
AcDbCircle
 62
7
  6
CONTINUOUS
 10
297.5406024149
 20
253.809120307
 40
0.3
100
AcDbArc
 50
0.0
 51
90.0
  0
ARC
  5
498
100
AcDbEntity
  8
0
100
AcDbCircle
 62
7
  6
CONTINUOUS
 10
295.6406024149
 20
253.809120307
 40
0.3
100
AcDbArc
 50
90.0
 51
180.0
  0
ARC
  5
499
100
AcDbEntity
  8
0
100
AcDbCircle
 62
7
  6
CONTINUOUS
 10
295.6406024149
 20
217.409120307
 40
0.3
100
AcDbArc
 50
180.0
 51
270.0
  0
ARC
  5
49A
100
AcDbEntity
  8
0
100
AcDbCircle
 62
7
  6
CONTINUOUS
 10
297.5406024149
 20
217.409120307
 40
0.3
100
AcDbArc
 50
270.0
 51
360.0
  0
ARC
  5
49B
100
AcDbEntity
  8
0
100
AcDbCircle
 62
7
  6
CONTINUOUS
 10
292.9406024149
 20
254.659120307
 40
0.15
100
AcDbArc
 50
180.0
 51
270.0
  0
ARC
  5
49C
100
AcDbEntity
  8
0
100
AcDbCircle
 62
7
  6
CONTINUOUS
 10
292.9406024149
 20
255.1832553623
 40
0.15
100
AcDbArc
 50
99.9999999994
 51
180.0
  0
ARC
  5
49D
100
AcDbEntity
  8
0
100
AcDbCircle
 62
7
  6
CONTINUOUS
 10
292.9406024149
 20
216.0349852516
 40
0.15
100
AcDbArc
 50
180.0
 51
260.0
  0
ARC
  5
49E
100
AcDbEntity
  8
0
100
AcDbCircle
 62
7
  6
CONTINUOUS
 10
292.9406024149
 20
216.559120307
 40
0.15
100
AcDbArc
 50
90.0
 51
180.0
  0
ARC
  5
49F
100
AcDbEntity
  8
0
100
AcDbCircle
 62
7
  6
CONTINUOUS
 10
453.5521234836
 20
136.9539505334
 40
0.3863090982
100
AcDbArc
 50
240.098863952
 51
241.3406945239
  0
ARC
  5
4A0
100
AcDbEntity
  8
0
100
AcDbCircle
 62
7
  6
CONTINUOUS
 10
340.1321957808
 20
71.4718940111
 40
0.3863090973
100
AcDbArc
 50
240.0988639503
 51
241.340694525
  0
ARC
  5
4A1
100
AcDbEntity
  8
0
100
AcDbCircle
 62
7
  6
CONTINUOUS
 10
453.4428768229
 20
137.1338858458
 40
0.3809257284
100
AcDbArc
 50
177.709269989
 51
180.0117448361
  0
ARC
  5
4A2
100
AcDbEntity
  8
0
100
AcDbCircle
 62
7
  6
CONTINUOUS
 10
340.0229491209
 20
71.6518293243
 40
0.3809257287
100
AcDbArc
 50
177.7092699899
 51
180.0117448352
  0
ARC
  5
4A3
100
AcDbEntity
  8
0
100
AcDbCircle
 62
7
  6
CONTINUOUS
 10
453.5464218831
 20
136.943539125
 40
0.3744387327
100
AcDbArc
 50
241.3421887396
 51
242.2941168816
  0
ARC
  5
4A4
100
AcDbEntity
  8
0
100
AcDbCircle
 62
7
  6
CONTINUOUS
 10
340.1264941807
 20
71.4614826034
 40
0.3744387327
100
AcDbArc
 50
241.3421887396
 51
242.2941168817
  0
ARC
  5
4A5
100
AcDbEntity
  8
0
100
AcDbCircle
 62
7
  6
CONTINUOUS
 10
342.7797296863
 20
68.8689664338
 40
0.3358489737
100
AcDbArc
 50
201.2612420052
 51
207.2392817368
  0
ARC
  5
4A6
100
AcDbEntity
  8
0
100
AcDbCircle
 62
7
  6
CONTINUOUS
 10
454.9673177901
 20
132.6990100691
 40
0.1560370165
100
AcDbArc
 50
334.2162185037
 51
336.6337986958
  0
ARC
  5
4A7
100
AcDbEntity
  8
0
100
AcDbCircle
 62
7
  6
CONTINUOUS
 10
454.9989302629
 20
132.6794603713
 40
0.1187392846
100
AcDbArc
 50
317.623512022
 51
319.529557758
  0
ARC
  5
4A8
100
AcDbEntity
  8
0
100
AcDbCircle
 62
7
  6
CONTINUOUS
 10
412.4486915796
 20
73.3677360023
 40
0.3983532966
100
AcDbArc
 50
119.9752532649
 51
123.4467941158
  0
ARC
  5
4A9
100
AcDbEntity
  8
0
100
AcDbCircle
 62
7
  6
CONTINUOUS
 10
518.5147087575
 20
134.6040731484
 40
0.3983532965
100
AcDbArc
 50
119.9752532646
 51
123.4467941163
  0
ARC
  5
4AA
100
AcDbEntity
  8
0
100
AcDbCircle
 62
7
  6
CONTINUOUS
 10
500.8359180922
 20
124.3998678165
 40
0.3961898603
100
AcDbArc
 50
119.9685377148
 51
123.8844915023
  0
ARC
  5
4AB
100
AcDbEntity
  8
0
100
AcDbCircle
 62
7
  6
CONTINUOUS
 10
483.1582485625
 20
114.1938116256
 40
0.3961898602
100
AcDbArc
 50
119.9685377146
 51
123.8844915026
  0
ARC
  5
4AC
100
AcDbEntity
  8
0
100
AcDbCircle
 62
7
  6
CONTINUOUS
 10
465.4805790328
 20
103.9877554345
 40
0.3961898602
100
AcDbArc
 50
119.9685377147
 51
123.8844915026
  0
ARC
  5
4AD
100
AcDbEntity
  8
0
100
AcDbCircle
 62
7
  6
CONTINUOUS
 10
447.8029095032
 20
93.7816992435
 40
0.3961898602
100
AcDbArc
 50
119.9685377147
 51
123.8844915026
  0
ARC
  5
4AE
100
AcDbEntity
  8
0
100
AcDbCircle
 62
7
  6
CONTINUOUS
 10
430.1252399735
 20
83.5756430525
 40
0.3961898603
100
AcDbArc
 50
119.9685377148
 51
123.8844915024
  0
ARC
  5
4AF
100
AcDbEntity
  8
0
100
AcDbCircle
 62
7
  6
CONTINUOUS
 10
500.8359324201
 20
125.0454388848
 40
0.3961533765
100
AcDbArc
 50
236.414323401
 51
240.0260274492
  0
ARC
  5
4B0
100
AcDbEntity
  8
0
100
AcDbCircle
 62
7
  6
CONTINUOUS
 10
483.1582628904
 20
114.8393826938
 40
0.3961533765
100
AcDbArc
 50
236.4143234011
 51
240.0260274495
  0
ARC
  5
4B1
100
AcDbEntity
  8
0
100
AcDbCircle
 62
7
  6
CONTINUOUS
 10
465.4805933607
 20
104.6333265027
 40
0.3961533765
100
AcDbArc
 50
236.4143234007
 51
240.0260274497
  0
ARC
  5
4B2
100
AcDbEntity
  8
0
100
AcDbCircle
 62
7
  6
CONTINUOUS
 10
447.8029238311
 20
94.4272703118
 40
0.3961533765
100
AcDbArc
 50
236.4143234011
 51
240.0260274494
  0
ARC
  5
4B3
100
AcDbEntity
  8
0
100
AcDbCircle
 62
7
  6
CONTINUOUS
 10
430.1252543015
 20
84.2212141208
 40
0.3961533766
100
AcDbArc
 50
236.4143234012
 51
240.0260274492
  0
ARC
  5
4B4
100
AcDbEntity
  8
0
100
AcDbCircle
 62
7
  6
CONTINUOUS
 10
412.4475847718
 20
74.0151579298
 40
0.3961533765
100
AcDbArc
 50
236.414323401
 51
240.0260274493
  0
ARC
  5
4B5
100
AcDbEntity
  8
0
100
AcDbCircle
 62
7
  6
CONTINUOUS
 10
518.5136019497
 20
135.2514950757
 40
0.3961533764
100
AcDbArc
 50
236.4143234007
 51
240.0260274497
  0
ARC
  5
4B6
100
AcDbEntity
  8
0
100
AcDbCircle
 62
7
  6
CONTINUOUS
 10
409.0487389357
 20
68.5523306978
 40
0.3863090979
100
AcDbArc
 50
240.0988639516
 51
241.3406945243
  0
ARC
  5
4B7
100
AcDbEntity
  8
0
100
AcDbCircle
 62
7
  6
CONTINUOUS
 10
408.9394922758
 20
68.7322660104
 40
0.380925729
100
AcDbArc
 50
177.7092699909
 51
180.0117448342
  0
ARC
  5
4B8
100
AcDbEntity
  8
0
100
AcDbCircle
 62
7
  6
CONTINUOUS
 10
409.0430373355
 20
68.5419192899
 40
0.3744387331
100
AcDbArc
 50
241.3421887402
 51
242.2941168811
  0
ARC
  5
4B9
100
AcDbEntity
  8
0
100
AcDbCircle
 62
7
  6
CONTINUOUS
 10
520.0663405091
 20
137.9592820417
 40
0.1560313513
100
AcDbArc
 50
83.3671474448
 51
85.7847861471
  0
ARC
  5
4BA
100
AcDbEntity
  8
0
100
AcDbCircle
 62
7
  6
CONTINUOUS
 10
520.0652155884
 20
137.9964313053
 40
0.1187363928
100
AcDbArc
 50
100.4717466221
 51
102.3780222489
  0
ARC
  5
4BB
100
AcDbEntity
  8
0
100
AcDbCircle
 62
7
  6
CONTINUOUS
 10
411.0485311991
 20
68.1622705606
 40
0.1150005921
100
AcDbArc
 50
238.1441918689
 51
239.9902074229
  0
ARC
  5
4BC
100
AcDbEntity
  8
0
100
AcDbCircle
 62
7
  6
CONTINUOUS
 10
85.3847563898
 20
235.609120307
 40
2.25
100
AcDbArc
 50
90.0
 51
270.0
  0
ARC
  5
4BD
100
AcDbEntity
  8
0
100
AcDbCircle
 62
7
  6
CONTINUOUS
 10
92.8847563898
 20
235.609120307
 40
2.25
100
AcDbArc
 50
270.0
 51
90.0
  0
ARC
  5
4BE
100
AcDbEntity
  8
0
100
AcDbCircle
 62
7
  6
CONTINUOUS
 10
210.3847563898
 20
235.609120307
 40
2.25
100
AcDbArc
 50
90.0
 51
270.0
  0
ARC
  5
4BF
100
AcDbEntity
  8
0
100
AcDbCircle
 62
7
  6
CONTINUOUS
 10
217.8847563898
 20
235.609120307
 40
2.25
100
AcDbArc
 50
270.0
 51
90.0
  0
SPLINE
  5
4C0
100
AcDbEntity
  8
0
100
AcDbSpline
 62
7
  6
CONTINUOUS
 70
0
 71
3
 72
9
 73
5
 74
0
 42
0.0000001
 43
0.0000001
 44
0.0000000001
 40
0.0
 40
0.0
 40
0.0
 40
0.0
 40
0.5507707617
 40
1.0
 40
1.0
 40
1.0
 40
1.0
 10
452.5104078132
 20
137.5992144381
 30
0.0
 10
452.5104078132
 20
137.6297745184
 30
0.0
 10
452.5178229604
 20
137.6865616709
 30
0.0
 10
452.5550983547
 20
137.7332412017
 30
0.0
 10
452.5766849356
 20
137.7457040365
 30
0.0
  0
SPLINE
  5
4C1
100
AcDbEntity
  8
0
100
AcDbSpline
 62
7
  6
CONTINUOUS
 70
0
 71
3
 72
15
 73
11
 74
0
 42
0.0000001
 43
0.0000001
 44
0.0000000001
 40
0.0
 40
0.0
 40
0.0
 40
0.0
 40
0.1288304094
 40
0.2705684385
 40
0.4178819861
 40
0.5623849278
 40
0.696201296
 40
0.8135946323
 40
0.9130660732
 40
1.0
 40
1.0
 40
1.0
 40
1.0
 10
453.3730780863
 20
136.6275873743
 30
0.0
 10
453.3730780863
 20
136.6634874968
 30
0.0
 10
453.3630347513
 20
136.7389709904
 30
0.0
 10
453.3255510159
 20
136.8498001931
 30
0.0
 10
453.2677854167
 20
136.9565723358
 30
0.0
 10
453.194412611
 20
137.0505017248
 30
0.0
 10
453.1112999467
 20
137.1240967931
 30
0.0
 10
453.0246266341
 20
137.1714452442
 30
0.0
 10
452.939785035
 20
137.1884368498
 30
0.0
 10
452.8870770946
 20
137.1748904063
 30
0.0
 10
452.8660971198
 20
137.1627784478
 30
0.0
  0
SPLINE
  5
4C2
100
AcDbEntity
  8
0
100
AcDbSpline
 62
7
  6
CONTINUOUS
 70
0
 71
3
 72
11
 73
7
 74
0
 42
0.0000001
 43
0.0000001
 44
0.0000000001
 40
0.0
 40
0.0
 40
0.0
 40
0.0
 40
0.2372296584
 40
0.5000014029
 40
0.7627723839
 40
1.0
 40
1.0
 40
1.0
 40
1.0
 10
453.9246213756
 20
137.109323741
 30
0.0
 10
453.9246213756
 20
137.1464163514
 30
0.0
 10
453.9107092261
 20
137.2246459156
 30
0.0
 10
453.8622141881
 20
137.3345725022
 30
0.0
 10
453.7912627151
 20
137.4315334969
 30
0.0
 10
453.7304701909
 20
137.4826961601
 30
0.0
 10
453.6983472056
 20
137.5012420998
 30
0.0
  0
SPLINE
  5
4C3
100
AcDbEntity
  8
0
100
AcDbSpline
 62
7
  6
CONTINUOUS
 70
0
 71
3
 72
9
 73
5
 74
0
 42
0.0000001
 43
0.0000001
 44
0.0000000001
 40
0.0
 40
0.0
 40
0.0
 40
0.0
 40
0.5507688994
 40
1.0
 40
1.0
 40
1.0
 40
1.0
 10
453.0195246957
 20
137.8931546575
 30
0.0
 10
452.993059782
 20
137.9084339564
 30
0.0
 10
452.9401747476
 20
137.9304046716
 30
0.0
 10
452.8811135837
 20
137.9214633978
 30
0.0
 10
452.859527648
 20
137.9090009355
 30
0.0
  0
SPLINE
  5
4C4
100
AcDbEntity
  8
0
100
AcDbSpline
 62
7
  6
CONTINUOUS
 70
0
 71
3
 72
9
 73
5
 74
0
 42
0.0000001
 43
0.0000001
 44
0.0000000001
 40
0.0
 40
0.0
 40
0.0
 40
0.0
 40
0.2953561385
 40
1.0
 40
1.0
 40
1.0
 40
1.0
 10
450.7850672671
 20
138.1217467493
 30
0.0
 10
450.7824360915
 20
138.1232658367
 30
0.0
 10
450.7733090579
 20
138.1277590481
 30
0.0
 10
450.7613465863
 20
138.1283395557
 30
0.0
 10
450.7550692788
 20
138.124715401
 30
0.0
  0
SPLINE
  5
4C5
100
AcDbEntity
  8
0
100
AcDbSpline
 62
7
  6
CONTINUOUS
 70
0
 71
3
 72
9
 73
5
 74
0
 42
0.0000001
 43
0.0000001
 44
0.0000000001
 40
0.0
 40
0.0
 40
0.0
 40
0.0
 40
0.500001615
 40
1.0
 40
1.0
 40
1.0
 40
1.0
 10
455.975231041
 20
135.0762584942
 30
0.0
 10
455.975231041
 20
135.0907993111
 30
0.0
 10
455.965291814
 20
135.1195099118
 30
0.0
 10
455.9453973163
 20
135.1424729057
 30
0.0
 10
455.9328046342
 20
135.1497431865
 30
0.0
  0
SPLINE
  5
4C6
100
AcDbEntity
  8
0
100
AcDbSpline
 62
7
  6
CONTINUOUS
 70
0
 71
3
 72
11
 73
7
 74
0
 42
0.0000001
 43
0.0000001
 44
0.0000000001
 40
0.0
 40
0.0
 40
0.0
 40
0.0
 40
0.2372276161
 40
0.4999985971
 40
0.7627703416
 40
1.0
 40
1.0
 40
1.0
 40
1.0
 10
454.1508955456
 20
136.1785136505
 30
0.0
 10
454.1187725604
 20
136.1970595902
 30
0.0
 10
454.0579800362
 20
136.2482222534
 30
0.0
 10
453.9870285631
 20
136.3451832481
 30
0.0
 10
453.9385335251
 20
136.4551098347
 30
0.0
 10
453.9246213756
 20
136.5333393989
 30
0.0
 10
453.9246213756
 20
136.5704320093
 30
0.0
  0
SPLINE
  5
4C7
100
AcDbEntity
  8
0
100
AcDbSpline
 62
7
  6
CONTINUOUS
 70
0
 71
3
 72
10
 73
6
 74
0
 42
0.0000001
 43
0.0000001
 44
0.0000000001
 40
0.0
 40
0.0
 40
0.0
 40
0.0
 40
0.218436951
 40
0.4523064786
 40
1.0
 40
1.0
 40
1.0
 40
1.0
 10
453.2860893566
 20
136.4353197887
 30
0.0
 10
453.2999434476
 20
136.4433179001
 30
0.0
 10
453.3258773365
 20
136.4651148691
 30
0.0
 10
453.3645471049
 20
136.5284002796
 30
0.0
 10
453.3730780863
 20
136.5874774897
 30
0.0
 10
453.3730780863
 20
136.6275873743
 30
0.0
  0
SPLINE
  5
4C8
100
AcDbEntity
  8
0
100
AcDbSpline
 62
7
  6
CONTINUOUS
 70
0
 71
3
 72
11
 73
7
 74
0
 42
0.0000001
 43
0.0000001
 44
0.0000000001
 40
0.0
 40
0.0
 40
0.0
 40
0.0
 40
0.237087493
 40
0.4998603112
 40
0.7627070155
 40
1.0
 40
1.0
 40
1.0
 40
1.0
 10
453.3595464943
 20
136.6190642504
 30
0.0
 10
453.3173190213
 20
136.6433436977
 30
0.0
 10
453.2373753949
 20
136.710464663
 30
0.0
 10
453.1440600342
 20
136.8377934952
 30
0.0
 10
453.0802602109
 20
136.9822353819
 30
0.0
 10
453.0619511026
 20
137.085055677
 30
0.0
 10
453.0619511026
 20
137.1338077614
 30
0.0
  0
SPLINE
  5
4C9
100
AcDbEntity
  8
0
100
AcDbSpline
 62
7
  6
CONTINUOUS
 70
0
 71
3
 72
9
 73
5
 74
0
 42
0.0000001
 43
0.0000001
 44
0.0000000001
 40
0.0
 40
0.0
 40
0.0
 40
0.0
 40
0.4492292383
 40
1.0
 40
1.0
 40
1.0
 40
1.0
 10
455.3432684938
 20
132.741534613
 30
0.0
 10
455.3648550746
 20
132.7539974477
 30
0.0
 10
455.402130469
 20
132.8006769785
 30
0.0
 10
455.4095456161
 20
132.8574641311
 30
0.0
 10
455.4095456161
 20
132.8880242113
 30
0.0
  0
SPLINE
  5
4CA
100
AcDbEntity
  8
0
100
AcDbSpline
 62
7
  6
CONTINUOUS
 70
0
 71
3
 72
9
 73
5
 74
0
 42
0.0000001
 43
0.0000001
 44
0.0000000001
 40
0.0
 40
0.0
 40
0.0
 40
0.0
 40
0.4492292383
 40
1.0
 40
1.0
 40
1.0
 40
1.0
 10
452.4441306909
 20
136.9138331082
 30
0.0
 10
452.4657172717
 20
136.9262959429
 30
0.0
 10
452.5029926661
 20
136.9729754737
 30
0.0
 10
452.5104078132
 20
137.0297626262
 30
0.0
 10
452.5104078132
 20
137.0603227065
 30
0.0
  0
SPLINE
  5
4CB
100
AcDbEntity
  8
0
100
AcDbSpline
 62
7
  6
CONTINUOUS
 70
0
 71
3
 72
11
 73
7
 74
0
 42
0.0000001
 43
0.0000001
 44
0.0000000001
 40
0.0
 40
0.0
 40
0.0
 40
0.0
 40
0.2372276161
 40
0.4999985971
 40
0.7627703416
 40
1.0
 40
1.0
 40
1.0
 40
1.0
 10
453.4155044932
 20
137.3379452007
 30
0.0
 10
453.4476274784
 20
137.3193992611
 30
0.0
 10
453.5084200026
 20
137.2682365978
 30
0.0
 10
453.5793714757
 20
137.1712756031
 30
0.0
 10
453.6278665136
 20
137.0613490166
 30
0.0
 10
453.6417786631
 20
136.9831194523
 30
0.0
 10
453.6417786631
 20
136.9460268419
 30
0.0
  0
SPLINE
  5
4CC
100
AcDbEntity
  8
0
100
AcDbSpline
 62
7
  6
CONTINUOUS
 70
0
 71
3
 72
10
 73
6
 74
0
 42
0.0000001
 43
0.0000001
 44
0.0000000001
 40
0.0
 40
0.0
 40
0.0
 40
0.0
 40
0.218436951
 40
0.4523064786
 40
1.0
 40
1.0
 40
1.0
 40
1.0
 10
452.8660971198
 20
137.1627784478
 30
0.0
 10
452.8522430288
 20
137.1547803365
 30
0.0
 10
452.8263091399
 20
137.1329833674
 30
0.0
 10
452.7876393715
 20
137.069697957
 30
0.0
 10
452.7791083901
 20
137.0106207469
 30
0.0
 10
452.7791083901
 20
136.9705108623
 30
0.0
  0
SPLINE
  5
4CD
100
AcDbEntity
  8
0
100
AcDbSpline
 62
7
  6
CONTINUOUS
 70
0
 71
3
 72
9
 73
5
 74
0
 42
0.0000001
 43
0.0000001
 44
0.0000000001
 40
0.0
 40
0.0
 40
0.0
 40
0.0
 40
0.4492311006
 40
1.0
 40
1.0
 40
1.0
 40
1.0
 10
452.5766849356
 20
137.7457040365
 30
0.0
 10
452.5982708713
 20
137.7581664988
 30
0.0
 10
452.6573320351
 20
137.7671077726
 30
0.0
 10
452.7102170696
 20
137.7451370573
 30
0.0
 10
452.7366819832
 20
137.7298577585
 30
0.0
  0
SPLINE
  5
4CE
100
AcDbEntity
  8
0
100
AcDbSpline
 62
7
  6
CONTINUOUS
 70
0
 71
3
 72
8
 73
4
 74
0
 42
0.0000001
 43
0.0000001
 44
0.0000000001
 40
0.0
 40
0.0
 40
0.0
 40
0.0
 40
1.0
 40
1.0
 40
1.0
 40
1.0
 10
452.4156337108
 20
136.9024135754
 30
0.0
 10
452.4255682783
 20
136.9048681161
 30
0.0
 10
452.4352683617
 20
136.9087165154
 30
0.0
 10
452.4441306909
 20
136.9138331082
 30
0.0
  0
SPLINE
  5
4CF
100
AcDbEntity
  8
0
100
AcDbSpline
 62
7
  6
CONTINUOUS
 70
0
 71
3
 72
9
 73
5
 74
0
 42
0.0000001
 43
0.0000001
 44
0.0000000001
 40
0.0
 40
0.0
 40
0.0
 40
0.0
 40
0.2601028201
 40
1.0
 40
1.0
 40
1.0
 40
1.0
 10
455.1267029036
 20
132.7247273123
 30
0.0
 10
455.1267029036
 20
132.7203763499
 30
0.0
 10
455.1263377413
 20
132.7036530733
 30
0.0
 10
455.1244748451
 20
132.6869426352
 30
0.0
 10
455.1220690508
 20
132.67480181
 30
0.0
  0
SPLINE
  5
4D0
100
AcDbEntity
  8
0
100
AcDbSpline
 62
7
  6
CONTINUOUS
 70
0
 71
3
 72
9
 73
5
 74
0
 42
0.0000001
 43
0.0000001
 44
0.0000000001
 40
0.0
 40
0.0
 40
0.0
 40
0.0
 40
0.2599425484
 40
1.0
 40
1.0
 40
1.0
 40
1.0
 10
455.1220690508
 20
132.67480181
 30
0.0
 10
455.1214048418
 20
132.6714498836
 30
0.0
 10
455.1185455326
 20
132.6586192899
 30
0.0
 10
455.114418033
 20
132.6460547335
 30
0.0
 10
455.1105580147
 20
132.6371247836
 30
0.0
  0
SPLINE
  5
4D1
100
AcDbEntity
  8
0
100
AcDbSpline
 62
7
  6
CONTINUOUS
 70
0
 71
3
 72
9
 73
5
 74
0
 42
0.0000001
 43
0.0000001
 44
0.0000000001
 40
0.0
 40
0.0
 40
0.0
 40
0.0
 40
0.2580451199
 40
1.0
 40
1.0
 40
1.0
 40
1.0
 10
455.1078200631
 20
132.6311376756
 30
0.0
 10
455.1065374223
 20
132.628483758
 30
0.0
 10
455.101270926
 20
132.6183468359
 30
0.0
 10
455.0947613992
 20
132.6088391044
 30
0.0
 10
455.0892600933
 20
132.6023919638
 30
0.0
  0
SPLINE
  5
4D2
100
AcDbEntity
  8
0
100
AcDbSpline
 62
7
  6
CONTINUOUS
 70
0
 71
3
 72
8
 73
4
 74
0
 42
0.0000001
 43
0.0000001
 44
0.0000000001
 40
0.0
 40
0.0
 40
0.0
 40
0.0
 40
1.0
 40
1.0
 40
1.0
 40
1.0
 10
455.0866467705
 20
132.599430177
 30
0.0
 10
455.0790717528
 20
132.5911286864
 30
0.0
 10
455.0701583261
 20
132.5838567186
 30
0.0
 10
455.0604257813
 20
132.5782377139
 30
0.0
  0
SPLINE
  5
4D3
100
AcDbEntity
  8
0
100
AcDbSpline
 62
7
  6
CONTINUOUS
 70
0
 71
3
 72
9
 73
5
 74
0
 42
0.0000001
 43
0.0000001
 44
0.0000000001
 40
0.0
 40
0.0
 40
0.0
 40
0.0
 40
0.4755339487
 40
1.0
 40
1.0
 40
1.0
 40
1.0
 10
453.6417786631
 20
136.4071351103
 30
0.0
 10
453.6417786631
 20
136.3616758566
 30
0.0
 10
453.6623029067
 20
136.2661547798
 30
0.0
 10
453.7074354018
 20
136.1806072779
 30
0.0
 10
453.7365527655
 20
136.1397918919
 30
0.0
  0
SPLINE
  5
4D4
100
AcDbEntity
  8
0
100
AcDbSpline
 62
7
  6
CONTINUOUS
 70
0
 71
3
 72
9
 73
5
 74
0
 42
0.0000001
 43
0.0000001
 44
0.0000000001
 40
0.0
 40
0.0
 40
0.0
 40
0.0
 40
0.4754662513
 40
1.0
 40
1.0
 40
1.0
 40
1.0
 10
452.7791083901
 20
136.9705108623
 30
0.0
 10
452.7791083901
 20
136.9111876695
 30
0.0
 10
452.8057543239
 20
136.786511577
 30
0.0
 10
452.8644193194
 20
136.6747481443
 30
0.0
 10
452.9022662582
 20
136.6213562681
 30
0.0
  0
SPLINE
  5
4D5
100
AcDbEntity
  8
0
100
AcDbSpline
 62
7
  6
CONTINUOUS
 70
0
 71
3
 72
8
 73
4
 74
0
 42
0.0000001
 43
0.0000001
 44
0.0000000001
 40
0.0
 40
0.0
 40
0.0
 40
0.0
 40
1.0
 40
1.0
 40
1.0
 40
1.0
 10
453.2499368624
 20
136.4206453388
 30
0.0
 10
453.2625357775
 20
136.4238727964
 30
0.0
 10
453.2748258653
 20
136.4288172577
 30
0.0
 10
453.2860893566
 20
136.4353197887
 30
0.0
  0
SPLINE
  5
4D6
100
AcDbEntity
  8
0
100
AcDbSpline
 62
7
  6
CONTINUOUS
 70
0
 71
3
 72
9
 73
5
 74
0
 42
0.0000001
 43
0.0000001
 44
0.0000000001
 40
0.0
 40
0.0
 40
0.0
 40
0.0
 40
0.5507688994
 40
1.0
 40
1.0
 40
1.0
 40
1.0
 10
339.5995969934
 20
72.411098136
 30
0.0
 10
339.5731320797
 20
72.4263774349
 30
0.0
 10
339.5202470452
 20
72.4483481501
 30
0.0
 10
339.4611858814
 20
72.4394068763
 30
0.0
 10
339.4395999457
 20
72.426944414
 30
0.0
  0
SPLINE
  5
4D7
100
AcDbEntity
  8
0
100
AcDbSpline
 62
7
  6
CONTINUOUS
 70
0
 71
3
 72
9
 73
5
 74
0
 42
0.0000001
 43
0.0000001
 44
0.0000000001
 40
0.0
 40
0.0
 40
0.0
 40
0.0
 40
0.2953561385
 40
1.0
 40
1.0
 40
1.0
 40
1.0
 10
337.3651395648
 20
72.6396902278
 30
0.0
 10
337.3625083892
 20
72.6412093152
 30
0.0
 10
337.3533813556
 20
72.6457025265
 30
0.0
 10
337.341418884
 20
72.6462830342
 30
0.0
 10
337.3351415765
 20
72.6426588794
 30
0.0
  0
SPLINE
  5
4D8
100
AcDbEntity
  8
0
100
AcDbSpline
 62
7
  6
CONTINUOUS
 70
0
 71
3
 72
9
 73
5
 74
0
 42
0.0000001
 43
0.0000001
 44
0.0000000001
 40
0.0
 40
0.0
 40
0.0
 40
0.0
 40
0.500001615
 40
1.0
 40
1.0
 40
1.0
 40
1.0
 10
342.5553033387
 20
69.5942019727
 30
0.0
 10
342.5553033387
 20
69.6087427896
 30
0.0
 10
342.5453641117
 20
69.6374533903
 30
0.0
 10
342.525469614
 20
69.6604163842
 30
0.0
 10
342.5128769319
 20
69.6676866649
 30
0.0
  0
SPLINE
  5
4D9
100
AcDbEntity
  8
0
100
AcDbSpline
 62
7
  6
CONTINUOUS
 70
0
 71
3
 72
11
 73
7
 74
0
 42
0.0000001
 43
0.0000001
 44
0.0000000001
 40
0.0
 40
0.0
 40
0.0
 40
0.0
 40
0.2372296584
 40
0.5000014029
 40
0.7627723839
 40
1.0
 40
1.0
 40
1.0
 40
1.0
 10
340.5046936733
 20
71.6272672194
 30
0.0
 10
340.5046936733
 20
71.6643598298
 30
0.0
 10
340.4907815238
 20
71.7425893941
 30
0.0
 10
340.4422864858
 20
71.8525159807
 30
0.0
 10
340.3713350127
 20
71.9494769754
 30
0.0
 10
340.3105424885
 20
72.0006396386
 30
0.0
 10
340.2784195033
 20
72.0191855783
 30
0.0
  0
SPLINE
  5
4DA
100
AcDbEntity
  8
0
100
AcDbSpline
 62
7
  6
CONTINUOUS
 70
0
 71
3
 72
9
 73
5
 74
0
 42
0.0000001
 43
0.0000001
 44
0.0000000001
 40
0.0
 40
0.0
 40
0.0
 40
0.0
 40
0.5507707617
 40
1.0
 40
1.0
 40
1.0
 40
1.0
 10
339.0904801109
 20
72.1171579166
 30
0.0
 10
339.0904801109
 20
72.1477179969
 30
0.0
 10
339.097895258
 20
72.2045051494
 30
0.0
 10
339.1351706524
 20
72.2511846802
 30
0.0
 10
339.1567572332
 20
72.263647515
 30
0.0
  0
SPLINE
  5
4DB
100
AcDbEntity
  8
0
100
AcDbSpline
 62
7
  6
CONTINUOUS
 70
0
 71
3
 72
9
 73
5
 74
0
 42
0.0000001
 43
0.0000001
 44
0.0000000001
 40
0.0
 40
0.0
 40
0.0
 40
0.0
 40
0.5508329032
 40
1.0
 40
1.0
 40
1.0
 40
1.0
 10
341.791628015
 20
69.3492486476
 30
0.0
 10
341.7817027844
 20
69.3549788974
 30
0.0
 10
341.7618705421
 20
69.3632216303
 30
0.0
 10
341.739725393
 20
69.3598585864
 30
0.0
 10
341.7316320383
 20
69.355185951
 30
0.0
  0
SPLINE
  5
4DC
100
AcDbEntity
  8
0
100
AcDbSpline
 62
7
  6
CONTINUOUS
 70
0
 71
3
 72
11
 73
7
 74
0
 42
0.0000001
 43
0.0000001
 44
0.0000000001
 40
0.0
 40
0.0
 40
0.0
 40
0.0
 40
0.2372276161
 40
0.4999985971
 40
0.7627703416
 40
1.0
 40
1.0
 40
1.0
 40
1.0
 10
337.8318300404
 20
69.2185574683
 30
0.0
 10
337.7997070552
 20
69.2371034079
 30
0.0
 10
337.738914531
 20
69.2882660712
 30
0.0
 10
337.6679630579
 20
69.3852270659
 30
0.0
 10
337.6194680199
 20
69.4951536524
 30
0.0
 10
337.6055558704
 20
69.5733832167
 30
0.0
 10
337.6055558704
 20
69.6104758271
 30
0.0
  0
SPLINE
  5
4DD
100
AcDbEntity
  8
0
100
AcDbSpline
 62
7
  6
CONTINUOUS
 70
0
 71
3
 72
9
 73
5
 74
0
 42
0.0000001
 43
0.0000001
 44
0.0000000001
 40
0.0
 40
0.0
 40
0.0
 40
0.0
 40
0.500001615
 40
1.0
 40
1.0
 40
1.0
 40
1.0
 10
337.6055558704
 20
71.6680624388
 30
0.0
 10
337.6055558704
 20
71.6971440726
 30
0.0
 10
337.5856774164
 20
71.754565274
 30
0.0
 10
337.5458884209
 20
71.8004912618
 30
0.0
 10
337.5207030567
 20
71.8150318233
 30
0.0
  0
SPLINE
  5
4DE
100
AcDbEntity
  8
0
100
AcDbSpline
 62
7
  6
CONTINUOUS
 70
0
 71
3
 72
9
 73
5
 74
0
 42
0.0000001
 43
0.0000001
 44
0.0000000001
 40
0.0
 40
0.0
 40
0.0
 40
0.0
 40
0.4999987158
 40
1.0
 40
1.0
 40
1.0
 40
1.0
 10
337.0822968523
 20
72.0681420169
 30
0.0
 10
337.0697041619
 20
72.0754123025
 30
0.0
 10
337.0498096667
 20
72.0983753015
 30
0.0
 10
337.0398704455
 20
72.1270859018
 30
0.0
 10
337.0398704455
 20
72.1416267091
 30
0.0
  0
SPLINE
  5
4DF
100
AcDbEntity
  8
0
100
AcDbSpline
 62
7
  6
CONTINUOUS
 70
0
 71
3
 72
9
 73
5
 74
0
 42
0.0000001
 43
0.0000001
 44
0.0000000001
 40
0.0
 40
0.0
 40
0.0
 40
0.0
 40
0.2953576815
 40
1.0
 40
1.0
 40
1.0
 40
1.0
 10
337.0398704455
 20
72.4518977061
 30
0.0
 10
337.0398704455
 20
72.4549360327
 30
0.0
 10
337.0405426801
 20
72.4650872168
 30
0.0
 10
337.0460213574
 20
72.4757377152
 30
0.0
 10
337.0522988639
 20
72.4793619804
 30
0.0
  0
SPLINE
  5
4E0
100
AcDbEntity
  8
0
100
AcDbSpline
 62
7
  6
CONTINUOUS
 70
0
 71
3
 72
15
 73
11
 74
0
 42
0.0000001
 43
0.0000001
 44
0.0000000001
 40
0.0
 40
0.0
 40
0.0
 40
0.0
 40
0.1288304094
 40
0.2705684385
 40
0.4178819861
 40
0.5623849278
 40
0.696201296
 40
0.8135946323
 40
0.9130660732
 40
1.0
 40
1.0
 40
1.0
 40
1.0
 10
339.953150384
 20
71.1455308528
 30
0.0
 10
339.953150384
 20
71.1814309753
 30
0.0
 10
339.943107049
 20
71.2569144689
 30
0.0
 10
339.9056233136
 20
71.3677436716
 30
0.0
 10
339.8478577144
 20
71.4745158143
 30
0.0
 10
339.7744849086
 20
71.5684452033
 30
0.0
 10
339.6913722443
 20
71.6420402715
 30
0.0
 10
339.6046989318
 20
71.6893887227
 30
0.0
 10
339.5198573327
 20
71.7063803283
 30
0.0
 10
339.4671493923
 20
71.6928338848
 30
0.0
 10
339.4461694175
 20
71.6807219263
 30
0.0
  0
SPLINE
  5
4E1
100
AcDbEntity
  8
0
100
AcDbSpline
 62
7
  6
CONTINUOUS
 70
0
 71
3
 72
11
 73
7
 74
0
 42
0.0000001
 43
0.0000001
 44
0.0000000001
 40
0.0
 40
0.0
 40
0.0
 40
0.0
 40
0.237087493
 40
0.4998603112
 40
0.7627070155
 40
1.0
 40
1.0
 40
1.0
 40
1.0
 10
339.939618792
 20
71.1370077289
 30
0.0
 10
339.8973913189
 20
71.1612871762
 30
0.0
 10
339.8174476926
 20
71.2284081415
 30
0.0
 10
339.7241323319
 20
71.3557369737
 30
0.0
 10
339.6603325085
 20
71.5001788604
 30
0.0
 10
339.6420234002
 20
71.6029991555
 30
0.0
 10
339.6420234002
 20
71.6517512398
 30
0.0
  0
SPLINE
  5
4E2
100
AcDbEntity
  8
0
100
AcDbSpline
 62
7
  6
CONTINUOUS
 70
0
 71
3
 72
10
 73
6
 74
0
 42
0.0000001
 43
0.0000001
 44
0.0000000001
 40
0.0
 40
0.0
 40
0.0
 40
0.0
 40
0.218436951
 40
0.4523064786
 40
1.0
 40
1.0
 40
1.0
 40
1.0
 10
339.8661616542
 20
70.9532632672
 30
0.0
 10
339.8800157453
 20
70.9612613786
 30
0.0
 10
339.9059496342
 20
70.9830583476
 30
0.0
 10
339.9446194026
 20
71.0463437581
 30
0.0
 10
339.953150384
 20
71.1054209682
 30
0.0
 10
339.953150384
 20
71.1455308528
 30
0.0
  0
SPLINE
  5
4E3
100
AcDbEntity
  8
0
100
AcDbSpline
 62
7
  6
CONTINUOUS
 70
0
 71
3
 72
9
 73
5
 74
0
 42
0.0000001
 43
0.0000001
 44
0.0000000001
 40
0.0
 40
0.0
 40
0.0
 40
0.0
 40
0.4492292383
 40
1.0
 40
1.0
 40
1.0
 40
1.0
 10
339.0242029886
 20
71.4317765866
 30
0.0
 10
339.0457895694
 20
71.4442394214
 30
0.0
 10
339.0830649638
 20
71.4909189522
 30
0.0
 10
339.0904801109
 20
71.5477061047
 30
0.0
 10
339.0904801109
 20
71.578266185
 30
0.0
  0
SPLINE
  5
4E4
100
AcDbEntity
  8
0
100
AcDbSpline
 62
7
  6
CONTINUOUS
 70
0
 71
3
 72
9
 73
5
 74
0
 42
0.0000001
 43
0.0000001
 44
0.0000000001
 40
0.0
 40
0.0
 40
0.0
 40
0.0
 40
0.4492311006
 40
1.0
 40
1.0
 40
1.0
 40
1.0
 10
341.640498079
 20
67.0961811924
 30
0.0
 10
341.6189121433
 20
67.0837187301
 30
0.0
 10
341.5598509794
 20
67.0747774563
 30
0.0
 10
341.506965945
 20
67.0967481716
 30
0.0
 10
341.4805010313
 20
67.1120274704
 30
0.0
  0
SPLINE
  5
4E5
100
AcDbEntity
  8
0
100
AcDbSpline
 62
7
  6
CONTINUOUS
 70
0
 71
3
 72
9
 73
5
 74
0
 42
0.0000001
 43
0.0000001
 44
0.0000000001
 40
0.0
 40
0.0
 40
0.0
 40
0.0
 40
0.4492292383
 40
1.0
 40
1.0
 40
1.0
 40
1.0
 10
341.9233407915
 20
67.2594780915
 30
0.0
 10
341.9449273723
 20
67.2719409262
 30
0.0
 10
341.9822027666
 20
67.318620457
 30
0.0
 10
341.9896179138
 20
67.3754076096
 30
0.0
 10
341.9896179138
 20
67.4059676898
 30
0.0
  0
SPLINE
  5
4E6
100
AcDbEntity
  8
0
100
AcDbSpline
 62
7
  6
CONTINUOUS
 70
0
 71
3
 72
9
 73
5
 74
0
 42
0.0000001
 43
0.0000001
 44
0.0000000001
 40
0.0
 40
0.0
 40
0.0
 40
0.0
 40
0.2209335085
 40
1.0
 40
1.0
 40
1.0
 40
1.0
 10
342.2600322078
 20
69.0931698024
 30
0.0
 10
342.2580534523
 20
69.0920273846
 30
0.0
 10
342.2481153692
 20
69.0884113463
 30
0.0
 10
342.2370118028
 20
69.092110004
 30
0.0
 10
342.2300342194
 20
69.096138454
 30
0.0
  0
SPLINE
  5
4E7
100
AcDbEntity
  8
0
100
AcDbSpline
 62
7
  6
CONTINUOUS
 70
0
 71
3
 72
9
 73
5
 74
0
 42
0.0000001
 43
0.0000001
 44
0.0000000001
 40
0.0
 40
0.0
 40
0.0
 40
0.0
 40
0.2209323606
 40
1.0
 40
1.0
 40
1.0
 40
1.0
 10
342.5428749202
 20
69.2564667014
 30
0.0
 10
342.544853732
 20
69.257609153
 30
0.0
 10
342.5529546894
 20
69.2644079469
 30
0.0
 10
342.5553033387
 20
69.2758737007
 30
0.0
 10
342.5553033387
 20
69.2839309757
 30
0.0
  0
SPLINE
  5
4E8
100
AcDbEntity
  8
0
100
AcDbSpline
 62
7
  6
CONTINUOUS
 70
0
 71
3
 72
11
 73
7
 74
0
 42
0.0000001
 43
0.0000001
 44
0.0000000001
 40
0.0
 40
0.0
 40
0.0
 40
0.0
 40
0.2372276161
 40
0.4999985971
 40
0.7627703416
 40
1.0
 40
1.0
 40
1.0
 40
1.0
 10
339.9955767908
 20
71.8558886792
 30
0.0
 10
340.0276997761
 20
71.8373427396
 30
0.0
 10
340.0884923003
 20
71.7861800763
 30
0.0
 10
340.1594437734
 20
71.6892190816
 30
0.0
 10
340.2079388113
 20
71.579292495
 30
0.0
 10
340.2218509608
 20
71.5010629308
 30
0.0
 10
340.2218509608
 20
71.4639703204
 30
0.0
  0
SPLINE
  5
4E9
100
AcDbEntity
  8
0
100
AcDbSpline
 62
7
  6
CONTINUOUS
 70
0
 71
3
 72
11
 73
7
 74
0
 42
0.0000001
 43
0.0000001
 44
0.0000000001
 40
0.0
 40
0.0
 40
0.0
 40
0.0
 40
0.2372296584
 40
0.5000014029
 40
0.7627723839
 40
1.0
 40
1.0
 40
1.0
 40
1.0
 10
340.2218509608
 20
70.9250785888
 30
0.0
 10
340.2218509608
 20
70.8879859784
 30
0.0
 10
340.2357631103
 20
70.8097564141
 30
0.0
 10
340.2842581483
 20
70.6998298276
 30
0.0
 10
340.3552096214
 20
70.6028688329
 30
0.0
 10
340.4160021456
 20
70.5517061696
 30
0.0
 10
340.4481251308
 20
70.5331602299
 30
0.0
  0
SPLINE
  5
4EA
100
AcDbEntity
  8
0
100
AcDbSpline
 62
7
  6
CONTINUOUS
 70
0
 71
3
 72
10
 73
6
 74
0
 42
0.0000001
 43
0.0000001
 44
0.0000000001
 40
0.0
 40
0.0
 40
0.0
 40
0.0
 40
0.218436951
 40
0.4523064786
 40
1.0
 40
1.0
 40
1.0
 40
1.0
 10
339.4461694175
 20
71.6807219263
 30
0.0
 10
339.4323153265
 20
71.6727238149
 30
0.0
 10
339.4063814376
 20
71.6509268459
 30
0.0
 10
339.3677116692
 20
71.5876414354
 30
0.0
 10
339.3591806878
 20
71.5285642254
 30
0.0
 10
339.3591806878
 20
71.4884543408
 30
0.0
  0
SPLINE
  5
4EB
100
AcDbEntity
  8
0
100
AcDbSpline
 62
7
  6
CONTINUOUS
 70
0
 71
3
 72
9
 73
5
 74
0
 42
0.0000001
 43
0.0000001
 44
0.0000000001
 40
0.0
 40
0.0
 40
0.0
 40
0.0
 40
0.4999987158
 40
1.0
 40
1.0
 40
1.0
 40
1.0
 10
342.2300342194
 20
69.5043897659
 30
0.0
 10
342.2426269098
 20
69.4971194803
 30
0.0
 10
342.262521405
 20
69.4741564812
 30
0.0
 10
342.2724606262
 20
69.4454458809
 30
0.0
 10
342.2724606262
 20
69.4309050736
 30
0.0
  0
SPLINE
  5
4EC
100
AcDbEntity
  8
0
100
AcDbSpline
 62
7
  6
CONTINUOUS
 70
0
 71
3
 72
9
 73
5
 74
0
 42
0.0000001
 43
0.0000001
 44
0.0000000001
 40
0.0
 40
0.0
 40
0.0
 40
0.0
 40
0.2209335085
 40
1.0
 40
1.0
 40
1.0
 40
1.0
 10
337.0522988639
 20
72.4793619804
 30
0.0
 10
337.0542776195
 20
72.4805043981
 30
0.0
 10
337.0642157026
 20
72.4841204364
 30
0.0
 10
337.0753192689
 20
72.4804217787
 30
0.0
 10
337.0822968523
 20
72.4763933287
 30
0.0
  0
SPLINE
  5
4ED
100
AcDbEntity
  8
0
100
AcDbSpline
 62
7
  6
CONTINUOUS
 70
0
 71
3
 72
9
 73
5
 74
0
 42
0.0000001
 43
0.0000001
 44
0.0000000001
 40
0.0
 40
0.0
 40
0.0
 40
0.0
 40
0.2953576815
 40
1.0
 40
1.0
 40
1.0
 40
1.0
 10
342.2724606262
 20
69.1206340766
 30
0.0
 10
342.2724606262
 20
69.1175957501
 30
0.0
 10
342.2717883916
 20
69.1074445659
 30
0.0
 10
342.2663097143
 20
69.0967940676
 30
0.0
 10
342.2600322078
 20
69.0931698024
 30
0.0
  0
SPLINE
  5
4EE
100
AcDbEntity
  8
0
100
AcDbSpline
 62
7
  6
CONTINUOUS
 70
0
 71
3
 72
9
 73
5
 74
0
 42
0.0000001
 43
0.0000001
 44
0.0000000001
 40
0.0
 40
0.0
 40
0.0
 40
0.0
 40
0.4491653962
 40
1.0
 40
1.0
 40
1.0
 40
1.0
 10
341.7316320383
 20
69.355185951
 30
0.0
 10
341.7235384388
 20
69.3505131741
 30
0.0
 10
341.7095528387
 20
69.3330158036
 30
0.0
 10
341.7067752013
 20
69.3117184546
 30
0.0
 10
341.7067752013
 20
69.3002574025
 30
0.0
  0
SPLINE
  5
4EF
100
AcDbEntity
  8
0
100
AcDbSpline
 62
7
  6
CONTINUOUS
 70
0
 71
3
 72
9
 73
5
 74
0
 42
0.0000001
 43
0.0000001
 44
0.0000000001
 40
0.0
 40
0.0
 40
0.0
 40
0.0
 40
0.5507707617
 40
1.0
 40
1.0
 40
1.0
 40
1.0
 10
341.7067752013
 20
67.2426707908
 30
0.0
 10
341.7067752013
 20
67.2121107105
 30
0.0
 10
341.6993600542
 20
67.155323558
 30
0.0
 10
341.6620846598
 20
67.1086440272
 30
0.0
 10
341.640498079
 20
67.0961811924
 30
0.0
  0
SPLINE
  5
4F0
100
AcDbEntity
  8
0
100
AcDbSpline
 62
7
  6
CONTINUOUS
 70
0
 71
3
 72
9
 73
5
 74
0
 42
0.0000001
 43
0.0000001
 44
0.0000000001
 40
0.0
 40
0.0
 40
0.0
 40
0.0
 40
0.4492311006
 40
1.0
 40
1.0
 40
1.0
 40
1.0
 10
339.1567572332
 20
72.263647515
 30
0.0
 10
339.1783431689
 20
72.2761099773
 30
0.0
 10
339.2374043328
 20
72.2850512511
 30
0.0
 10
339.2902893672
 20
72.2630805358
 30
0.0
 10
339.3167542809
 20
72.2478012369
 30
0.0
  0
SPLINE
  5
4F1
100
AcDbEntity
  8
0
100
AcDbSpline
 62
7
  6
CONTINUOUS
 70
0
 71
3
 72
9
 73
5
 74
0
 42
0.0000001
 43
0.0000001
 44
0.0000000001
 40
0.0
 40
0.0
 40
0.0
 40
0.0
 40
0.5507688994
 40
1.0
 40
1.0
 40
1.0
 40
1.0
 10
338.8642059409
 20
71.4476228646
 30
0.0
 10
338.8906708546
 20
71.4323435658
 30
0.0
 10
338.9435558891
 20
71.4103728505
 30
0.0
 10
339.0026170529
 20
71.4193141243
 30
0.0
 10
339.0242029886
 20
71.4317765866
 30
0.0
  0
SPLINE
  5
4F2
100
AcDbEntity
  8
0
100
AcDbSpline
 62
7
  6
CONTINUOUS
 70
0
 71
3
 72
9
 73
5
 74
0
 42
0.0000001
 43
0.0000001
 44
0.0000000001
 40
0.0
 40
0.0
 40
0.0
 40
0.0
 40
0.4826559083
 40
1.0
 40
1.0
 40
1.0
 40
1.0
 10
339.3591806878
 20
71.4884543408
 30
0.0
 10
339.3591806878
 20
71.4097637755
 30
0.0
 10
339.4040438743
 20
71.2474205468
 30
0.0
 10
339.4973732
 20
71.1096783782
 30
0.0
 10
339.5574905491
 20
71.050516284
 30
0.0
  0
SPLINE
  5
4F3
100
AcDbEntity
  8
0
100
AcDbSpline
 62
7
  6
CONTINUOUS
 70
0
 71
3
 72
11
 73
7
 74
0
 42
0.0000001
 43
0.0000001
 44
0.0000000001
 40
0.0
 40
0.0
 40
0.0
 40
0.0
 40
0.3044275752
 40
0.5714012255
 40
0.7990939568
 40
1.0
 40
1.0
 40
1.0
 40
1.0
 10
339.5574905491
 20
71.050516284
 30
0.0
 10
339.5824166403
 20
71.0259862643
 30
0.0
 10
339.6333709319
 20
70.9838030076
 30
0.0
 10
339.7161387054
 20
70.9419529311
 30
0.0
 10
339.7965769213
 20
70.9282471183
 30
0.0
 10
339.8461738068
 20
70.9417240743
 30
0.0
 10
339.8661616542
 20
70.9532632672
 30
0.0
  0
SPLINE
  5
4F4
100
AcDbEntity
  8
0
100
AcDbSpline
 62
7
  6
CONTINUOUS
 70
0
 71
3
 72
9
 73
5
 74
0
 42
0.0000001
 43
0.0000001
 44
0.0000000001
 40
0.0
 40
0.0
 40
0.0
 40
0.0
 40
0.7050212227
 40
1.0
 40
1.0
 40
1.0
 40
1.0
 10
455.0604234866
 20
132.5782416886
 30
0.0
 10
455.0939196395
 20
132.5975804083
 30
0.0
 10
455.1230689732
 20
132.6544165812
 30
0.0
 10
455.1267029036
 20
132.708544603
 30
0.0
 10
455.1267029036
 20
132.7247273123
 30
0.0
  0
SPLINE
  5
4F5
100
AcDbEntity
  8
0
100
AcDbSpline
 62
7
  6
CONTINUOUS
 70
0
 71
3
 72
8
 73
4
 74
0
 42
0.0000001
 43
0.0000001
 44
0.0000000001
 40
0.0
 40
0.0
 40
0.0
 40
0.0
 40
1.0
 40
1.0
 40
1.0
 40
1.0
 10
341.9896179138
 20
67.4059676898
 30
0.0
 10
341.9896179138
 20
67.3893267985
 30
0.0
 10
341.9882159751
 20
67.3725852278
 30
0.0
 10
341.9849903403
 20
67.3562599547
 30
0.0
  0
SPLINE
  5
4F6
100
AcDbEntity
  8
0
100
AcDbSpline
 62
7
  6
CONTINUOUS
 70
0
 71
3
 72
9
 73
5
 74
0
 42
0.0000001
 43
0.0000001
 44
0.0000000001
 40
0.0
 40
0.0
 40
0.0
 40
0.0
 40
0.5126934601
 40
1.0
 40
1.0
 40
1.0
 40
1.0
 10
341.9849903403
 20
67.3562599547
 30
0.0
 10
341.9836766072
 20
67.3496110147
 30
0.0
 10
341.9805153913
 20
67.3367509734
 30
0.0
 10
341.9760184066
 20
67.3242859803
 30
0.0
 10
341.9734683824
 20
67.3183703006
 30
0.0
  0
SPLINE
  5
4F7
100
AcDbEntity
  8
0
100
AcDbSpline
 62
7
  6
CONTINUOUS
 70
0
 71
3
 72
9
 73
5
 74
0
 42
0.0000001
 43
0.0000001
 44
0.0000000001
 40
0.0
 40
0.0
 40
0.0
 40
0.0
 40
0.5125388792
 40
1.0
 40
1.0
 40
1.0
 40
1.0
 10
341.9734683824
 20
67.3183703006
 30
0.0
 10
341.9707053057
 20
67.3119603703
 30
0.0
 10
341.9644744895
 20
67.2997930871
 30
0.0
 10
341.9564804422
 20
67.2886883248
 30
0.0
 10
341.9521691964
 20
67.2836401737
 30
0.0
  0
SPLINE
  5
4F8
100
AcDbEntity
  8
0
100
AcDbSpline
 62
7
  6
CONTINUOUS
 70
0
 71
3
 72
9
 73
5
 74
0
 42
0.0000001
 43
0.0000001
 44
0.0000000001
 40
0.0
 40
0.0
 40
0.0
 40
0.0
 40
0.505013665
 40
1.0
 40
1.0
 40
1.0
 40
1.0
 10
341.9521691964
 20
67.2836401737
 30
0.0
 10
341.9480420821
 20
67.278807627
 30
0.0
 10
341.9390906745
 20
67.2698706878
 30
0.0
 10
341.9287328688
 20
67.262596461
 30
0.0
 10
341.9233384967
 20
67.2594820661
 30
0.0
  0
SPLINE
  5
4F9
100
AcDbEntity
  8
0
100
AcDbSpline
 62
7
  6
CONTINUOUS
 70
0
 71
3
 72
9
 73
5
 74
0
 42
0.0000001
 43
0.0000001
 44
0.0000000001
 40
0.0
 40
0.0
 40
0.0
 40
0.0
 40
0.5282807745
 40
1.0
 40
1.0
 40
1.0
 40
1.0
 10
342.8512065262
 20
69.4741147411
 30
0.0
 10
342.8520345976
 20
69.4790594366
 30
0.0
 10
342.8545309094
 20
69.488182695
 30
0.0
 10
342.8595719082
 20
69.4968236519
 30
0.0
 10
342.8631401841
 20
69.4995271388
 30
0.0
  0
SPLINE
  5
4FA
100
AcDbEntity
  8
0
100
AcDbSpline
 62
7
  6
CONTINUOUS
 70
0
 71
3
 72
9
 73
5
 74
0
 42
0.0000001
 43
0.0000001
 44
0.0000000001
 40
0.0
 40
0.0
 40
0.0
 40
0.0
 40
0.4892290293
 40
1.0
 40
1.0
 40
1.0
 40
1.0
 10
342.5892141766
 20
68.5948206826
 30
0.0
 10
342.5849553392
 20
68.5972794872
 30
0.0
 10
342.5764480783
 20
68.602653402
 30
0.0
 10
342.5683395108
 20
68.6086078839
 30
0.0
 10
342.564299476
 20
68.611776185
 30
0.0
  0
SPLINE
  5
4FB
100
AcDbEntity
  8
0
100
AcDbSpline
 62
7
  6
CONTINUOUS
 70
0
 71
3
 72
8
 73
4
 74
0
 42
0.0000001
 43
0.0000001
 44
0.0000000001
 40
0.0
 40
0.0
 40
0.0
 40
0.0
 40
1.0
 40
1.0
 40
1.0
 40
1.0
 10
342.564299476
 20
68.611776185
 30
0.0
 10
342.5294784263
 20
68.6390837641
 30
0.0
 10
342.5013526481
 20
68.6758875919
 30
0.0
 10
342.4811254301
 20
68.7152458062
 30
0.0
  0
SPLINE
  5
4FC
100
AcDbEntity
  8
0
100
AcDbSpline
 62
7
  6
CONTINUOUS
 70
0
 71
3
 72
9
 73
5
 74
0
 42
0.0000001
 43
0.0000001
 44
0.0000000001
 40
0.0
 40
0.0
 40
0.0
 40
0.0
 40
0.4856262918
 40
1.0
 40
1.0
 40
1.0
 40
1.0
 10
337.1305210289
 20
71.7463519918
 30
0.0
 10
337.124715709
 20
71.7497036451
 30
0.0
 10
337.1131365271
 20
71.7572658915
 30
0.0
 10
337.1023041468
 20
71.7658512175
 30
0.0
 10
337.0969216129
 20
71.7704816761
 30
0.0
  0
SPLINE
  5
4FD
100
AcDbEntity
  8
0
100
AcDbSpline
 62
7
  6
CONTINUOUS
 70
0
 71
3
 72
8
 73
4
 74
0
 42
0.0000001
 43
0.0000001
 44
0.0000000001
 40
0.0
 40
0.0
 40
0.0
 40
0.0
 40
1.0
 40
1.0
 40
1.0
 40
1.0
 10
337.0969216129
 20
71.7704816761
 30
0.0
 10
337.0632289172
 20
71.7994666545
 30
0.0
 10
337.0361096269
 20
71.8371390908
 30
0.0
 10
337.0172110926
 20
71.8773656009
 30
0.0
  0
SPLINE
  5
4FE
100
AcDbEntity
  8
0
100
AcDbSpline
 62
7
  6
CONTINUOUS
 70
0
 71
3
 72
8
 73
4
 74
0
 42
0.0000001
 43
0.0000001
 44
0.0000000001
 40
0.0
 40
0.0
 40
0.0
 40
0.0
 40
1.0
 40
1.0
 40
1.0
 40
1.0
 10
337.0172110926
 20
71.8773656009
 30
0.0
 10
337.01003438
 20
71.8926416061
 30
0.0
 10
337.0039775571
 20
71.9085069532
 30
0.0
 10
336.9992811392
 20
71.9247182208
 30
0.0
  0
SPLINE
  5
4FF
100
AcDbEntity
  8
0
100
AcDbSpline
 62
7
  6
CONTINUOUS
 70
0
 71
3
 72
9
 73
5
 74
0
 42
0.0000001
 43
0.0000001
 44
0.0000000001
 40
0.0
 40
0.0
 40
0.0
 40
0.0
 40
0.5099670194
 40
1.0
 40
1.0
 40
1.0
 40
1.0
 10
336.9992811392
 20
71.9247182208
 30
0.0
 10
336.9974897731
 20
71.9309017241
 30
0.0
 10
336.9943650359
 20
71.9431435139
 30
0.0
 10
336.992107859
 20
71.9555776181
 30
0.0
 10
336.9912481809
 20
71.9617037041
 30
0.0
  0
SPLINE
  5
500
100
AcDbEntity
  8
0
100
AcDbSpline
 62
7
  6
CONTINUOUS
 70
0
 71
3
 72
8
 73
4
 74
0
 42
0.0000001
 43
0.0000001
 44
0.0000000001
 40
0.0
 40
0.0
 40
0.0
 40
0.0
 40
1.0
 40
1.0
 40
1.0
 40
1.0
 10
336.8575174726
 20
72.9146717216
 30
0.0
 10
336.855293242
 20
72.930521638
 30
0.0
 10
336.8538223109
 20
72.9574689991
 30
0.0
 10
336.869387281
 20
72.9611971031
 30
0.0
  0
SPLINE
  5
501
100
AcDbEntity
  8
0
100
AcDbSpline
 62
7
  6
CONTINUOUS
 70
0
 71
3
 72
9
 73
5
 74
0
 42
0.0000001
 43
0.0000001
 44
0.0000000001
 40
0.0
 40
0.0
 40
0.0
 40
0.0
 40
0.5528003423
 40
1.0
 40
1.0
 40
1.0
 40
1.0
 10
337.2661446154
 20
72.6968441424
 30
0.0
 10
337.2661446154
 20
72.7029583652
 30
0.0
 10
337.2675056215
 20
72.7136556104
 30
0.0
 10
337.2724386499
 20
72.725062598
 30
0.0
 10
337.2767439589
 20
72.7274976583
 30
0.0
  0
SPLINE
  5
502
100
AcDbEntity
  8
0
100
AcDbSpline
 62
7
  6
CONTINUOUS
 70
0
 71
3
 72
8
 73
4
 74
0
 42
0.0000001
 43
0.0000001
 44
0.0000000001
 40
0.0
 40
0.0
 40
0.0
 40
0.0
 40
1.0
 40
1.0
 40
1.0
 40
1.0
 10
455.7489568711
 20
134.9292923727
 30
0.0
 10
455.7489568711
 20
134.9510306053
 30
0.0
 10
455.7358200928
 20
134.9919145468
 30
0.0
 10
455.7151839495
 20
134.9850807817
 30
0.0
  0
SPLINE
  5
503
100
AcDbEntity
  8
0
100
AcDbSpline
 62
7
  6
CONTINUOUS
 70
0
 71
3
 72
9
 73
5
 74
0
 42
0.0000001
 43
0.0000001
 44
0.0000000001
 40
0.0
 40
0.0
 40
0.0
 40
0.0
 40
0.5527941578
 40
1.0
 40
1.0
 40
1.0
 40
1.0
 10
450.4456560122
 20
138.0400993875
 30
0.0
 10
450.4403611686
 20
138.0431563216
 30
0.0
 10
450.4304168086
 20
138.0473260774
 30
0.0
 10
450.4180722631
 20
138.0487573653
 30
0.0
 10
450.4138106963
 20
138.0462467514
 30
0.0
  0
SPLINE
  5
504
100
AcDbEntity
  8
0
100
AcDbSpline
 62
7
  6
CONTINUOUS
 70
0
 71
3
 72
8
 73
4
 74
0
 42
0.0000001
 43
0.0000001
 44
0.0000000001
 40
0.0
 40
0.0
 40
0.0
 40
0.0
 40
1.0
 40
1.0
 40
1.0
 40
1.0
 10
450.1638949603
 20
138.1555415085
 30
0.0
 10
450.1606981347
 20
138.1783221597
 30
0.0
 10
450.1461712377
 20
138.2196435958
 30
0.0
 10
450.1244221915
 20
138.212149815
 30
0.0
  0
SPLINE
  5
505
100
AcDbEntity
  8
0
100
AcDbSpline
 62
7
  6
CONTINUOUS
 70
0
 71
3
 72
9
 73
5
 74
0
 42
0.0000001
 43
0.0000001
 44
0.0000000001
 40
0.0
 40
0.0
 40
0.0
 40
0.0
 40
0.5339661345
 40
1.0
 40
1.0
 40
1.0
 40
1.0
 10
450.0433479592
 20
138.2723686121
 30
0.0
 10
450.0374317053
 20
138.2757843123
 30
0.0
 10
450.0255012654
 20
138.2803530946
 30
0.0
 10
450.0119884392
 20
138.2818149934
 30
0.0
 10
450.0063527787
 20
138.2798684349
 30
0.0
  0
SPLINE
  5
506
100
AcDbEntity
  8
0
100
AcDbSpline
 62
7
  6
CONTINUOUS
 70
0
 71
3
 72
8
 73
4
 74
0
 42
0.0000001
 43
0.0000001
 44
0.0000000001
 40
0.0
 40
0.0
 40
0.0
 40
0.0
 40
1.0
 40
1.0
 40
1.0
 40
1.0
 10
455.9845856332
 20
133.8122824027
 30
0.0
 10
456.0063699528
 20
133.8248649925
 30
0.0
 10
456.0196981983
 20
133.8519220175
 30
0.0
 10
456.0238533057
 20
133.8767335718
 30
0.0
  0
SPLINE
  5
507
100
AcDbEntity
  8
0
100
AcDbSpline
 62
7
  6
CONTINUOUS
 70
0
 71
3
 72
8
 73
4
 74
0
 42
0.0000001
 43
0.0000001
 44
0.0000000001
 40
0.0
 40
0.0
 40
0.0
 40
0.0
 40
1.0
 40
1.0
 40
1.0
 40
1.0
 10
342.8475006428
 20
68.4935227817
 30
0.0
 10
342.82828749
 20
68.4824253095
 30
0.0
 10
342.8023924425
 20
68.4825035227
 30
0.0
 10
342.7811072587
 20
68.4887677124
 30
0.0
  0
SPLINE
  5
508
100
AcDbEntity
  8
0
100
AcDbSpline
 62
7
  6
CONTINUOUS
 70
0
 71
3
 72
9
 73
5
 74
0
 42
0.0000001
 43
0.0000001
 44
0.0000000001
 40
0.0
 40
0.0
 40
0.0
 40
0.0
 40
0.4848978127
 40
1.0
 40
1.0
 40
1.0
 40
1.0
 10
342.7811072587
 20
68.4887677124
 30
0.0
 10
342.77541077
 20
68.4904441784
 30
0.0
 10
342.7638915311
 20
68.494707323
 30
0.0
 10
342.752958324
 20
68.5002843544
 30
0.0
 10
342.7474954677
 20
68.5034382893
 30
0.0
  0
SPLINE
  5
509
100
AcDbEntity
  8
0
100
AcDbSpline
 62
7
  6
CONTINUOUS
 70
0
 71
3
 72
8
 73
4
 74
0
 42
0.0000001
 43
0.0000001
 44
0.0000000001
 40
0.0
 40
0.0
 40
0.0
 40
0.0
 40
1.0
 40
1.0
 40
1.0
 40
1.0
 10
456.157584014
 20
134.6752849541
 30
0.0
 10
456.1618671863
 20
134.700861228
 30
0.0
 10
456.146282032
 20
134.7526796713
 30
0.0
 10
456.1217311252
 20
134.7443283644
 30
0.0
  0
SPLINE
  5
50A
100
AcDbEntity
  8
0
100
AcDbSpline
 62
7
  6
CONTINUOUS
 70
0
 71
3
 72
9
 73
5
 74
0
 42
0.0000001
 43
0.0000001
 44
0.0000000001
 40
0.0
 40
0.0
 40
0.0
 40
0.0
 40
0.5750781276
 40
1.0
 40
1.0
 40
1.0
 40
1.0
 10
456.0370370128
 20
134.8119618446
 30
0.0
 10
456.0306301555
 20
134.8156607907
 30
0.0
 10
456.0198254663
 20
134.8211026972
 30
0.0
 10
456.0038797997
 20
134.8218982486
 30
0.0
 10
456.0003161853
 20
134.8177532146
 30
0.0
  0
SPLINE
  5
50B
100
AcDbEntity
  8
0
100
AcDbSpline
 62
7
  6
CONTINUOUS
 70
0
 71
3
 72
8
 73
4
 74
0
 42
0.0000001
 43
0.0000001
 44
0.0000000001
 40
0.0
 40
0.0
 40
0.0
 40
0.0
 40
1.0
 40
1.0
 40
1.0
 40
1.0
 10
337.3887933601
 20
71.6450779438
 30
0.0
 10
337.3671284627
 20
71.6325354
 30
0.0
 10
337.3371916222
 20
71.6344601718
 30
0.0
 10
337.3137170207
 20
71.6431565083
 30
0.0
  0
SPLINE
  5
50C
100
AcDbEntity
  8
0
100
AcDbSpline
 62
7
  6
CONTINUOUS
 70
0
 71
3
 72
9
 73
5
 74
0
 42
0.0000001
 43
0.0000001
 44
0.0000000001
 40
0.0
 40
0.0
 40
0.0
 40
0.0
 40
0.4888335389
 40
1.0
 40
1.0
 40
1.0
 40
1.0
 10
337.3137170207
 20
71.6431565083
 30
0.0
 10
337.3095001659
 20
71.6447186727
 30
0.0
 10
337.3010206501
 20
71.6483206992
 30
0.0
 10
337.2928746975
 20
71.6526184449
 30
0.0
 10
337.28880232
 20
71.6549695984
 30
0.0
  0
SPLINE
  5
50D
100
AcDbEntity
  8
0
100
AcDbSpline
 62
7
  6
CONTINUOUS
 70
0
 71
3
 72
8
 73
4
 74
0
 42
0.0000001
 43
0.0000001
 44
0.0000000001
 40
0.0
 40
0.0
 40
0.0
 40
0.0
 40
1.0
 40
1.0
 40
1.0
 40
1.0
 10
336.9780644737
 20
72.9121549854
 30
0.0
 10
336.9981255582
 20
72.9005728842
 30
0.0
 10
337.0263758069
 20
72.8719597542
 30
0.0
 10
337.0137618212
 20
72.8525309214
 30
0.0
  0
SPLINE
  5
50E
100
AcDbEntity
  8
0
100
AcDbSpline
 62
7
  6
CONTINUOUS
 70
0
 71
3
 72
8
 73
4
 74
0
 42
0.0000001
 43
0.0000001
 44
0.0000000001
 40
0.0
 40
0.0
 40
0.0
 40
0.0
 40
1.0
 40
1.0
 40
1.0
 40
1.0
 10
342.8867683158
 20
68.5579739493
 30
0.0
 10
342.8826132085
 20
68.5331623953
 30
0.0
 10
342.8692849697
 20
68.5061053581
 30
0.0
 10
342.8475006428
 20
68.4935227817
 30
0.0
  0
SPLINE
  5
50F
100
AcDbEntity
  8
0
100
AcDbSpline
 62
7
  6
CONTINUOUS
 70
0
 71
3
 72
9
 73
5
 74
0
 42
0.0000001
 43
0.0000001
 44
0.0000000001
 40
0.0
 40
0.0
 40
0.0
 40
0.0
 40
0.3496735998
 40
1.0
 40
1.0
 40
1.0
 40
1.0
 10
342.8631401841
 20
69.4995271388
 30
0.0
 10
342.8663075229
 20
69.5019268576
 30
0.0
 10
342.8799527604
 20
69.5023346381
 30
0.0
 10
342.8865783905
 20
69.4912927358
 30
0.0
 10
342.8906792951
 20
69.4851444948
 30
0.0
  0
SPLINE
  5
510
100
AcDbEntity
  8
0
100
AcDbSpline
 62
7
  6
CONTINUOUS
 70
0
 71
3
 72
8
 73
4
 74
0
 42
0.0000001
 43
0.0000001
 44
0.0000000001
 40
0.0
 40
0.0
 40
0.0
 40
0.0
 40
1.0
 40
1.0
 40
1.0
 40
1.0
 10
342.5694454743
 20
69.6840174425
 30
0.0
 10
342.5882714157
 20
69.6731484411
 30
0.0
 10
342.6171091494
 20
69.6413299487
 30
0.0
 10
342.6008732103
 20
69.626875
 30
0.0
  0
SPLINE
  5
511
100
AcDbEntity
  8
0
100
AcDbSpline
 62
7
  6
CONTINUOUS
 70
0
 71
3
 72
9
 73
5
 74
0
 42
0.0000001
 43
0.0000001
 44
0.0000000001
 40
0.0
 40
0.0
 40
0.0
 40
0.0
 40
0.3402653404
 40
1.0
 40
1.0
 40
1.0
 40
1.0
 10
336.869387281
 20
72.9611971031
 30
0.0
 10
336.8728751507
 20
72.9620325137
 30
0.0
 10
336.8837391402
 20
72.9567686609
 30
0.0
 10
336.8895038684
 20
72.9480962074
 30
0.0
 10
336.8933703613
 20
72.9423163947
 30
0.0
  0
SPLINE
  5
512
100
AcDbEntity
  8
0
100
AcDbSpline
 62
7
  6
CONTINUOUS
 70
0
 71
3
 72
9
 73
5
 74
0
 42
0.0000001
 43
0.0000001
 44
0.0000000001
 40
0.0
 40
0.0
 40
0.0
 40
0.0
 40
0.33763659
 40
1.0
 40
1.0
 40
1.0
 40
1.0
 10
337.2767439589
 20
72.7274976583
 30
0.0
 10
337.2795183458
 20
72.7290668371
 30
0.0
 10
337.29054917
 20
72.7268868898
 30
0.0
 10
337.2956003422
 20
72.7183418518
 30
0.0
 10
337.2990638767
 20
72.7131357851
 30
0.0
  0
SPLINE
  5
513
100
AcDbEntity
  8
0
100
AcDbSpline
 62
7
  6
CONTINUOUS
 70
0
 71
3
 72
9
 73
5
 74
0
 42
0.0000001
 43
0.0000001
 44
0.0000000001
 40
0.0
 40
0.0
 40
0.0
 40
0.0
 40
0.5071964167
 40
1.0
 40
1.0
 40
1.0
 40
1.0
 10
337.4112768072
 20
71.6659102293
 30
0.0
 10
337.4082791214
 20
71.6616455025
 30
0.0
 10
337.4015078162
 20
71.6538000958
 30
0.0
 10
337.3931767207
 20
71.6476156199
 30
0.0
 10
337.3887933601
 20
71.6450779438
 30
0.0
  0
SPLINE
  5
514
100
AcDbEntity
  8
0
100
AcDbSpline
 62
7
  6
CONTINUOUS
 70
0
 71
3
 72
8
 73
4
 74
0
 42
0.0000001
 43
0.0000001
 44
0.0000000001
 40
0.0
 40
0.0
 40
0.0
 40
0.0
 40
1.0
 40
1.0
 40
1.0
 40
1.0
 10
342.9717535273
 20
69.4517482179
 30
0.0
 10
342.99404048
 20
69.4388810303
 30
0.0
 10
343.0308044225
 20
69.4044096501
 30
0.0
 10
343.0125908082
 20
69.3862289726
 30
0.0
  0
SPLINE
  5
515
100
AcDbEntity
  8
0
100
AcDbSpline
 62
7
  6
CONTINUOUS
 70
0
 71
3
 72
9
 73
5
 74
0
 42
0.0000001
 43
0.0000001
 44
0.0000000001
 40
0.0
 40
0.0
 40
0.0
 40
0.0
 40
0.46986862
 40
1.0
 40
1.0
 40
1.0
 40
1.0
 10
343.0125908082
 20
69.3862289726
 30
0.0
 10
343.0118125222
 20
69.3854520941
 30
0.0
 10
343.0099685389
 20
69.3839818278
 30
0.0
 10
343.0078919376
 20
69.3828775519
 30
0.0
 10
343.0067585453
 20
69.3823728033
 30
0.0
  0
SPLINE
  5
516
100
AcDbEntity
  8
0
100
AcDbSpline
 62
7
  6
CONTINUOUS
 70
0
 71
3
 72
9
 73
5
 74
0
 42
0.0000001
 43
0.0000001
 44
0.0000000001
 40
0.0
 40
0.0
 40
0.0
 40
0.0
 40
0.2669888858
 40
1.0
 40
1.0
 40
1.0
 40
1.0
 10
524.3527785979
 20
133.6049701544
 30
0.0
 10
524.3485942088
 20
133.6119367563
 30
0.0
 10
524.3344977883
 20
133.6388573401
 30
0.0
 10
524.3260887707
 20
133.6694013168
 30
0.0
 10
524.3260887707
 20
133.6917128615
 30
0.0
  0
SPLINE
  5
517
100
AcDbEntity
  8
0
100
AcDbSpline
 62
7
  6
CONTINUOUS
 70
0
 71
3
 72
11
 73
7
 74
0
 42
0.0000001
 43
0.0000001
 44
0.0000000001
 40
0.0
 40
0.0
 40
0.0
 40
0.0
 40
0.2372296584
 40
0.5000014029
 40
0.7627723839
 40
1.0
 40
1.0
 40
1.0
 40
1.0
 10
524.3260887707
 20
135.7492994731
 30
0.0
 10
524.3260887707
 20
135.7863920835
 30
0.0
 10
524.3121766211
 20
135.8646216478
 30
0.0
 10
524.2636815832
 20
135.9745482344
 30
0.0
 10
524.1927301101
 20
136.0715092291
 30
0.0
 10
524.1319375859
 20
136.1226718923
 30
0.0
 10
524.0998146007
 20
136.141217832
 30
0.0
  0
SPLINE
  5
518
100
AcDbEntity
  8
0
100
AcDbSpline
 62
7
  6
CONTINUOUS
 70
0
 71
3
 72
9
 73
5
 74
0
 42
0.0000001
 43
0.0000001
 44
0.0000000001
 40
0.0
 40
0.0
 40
0.0
 40
0.0
 40
0.5507688994
 40
1.0
 40
1.0
 40
1.0
 40
1.0
 10
520.4511436098
 20
138.2477478298
 30
0.0
 10
520.4246786961
 20
138.2630271286
 30
0.0
 10
520.3717936616
 20
138.2849978439
 30
0.0
 10
520.3127324978
 20
138.2760565701
 30
0.0
 10
520.2911465621
 20
138.2635941078
 30
0.0
  0
SPLINE
  5
519
100
AcDbEntity
  8
0
100
AcDbSpline
 62
7
  6
CONTINUOUS
 70
0
 71
3
 72
8
 73
4
 74
0
 42
0.0000001
 43
0.0000001
 44
0.0000000001
 40
0.0
 40
0.0
 40
0.0
 40
0.0
 40
1.0
 40
1.0
 40
1.0
 40
1.0
 10
520.0083038496
 20
138.1002972088
 30
0.0
 10
520.0180350691
 20
138.1059154482
 30
0.0
 10
520.0287879237
 20
138.1099982419
 30
0.0
 10
520.0397631751
 20
138.1124076202
 30
0.0
  0
SPLINE
  5
51A
100
AcDbEntity
  8
0
100
AcDbSpline
 62
7
  6
CONTINUOUS
 70
0
 71
3
 72
9
 73
5
 74
0
 42
0.0000001
 43
0.0000001
 44
0.0000000001
 40
0.0
 40
0.0
 40
0.0
 40
0.0
 40
0.7419552082
 40
1.0
 40
1.0
 40
1.0
 40
1.0
 10
520.0436351723
 20
138.113190102
 30
0.0
 10
520.0519690952
 20
138.1147309769
 30
0.0
 10
520.0634576619
 20
138.1156147609
 30
0.0
 10
520.0748696335
 20
138.1151074327
 30
0.0
 10
520.0778092836
 20
138.1148913274
 30
0.0
  0
SPLINE
  5
51B
100
AcDbEntity
  8
0
100
AcDbSpline
 62
7
  6
CONTINUOUS
 70
0
 71
3
 72
9
 73
5
 74
0
 42
0.0000001
 43
0.0000001
 44
0.0000000001
 40
0.0
 40
0.0
 40
0.0
 40
0.0
 40
0.2406157512
 40
1.0
 40
1.0
 40
1.0
 40
1.0
 10
520.0843631782
 20
138.1142690282
 30
0.0
 10
520.0875207971
 20
138.1139024292
 30
0.0
 10
520.1005976741
 20
138.1119885515
 30
0.0
 10
520.1134381606
 20
138.1085770272
 30
0.0
 10
520.1229329093
 20
138.1053368553
 30
0.0
  0
SPLINE
  5
51C
100
AcDbEntity
  8
0
100
AcDbSpline
 62
7
  6
CONTINUOUS
 70
0
 71
3
 72
9
 73
5
 74
0
 42
0.0000001
 43
0.0000001
 44
0.0000000001
 40
0.0
 40
0.0
 40
0.0
 40
0.0
 40
0.2400703448
 40
1.0
 40
1.0
 40
1.0
 40
1.0
 10
520.1229329093
 20
138.1053368553
 30
0.0
 10
520.1267188991
 20
138.1040448508
 30
0.0
 10
520.1423394693
 20
138.0982273017
 30
0.0
 10
520.1573344046
 20
138.0907823445
 30
0.0
 10
520.1683008973
 20
138.0844509307
 30
0.0
  0
SPLINE
  5
51D
100
AcDbEntity
  8
0
100
AcDbSpline
 62
7
  6
CONTINUOUS
 70
0
 71
3
 72
9
 73
5
 74
0
 42
0.0000001
 43
0.0000001
 44
0.0000000001
 40
0.0
 40
0.0
 40
0.0
 40
0.0
 40
0.2412597492
 40
1.0
 40
1.0
 40
1.0
 40
1.0
 10
523.8169718882
 20
135.9779209329
 30
0.0
 10
523.8208208429
 20
135.9756987708
 30
0.0
 10
523.8365681874
 20
135.9661327475
 30
0.0
 10
523.8514969153
 20
135.9552411183
 30
0.0
 10
523.8623398762
 20
135.9464211927
 30
0.0
  0
SPLINE
  5
51E
100
AcDbEntity
  8
0
100
AcDbSpline
 62
7
  6
CONTINUOUS
 70
0
 71
3
 72
9
 73
5
 74
0
 42
0.0000001
 43
0.0000001
 44
0.0000000001
 40
0.0
 40
0.0
 40
0.0
 40
0.0
 40
0.4999989211
 40
1.0
 40
1.0
 40
1.0
 40
1.0
 10
523.8623398762
 20
135.9464211927
 30
0.0
 10
523.9086117646
 20
135.9087825243
 30
0.0
 10
523.9850408801
 20
135.8136771785
 30
0.0
 10
524.0291898439
 20
135.6999349854
 30
0.0
 10
524.0386501752
 20
135.641042797
 30
0.0
  0
SPLINE
  5
51F
100
AcDbEntity
  8
0
100
AcDbSpline
 62
7
  6
CONTINUOUS
 70
0
 71
3
 72
9
 73
5
 74
0
 42
0.0000001
 43
0.0000001
 44
0.0000000001
 40
0.0
 40
0.0
 40
0.0
 40
0.0
 40
0.2585777745
 40
1.0
 40
1.0
 40
1.0
 40
1.0
 10
524.0386501752
 20
135.641042797
 30
0.0
 10
524.03940566
 20
135.6363397743
 30
0.0
 10
524.0419967034
 20
135.6181018143
 30
0.0
 10
524.0432460582
 20
135.5996604702
 30
0.0
 10
524.0432460582
 20
135.5860025741
 30
0.0
  0
SPLINE
  5
520
100
AcDbEntity
  8
0
100
AcDbSpline
 62
7
  6
CONTINUOUS
 70
0
 71
3
 72
9
 73
5
 74
0
 42
0.0000001
 43
0.0000001
 44
0.0000000001
 40
0.0
 40
0.0
 40
0.0
 40
0.0
 40
0.500001615
 40
1.0
 40
1.0
 40
1.0
 40
1.0
 10
411.4718464933
 20
67.7360920696
 30
0.0
 10
411.4718464933
 20
67.7506328865
 30
0.0
 10
411.4619072663
 20
67.7793434872
 30
0.0
 10
411.4420127685
 20
67.8023064811
 30
0.0
 10
411.4294200864
 20
67.8095767619
 30
0.0
  0
SPLINE
  5
521
100
AcDbEntity
  8
0
100
AcDbSpline
 62
7
  6
CONTINUOUS
 70
0
 71
3
 72
9
 73
5
 74
0
 42
0.0000001
 43
0.0000001
 44
0.0000000001
 40
0.0
 40
0.0
 40
0.0
 40
0.0
 40
0.4829082315
 40
1.0
 40
1.0
 40
1.0
 40
1.0
 10
410.9878357989
 20
68.0645914708
 30
0.0
 10
410.9702003694
 20
68.0755454129
 30
0.0
 10
410.9392623577
 20
68.1070632269
 30
0.0
 10
410.919429751
 20
68.1460448344
 30
0.0
 10
410.9129568886
 20
68.1673116334
 30
0.0
  0
SPLINE
  5
522
100
AcDbEntity
  8
0
100
AcDbSpline
 62
7
  6
CONTINUOUS
 70
0
 71
3
 72
9
 73
5
 74
0
 42
0.0000001
 43
0.0000001
 44
0.0000000001
 40
0.0
 40
0.0
 40
0.0
 40
0.0
 40
0.2643164353
 40
1.0
 40
1.0
 40
1.0
 40
1.0
 10
410.9129568886
 20
68.1673116334
 30
0.0
 10
410.9118545406
 20
68.1709334334
 30
0.0
 10
410.908124368
 20
68.1847582779
 30
0.0
 10
410.9061610683
 20
68.1991190371
 30
0.0
 10
410.9061610683
 20
68.20965634
 30
0.0
  0
SPLINE
  5
523
100
AcDbEntity
  8
0
100
AcDbSpline
 62
7
  6
CONTINUOUS
 70
0
 71
3
 72
11
 73
7
 74
0
 42
0.0000001
 43
0.0000001
 44
0.0000000001
 40
0.0
 40
0.0
 40
0.0
 40
0.0
 40
0.2372296584
 40
0.5000014029
 40
0.7627723839
 40
1.0
 40
1.0
 40
1.0
 40
1.0
 10
410.9061610683
 20
70.2672429516
 30
0.0
 10
410.9061610683
 20
70.304335562
 30
0.0
 10
410.8922489188
 20
70.3825651263
 30
0.0
 10
410.8437538809
 20
70.4924917128
 30
0.0
 10
410.7728024078
 20
70.5894527075
 30
0.0
 10
410.7120098836
 20
70.6406153708
 30
0.0
 10
410.6798868983
 20
70.6591613105
 30
0.0
  0
SPLINE
  5
524
100
AcDbEntity
  8
0
100
AcDbSpline
 62
7
  6
CONTINUOUS
 70
0
 71
3
 72
9
 73
5
 74
0
 42
0.0000001
 43
0.0000001
 44
0.0000000001
 40
0.0
 40
0.0
 40
0.0
 40
0.0
 40
0.5507688994
 40
1.0
 40
1.0
 40
1.0
 40
1.0
 10
407.0312159074
 20
72.7656913083
 30
0.0
 10
407.0047509938
 20
72.7809706071
 30
0.0
 10
406.9518659593
 20
72.8029413224
 30
0.0
 10
406.8928047955
 20
72.7940000486
 30
0.0
 10
406.8712188598
 20
72.7815375863
 30
0.0
  0
SPLINE
  5
525
100
AcDbEntity
  8
0
100
AcDbSpline
 62
7
  6
CONTINUOUS
 70
0
 71
3
 72
9
 73
5
 74
0
 42
0.0000001
 43
0.0000001
 44
0.0000000001
 40
0.0
 40
0.0
 40
0.0
 40
0.0
 40
0.2953561385
 40
1.0
 40
1.0
 40
1.0
 40
1.0
 10
406.2816827194
 20
70.7815803247
 30
0.0
 10
406.2790515438
 20
70.7830994121
 30
0.0
 10
406.2699245102
 20
70.7875926235
 30
0.0
 10
406.2579620386
 20
70.7881731311
 30
0.0
 10
406.251684731
 20
70.7845489764
 30
0.0
  0
SPLINE
  5
526
100
AcDbEntity
  8
0
100
AcDbSpline
 62
7
  6
CONTINUOUS
 70
0
 71
3
 72
11
 73
7
 74
0
 42
0.0000001
 43
0.0000001
 44
0.0000000001
 40
0.0
 40
0.0
 40
0.0
 40
0.0
 40
0.2372276161
 40
0.4999985971
 40
0.7627703416
 40
1.0
 40
1.0
 40
1.0
 40
1.0
 10
408.2332974354
 20
67.8585332004
 30
0.0
 10
408.2011744502
 20
67.8770791401
 30
0.0
 10
408.140381926
 20
67.9282418034
 30
0.0
 10
408.0694304529
 20
68.0252027981
 30
0.0
 10
408.020935415
 20
68.1351293846
 30
0.0
 10
408.0070232655
 20
68.2133589489
 30
0.0
 10
408.0070232655
 20
68.2504515593
 30
0.0
  0
SPLINE
  5
527
100
AcDbEntity
  8
0
100
AcDbSpline
 62
7
  6
CONTINUOUS
 70
0
 71
3
 72
11
 73
7
 74
0
 42
0.0000001
 43
0.0000001
 44
0.0000000001
 40
0.0
 40
0.0
 40
0.0
 40
0.0
 40
0.2372296584
 40
0.5000014029
 40
0.7627723839
 40
1.0
 40
1.0
 40
1.0
 40
1.0
 10
408.0070232655
 20
68.7893432909
 30
0.0
 10
408.0070232655
 20
68.8264359013
 30
0.0
 10
407.9931111159
 20
68.9046654655
 30
0.0
 10
407.944616078
 20
69.0145920521
 30
0.0
 10
407.8736646049
 20
69.1115530468
 30
0.0
 10
407.8128720807
 20
69.1627157101
 30
0.0
 10
407.7807490955
 20
69.1812616497
 30
0.0
  0
SPLINE
  5
528
100
AcDbEntity
  8
0
100
AcDbSpline
 62
7
  6
CONTINUOUS
 70
0
 71
3
 72
9
 73
5
 74
0
 42
0.0000001
 43
0.0000001
 44
0.0000000001
 40
0.0
 40
0.0
 40
0.0
 40
0.0
 40
0.4999987158
 40
1.0
 40
1.0
 40
1.0
 40
1.0
 10
405.9988400069
 20
70.2100321138
 30
0.0
 10
405.9862473165
 20
70.2173023994
 30
0.0
 10
405.9663528213
 20
70.2402653984
 30
0.0
 10
405.9564136
 20
70.2689759987
 30
0.0
 10
405.9564136
 20
70.2835168061
 30
0.0
  0
SPLINE
  5
529
100
AcDbEntity
  8
0
100
AcDbSpline
 62
7
  6
CONTINUOUS
 70
0
 71
3
 72
9
 73
5
 74
0
 42
0.0000001
 43
0.0000001
 44
0.0000000001
 40
0.0
 40
0.0
 40
0.0
 40
0.0
 40
0.2953576815
 40
1.0
 40
1.0
 40
1.0
 40
1.0
 10
405.9564136
 20
70.5937878031
 30
0.0
 10
405.9564136
 20
70.5968261296
 30
0.0
 10
405.9570858347
 20
70.6069773137
 30
0.0
 10
405.962564512
 20
70.6176278121
 30
0.0
 10
405.9688420185
 20
70.6212520773
 30
0.0
  0
SPLINE
  5
52A
100
AcDbEntity
  8
0
100
AcDbSpline
 62
7
  6
CONTINUOUS
 70
0
 71
3
 72
9
 73
5
 74
0
 42
0.0000001
 43
0.0000001
 44
0.0000000001
 40
0.0
 40
0.0
 40
0.0
 40
0.0
 40
0.5507707617
 40
1.0
 40
1.0
 40
1.0
 40
1.0
 10
406.522099025
 20
72.4717510889
 30
0.0
 10
406.522099025
 20
72.5023111691
 30
0.0
 10
406.5295141721
 20
72.5590983217
 30
0.0
 10
406.5667895665
 20
72.6057778525
 30
0.0
 10
406.5883761473
 20
72.6182406872
 30
0.0
  0
SPLINE
  5
52B
100
AcDbEntity
  8
0
100
AcDbSpline
 62
7
  6
CONTINUOUS
 70
0
 71
3
 72
9
 73
5
 74
0
 42
0.0000001
 43
0.0000001
 44
0.0000000001
 40
0.0
 40
0.0
 40
0.0
 40
0.0
 40
0.5507688994
 40
1.0
 40
1.0
 40
1.0
 40
1.0
 10
409.3646682853
 20
68.266799015
 30
0.0
 10
409.3382033717
 20
68.2820783139
 30
0.0
 10
409.2853183372
 20
68.3040490291
 30
0.0
 10
409.2262571734
 20
68.2951077553
 30
0.0
 10
409.2046712377
 20
68.282645293
 30
0.0
  0
SPLINE
  5
52C
100
AcDbEntity
  8
0
100
AcDbSpline
 62
7
  6
CONTINUOUS
 70
0
 71
3
 72
15
 73
11
 74
0
 42
0.0000001
 43
0.0000001
 44
0.0000000001
 40
0.0
 40
0.0
 40
0.0
 40
0.0
 40
0.1288304094
 40
0.2705684385
 40
0.4178819861
 40
0.5623849278
 40
0.696201296
 40
0.8135946323
 40
0.9130660732
 40
1.0
 40
1.0
 40
1.0
 40
1.0
 10
408.8696935385
 20
68.2259675389
 30
0.0
 10
408.8696935385
 20
68.2618676614
 30
0.0
 10
408.8596502035
 20
68.337351155
 30
0.0
 10
408.8221664681
 20
68.4481803577
 30
0.0
 10
408.7644008689
 20
68.5549525004
 30
0.0
 10
408.6910280632
 20
68.6488818895
 30
0.0
 10
408.6079153989
 20
68.7224769577
 30
0.0
 10
408.5212420863
 20
68.7698254088
 30
0.0
 10
408.4364004872
 20
68.7868170144
 30
0.0
 10
408.3836925469
 20
68.7732705709
 30
0.0
 10
408.362712572
 20
68.7611586124
 30
0.0
  0
SPLINE
  5
52D
100
AcDbEntity
  8
0
100
AcDbSpline
 62
7
  6
CONTINUOUS
 70
0
 71
3
 72
11
 73
7
 74
0
 42
0.0000001
 43
0.0000001
 44
0.0000000001
 40
0.0
 40
0.0
 40
0.0
 40
0.0
 40
0.237087493
 40
0.4998603112
 40
0.7627070155
 40
1.0
 40
1.0
 40
1.0
 40
1.0
 10
408.8561619465
 20
68.2174444151
 30
0.0
 10
408.8139344735
 20
68.2417238623
 30
0.0
 10
408.7339908471
 20
68.3088448276
 30
0.0
 10
408.6406754864
 20
68.4361736598
 30
0.0
 10
408.5768756631
 20
68.5806155465
 30
0.0
 10
408.5585665548
 20
68.6834358416
 30
0.0
 10
408.5585665548
 20
68.732187926
 30
0.0
  0
SPLINE
  5
52E
100
AcDbEntity
  8
0
100
AcDbSpline
 62
7
  6
CONTINUOUS
 70
0
 71
3
 72
10
 73
6
 74
0
 42
0.0000001
 43
0.0000001
 44
0.0000000001
 40
0.0
 40
0.0
 40
0.0
 40
0.0
 40
0.218436951
 40
0.4523064786
 40
1.0
 40
1.0
 40
1.0
 40
1.0
 10
408.7827048088
 20
68.0336999534
 30
0.0
 10
408.7965588998
 20
68.0416980647
 30
0.0
 10
408.8224927887
 20
68.0634950337
 30
0.0
 10
408.8611625571
 20
68.1267804442
 30
0.0
 10
408.8696935385
 20
68.1858576543
 30
0.0
 10
408.8696935385
 20
68.2259675389
 30
0.0
  0
SPLINE
  5
52F
100
AcDbEntity
  8
0
100
AcDbSpline
 62
7
  6
CONTINUOUS
 70
0
 71
3
 72
9
 73
5
 74
0
 42
0.0000001
 43
0.0000001
 44
0.0000000001
 40
0.0
 40
0.0
 40
0.0
 40
0.0
 40
0.2209335085
 40
1.0
 40
1.0
 40
1.0
 40
1.0
 10
411.1765753623
 20
67.2350598993
 30
0.0
 10
411.1745966068
 20
67.2339174816
 30
0.0
 10
411.1646585237
 20
67.2303014432
 30
0.0
 10
411.1535549574
 20
67.2340001009
 30
0.0
 10
411.1465773739
 20
67.238028551
 30
0.0
  0
SPLINE
  5
530
100
AcDbEntity
  8
0
100
AcDbSpline
 62
7
  6
CONTINUOUS
 70
0
 71
3
 72
9
 73
5
 74
0
 42
0.0000001
 43
0.0000001
 44
0.0000000001
 40
0.0
 40
0.0
 40
0.0
 40
0.0
 40
0.2209323606
 40
1.0
 40
1.0
 40
1.0
 40
1.0
 10
411.4594180748
 20
67.3983567983
 30
0.0
 10
411.4613968866
 20
67.39949925
 30
0.0
 10
411.469497844
 20
67.4062980439
 30
0.0
 10
411.4718464933
 20
67.4177637977
 30
0.0
 10
411.4718464933
 20
67.4258210726
 30
0.0
  0
SPLINE
  5
531
100
AcDbEntity
  8
0
100
AcDbSpline
 62
7
  6
CONTINUOUS
 70
0
 71
3
 72
9
 73
5
 74
0
 42
0.0000001
 43
0.0000001
 44
0.0000000001
 40
0.0
 40
0.0
 40
0.0
 40
0.0
 40
0.4491653962
 40
1.0
 40
1.0
 40
1.0
 40
1.0
 10
406.497242188
 20
70.3592359287
 30
0.0
 10
406.5053357874
 20
70.3639087055
 30
0.0
 10
406.5193213876
 20
70.3814060761
 30
0.0
 10
406.522099025
 20
70.402703425
 30
0.0
 10
406.522099025
 20
70.4141644772
 30
0.0
  0
SPLINE
  5
532
100
AcDbEntity
  8
0
100
AcDbSpline
 62
7
  6
CONTINUOUS
 70
0
 71
3
 72
9
 73
5
 74
0
 42
0.0000001
 43
0.0000001
 44
0.0000000001
 40
0.0
 40
0.0
 40
0.0
 40
0.0
 40
0.4492311006
 40
1.0
 40
1.0
 40
1.0
 40
1.0
 10
409.072116993
 20
67.4507743647
 30
0.0
 10
409.0505310573
 20
67.4383119024
 30
0.0
 10
408.9914698935
 20
67.4293706286
 30
0.0
 10
408.938584859
 20
67.4513413439
 30
0.0
 10
408.9121199454
 20
67.4666206427
 30
0.0
  0
SPLINE
  5
533
100
AcDbEntity
  8
0
100
AcDbSpline
 62
7
  6
CONTINUOUS
 70
0
 71
3
 72
9
 73
5
 74
0
 42
0.0000001
 43
0.0000001
 44
0.0000000001
 40
0.0
 40
0.0
 40
0.0
 40
0.0
 40
0.4492292383
 40
1.0
 40
1.0
 40
1.0
 40
1.0
 10
409.3549597055
 20
67.6140712638
 30
0.0
 10
409.3765462863
 20
67.6265340985
 30
0.0
 10
409.4138216807
 20
67.6732136293
 30
0.0
 10
409.4212368278
 20
67.7300007818
 30
0.0
 10
409.4212368278
 20
67.7605608621
 30
0.0
  0
SPLINE
  5
534
100
AcDbEntity
  8
0
100
AcDbSpline
 62
7
  6
CONTINUOUS
 70
0
 71
3
 72
10
 73
6
 74
0
 42
0.0000001
 43
0.0000001
 44
0.0000000001
 40
0.0
 40
0.0
 40
0.0
 40
0.0
 40
0.218436951
 40
0.4523064786
 40
1.0
 40
1.0
 40
1.0
 40
1.0
 10
408.362712572
 20
68.7611586124
 30
0.0
 10
408.348858481
 20
68.7531605011
 30
0.0
 10
408.3229245921
 20
68.731363532
 30
0.0
 10
408.2842548237
 20
68.6680781216
 30
0.0
 10
408.2757238423
 20
68.6090009115
 30
0.0
 10
408.2757238423
 20
68.5688910269
 30
0.0
  0
SPLINE
  5
535
100
AcDbEntity
  8
0
100
AcDbSpline
 62
7
  6
CONTINUOUS
 70
0
 71
3
 72
9
 73
5
 74
0
 42
0.0000001
 43
0.0000001
 44
0.0000000001
 40
0.0
 40
0.0
 40
0.0
 40
0.0
 40
0.5507707617
 40
1.0
 40
1.0
 40
1.0
 40
1.0
 10
409.1383941154
 20
67.597263963
 30
0.0
 10
409.1383941154
 20
67.5667038828
 30
0.0
 10
409.1309789682
 20
67.5099167302
 30
0.0
 10
409.0937035739
 20
67.4632371994
 30
0.0
 10
409.072116993
 20
67.4507743647
 30
0.0
  0
SPLINE
  5
536
100
AcDbEntity
  8
0
100
AcDbSpline
 62
7
  6
CONTINUOUS
 70
0
 71
3
 72
9
 73
5
 74
0
 42
0.0000001
 43
0.0000001
 44
0.0000000001
 40
0.0
 40
0.0
 40
0.0
 40
0.0
 40
0.4492292383
 40
1.0
 40
1.0
 40
1.0
 40
1.0
 10
409.2046712377
 20
68.282645293
 30
0.0
 10
409.1830846569
 20
68.2701824583
 30
0.0
 10
409.1458092625
 20
68.2235029275
 30
0.0
 10
409.1383941154
 20
68.1667157749
 30
0.0
 10
409.1383941154
 20
68.1361556947
 30
0.0
  0
SPLINE
  5
537
100
AcDbEntity
  8
0
100
AcDbSpline
 62
7
  6
CONTINUOUS
 70
0
 71
3
 72
9
 73
5
 74
0
 42
0.0000001
 43
0.0000001
 44
0.0000000001
 40
0.0
 40
0.0
 40
0.0
 40
0.0
 40
0.4492311006
 40
1.0
 40
1.0
 40
1.0
 40
1.0
 10
406.5883761473
 20
72.6182406872
 30
0.0
 10
406.609962083
 20
72.6307031495
 30
0.0
 10
406.6690232468
 20
72.6396444233
 30
0.0
 10
406.7219082813
 20
72.6176737081
 30
0.0
 10
406.748373195
 20
72.6023944092
 30
0.0
  0
SPLINE
  5
538
100
AcDbEntity
  8
0
100
AcDbSpline
 62
7
  6
CONTINUOUS
 70
0
 71
3
 72
9
 73
5
 74
0
 42
0.0000001
 43
0.0000001
 44
0.0000000001
 40
0.0
 40
0.0
 40
0.0
 40
0.0
 40
0.5508329032
 40
1.0
 40
1.0
 40
1.0
 40
1.0
 10
406.4372462112
 20
70.3651732321
 30
0.0
 10
406.4471714419
 20
70.3594429823
 30
0.0
 10
406.4670036841
 20
70.3512002494
 30
0.0
 10
406.4891488333
 20
70.3545632932
 30
0.0
 10
406.497242188
 20
70.3592359287
 30
0.0
  0
SPLINE
  5
539
100
AcDbEntity
  8
0
100
AcDbSpline
 62
7
  6
CONTINUOUS
 70
0
 71
3
 72
9
 73
5
 74
0
 42
0.0000001
 43
0.0000001
 44
0.0000000001
 40
0.0
 40
0.0
 40
0.0
 40
0.0
 40
0.2209335085
 40
1.0
 40
1.0
 40
1.0
 40
1.0
 10
405.9688420185
 20
70.6212520773
 30
0.0
 10
405.970820774
 20
70.622394495
 30
0.0
 10
405.9807588571
 20
70.6260105333
 30
0.0
 10
405.9918624235
 20
70.6223118757
 30
0.0
 10
405.9988400069
 20
70.6182834256
 30
0.0
  0
SPLINE
  5
53A
100
AcDbEntity
  8
0
100
AcDbSpline
 62
7
  6
CONTINUOUS
 70
0
 71
3
 72
11
 73
7
 74
0
 42
0.0000001
 43
0.0000001
 44
0.0000000001
 40
0.0
 40
0.0
 40
0.0
 40
0.0
 40
0.2372276161
 40
0.4999985971
 40
0.7627703416
 40
1.0
 40
1.0
 40
1.0
 40
1.0
 10
410.3970441859
 20
70.4958644114
 30
0.0
 10
410.4291671711
 20
70.4773184718
 30
0.0
 10
410.4899596953
 20
70.4261558085
 30
0.0
 10
410.5609111684
 20
70.3291948138
 30
0.0
 10
410.6094062063
 20
70.2192682272
 30
0.0
 10
410.6233183559
 20
70.141038663
 30
0.0
 10
410.6233183559
 20
70.1039460526
 30
0.0
  0
SPLINE
  5
53B
100
AcDbEntity
  8
0
100
AcDbSpline
 62
7
  6
CONTINUOUS
 70
0
 71
3
 72
9
 73
5
 74
0
 42
0.0000001
 43
0.0000001
 44
0.0000000001
 40
0.0
 40
0.0
 40
0.0
 40
0.0
 40
0.500001615
 40
1.0
 40
1.0
 40
1.0
 40
1.0
 10
410.6233183559
 20
68.0463594409
 30
0.0
 10
410.6233183559
 20
68.017277807
 30
0.0
 10
410.6431968099
 20
67.9598566057
 30
0.0
 10
410.6829858054
 20
67.9139306179
 30
0.0
 10
410.7081711696
 20
67.8993900563
 30
0.0
  0
SPLINE
  5
53C
100
AcDbEntity
  8
0
100
AcDbSpline
 62
7
  6
CONTINUOUS
 70
0
 71
3
 72
9
 73
5
 74
0
 42
0.0000001
 43
0.0000001
 44
0.0000000001
 40
0.0
 40
0.0
 40
0.0
 40
0.0
 40
0.4999987158
 40
1.0
 40
1.0
 40
1.0
 40
1.0
 10
411.1465773739
 20
67.6462798628
 30
0.0
 10
411.1591700644
 20
67.6390095772
 30
0.0
 10
411.1790645596
 20
67.6160465781
 30
0.0
 10
411.1890037808
 20
67.5873359778
 30
0.0
 10
411.1890037808
 20
67.5727951705
 30
0.0
  0
SPLINE
  5
53D
100
AcDbEntity
  8
0
100
AcDbSpline
 62
7
  6
CONTINUOUS
 70
0
 71
3
 72
9
 73
5
 74
0
 42
0.0000001
 43
0.0000001
 44
0.0000000001
 40
0.0
 40
0.0
 40
0.0
 40
0.0
 40
0.2953576815
 40
1.0
 40
1.0
 40
1.0
 40
1.0
 10
411.1890037808
 20
67.2625241735
 30
0.0
 10
411.1890037808
 20
67.259485847
 30
0.0
 10
411.1883315462
 20
67.2493346628
 30
0.0
 10
411.1828528689
 20
67.2386841645
 30
0.0
 10
411.1765753623
 20
67.2350598993
 30
0.0
  0
SPLINE
  5
53E
100
AcDbEntity
  8
0
100
AcDbSpline
 62
7
  6
CONTINUOUS
 70
0
 71
3
 72
15
 73
11
 74
0
 42
0.0000001
 43
0.0000001
 44
0.0000000001
 40
0.0
 40
0.0
 40
0.0
 40
0.0
 40
0.1288304094
 40
0.2705684385
 40
0.4178819861
 40
0.5623849278
 40
0.696201296
 40
0.8135946323
 40
0.9130660732
 40
1.0
 40
1.0
 40
1.0
 40
1.0
 10
408.2757238423
 20
68.5688910269
 30
0.0
 10
408.2757238423
 20
68.5329909044
 30
0.0
 10
408.2857671773
 20
68.4575074108
 30
0.0
 10
408.3232509127
 20
68.3466782081
 30
0.0
 10
408.3810165119
 20
68.2399060654
 30
0.0
 10
408.4543893176
 20
68.1459766763
 30
0.0
 10
408.5375019819
 20
68.0723816081
 30
0.0
 10
408.6241752945
 20
68.025033157
 30
0.0
 10
408.7090168936
 20
68.0080415514
 30
0.0
 10
408.761724834
 20
68.0215879949
 30
0.0
 10
408.7827048088
 20
68.0336999534
 30
0.0
  0
SPLINE
  5
53F
100
AcDbEntity
  8
0
100
AcDbSpline
 62
7
  6
CONTINUOUS
 70
0
 71
3
 72
8
 73
4
 74
0
 42
0.0000001
 43
0.0000001
 44
0.0000000001
 40
0.0
 40
0.0
 40
0.0
 40
0.0
 40
1.0
 40
1.0
 40
1.0
 40
1.0
 10
405.8228061239
 20
70.5892674598
 30
0.0
 10
405.8068491529
 20
70.598480085
 30
0.0
 10
405.7928074917
 20
70.6122381626
 30
0.0
 10
405.7835171445
 20
70.6281500085
 30
0.0
  0
SPLINE
  5
540
100
AcDbEntity
  8
0
100
AcDbSpline
 62
7
  6
CONTINUOUS
 70
0
 71
3
 72
9
 73
5
 74
0
 42
0.0000001
 43
0.0000001
 44
0.0000000001
 40
0.0
 40
0.0
 40
0.0
 40
0.0
 40
0.5573361912
 40
1.0
 40
1.0
 40
1.0
 40
1.0
 10
405.7835171445
 20
70.6281500085
 30
0.0
 10
405.7808722373
 20
70.6326800174
 30
0.0
 10
405.7763512008
 20
70.6413541597
 30
0.0
 10
405.7790201391
 20
70.6518433336
 30
0.0
 10
405.7819688431
 20
70.6547867052
 30
0.0
  0
SPLINE
  5
541
100
AcDbEntity
  8
0
100
AcDbSpline
 62
7
  6
CONTINUOUS
 70
0
 71
3
 72
9
 73
5
 74
0
 42
0.0000001
 43
0.0000001
 44
0.0000000001
 40
0.0
 40
0.0
 40
0.0
 40
0.0
 40
0.46986862
 40
1.0
 40
1.0
 40
1.0
 40
1.0
 10
405.7819688431
 20
70.6547867052
 30
0.0
 10
405.782747129
 20
70.6555635837
 30
0.0
 10
405.7845911123
 20
70.65703385
 30
0.0
 10
405.7866677137
 20
70.6581381259
 30
0.0
 10
405.787801106
 20
70.6586428745
 30
0.0
  0
SPLINE
  5
542
100
AcDbEntity
  8
0
100
AcDbSpline
 62
7
  6
CONTINUOUS
 70
0
 71
3
 72
8
 73
4
 74
0
 42
0.0000001
 43
0.0000001
 44
0.0000000001
 40
0.0
 40
0.0
 40
0.0
 40
0.0
 40
1.0
 40
1.0
 40
1.0
 40
1.0
 10
405.9077913354
 20
71.4830417284
 30
0.0
 10
405.9119464427
 20
71.5078532824
 30
0.0
 10
405.9252746815
 20
71.5349103197
 30
0.0
 10
405.9470590084
 20
71.5474928961
 30
0.0
  0
SPLINE
  5
543
100
AcDbEntity
  8
0
100
AcDbSpline
 62
7
  6
CONTINUOUS
 70
0
 71
3
 72
8
 73
4
 74
0
 42
0.0000001
 43
0.0000001
 44
0.0000000001
 40
0.0
 40
0.0
 40
0.0
 40
0.0
 40
1.0
 40
1.0
 40
1.0
 40
1.0
 10
411.2526433911
 20
68.0422777436
 30
0.0
 10
411.2343118963
 20
68.0528612804
 30
0.0
 10
411.2060497317
 20
68.0841093065
 30
0.0
 10
411.222075254
 20
68.0979381745
 30
0.0
  0
SPLINE
  5
544
100
AcDbEntity
  8
0
100
AcDbSpline
 62
7
  6
CONTINUOUS
 70
0
 71
3
 72
9
 73
5
 74
0
 42
0.0000001
 43
0.0000001
 44
0.0000000001
 40
0.0
 40
0.0
 40
0.0
 40
0.0
 40
0.5071964167
 40
1.0
 40
1.0
 40
1.0
 40
1.0
 10
411.3832828441
 20
68.3751054485
 30
0.0
 10
411.3862805298
 20
68.3793701753
 30
0.0
 10
411.3930518351
 20
68.387215582
 30
0.0
 10
411.4013829305
 20
68.3934000578
 30
0.0
 10
411.4057662911
 20
68.3959377339
 30
0.0
  0
SPLINE
  5
545
100
AcDbEntity
  8
0
100
AcDbSpline
 62
7
  6
CONTINUOUS
 70
0
 71
3
 72
8
 73
4
 74
0
 42
0.0000001
 43
0.0000001
 44
0.0000000001
 40
0.0
 40
0.0
 40
0.0
 40
0.0
 40
1.0
 40
1.0
 40
1.0
 40
1.0
 10
411.8164951775
 20
67.1288606924
 30
0.0
 10
411.7994095111
 20
67.1387249605
 30
0.0
 10
411.7802233632
 20
67.1538313562
 30
0.0
 10
411.7774816764
 20
67.1733686778
 30
0.0
  0
SPLINE
  5
546
100
AcDbEntity
  8
0
100
AcDbSpline
 62
7
  6
CONTINUOUS
 70
0
 71
3
 72
9
 73
5
 74
0
 42
0.0000001
 43
0.0000001
 44
0.0000000001
 40
0.0
 40
0.0
 40
0.0
 40
0.0
 40
0.4874358824
 40
1.0
 40
1.0
 40
1.0
 40
1.0
 10
411.7774816764
 20
67.1733686778
 30
0.0
 10
411.7771262289
 20
67.1759016043
 30
0.0
 10
411.7772019923
 20
67.1812726404
 30
0.0
 10
411.7793332331
 20
67.1862288946
 30
0.0
 10
411.7807978301
 20
67.1884847564
 30
0.0
  0
SPLINE
  5
547
100
AcDbEntity
  8
0
100
AcDbSpline
 62
7
  6
CONTINUOUS
 70
0
 71
3
 72
9
 73
5
 74
0
 42
0.0000001
 43
0.0000001
 44
0.0000000001
 40
0.0
 40
0.0
 40
0.0
 40
0.0
 40
0.3496735998
 40
1.0
 40
1.0
 40
1.0
 40
1.0
 10
405.9314194671
 20
70.541488539
 30
0.0
 10
405.9282521284
 20
70.5390888201
 30
0.0
 10
405.9146068908
 20
70.5386810397
 30
0.0
 10
405.9079812607
 20
70.549722942
 30
0.0
 10
405.9038803562
 20
70.555871183
 30
0.0
  0
SPLINE
  5
548
100
AcDbEntity
  8
0
100
AcDbSpline
 62
7
  6
CONTINUOUS
 70
0
 71
3
 72
9
 73
5
 74
0
 42
0.0000001
 43
0.0000001
 44
0.0000000001
 40
0.0
 40
0.0
 40
0.0
 40
0.0
 40
0.33763659
 40
1.0
 40
1.0
 40
1.0
 40
1.0
 10
406.4902864781
 20
70.8040022893
 30
0.0
 10
406.4875120912
 20
70.8024331105
 30
0.0
 10
406.4764812669
 20
70.8046130577
 30
0.0
 10
406.4714300948
 20
70.8131580957
 30
0.0
 10
406.4679665603
 20
70.8183641625
 30
0.0
  0
SPLINE
  5
549
100
AcDbEntity
  8
0
100
AcDbSpline
 62
7
  6
CONTINUOUS
 70
0
 71
3
 72
8
 73
4
 74
0
 42
0.0000001
 43
0.0000001
 44
0.0000000001
 40
0.0
 40
0.0
 40
0.0
 40
0.0
 40
1.0
 40
1.0
 40
1.0
 40
1.0
 10
524.9403964602
 20
133.3980715962
 30
0.0
 10
524.928516317
 20
133.4827297624
 30
0.0
 10
524.8751583861
 20
133.5706799445
 30
0.0
 10
524.8011236121
 20
133.6134233085
 30
0.0
  0
SPLINE
  5
54A
100
AcDbEntity
  8
0
100
AcDbSpline
 62
7
  6
CONTINUOUS
 70
0
 71
3
 72
8
 73
4
 74
0
 42
0.0000001
 43
0.0000001
 44
0.0000000001
 40
0.0
 40
0.0
 40
0.0
 40
0.0
 40
1.0
 40
1.0
 40
1.0
 40
1.0
 10
524.642842321
 20
133.7048057018
 30
0.0
 10
524.6138363911
 20
133.7215520354
 30
0.0
 10
524.5718372063
 20
133.7314782916
 30
0.0
 10
524.5428512809
 20
133.7146973564
 30
0.0
  0
SPLINE
  5
54B
100
AcDbEntity
  8
0
100
AcDbSpline
 62
7
  6
CONTINUOUS
 70
0
 71
3
 72
9
 73
5
 74
0
 42
0.0000001
 43
0.0000001
 44
0.0000000001
 40
0.0
 40
0.0
 40
0.0
 40
0.0
 40
0.3286867274
 40
1.0
 40
1.0
 40
1.0
 40
1.0
 10
525.0623768522
 20
132.3986664878
 30
0.0
 10
525.0666024304
 20
132.4001260035
 30
0.0
 10
525.0751159725
 20
132.414814317
 30
0.0
 10
525.0652258779
 20
132.4273791803
 30
0.0
 10
525.0603866897
 20
132.4351220105
 30
0.0
  0
SPLINE
  5
54C
100
AcDbEntity
  8
0
100
AcDbSpline
 62
7
  6
CONTINUOUS
 70
0
 71
3
 72
9
 73
5
 74
0
 42
0.0000001
 43
0.0000001
 44
0.0000000001
 40
0.0
 40
0.0
 40
0.0
 40
0.0
 40
0.3803428949
 40
1.0
 40
1.0
 40
1.0
 40
1.0
 10
411.9251723702
 20
67.0798185747
 30
0.0
 10
411.9227183747
 20
67.0792307964
 30
0.0
 10
411.9156889551
 20
67.0811880789
 30
0.0
 10
411.9110649627
 20
67.0860817169
 30
0.0
 10
411.908362598
 20
67.0891799057
 30
0.0
  0
SPLINE
  5
54D
100
AcDbEntity
  8
0
100
AcDbSpline
 62
7
  6
CONTINUOUS
 70
0
 71
3
 72
9
 73
5
 74
0
 42
0.0000001
 43
0.0000001
 44
0.0000000001
 40
0.0
 40
0.0
 40
0.0
 40
0.0
 40
0.4641045105
 40
1.0
 40
1.0
 40
1.0
 40
1.0
 10
411.908362598
 20
67.0891799057
 30
0.0
 10
411.907149907
 20
67.0905702234
 30
0.0
 10
411.9046624475
 20
67.0936759148
 30
0.0
 10
411.9023737646
 20
67.0969286754
 30
0.0
 10
411.9011892899
 20
67.098699283
 30
0.0
  0
SPLINE
  5
54E
100
AcDbEntity
  8
0
100
AcDbSpline
 62
7
  6
CONTINUOUS
 70
0
 71
3
 72
9
 73
5
 74
0
 42
0.0000001
 43
0.0000001
 44
0.0000000001
 40
0.0
 40
0.0
 40
0.0
 40
0.0
 40
0.33763659
 40
1.0
 40
1.0
 40
1.0
 40
1.0
 10
411.5178156923
 20
67.3135180195
 30
0.0
 10
411.5150413054
 20
67.3119488407
 30
0.0
 10
411.5040104812
 20
67.314128788
 30
0.0
 10
411.498959309
 20
67.3226738259
 30
0.0
 10
411.4954957745
 20
67.3278798927
 30
0.0
  0
SPLINE
  5
54F
100
AcDbEntity
  8
0
100
AcDbSpline
 62
7
  6
CONTINUOUS
 70
0
 71
3
 72
8
 73
4
 74
0
 42
0.0000001
 43
0.0000001
 44
0.0000000001
 40
0.0
 40
0.0
 40
0.0
 40
0.0
 40
1.0
 40
1.0
 40
1.0
 40
1.0
 10
411.9370421787
 20
67.1263439562
 30
0.0
 10
411.9392664092
 20
67.1104940397
 30
0.0
 10
411.9407373403
 20
67.0835466787
 30
0.0
 10
411.9251723702
 20
67.0798185747
 30
0.0
  0
SPLINE
  5
550
100
AcDbEntity
  8
0
100
AcDbSpline
 62
7
  6
CONTINUOUS
 70
0
 71
3
 72
8
 73
4
 74
0
 42
0.0000001
 43
0.0000001
 44
0.0000000001
 40
0.0
 40
0.0
 40
0.0
 40
0.0
 40
1.0
 40
1.0
 40
1.0
 40
1.0
 10
406.2053454746
 20
71.4461949951
 30
0.0
 10
406.261776716
 20
71.413614885
 30
0.0
 10
406.304249827
 20
71.3545837419
 30
0.0
 10
406.3278199617
 20
71.2938351013
 30
0.0
  0
SPLINE
  5
551
100
AcDbEntity
  8
0
100
AcDbSpline
 62
7
  6
CONTINUOUS
 70
0
 71
3
 72
9
 73
5
 74
0
 42
0.0000001
 43
0.0000001
 44
0.0000000001
 40
0.0
 40
0.0
 40
0.0
 40
0.0
 40
0.5528003423
 40
1.0
 40
1.0
 40
1.0
 40
1.0
 10
411.5284150358
 20
67.3441715353
 30
0.0
 10
411.5284150358
 20
67.3380573126
 30
0.0
 10
411.5270540297
 20
67.3273600673
 30
0.0
 10
411.5221210013
 20
67.3159530798
 30
0.0
 10
411.5178156923
 20
67.3135180195
 30
0.0
  0
SPLINE
  5
552
100
AcDbEntity
  8
0
100
AcDbSpline
 62
7
  6
CONTINUOUS
 70
0
 71
3
 72
9
 73
5
 74
0
 42
0.0000001
 43
0.0000001
 44
0.0000000001
 40
0.0
 40
0.0
 40
0.0
 40
0.0
 40
0.5528003423
 40
1.0
 40
1.0
 40
1.0
 40
1.0
 10
406.5008858215
 20
70.8346558051
 30
0.0
 10
406.5008858215
 20
70.8285415823
 30
0.0
 10
406.4995248155
 20
70.8178443371
 30
0.0
 10
406.494591787
 20
70.8064373495
 30
0.0
 10
406.4902864781
 20
70.8040022893
 30
0.0
  0
SPLINE
  5
553
100
AcDbEntity
  8
0
100
AcDbSpline
 62
7
  6
CONTINUOUS
 70
0
 71
3
 72
8
 73
4
 74
0
 42
0.0000001
 43
0.0000001
 44
0.0000000001
 40
0.0
 40
0.0
 40
0.0
 40
0.0
 40
1.0
 40
1.0
 40
1.0
 40
1.0
 10
405.9470590084
 20
71.5474928961
 30
0.0
 10
405.9760664623
 20
71.5642475337
 30
0.0
 10
406.0180535144
 20
71.5543264582
 30
0.0
 10
406.0470641835
 20
71.5375773885
 30
0.0
  0
SPLINE
  5
554
100
AcDbEntity
  8
0
100
AcDbSpline
 62
7
  6
CONTINUOUS
 70
0
 71
3
 72
8
 73
4
 74
0
 42
0.0000001
 43
0.0000001
 44
0.0000000001
 40
0.0
 40
0.0
 40
0.0
 40
0.0
 40
1.0
 40
1.0
 40
1.0
 40
1.0
 10
411.4057662911
 20
68.3959377339
 30
0.0
 10
411.4347522165
 20
68.4127186692
 30
0.0
 10
411.4767514013
 20
68.402792413
 30
0.0
 10
411.5057573312
 20
68.3860460794
 30
0.0
  0
SPLINE
  5
555
100
AcDbEntity
  8
0
100
AcDbSpline
 62
7
  6
CONTINUOUS
 70
0
 71
3
 72
9
 73
5
 74
0
 42
0.0000001
 43
0.0000001
 44
0.0000000001
 40
0.0
 40
0.0
 40
0.0
 40
0.0
 40
0.5282807745
 40
1.0
 40
1.0
 40
1.0
 40
1.0
 10
405.9433531251
 20
70.5669009366
 30
0.0
 10
405.9425250536
 20
70.5619562412
 30
0.0
 10
405.9400287418
 20
70.5528329828
 30
0.0
 10
405.934987743
 20
70.5441920259
 30
0.0
 10
405.9314194671
 20
70.541488539
 30
0.0
  0
SPLINE
  5
556
100
AcDbEntity
  8
0
100
AcDbSpline
 62
7
  6
CONTINUOUS
 70
0
 71
3
 72
8
 73
4
 74
0
 42
0.0000001
 43
0.0000001
 44
0.0000000001
 40
0.0
 40
0.0
 40
0.0
 40
0.0
 40
1.0
 40
1.0
 40
1.0
 40
1.0
 10
411.6640386223
 20
68.294663686
 30
0.0
 10
411.7380733962
 20
68.2519203221
 30
0.0
 10
411.7914313271
 20
68.1639701399
 30
0.0
 10
411.8033114704
 20
68.0793119737
 30
0.0
  0
SPLINE
  5
557
100
AcDbEntity
  8
0
100
AcDbSpline
 62
7
  6
CONTINUOUS
 70
0
 71
3
 72
9
 73
5
 74
0
 42
0.0000001
 43
0.0000001
 44
0.0000000001
 40
0.0
 40
0.0
 40
0.0
 40
0.0
 40
0.7094509512
 40
1.0
 40
1.0
 40
1.0
 40
1.0
 10
500.5062194143
 20
124.8859790645
 30
0.0
 10
500.5062194143
 20
124.836884058
 30
0.0
 10
500.5455223581
 20
124.7682378333
 30
0.0
 10
500.600042392
 20
124.7265499423
 30
0.0
 10
500.6167869842
 20
124.7154195283
 30
0.0
  0
SPLINE
  5
558
100
AcDbEntity
  8
0
100
AcDbSpline
 62
7
  6
CONTINUOUS
 70
0
 71
3
 72
9
 73
5
 74
0
 42
0.0000001
 43
0.0000001
 44
0.0000000001
 40
0.0
 40
0.0
 40
0.0
 40
0.0
 40
0.7094509512
 40
1.0
 40
1.0
 40
1.0
 40
1.0
 10
482.8285498846
 20
114.6799228735
 30
0.0
 10
482.8285498846
 20
114.630827867
 30
0.0
 10
482.8678528284
 20
114.5621816423
 30
0.0
 10
482.9223728623
 20
114.5204937513
 30
0.0
 10
482.9391174545
 20
114.5093633373
 30
0.0
  0
SPLINE
  5
559
100
AcDbEntity
  8
0
100
AcDbSpline
 62
7
  6
CONTINUOUS
 70
0
 71
3
 72
8
 73
4
 74
0
 42
0.0000001
 43
0.0000001
 44
0.0000000001
 40
0.0
 40
0.0
 40
0.0
 40
0.0
 40
1.0
 40
1.0
 40
1.0
 40
1.0
 10
524.1170233572
 20
133.5717624705
 30
0.0
 10
524.0744675984
 20
133.6028010264
 30
0.0
 10
524.0432460582
 20
133.6588268361
 30
0.0
 10
524.0432460582
 20
133.7114992631
 30
0.0
  0
SPLINE
  5
55A
100
AcDbEntity
  8
0
100
AcDbSpline
 62
7
  6
CONTINUOUS
 70
0
 71
3
 72
8
 73
4
 74
0
 42
0.0000001
 43
0.0000001
 44
0.0000000001
 40
0.0
 40
0.0
 40
0.0
 40
0.0
 40
1.0
 40
1.0
 40
1.0
 40
1.0
 10
524.0432460582
 20
135.5860025741
 30
0.0
 10
524.0432460582
 20
135.7368520207
 30
0.0
 10
523.9476118246
 20
135.9024970469
 30
0.0
 10
523.8169718882
 20
135.9779209329
 30
0.0
  0
SPLINE
  5
55B
100
AcDbEntity
  8
0
100
AcDbSpline
 62
7
  6
CONTINUOUS
 70
0
 71
3
 72
8
 73
4
 74
0
 42
0.0000001
 43
0.0000001
 44
0.0000000001
 40
0.0
 40
0.0
 40
0.0
 40
0.0
 40
1.0
 40
1.0
 40
1.0
 40
1.0
 10
520.1683008973
 20
138.0844509307
 30
0.0
 10
520.1538520833
 20
138.0927928339
 30
0.0
 10
520.1386106675
 20
138.0999651462
 30
0.0
 10
520.1228157016
 20
138.1053386575
 30
0.0
  0
SPLINE
  5
55C
100
AcDbEntity
  8
0
100
AcDbSpline
 62
7
  6
CONTINUOUS
 70
0
 71
3
 72
8
 73
4
 74
0
 42
0.0000001
 43
0.0000001
 44
0.0000000001
 40
0.0
 40
0.0
 40
0.0
 40
0.0
 40
1.0
 40
1.0
 40
1.0
 40
1.0
 10
520.1228157016
 20
138.1053386575
 30
0.0
 10
520.0866447135
 20
138.117644174
 30
0.0
 10
520.0413944033
 20
138.1193964597
 30
0.0
 10
520.0083061443
 20
138.1002932341
 30
0.0
  0
SPLINE
  5
55D
100
AcDbEntity
  8
0
100
AcDbSpline
 62
7
  6
CONTINUOUS
 70
0
 71
3
 72
9
 73
5
 74
0
 42
0.0000001
 43
0.0000001
 44
0.0000000001
 40
0.0
 40
0.0
 40
0.0
 40
0.0
 40
0.7094509512
 40
1.0
 40
1.0
 40
1.0
 40
1.0
 10
465.1508803549
 20
104.4738666825
 30
0.0
 10
465.1508803549
 20
104.4247716759
 30
0.0
 10
465.1901832988
 20
104.3561254512
 30
0.0
 10
465.2447033327
 20
104.3144375602
 30
0.0
 10
465.2614479249
 20
104.3033071463
 30
0.0
  0
SPLINE
  5
55E
100
AcDbEntity
  8
0
100
AcDbSpline
 62
7
  6
CONTINUOUS
 70
0
 71
3
 72
9
 73
5
 74
0
 42
0.0000001
 43
0.0000001
 44
0.0000000001
 40
0.0
 40
0.0
 40
0.0
 40
0.0
 40
0.7094509512
 40
1.0
 40
1.0
 40
1.0
 40
1.0
 10
447.4732108253
 20
94.2678104915
 30
0.0
 10
447.4732108253
 20
94.2187154849
 30
0.0
 10
447.5125137691
 20
94.1500692602
 30
0.0
 10
447.567033803
 20
94.1083813692
 30
0.0
 10
447.5837783952
 20
94.0972509553
 30
0.0
  0
SPLINE
  5
55F
100
AcDbEntity
  8
0
100
AcDbSpline
 62
7
  6
CONTINUOUS
 70
0
 71
3
 72
9
 73
5
 74
0
 42
0.0000001
 43
0.0000001
 44
0.0000000001
 40
0.0
 40
0.0
 40
0.0
 40
0.0
 40
0.7094509512
 40
1.0
 40
1.0
 40
1.0
 40
1.0
 10
429.7955412956
 20
84.0617543005
 30
0.0
 10
429.7955412956
 20
84.0126592939
 30
0.0
 10
429.8348442394
 20
83.9440130692
 30
0.0
 10
429.8893642733
 20
83.9023251782
 30
0.0
 10
429.9061088655
 20
83.8911947643
 30
0.0
  0
SPLINE
  5
560
100
AcDbEntity
  8
0
100
AcDbSpline
 62
7
  6
CONTINUOUS
 70
0
 71
3
 72
9
 73
5
 74
0
 42
0.0000001
 43
0.0000001
 44
0.0000000001
 40
0.0
 40
0.0
 40
0.0
 40
0.0
 40
0.2407190135
 40
1.0
 40
1.0
 40
1.0
 40
1.0
 10
412.2496639526
 20
73.671989098
 30
0.0
 10
412.2948396159
 20
73.6459073027
 30
0.0
 10
412.4995467698
 20
73.57209835
 30
0.0
 10
412.7435660262
 20
73.5897213495
 30
0.0
 10
412.8860600557
 20
73.671989098
 30
0.0
  0
SPLINE
  5
561
100
AcDbEntity
  8
0
100
AcDbSpline
 62
7
  6
CONTINUOUS
 70
0
 71
3
 72
9
 73
5
 74
0
 42
0.0000001
 43
0.0000001
 44
0.0000000001
 40
0.0
 40
0.0
 40
0.0
 40
0.0
 40
0.2831622714
 40
1.0
 40
1.0
 40
1.0
 40
1.0
 10
413.9467202274
 20
74.2843524695
 30
0.0
 10
413.9617384575
 20
74.2930231204
 30
0.0
 10
414.0125952395
 20
74.3265771922
 30
0.0
 10
414.0558663036
 20
74.3763176421
 30
0.0
 10
414.0700254298
 20
74.4178723696
 30
0.0
  0
SPLINE
  5
562
100
AcDbEntity
  8
0
100
AcDbSpline
 62
7
  6
CONTINUOUS
 70
0
 71
3
 72
8
 73
4
 74
0
 42
0.0000001
 43
0.0000001
 44
0.0000000001
 40
0.0
 40
0.0
 40
0.0
 40
0.0
 40
1.0
 40
1.0
 40
1.0
 40
1.0
 10
414.0700254298
 20
74.4178723696
 30
0.0
 10
414.0754977928
 20
74.4339328629
 30
0.0
 10
414.0785124141
 20
74.4510942714
 30
0.0
 10
414.0785124141
 20
74.4680614809
 30
0.0
  0
SPLINE
  5
563
100
AcDbEntity
  8
0
100
AcDbSpline
 62
7
  6
CONTINUOUS
 70
0
 71
3
 72
9
 73
5
 74
0
 42
0.0000001
 43
0.0000001
 44
0.0000000001
 40
0.0
 40
0.0
 40
0.0
 40
0.0
 40
0.2407190135
 40
1.0
 40
1.0
 40
1.0
 40
1.0
 10
429.9273334822
 20
83.8780452891
 30
0.0
 10
429.9725091456
 20
83.8519634937
 30
0.0
 10
430.1772162994
 20
83.778154541
 30
0.0
 10
430.4212355558
 20
83.7957775405
 30
0.0
 10
430.5637295853
 20
83.8780452891
 30
0.0
  0
SPLINE
  5
564
100
AcDbEntity
  8
0
100
AcDbSpline
 62
7
  6
CONTINUOUS
 70
0
 71
3
 72
9
 73
5
 74
0
 42
0.0000001
 43
0.0000001
 44
0.0000000001
 40
0.0
 40
0.0
 40
0.0
 40
0.0
 40
0.2831622714
 40
1.0
 40
1.0
 40
1.0
 40
1.0
 10
431.6243897571
 20
84.4904086605
 30
0.0
 10
431.6394079872
 20
84.4990793114
 30
0.0
 10
431.6902647692
 20
84.5326333832
 30
0.0
 10
431.7335358333
 20
84.5823738331
 30
0.0
 10
431.7476949595
 20
84.6239285606
 30
0.0
  0
SPLINE
  5
565
100
AcDbEntity
  8
0
100
AcDbSpline
 62
7
  6
CONTINUOUS
 70
0
 71
3
 72
8
 73
4
 74
0
 42
0.0000001
 43
0.0000001
 44
0.0000000001
 40
0.0
 40
0.0
 40
0.0
 40
0.0
 40
1.0
 40
1.0
 40
1.0
 40
1.0
 10
431.7476949595
 20
84.6239285606
 30
0.0
 10
431.7531673224
 20
84.6399890539
 30
0.0
 10
431.7561819437
 20
84.6571504624
 30
0.0
 10
431.7561819437
 20
84.674117672
 30
0.0
  0
SPLINE
  5
566
100
AcDbEntity
  8
0
100
AcDbSpline
 62
7
  6
CONTINUOUS
 70
0
 71
3
 72
9
 73
5
 74
0
 42
0.0000001
 43
0.0000001
 44
0.0000000001
 40
0.0
 40
0.0
 40
0.0
 40
0.0
 40
0.2407190135
 40
1.0
 40
1.0
 40
1.0
 40
1.0
 10
447.6050030119
 20
94.0841014801
 30
0.0
 10
447.6501786752
 20
94.0580196848
 30
0.0
 10
447.8548858291
 20
93.984210732
 30
0.0
 10
448.0989050855
 20
94.0018337315
 30
0.0
 10
448.241399115
 20
94.0841014801
 30
0.0
  0
SPLINE
  5
567
100
AcDbEntity
  8
0
100
AcDbSpline
 62
7
  6
CONTINUOUS
 70
0
 71
3
 72
9
 73
5
 74
0
 42
0.0000001
 43
0.0000001
 44
0.0000000001
 40
0.0
 40
0.0
 40
0.0
 40
0.0
 40
0.2831622714
 40
1.0
 40
1.0
 40
1.0
 40
1.0
 10
449.3020592868
 20
94.6964648515
 30
0.0
 10
449.3170775169
 20
94.7051355024
 30
0.0
 10
449.3679342988
 20
94.7386895742
 30
0.0
 10
449.4112053629
 20
94.7884300241
 30
0.0
 10
449.4253644891
 20
94.8299847516
 30
0.0
  0
SPLINE
  5
568
100
AcDbEntity
  8
0
100
AcDbSpline
 62
7
  6
CONTINUOUS
 70
0
 71
3
 72
8
 73
4
 74
0
 42
0.0000001
 43
0.0000001
 44
0.0000000001
 40
0.0
 40
0.0
 40
0.0
 40
0.0
 40
1.0
 40
1.0
 40
1.0
 40
1.0
 10
449.4253644891
 20
94.8299847516
 30
0.0
 10
449.4308368521
 20
94.8460452449
 30
0.0
 10
449.4338514734
 20
94.8632066534
 30
0.0
 10
449.4338514734
 20
94.880173863
 30
0.0
  0
SPLINE
  5
569
100
AcDbEntity
  8
0
100
AcDbSpline
 62
7
  6
CONTINUOUS
 70
0
 71
3
 72
9
 73
5
 74
0
 42
0.0000001
 43
0.0000001
 44
0.0000000001
 40
0.0
 40
0.0
 40
0.0
 40
0.0
 40
0.2407190135
 40
1.0
 40
1.0
 40
1.0
 40
1.0
 10
465.2826725416
 20
104.2901576711
 30
0.0
 10
465.3278482049
 20
104.2640758758
 30
0.0
 10
465.5325553587
 20
104.190266923
 30
0.0
 10
465.7765746152
 20
104.2078899225
 30
0.0
 10
465.9190686446
 20
104.2901576711
 30
0.0
  0
SPLINE
  5
56A
100
AcDbEntity
  8
0
100
AcDbSpline
 62
7
  6
CONTINUOUS
 70
0
 71
3
 72
9
 73
5
 74
0
 42
0.0000001
 43
0.0000001
 44
0.0000000001
 40
0.0
 40
0.0
 40
0.0
 40
0.0
 40
0.2831622714
 40
1.0
 40
1.0
 40
1.0
 40
1.0
 10
466.9797288164
 20
104.9025210425
 30
0.0
 10
466.9947470465
 20
104.9111916934
 30
0.0
 10
467.0456038285
 20
104.9447457652
 30
0.0
 10
467.0888748926
 20
104.9944862151
 30
0.0
 10
467.1030340188
 20
105.0360409426
 30
0.0
  0
SPLINE
  5
56B
100
AcDbEntity
  8
0
100
AcDbSpline
 62
7
  6
CONTINUOUS
 70
0
 71
3
 72
8
 73
4
 74
0
 42
0.0000001
 43
0.0000001
 44
0.0000000001
 40
0.0
 40
0.0
 40
0.0
 40
0.0
 40
1.0
 40
1.0
 40
1.0
 40
1.0
 10
467.1030340188
 20
105.0360409426
 30
0.0
 10
467.1085063818
 20
105.0521014359
 30
0.0
 10
467.1115210031
 20
105.0692628444
 30
0.0
 10
467.1115210031
 20
105.086230054
 30
0.0
  0
SPLINE
  5
56C
100
AcDbEntity
  8
0
100
AcDbSpline
 62
7
  6
CONTINUOUS
 70
0
 71
3
 72
9
 73
5
 74
0
 42
0.0000001
 43
0.0000001
 44
0.0000000001
 40
0.0
 40
0.0
 40
0.0
 40
0.0
 40
0.2407190135
 40
1.0
 40
1.0
 40
1.0
 40
1.0
 10
482.9603420712
 20
114.4962138621
 30
0.0
 10
483.0055177345
 20
114.4701320668
 30
0.0
 10
483.2102248884
 20
114.396323114
 30
0.0
 10
483.4542441448
 20
114.4139461135
 30
0.0
 10
483.5967381743
 20
114.4962138621
 30
0.0
  0
SPLINE
  5
56D
100
AcDbEntity
  8
0
100
AcDbSpline
 62
7
  6
CONTINUOUS
 70
0
 71
3
 72
9
 73
5
 74
0
 42
0.0000001
 43
0.0000001
 44
0.0000000001
 40
0.0
 40
0.0
 40
0.0
 40
0.0
 40
0.2831622714
 40
1.0
 40
1.0
 40
1.0
 40
1.0
 10
484.6573983461
 20
115.1085772335
 30
0.0
 10
484.6724165762
 20
115.1172478844
 30
0.0
 10
484.7232733582
 20
115.1508019562
 30
0.0
 10
484.7665444223
 20
115.2005424061
 30
0.0
 10
484.7807035485
 20
115.2420971336
 30
0.0
  0
SPLINE
  5
56E
100
AcDbEntity
  8
0
100
AcDbSpline
 62
7
  6
CONTINUOUS
 70
0
 71
3
 72
8
 73
4
 74
0
 42
0.0000001
 43
0.0000001
 44
0.0000000001
 40
0.0
 40
0.0
 40
0.0
 40
0.0
 40
1.0
 40
1.0
 40
1.0
 40
1.0
 10
484.7807035485
 20
115.2420971336
 30
0.0
 10
484.7861759114
 20
115.2581576269
 30
0.0
 10
484.7891905327
 20
115.2753190354
 30
0.0
 10
484.7891905327
 20
115.292286245
 30
0.0
  0
SPLINE
  5
56F
100
AcDbEntity
  8
0
100
AcDbSpline
 62
7
  6
CONTINUOUS
 70
0
 71
3
 72
9
 73
5
 74
0
 42
0.0000001
 43
0.0000001
 44
0.0000000001
 40
0.0
 40
0.0
 40
0.0
 40
0.0
 40
0.2407190135
 40
1.0
 40
1.0
 40
1.0
 40
1.0
 10
500.6380116009
 20
124.7022700531
 30
0.0
 10
500.6831872642
 20
124.6761882578
 30
0.0
 10
500.8878944181
 20
124.602379305
 30
0.0
 10
501.1319136745
 20
124.6200023045
 30
0.0
 10
501.274407704
 20
124.7022700531
 30
0.0
  0
SPLINE
  5
570
100
AcDbEntity
  8
0
100
AcDbSpline
 62
7
  6
CONTINUOUS
 70
0
 71
3
 72
9
 73
5
 74
0
 42
0.0000001
 43
0.0000001
 44
0.0000000001
 40
0.0
 40
0.0
 40
0.0
 40
0.0
 40
0.2831622714
 40
1.0
 40
1.0
 40
1.0
 40
1.0
 10
502.3350678758
 20
125.3146334245
 30
0.0
 10
502.3500861058
 20
125.3233040754
 30
0.0
 10
502.4009428878
 20
125.3568581472
 30
0.0
 10
502.4442139519
 20
125.4065985971
 30
0.0
 10
502.4583730781
 20
125.4481533246
 30
0.0
  0
SPLINE
  5
571
100
AcDbEntity
  8
0
100
AcDbSpline
 62
7
  6
CONTINUOUS
 70
0
 71
3
 72
8
 73
4
 74
0
 42
0.0000001
 43
0.0000001
 44
0.0000000001
 40
0.0
 40
0.0
 40
0.0
 40
0.0
 40
1.0
 40
1.0
 40
1.0
 40
1.0
 10
502.4583730781
 20
125.4481533246
 30
0.0
 10
502.4638454411
 20
125.4642138179
 30
0.0
 10
502.4668600624
 20
125.4813752264
 30
0.0
 10
502.4668600624
 20
125.498342436
 30
0.0
  0
SPLINE
  5
572
100
AcDbEntity
  8
0
100
AcDbSpline
 62
7
  6
CONTINUOUS
 70
0
 71
3
 72
9
 73
5
 74
0
 42
0.0000001
 43
0.0000001
 44
0.0000000001
 40
0.0
 40
0.0
 40
0.0
 40
0.0
 40
0.2407190135
 40
1.0
 40
1.0
 40
1.0
 40
1.0
 10
518.3156811306
 20
134.9083262441
 30
0.0
 10
518.3608567939
 20
134.8822444488
 30
0.0
 10
518.5655639477
 20
134.808435496
 30
0.0
 10
518.8095832041
 20
134.8260584955
 30
0.0
 10
518.9520772336
 20
134.9083262441
 30
0.0
  0
SPLINE
  5
573
100
AcDbEntity
  8
0
100
AcDbSpline
 62
7
  6
CONTINUOUS
 70
0
 71
3
 72
9
 73
5
 74
0
 42
0.0000001
 43
0.0000001
 44
0.0000000001
 40
0.0
 40
0.0
 40
0.0
 40
0.0
 40
0.2831622714
 40
1.0
 40
1.0
 40
1.0
 40
1.0
 10
520.0127374054
 20
135.5206896156
 30
0.0
 10
520.0277556355
 20
135.5293602664
 30
0.0
 10
520.0786124175
 20
135.5629143382
 30
0.0
 10
520.1218834816
 20
135.6126547881
 30
0.0
 10
520.1360426078
 20
135.6542095157
 30
0.0
  0
SPLINE
  5
574
100
AcDbEntity
  8
0
100
AcDbSpline
 62
7
  6
CONTINUOUS
 70
0
 71
3
 72
8
 73
4
 74
0
 42
0.0000001
 43
0.0000001
 44
0.0000000001
 40
0.0
 40
0.0
 40
0.0
 40
0.0
 40
1.0
 40
1.0
 40
1.0
 40
1.0
 10
520.1360426078
 20
135.6542095157
 30
0.0
 10
520.1415149707
 20
135.6702700089
 30
0.0
 10
520.1445295921
 20
135.6874314174
 30
0.0
 10
520.1445295921
 20
135.704398627
 30
0.0
  0
SPLINE
  5
575
100
AcDbEntity
  8
0
100
AcDbSpline
 62
7
  6
CONTINUOUS
 70
0
 71
3
 72
9
 73
5
 74
0
 42
0.0000001
 43
0.0000001
 44
0.0000000001
 40
0.0
 40
0.0
 40
0.0
 40
0.0
 40
0.7094509512
 40
1.0
 40
1.0
 40
1.0
 40
1.0
 10
412.1178717659
 20
73.8556981095
 30
0.0
 10
412.1178717659
 20
73.8066031029
 30
0.0
 10
412.1571747098
 20
73.7379568782
 30
0.0
 10
412.2116947437
 20
73.6962689872
 30
0.0
 10
412.2284393359
 20
73.6851385733
 30
0.0
  0
SPLINE
  5
576
100
AcDbEntity
  8
0
100
AcDbSpline
 62
7
  6
CONTINUOUS
 70
0
 71
3
 72
9
 73
5
 74
0
 42
0.0000001
 43
0.0000001
 44
0.0000000001
 40
0.0
 40
0.0
 40
0.0
 40
0.0
 40
0.7094509512
 40
1.0
 40
1.0
 40
1.0
 40
1.0
 10
518.1838889439
 20
135.0920352555
 30
0.0
 10
518.1838889439
 20
135.042940249
 30
0.0
 10
518.2231918878
 20
134.9742940243
 30
0.0
 10
518.2777119216
 20
134.9326061333
 30
0.0
 10
518.2944565139
 20
134.9214757193
 30
0.0
  0
SPLINE
  5
577
100
AcDbEntity
  8
0
100
AcDbSpline
 62
7
  6
CONTINUOUS
 70
0
 71
3
 72
9
 73
5
 74
0
 42
0.0000001
 43
0.0000001
 44
0.0000000001
 40
0.0
 40
0.0
 40
0.0
 40
0.0
 40
0.2294643942
 40
1.0
 40
1.0
 40
1.0
 40
1.0
 10
519.3763413023
 20
135.561506589
 30
0.0
 10
519.3958736371
 20
135.5727834208
 30
0.0
 10
519.4849130582
 20
135.6150565933
 30
0.0
 10
519.5841352309
 20
135.6334392971
 30
0.0
 10
519.6597951164
 20
135.6368220752
 30
0.0
  0
SPLINE
  5
578
100
AcDbEntity
  8
0
100
AcDbSpline
 62
7
  6
CONTINUOUS
 70
0
 71
3
 72
8
 73
4
 74
0
 42
0.0000001
 43
0.0000001
 44
0.0000000001
 40
0.0
 40
0.0
 40
0.0
 40
0.0
 40
1.0
 40
1.0
 40
1.0
 40
1.0
 10
519.6597951164
 20
135.6368220752
 30
0.0
 10
519.7610831752
 20
135.6413506973
 30
0.0
 10
519.8665307089
 20
135.6269944222
 30
0.0
 10
519.9599537575
 20
135.5876000919
 30
0.0
  0
SPLINE
  5
579
100
AcDbEntity
  8
0
100
AcDbSpline
 62
7
  6
CONTINUOUS
 70
0
 71
3
 72
9
 73
5
 74
0
 42
0.0000001
 43
0.0000001
 44
0.0000000001
 40
0.0
 40
0.0
 40
0.0
 40
0.0
 40
0.2294643942
 40
1.0
 40
1.0
 40
1.0
 40
1.0
 10
413.3103241244
 20
74.3251694429
 30
0.0
 10
413.3298564591
 20
74.3364462747
 30
0.0
 10
413.4188958803
 20
74.3787194473
 30
0.0
 10
413.518118053
 20
74.3971021511
 30
0.0
 10
413.5937779384
 20
74.4004849292
 30
0.0
  0
SPLINE
  5
57A
100
AcDbEntity
  8
0
100
AcDbSpline
 62
7
  6
CONTINUOUS
 70
0
 71
3
 72
8
 73
4
 74
0
 42
0.0000001
 43
0.0000001
 44
0.0000000001
 40
0.0
 40
0.0
 40
0.0
 40
0.0
 40
1.0
 40
1.0
 40
1.0
 40
1.0
 10
413.5937779384
 20
74.4004849292
 30
0.0
 10
413.6950659972
 20
74.4050135513
 30
0.0
 10
413.8005135309
 20
74.3906572762
 30
0.0
 10
413.8939365795
 20
74.3512629458
 30
0.0
  0
SPLINE
  5
57B
100
AcDbEntity
  8
0
100
AcDbSpline
 62
7
  6
CONTINUOUS
 70
0
 71
3
 72
9
 73
5
 74
0
 42
0.0000001
 43
0.0000001
 44
0.0000000001
 40
0.0
 40
0.0
 40
0.0
 40
0.0
 40
0.2294643942
 40
1.0
 40
1.0
 40
1.0
 40
1.0
 10
430.987993654
 20
84.5312256339
 30
0.0
 10
431.0075259888
 20
84.5425024657
 30
0.0
 10
431.0965654099
 20
84.5847756383
 30
0.0
 10
431.1957875826
 20
84.6031583421
 30
0.0
 10
431.2714474681
 20
84.6065411202
 30
0.0
  0
SPLINE
  5
57C
100
AcDbEntity
  8
0
100
AcDbSpline
 62
7
  6
CONTINUOUS
 70
0
 71
3
 72
8
 73
4
 74
0
 42
0.0000001
 43
0.0000001
 44
0.0000000001
 40
0.0
 40
0.0
 40
0.0
 40
0.0
 40
1.0
 40
1.0
 40
1.0
 40
1.0
 10
431.2714474681
 20
84.6065411202
 30
0.0
 10
431.3727355269
 20
84.6110697423
 30
0.0
 10
431.4781830606
 20
84.5967134672
 30
0.0
 10
431.5716061092
 20
84.5573191368
 30
0.0
  0
SPLINE
  5
57D
100
AcDbEntity
  8
0
100
AcDbSpline
 62
7
  6
CONTINUOUS
 70
0
 71
3
 72
9
 73
5
 74
0
 42
0.0000001
 43
0.0000001
 44
0.0000000001
 40
0.0
 40
0.0
 40
0.0
 40
0.0
 40
0.2294643942
 40
1.0
 40
1.0
 40
1.0
 40
1.0
 10
448.6656631837
 20
94.7372818249
 30
0.0
 10
448.6851955185
 20
94.7485586567
 30
0.0
 10
448.7742349396
 20
94.7908318293
 30
0.0
 10
448.8734571123
 20
94.8092145331
 30
0.0
 10
448.9491169978
 20
94.8125973112
 30
0.0
  0
SPLINE
  5
57E
100
AcDbEntity
  8
0
100
AcDbSpline
 62
7
  6
CONTINUOUS
 70
0
 71
3
 72
8
 73
4
 74
0
 42
0.0000001
 43
0.0000001
 44
0.0000000001
 40
0.0
 40
0.0
 40
0.0
 40
0.0
 40
1.0
 40
1.0
 40
1.0
 40
1.0
 10
448.9491169978
 20
94.8125973112
 30
0.0
 10
449.0504050566
 20
94.8171259333
 30
0.0
 10
449.1558525902
 20
94.8027696582
 30
0.0
 10
449.2492756388
 20
94.7633753278
 30
0.0
  0
SPLINE
  5
57F
100
AcDbEntity
  8
0
100
AcDbSpline
 62
7
  6
CONTINUOUS
 70
0
 71
3
 72
9
 73
5
 74
0
 42
0.0000001
 43
0.0000001
 44
0.0000000001
 40
0.0
 40
0.0
 40
0.0
 40
0.0
 40
0.2294643942
 40
1.0
 40
1.0
 40
1.0
 40
1.0
 10
466.3433327134
 20
104.9433380159
 30
0.0
 10
466.3628650481
 20
104.9546148478
 30
0.0
 10
466.4519044693
 20
104.9968880203
 30
0.0
 10
466.551126642
 20
105.0152707241
 30
0.0
 10
466.6267865274
 20
105.0186535022
 30
0.0
  0
SPLINE
  5
580
100
AcDbEntity
  8
0
100
AcDbSpline
 62
7
  6
CONTINUOUS
 70
0
 71
3
 72
8
 73
4
 74
0
 42
0.0000001
 43
0.0000001
 44
0.0000000001
 40
0.0
 40
0.0
 40
0.0
 40
0.0
 40
1.0
 40
1.0
 40
1.0
 40
1.0
 10
466.6267865274
 20
105.0186535022
 30
0.0
 10
466.7280745862
 20
105.0231821243
 30
0.0
 10
466.8335221199
 20
105.0088258492
 30
0.0
 10
466.9269451685
 20
104.9694315188
 30
0.0
  0
SPLINE
  5
581
100
AcDbEntity
  8
0
100
AcDbSpline
 62
7
  6
CONTINUOUS
 70
0
 71
3
 72
9
 73
5
 74
0
 42
0.0000001
 43
0.0000001
 44
0.0000000001
 40
0.0
 40
0.0
 40
0.0
 40
0.0
 40
0.2294643942
 40
1.0
 40
1.0
 40
1.0
 40
1.0
 10
484.021002243
 20
115.1493942069
 30
0.0
 10
484.0405345778
 20
115.1606710388
 30
0.0
 10
484.1295739989
 20
115.2029442113
 30
0.0
 10
484.2287961716
 20
115.2213269151
 30
0.0
 10
484.3044560571
 20
115.2247096932
 30
0.0
  0
SPLINE
  5
582
100
AcDbEntity
  8
0
100
AcDbSpline
 62
7
  6
CONTINUOUS
 70
0
 71
3
 72
8
 73
4
 74
0
 42
0.0000001
 43
0.0000001
 44
0.0000000001
 40
0.0
 40
0.0
 40
0.0
 40
0.0
 40
1.0
 40
1.0
 40
1.0
 40
1.0
 10
484.3044560571
 20
115.2247096932
 30
0.0
 10
484.4057441159
 20
115.2292383153
 30
0.0
 10
484.5111916496
 20
115.2148820402
 30
0.0
 10
484.6046146981
 20
115.1754877099
 30
0.0
  0
SPLINE
  5
583
100
AcDbEntity
  8
0
100
AcDbSpline
 62
7
  6
CONTINUOUS
 70
0
 71
3
 72
9
 73
5
 74
0
 42
0.0000001
 43
0.0000001
 44
0.0000000001
 40
0.0
 40
0.0
 40
0.0
 40
0.0
 40
0.2294643942
 40
1.0
 40
1.0
 40
1.0
 40
1.0
 10
501.6986717727
 20
125.355450398
 30
0.0
 10
501.7182041075
 20
125.3667272298
 30
0.0
 10
501.8072435286
 20
125.4090004023
 30
0.0
 10
501.9064657013
 20
125.4273831061
 30
0.0
 10
501.9821255868
 20
125.4307658842
 30
0.0
  0
SPLINE
  5
584
100
AcDbEntity
  8
0
100
AcDbSpline
 62
7
  6
CONTINUOUS
 70
0
 71
3
 72
8
 73
4
 74
0
 42
0.0000001
 43
0.0000001
 44
0.0000000001
 40
0.0
 40
0.0
 40
0.0
 40
0.0
 40
1.0
 40
1.0
 40
1.0
 40
1.0
 10
501.9821255868
 20
125.4307658842
 30
0.0
 10
502.0834136455
 20
125.4352945063
 30
0.0
 10
502.1888611792
 20
125.4209382312
 30
0.0
 10
502.2822842278
 20
125.3815439009
 30
0.0
  0
SPLINE
  5
585
100
AcDbEntity
  8
0
100
AcDbSpline
 62
7
  6
CONTINUOUS
 70
0
 71
3
 72
9
 73
5
 74
0
 42
0.0000001
 43
0.0000001
 44
0.0000000001
 40
0.0
 40
0.0
 40
0.0
 40
0.0
 40
0.2407190135
 40
1.0
 40
1.0
 40
1.0
 40
1.0
 10
449.3020592868
 20
95.0638828744
 30
0.0
 10
449.2568836235
 20
95.0899646697
 30
0.0
 10
449.0521764696
 20
95.1637736225
 30
0.0
 10
448.8081572132
 20
95.146150623
 30
0.0
 10
448.6656631837
 20
95.0638828744
 30
0.0
  0
SPLINE
  5
586
100
AcDbEntity
  8
0
100
AcDbSpline
 62
7
  6
CONTINUOUS
 70
0
 71
3
 72
8
 73
4
 74
0
 42
0.0000001
 43
0.0000001
 44
0.0000000001
 40
0.0
 40
0.0
 40
0.0
 40
0.0
 40
1.0
 40
1.0
 40
1.0
 40
1.0
 10
520.1445295921
 20
135.704398627
 30
0.0
 10
520.1445295921
 20
135.7213658365
 30
0.0
 10
520.1415149707
 20
135.7385272451
 30
0.0
 10
520.1360426078
 20
135.7545877383
 30
0.0
  0
SPLINE
  5
587
100
AcDbEntity
  8
0
100
AcDbSpline
 62
7
  6
CONTINUOUS
 70
0
 71
3
 72
8
 73
4
 74
0
 42
0.0000001
 43
0.0000001
 44
0.0000000001
 40
0.0
 40
0.0
 40
0.0
 40
0.0
 40
1.0
 40
1.0
 40
1.0
 40
1.0
 10
520.1360426078
 20
135.7545877383
 30
0.0
 10
520.1238059085
 20
135.7905004561
 30
0.0
 10
520.0986999746
 20
135.8224050886
 30
0.0
 10
520.0701577864
 20
135.8474011603
 30
0.0
  0
SPLINE
  5
588
100
AcDbEntity
  8
0
100
AcDbSpline
 62
7
  6
CONTINUOUS
 70
0
 71
3
 72
8
 73
4
 74
0
 42
0.0000001
 43
0.0000001
 44
0.0000000001
 40
0.0
 40
0.0
 40
0.0
 40
0.0
 40
1.0
 40
1.0
 40
1.0
 40
1.0
 10
520.0701577864
 20
135.8474011603
 30
0.0
 10
520.052507598
 20
135.8628584676
 30
0.0
 10
520.033056022
 20
135.8763768533
 30
0.0
 10
520.0127374054
 20
135.8881076384
 30
0.0
  0
SPLINE
  5
589
100
AcDbEntity
  8
0
100
AcDbSpline
 62
7
  6
CONTINUOUS
 70
0
 71
3
 72
9
 73
5
 74
0
 42
0.0000001
 43
0.0000001
 44
0.0000000001
 40
0.0
 40
0.0
 40
0.0
 40
0.0
 40
0.2949800827
 40
1.0
 40
1.0
 40
1.0
 40
1.0
 10
465.2826725416
 20
104.6575756939
 30
0.0
 10
465.2629649129
 20
104.6461976576
 30
0.0
 10
465.1996019931
 20
104.6037151603
 30
0.0
 10
465.1508803549
 20
104.5282556514
 30
0.0
 10
465.1508803549
 20
104.4738666825
 30
0.0
  0
SPLINE
  5
58A
100
AcDbEntity
  8
0
100
AcDbSpline
 62
7
  6
CONTINUOUS
 70
0
 71
3
 72
8
 73
4
 74
0
 42
0.0000001
 43
0.0000001
 44
0.0000000001
 40
0.0
 40
0.0
 40
0.0
 40
0.0
 40
1.0
 40
1.0
 40
1.0
 40
1.0
 10
449.4338514734
 20
94.880173863
 30
0.0
 10
449.4338514734
 20
94.8971410725
 30
0.0
 10
449.4308368521
 20
94.914302481
 30
0.0
 10
449.4253644891
 20
94.9303629743
 30
0.0
  0
SPLINE
  5
58B
100
AcDbEntity
  8
0
100
AcDbSpline
 62
7
  6
CONTINUOUS
 70
0
 71
3
 72
9
 73
5
 74
0
 42
0.0000001
 43
0.0000001
 44
0.0000000001
 40
0.0
 40
0.0
 40
0.0
 40
0.0
 40
0.2224239787
 40
1.0
 40
1.0
 40
1.0
 40
1.0
 10
449.4253644891
 20
94.9303629743
 30
0.0
 10
449.4209618776
 20
94.9432839215
 30
0.0
 10
449.3939315419
 20
94.999004811
 30
0.0
 10
449.343386811
 20
95.0400227703
 30
0.0
 10
449.3020592868
 20
95.0638828744
 30
0.0
  0
SPLINE
  5
58C
100
AcDbEntity
  8
0
100
AcDbSpline
 62
7
  6
CONTINUOUS
 70
0
 71
3
 72
9
 73
5
 74
0
 42
0.0000001
 43
0.0000001
 44
0.0000000001
 40
0.0
 40
0.0
 40
0.0
 40
0.0
 40
0.4959282644
 40
1.0
 40
1.0
 40
1.0
 40
1.0
 10
406.8712211545
 20
72.7815336117
 30
0.0
 10
406.8760614611
 20
72.7843281216
 30
0.0
 10
406.8862858291
 20
72.7891928153
 30
0.0
 10
406.8971344667
 20
72.7924174857
 30
0.0
 10
406.9026827666
 20
72.7936375418
 30
0.0
  0
SPLINE
  5
58D
100
AcDbEntity
  8
0
100
AcDbSpline
 62
7
  6
CONTINUOUS
 70
0
 71
3
 72
9
 73
5
 74
0
 42
0.0000001
 43
0.0000001
 44
0.0000000001
 40
0.0
 40
0.0
 40
0.0
 40
0.0
 40
0.4888047089
 40
1.0
 40
1.0
 40
1.0
 40
1.0
 10
406.9026827666
 20
72.7936375418
 30
0.0
 10
406.9087655379
 20
72.7949751266
 30
0.0
 10
406.921442818
 20
72.7967228965
 30
0.0
 10
406.9342292457
 20
72.7966102031
 30
0.0
 10
406.94072491
 20
72.7961299986
 30
0.0
  0
SPLINE
  5
58E
100
AcDbEntity
  8
0
100
AcDbSpline
 62
7
  6
CONTINUOUS
 70
0
 71
3
 72
8
 73
4
 74
0
 42
0.0000001
 43
0.0000001
 44
0.0000000001
 40
0.0
 40
0.0
 40
0.0
 40
0.0
 40
1.0
 40
1.0
 40
1.0
 40
1.0
 10
406.94072491
 20
72.7961299986
 30
0.0
 10
406.9559977019
 20
72.7950009281
 30
0.0
 10
406.9711691713
 20
72.7915281279
 30
0.0
 10
406.9856690521
 20
72.7866000017
 30
0.0
  0
SPLINE
  5
58F
100
AcDbEntity
  8
0
100
AcDbSpline
 62
7
  6
CONTINUOUS
 70
0
 71
3
 72
8
 73
4
 74
0
 42
0.0000001
 43
0.0000001
 44
0.0000000001
 40
0.0
 40
0.0
 40
0.0
 40
0.0
 40
1.0
 40
1.0
 40
1.0
 40
1.0
 10
406.9856690521
 20
72.7866000017
 30
0.0
 10
407.0014860552
 20
72.7812242204
 30
0.0
 10
407.0167483919
 20
72.7740440086
 30
0.0
 10
407.0312159074
 20
72.7656913083
 30
0.0
  0
SPLINE
  5
590
100
AcDbEntity
  8
0
100
AcDbSpline
 62
7
  6
CONTINUOUS
 70
0
 71
3
 72
8
 73
4
 74
0
 42
0.0000001
 43
0.0000001
 44
0.0000000001
 40
0.0
 40
0.0
 40
0.0
 40
0.0
 40
1.0
 40
1.0
 40
1.0
 40
1.0
 10
484.7891905327
 20
115.292286245
 30
0.0
 10
484.7891905327
 20
115.3092534545
 30
0.0
 10
484.7861759114
 20
115.3264148631
 30
0.0
 10
484.7807035485
 20
115.3424753563
 30
0.0
  0
SPLINE
  5
591
100
AcDbEntity
  8
0
100
AcDbSpline
 62
7
  6
CONTINUOUS
 70
0
 71
3
 72
9
 73
5
 74
0
 42
0.0000001
 43
0.0000001
 44
0.0000000001
 40
0.0
 40
0.0
 40
0.0
 40
0.0
 40
0.2224239787
 40
1.0
 40
1.0
 40
1.0
 40
1.0
 10
484.7807035485
 20
115.3424753563
 30
0.0
 10
484.7763009369
 20
115.3553963035
 30
0.0
 10
484.7492706012
 20
115.411117193
 30
0.0
 10
484.6987258704
 20
115.4521351523
 30
0.0
 10
484.6573983461
 20
115.4759952564
 30
0.0
  0
SPLINE
  5
592
100
AcDbEntity
  8
0
100
AcDbSpline
 62
7
  6
CONTINUOUS
 70
0
 71
3
 72
9
 73
5
 74
0
 42
0.0000001
 43
0.0000001
 44
0.0000000001
 40
0.0
 40
0.0
 40
0.0
 40
0.0
 40
0.2407190135
 40
1.0
 40
1.0
 40
1.0
 40
1.0
 10
466.9797288164
 20
105.2699390654
 30
0.0
 10
466.9345531531
 20
105.2960208607
 30
0.0
 10
466.7298459993
 20
105.3698298135
 30
0.0
 10
466.4858267428
 20
105.352206814
 30
0.0
 10
466.3433327134
 20
105.2699390654
 30
0.0
  0
SPLINE
  5
593
100
AcDbEntity
  8
0
100
AcDbSpline
 62
7
  6
CONTINUOUS
 70
0
 71
3
 72
9
 73
5
 74
0
 42
0.0000001
 43
0.0000001
 44
0.0000000001
 40
0.0
 40
0.0
 40
0.0
 40
0.0
 40
0.2949800827
 40
1.0
 40
1.0
 40
1.0
 40
1.0
 10
482.9603420712
 20
114.863631885
 30
0.0
 10
482.9406344426
 20
114.8522538486
 30
0.0
 10
482.8772715227
 20
114.8097713513
 30
0.0
 10
482.8285498846
 20
114.7343118424
 30
0.0
 10
482.8285498846
 20
114.6799228735
 30
0.0
  0
SPLINE
  5
594
100
AcDbEntity
  8
0
100
AcDbSpline
 62
7
  6
CONTINUOUS
 70
0
 71
3
 72
9
 73
5
 74
0
 42
0.0000001
 43
0.0000001
 44
0.0000000001
 40
0.0
 40
0.0
 40
0.0
 40
0.0
 40
0.2949800827
 40
1.0
 40
1.0
 40
1.0
 40
1.0
 10
412.2496639526
 20
74.0394071209
 30
0.0
 10
412.2299563239
 20
74.0280290846
 30
0.0
 10
412.1665934041
 20
73.9855465873
 30
0.0
 10
412.1178717659
 20
73.9100870784
 30
0.0
 10
412.1178717659
 20
73.8556981095
 30
0.0
  0
SPLINE
  5
595
100
AcDbEntity
  8
0
100
AcDbSpline
 62
7
  6
CONTINUOUS
 70
0
 71
3
 72
8
 73
4
 74
0
 42
0.0000001
 43
0.0000001
 44
0.0000000001
 40
0.0
 40
0.0
 40
0.0
 40
0.0
 40
1.0
 40
1.0
 40
1.0
 40
1.0
 10
467.1115210031
 20
105.086230054
 30
0.0
 10
467.1115210031
 20
105.1031972635
 30
0.0
 10
467.1085063818
 20
105.1203586721
 30
0.0
 10
467.1030340188
 20
105.1364191653
 30
0.0
  0
SPLINE
  5
596
100
AcDbEntity
  8
0
100
AcDbSpline
 62
7
  6
CONTINUOUS
 70
0
 71
3
 72
9
 73
5
 74
0
 42
0.0000001
 43
0.0000001
 44
0.0000000001
 40
0.0
 40
0.0
 40
0.0
 40
0.0
 40
0.2224239787
 40
1.0
 40
1.0
 40
1.0
 40
1.0
 10
467.1030340188
 20
105.1364191653
 30
0.0
 10
467.0986314073
 20
105.1493401125
 30
0.0
 10
467.0716010716
 20
105.205061002
 30
0.0
 10
467.0210563407
 20
105.2460789613
 30
0.0
 10
466.9797288164
 20
105.2699390654
 30
0.0
  0
SPLINE
  5
597
100
AcDbEntity
  8
0
100
AcDbSpline
 62
7
  6
CONTINUOUS
 70
0
 71
3
 72
9
 73
5
 74
0
 42
0.0000001
 43
0.0000001
 44
0.0000000001
 40
0.0
 40
0.0
 40
0.0
 40
0.0
 40
0.2407190135
 40
1.0
 40
1.0
 40
1.0
 40
1.0
 10
484.6573983461
 20
115.4759952564
 30
0.0
 10
484.6122226828
 20
115.5020770517
 30
0.0
 10
484.4075155289
 20
115.5758860045
 30
0.0
 10
484.1634962725
 20
115.558263005
 30
0.0
 10
484.021002243
 20
115.4759952564
 30
0.0
  0
SPLINE
  5
598
100
AcDbEntity
  8
0
100
AcDbSpline
 62
7
  6
CONTINUOUS
 70
0
 71
3
 72
9
 73
5
 74
0
 42
0.0000001
 43
0.0000001
 44
0.0000000001
 40
0.0
 40
0.0
 40
0.0
 40
0.0
 40
0.2949800827
 40
1.0
 40
1.0
 40
1.0
 40
1.0
 10
500.6380116009
 20
125.069688076
 30
0.0
 10
500.6183039722
 20
125.0583100397
 30
0.0
 10
500.5549410524
 20
125.0158275424
 30
0.0
 10
500.5062194143
 20
124.9403680334
 30
0.0
 10
500.5062194143
 20
124.8859790645
 30
0.0
  0
SPLINE
  5
599
100
AcDbEntity
  8
0
100
AcDbSpline
 62
7
  6
CONTINUOUS
 70
0
 71
3
 72
8
 73
4
 74
0
 42
0.0000001
 43
0.0000001
 44
0.0000000001
 40
0.0
 40
0.0
 40
0.0
 40
0.0
 40
1.0
 40
1.0
 40
1.0
 40
1.0
 10
502.4668600624
 20
125.498342436
 30
0.0
 10
502.4668600624
 20
125.5153096455
 30
0.0
 10
502.4638454411
 20
125.5324710541
 30
0.0
 10
502.4583730781
 20
125.5485315473
 30
0.0
  0
SPLINE
  5
59A
100
AcDbEntity
  8
0
100
AcDbSpline
 62
7
  6
CONTINUOUS
 70
0
 71
3
 72
9
 73
5
 74
0
 42
0.0000001
 43
0.0000001
 44
0.0000000001
 40
0.0
 40
0.0
 40
0.0
 40
0.0
 40
0.2224239787
 40
1.0
 40
1.0
 40
1.0
 40
1.0
 10
502.4583730781
 20
125.5485315473
 30
0.0
 10
502.4539704666
 20
125.5614524945
 30
0.0
 10
502.4269401309
 20
125.617173384
 30
0.0
 10
502.3763954
 20
125.6581913433
 30
0.0
 10
502.3350678758
 20
125.6820514474
 30
0.0
  0
SPLINE
  5
59B
100
AcDbEntity
  8
0
100
AcDbSpline
 62
7
  6
CONTINUOUS
 70
0
 71
3
 72
9
 73
5
 74
0
 42
0.0000001
 43
0.0000001
 44
0.0000000001
 40
0.0
 40
0.0
 40
0.0
 40
0.0
 40
0.2407190135
 40
1.0
 40
1.0
 40
1.0
 40
1.0
 10
413.9467202274
 20
74.6517704924
 30
0.0
 10
413.9015445641
 20
74.6778522877
 30
0.0
 10
413.6968374103
 20
74.7516612405
 30
0.0
 10
413.4528181539
 20
74.7340382409
 30
0.0
 10
413.3103241244
 20
74.6517704924
 30
0.0
  0
SPLINE
  5
59C
100
AcDbEntity
  8
0
100
AcDbSpline
 62
7
  6
CONTINUOUS
 70
0
 71
3
 72
9
 73
5
 74
0
 42
0.0000001
 43
0.0000001
 44
0.0000000001
 40
0.0
 40
0.0
 40
0.0
 40
0.0
 40
0.2407190135
 40
1.0
 40
1.0
 40
1.0
 40
1.0
 10
502.3350678758
 20
125.6820514474
 30
0.0
 10
502.2898922124
 20
125.7081332427
 30
0.0
 10
502.0851850586
 20
125.7819421955
 30
0.0
 10
501.8411658022
 20
125.764319196
 30
0.0
 10
501.6986717727
 20
125.6820514474
 30
0.0
  0
SPLINE
  5
59D
100
AcDbEntity
  8
0
100
AcDbSpline
 62
7
  6
CONTINUOUS
 70
0
 71
3
 72
9
 73
5
 74
0
 42
0.0000001
 43
0.0000001
 44
0.0000000001
 40
0.0
 40
0.0
 40
0.0
 40
0.0
 40
0.2949800827
 40
1.0
 40
1.0
 40
1.0
 40
1.0
 10
518.3156811306
 20
135.275744267
 30
0.0
 10
518.2959735019
 20
135.2643662307
 30
0.0
 10
518.2326105821
 20
135.2218837334
 30
0.0
 10
518.1838889439
 20
135.1464242244
 30
0.0
 10
518.1838889439
 20
135.0920352555
 30
0.0
  0
SPLINE
  5
59E
100
AcDbEntity
  8
0
100
AcDbSpline
 62
7
  6
CONTINUOUS
 70
0
 71
3
 72
9
 73
5
 74
0
 42
0.0000001
 43
0.0000001
 44
0.0000000001
 40
0.0
 40
0.0
 40
0.0
 40
0.0
 40
0.2949800827
 40
1.0
 40
1.0
 40
1.0
 40
1.0
 10
429.9273334822
 20
84.2454633119
 30
0.0
 10
429.9076258536
 20
84.2340852756
 30
0.0
 10
429.8442629337
 20
84.1916027783
 30
0.0
 10
429.7955412956
 20
84.1161432694
 30
0.0
 10
429.7955412956
 20
84.0617543005
 30
0.0
  0
SPLINE
  5
59F
100
AcDbEntity
  8
0
100
AcDbSpline
 62
7
  6
CONTINUOUS
 70
0
 71
3
 72
8
 73
4
 74
0
 42
0.0000001
 43
0.0000001
 44
0.0000000001
 40
0.0
 40
0.0
 40
0.0
 40
0.0
 40
1.0
 40
1.0
 40
1.0
 40
1.0
 10
431.7561819437
 20
84.674117672
 30
0.0
 10
431.7561819437
 20
84.6910848815
 30
0.0
 10
431.7531673224
 20
84.70824629
 30
0.0
 10
431.7476949595
 20
84.7243067833
 30
0.0
  0
SPLINE
  5
5A0
100
AcDbEntity
  8
0
100
AcDbSpline
 62
7
  6
CONTINUOUS
 70
0
 71
3
 72
9
 73
5
 74
0
 42
0.0000001
 43
0.0000001
 44
0.0000000001
 40
0.0
 40
0.0
 40
0.0
 40
0.0
 40
0.2224239787
 40
1.0
 40
1.0
 40
1.0
 40
1.0
 10
431.7476949595
 20
84.7243067833
 30
0.0
 10
431.7432923479
 20
84.7372277305
 30
0.0
 10
431.7162620122
 20
84.79294862
 30
0.0
 10
431.6657172814
 20
84.8339665793
 30
0.0
 10
431.6243897571
 20
84.8578266834
 30
0.0
  0
SPLINE
  5
5A1
100
AcDbEntity
  8
0
100
AcDbSpline
 62
7
  6
CONTINUOUS
 70
0
 71
3
 72
9
 73
5
 74
0
 42
0.0000001
 43
0.0000001
 44
0.0000000001
 40
0.0
 40
0.0
 40
0.0
 40
0.0
 40
0.2407190135
 40
1.0
 40
1.0
 40
1.0
 40
1.0
 10
520.0127374054
 20
135.8881076384
 30
0.0
 10
519.9675617421
 20
135.9141894337
 30
0.0
 10
519.7628545882
 20
135.9879983865
 30
0.0
 10
519.5188353318
 20
135.970375387
 30
0.0
 10
519.3763413023
 20
135.8881076384
 30
0.0
  0
SPLINE
  5
5A2
100
AcDbEntity
  8
0
100
AcDbSpline
 62
7
  6
CONTINUOUS
 70
0
 71
3
 72
8
 73
4
 74
0
 42
0.0000001
 43
0.0000001
 44
0.0000000001
 40
0.0
 40
0.0
 40
0.0
 40
0.0
 40
1.0
 40
1.0
 40
1.0
 40
1.0
 10
410.6798868983
 20
70.6591613105
 30
0.0
 10
410.695834736
 20
70.6499539584
 30
0.0
 10
410.7109656188
 20
70.6392523102
 30
0.0
 10
410.7252484765
 20
70.6276286777
 30
0.0
  0
SPLINE
  5
5A3
100
AcDbEntity
  8
0
100
AcDbSpline
 62
7
  6
CONTINUOUS
 70
0
 71
3
 72
8
 73
4
 74
0
 42
0.0000001
 43
0.0000001
 44
0.0000000001
 40
0.0
 40
0.0
 40
0.0
 40
0.0
 40
1.0
 40
1.0
 40
1.0
 40
1.0
 10
410.7252484765
 20
70.6276286777
 30
0.0
 10
410.8164012083
 20
70.5534470341
 30
0.0
 10
410.8828662958
 20
70.4383254117
 30
0.0
 10
410.9015334949
 20
70.3222940692
 30
0.0
  0
SPLINE
  5
5A4
100
AcDbEntity
  8
0
100
AcDbSpline
 62
7
  6
CONTINUOUS
 70
0
 71
3
 72
8
 73
4
 74
0
 42
0.0000001
 43
0.0000001
 44
0.0000000001
 40
0.0
 40
0.0
 40
0.0
 40
0.0
 40
1.0
 40
1.0
 40
1.0
 40
1.0
 10
410.9015334949
 20
70.3222940692
 30
0.0
 10
410.9044585151
 20
70.3041127653
 30
0.0
 10
410.9061610683
 20
70.285658042
 30
0.0
 10
410.9061610683
 20
70.2672429516
 30
0.0
  0
SPLINE
  5
5A5
100
AcDbEntity
  8
0
100
AcDbSpline
 62
7
  6
CONTINUOUS
 70
0
 71
3
 72
8
 73
4
 74
0
 42
0.0000001
 43
0.0000001
 44
0.0000000001
 40
0.0
 40
0.0
 40
0.0
 40
0.0
 40
1.0
 40
1.0
 40
1.0
 40
1.0
 10
410.9061610683
 20
68.3927396407
 30
0.0
 10
410.9061610683
 20
68.3669565834
 30
0.0
 10
410.9143626738
 20
68.3409496243
 30
0.0
 10
410.9261465918
 20
68.3180169987
 30
0.0
  0
SPLINE
  5
5A6
100
AcDbEntity
  8
0
100
AcDbSpline
 62
7
  6
CONTINUOUS
 70
0
 71
3
 72
8
 73
4
 74
0
 42
0.0000001
 43
0.0000001
 44
0.0000000001
 40
0.0
 40
0.0
 40
0.0
 40
0.0
 40
1.0
 40
1.0
 40
1.0
 40
1.0
 10
410.9261465918
 20
68.3180169987
 30
0.0
 10
410.9390020063
 20
68.2929991389
 30
0.0
 10
410.9572132678
 20
68.2695776734
 30
0.0
 10
410.9799383674
 20
68.253002848
 30
0.0
  0
SPLINE
  5
5A7
100
AcDbEntity
  8
0
100
AcDbSpline
 62
7
  6
CONTINUOUS
 70
0
 71
3
 72
9
 73
5
 74
0
 42
0.0000001
 43
0.0000001
 44
0.0000000001
 40
0.0
 40
0.0
 40
0.0
 40
0.0
 40
0.2407190135
 40
1.0
 40
1.0
 40
1.0
 40
1.0
 10
431.6243897571
 20
84.8578266834
 30
0.0
 10
431.5792140938
 20
84.8839084787
 30
0.0
 10
431.3745069399
 20
84.9577174315
 30
0.0
 10
431.1304876835
 20
84.9400944319
 30
0.0
 10
430.987993654
 20
84.8578266834
 30
0.0
  0
SPLINE
  5
5A8
100
AcDbEntity
  8
0
100
AcDbSpline
 62
7
  6
CONTINUOUS
 70
0
 71
3
 72
9
 73
5
 74
0
 42
0.0000001
 43
0.0000001
 44
0.0000000001
 40
0.0
 40
0.0
 40
0.0
 40
0.0
 40
0.2949800827
 40
1.0
 40
1.0
 40
1.0
 40
1.0
 10
447.6050030119
 20
94.4515195029
 30
0.0
 10
447.5852953832
 20
94.4401414666
 30
0.0
 10
447.5219324634
 20
94.3976589693
 30
0.0
 10
447.4732108253
 20
94.3221994604
 30
0.0
 10
447.4732108253
 20
94.2678104915
 30
0.0
  0
SPLINE
  5
5A9
100
AcDbEntity
  8
0
100
AcDbSpline
 62
7
  6
CONTINUOUS
 70
0
 71
3
 72
8
 73
4
 74
0
 42
0.0000001
 43
0.0000001
 44
0.0000000001
 40
0.0
 40
0.0
 40
0.0
 40
0.0
 40
1.0
 40
1.0
 40
1.0
 40
1.0
 10
414.0785124141
 20
74.4680614809
 30
0.0
 10
414.0785124141
 20
74.4850286905
 30
0.0
 10
414.0754977928
 20
74.502190099
 30
0.0
 10
414.0700254298
 20
74.5182505923
 30
0.0
  0
SPLINE
  5
5AA
100
AcDbEntity
  8
0
100
AcDbSpline
 62
7
  6
CONTINUOUS
 70
0
 71
3
 72
9
 73
5
 74
0
 42
0.0000001
 43
0.0000001
 44
0.0000000001
 40
0.0
 40
0.0
 40
0.0
 40
0.0
 40
0.2224239787
 40
1.0
 40
1.0
 40
1.0
 40
1.0
 10
414.0700254298
 20
74.5182505923
 30
0.0
 10
414.0656228183
 20
74.5311715395
 30
0.0
 10
414.0385924826
 20
74.586892429
 30
0.0
 10
413.9880477517
 20
74.6279103883
 30
0.0
 10
413.9467202274
 20
74.6517704924
 30
0.0
  0
ELLIPSE
  5
5AB
100
AcDbEntity
  8
0
100
AcDbEllipse
 62
7
  6
CONTINUOUS
 10
519.4568248466
 20
135.2568745002
 30
0.0
 11
-0.0199997779
 21
0.0346411444
 31
0.0
 40
0.5773985107
 41
0.7854473427
 42
2.356167517
  0
ELLIPSE
  5
5AC
100
AcDbEntity
  8
0
100
AcDbEllipse
 62
7
  6
CONTINUOUS
 10
519.4568248466
 20
135.4792556528
 30
0.0
 11
-0.0200013011
 21
0.0346437824
 31
0.0
 40
0.5773105768
 41
5.4978363197
 42
7.068556494
  0
ELLIPSE
  5
5AD
100
AcDbEntity
  8
0
100
AcDbEllipse
 62
7
  6
CONTINUOUS
 10
502.0168698242
 20
125.2044014915
 30
0.0
 11
0.4486756682
 21
0.1579774951
 31
0.0
 40
0.2183758802
 41
0.7086595924
 42
0.8632344824
  0
ELLIPSE
  5
5AE
100
AcDbEntity
  8
0
100
AcDbEllipse
 62
7
  6
CONTINUOUS
 10
502.0168698242
 20
125.2044014915
 30
0.0
 11
-0.3793088017
 21
0.3469355951
 31
0.0
 40
0.6978979923
 41
-1.8910572777
 42
-1.7880641812
  0
ELLIPSE
  5
5AF
100
AcDbEntity
  8
0
100
AcDbEllipse
 62
7
  6
CONTINUOUS
 10
484.3392002946
 20
114.9983453005
 30
0.0
 11
0.4486756682
 21
0.1579774951
 31
0.0
 40
0.2183758802
 41
0.7086595924
 42
0.8632344824
  0
ELLIPSE
  5
5B0
100
AcDbEntity
  8
0
100
AcDbEllipse
 62
7
  6
CONTINUOUS
 10
484.3392002946
 20
114.9983453005
 30
0.0
 11
-0.3793088017
 21
0.3469355951
 31
0.0
 40
0.6978979923
 41
-1.8910572777
 42
-1.7880641812
  0
ELLIPSE
  5
5B1
100
AcDbEntity
  8
0
100
AcDbEllipse
 62
7
  6
CONTINUOUS
 10
466.6615307649
 20
104.7922891094
 30
0.0
 11
0.4486756682
 21
0.1579774951
 31
0.0
 40
0.2183758802
 41
0.7086595924
 42
0.8632344824
  0
ELLIPSE
  5
5B2
100
AcDbEntity
  8
0
100
AcDbEllipse
 62
7
  6
CONTINUOUS
 10
466.6615307649
 20
104.7922891094
 30
0.0
 11
-0.3793088017
 21
0.3469355951
 31
0.0
 40
0.6978979923
 41
-1.8910572777
 42
-1.7880641812
  0
ELLIPSE
  5
5B3
100
AcDbEntity
  8
0
100
AcDbEllipse
 62
7
  6
CONTINUOUS
 10
448.9838612352
 20
94.5862329184
 30
0.0
 11
0.4486756682
 21
0.1579774951
 31
0.0
 40
0.2183758802
 41
0.7086595924
 42
0.8632344824
  0
ELLIPSE
  5
5B4
100
AcDbEntity
  8
0
100
AcDbEllipse
 62
7
  6
CONTINUOUS
 10
448.9838612352
 20
94.5862329184
 30
0.0
 11
-0.3793088017
 21
0.3469355951
 31
0.0
 40
0.6978979923
 41
-1.8910572777
 42
-1.7880641812
  0
ELLIPSE
  5
5B5
100
AcDbEntity
  8
0
100
AcDbEllipse
 62
7
  6
CONTINUOUS
 10
431.3061917056
 20
84.3801767274
 30
0.0
 11
0.4486756682
 21
0.1579774951
 31
0.0
 40
0.2183758802
 41
0.7086595924
 42
0.8632344824
  0
ELLIPSE
  5
5B6
100
AcDbEntity
  8
0
100
AcDbEllipse
 62
7
  6
CONTINUOUS
 10
431.3061917056
 20
84.3801767274
 30
0.0
 11
-0.3793088017
 21
0.3469355951
 31
0.0
 40
0.6978979923
 41
-1.8910572777
 42
-1.7880641812
  0
ELLIPSE
  5
5B7
100
AcDbEntity
  8
0
100
AcDbEllipse
 62
7
  6
CONTINUOUS
 10
519.6945393539
 20
135.4104576825
 30
0.0
 11
-0.3793088017
 21
0.3469355951
 31
0.0
 40
0.6978979923
 41
-1.8910572777
 42
-1.7880641812
  0
ELLIPSE
  5
5B8
100
AcDbEntity
  8
0
100
AcDbEllipse
 62
7
  6
CONTINUOUS
 10
519.6945393539
 20
135.4104576825
 30
0.0
 11
0.4486756682
 21
0.1579774951
 31
0.0
 40
0.2183758802
 41
0.7086595924
 42
0.8632344824
  0
ELLIPSE
  5
5B9
100
AcDbEntity
  8
0
100
AcDbEllipse
 62
7
  6
CONTINUOUS
 10
413.6285221759
 20
74.1741205364
 30
0.0
 11
0.4486756682
 21
0.1579774951
 31
0.0
 40
0.2183758802
 41
0.7086595924
 42
0.8632344824
  0
ELLIPSE
  5
5BA
100
AcDbEntity
  8
0
100
AcDbEllipse
 62
7
  6
CONTINUOUS
 10
413.6285221759
 20
74.1741205364
 30
0.0
 11
-0.3793088017
 21
0.3469355951
 31
0.0
 40
0.6978979923
 41
-1.8910572777
 42
-1.7880641812
  0
ENDSEC
  0
SECTION
  2
OBJECTS
  0
DICTIONARY
  5
C
100
AcDbDictionary
280
0
281
1
  3
ACAD_GROUP
350
D
  3
ACAD_MLINESTYLE
350
17
  3
ACAD_LAYOUT
350
1A
  3
ACAD_PLOTSETTINGS
350
19
  3
ACAD_PLOTSTYLENAME
350
E
  0
DICTIONARY
  5
D
102
{ACAD_REACTORS
330
C
102
}
100
AcDbDictionary
280
0
281
1
  0
ACDBDICTIONARYWDFLT
  5
E
102
{ACAD_REACTORS
330
C
102
}
100
AcDbDictionary
281
1
  3
Normal
350
F
100
AcDbDictionaryWithDefault
340
F
  0
DICTIONARY
  5
17
102
{ACAD_REACTORS
330
C
102
}
100
AcDbDictionary
280
0
281
1
  3
Standard
350
18
  0
DICTIONARY
  5
19
102
{ACAD_REACTORS
330
C
102
}
100
AcDbDictionary
281
1
  0
DICTIONARY
  5
1A
102
{ACAD_REACTORS
330
C
102
}
100
AcDbDictionary
281
1
  3
Model
350
5BB
  3
Layout1
350
5BC
  0
ACDBPLACEHOLDER
  5
F
102
{ACAD_REACTORS
330
E
102
}
  0
MLINESTYLE
  5
18
102
{ACAD_REACTORS
330
17
102
}
100
AcDbMlineStyle
  2
STANDARD
 70
0
  3

 62
256
 51
90.0
 52
90.0
 71
2
 49
0.5
 62
256
  6
BYLAYER
 49
-0.5
 62
256
  6
BYLAYER
  0
LAYOUT
  5
5BB
102
{ACAD_REACTORS
330
1A
102
}
100
AcDbPlotSettings
  1

  2
none_device
  4
ANSI_C_(22.00_x_17.00_Inches)
  6

 40
0.0
 41
0.0
 42
0.0
 43
0.0
 44
558.8
 45
431.8
 46
0.0
 47
0.0
 48
0.0
 49
0.0
140
0.0
141
0.0
142
1.0
143
1.0
 70
1024
 72
1
 73
0
 74
0
  7

 75
0
147
1.0
148
0.0
149
0.0
100
AcDbLayout
  1
Model
 70
0
 71
0
 10
0.0
 20
0.0
 11
558.8
 21
431.8
 12
0.0
 22
0.0
 32
0.0
 14
0.0
 24
0.0
 34
0.0
 15
0.0
 25
0.0
 35
0.0
146
0.0
 13
0.0
 23
0.0
 33
0.0
 16
1.0
 26
0.0
 36
0.0
 17
0.0
 27
1.0
 37
0.0
 76
0
330
202
345
0
346
0
  0
LAYOUT
  5
5BC
102
{ACAD_REACTORS
330
1A
102
}
100
AcDbPlotSettings
  1

  2
none_device
  4
ANSI_C_(22.00_x_17.00_Inches)
  6

 40
0.0
 41
0.0
 42
0.0
 43
0.0
 44
558.8
 45
431.8
 46
0.0
 47
0.0
 48
0.0
 49
0.0
140
0.0
141
0.0
142
1.0
143
1.0
 70
0
 72
1
 73
0
 74
0
  7

 75
0
147
1.0
148
0.0
149
0.0
100
AcDbLayout
  1
Layout1
 70
0
 71
1
 10
0.0
 20
0.0
 11
558.8
 21
431.8
 12
0.0
 22
0.0
 32
0.0
 14
0.0
 24
0.0
 34
0.0
 15
0.0
 25
0.0
 35
0.0
146
0.0
 13
0.0
 23
0.0
 33
0.0
 16
1.0
 26
0.0
 36
0.0
 17
0.0
 27
1.0
 37
0.0
 76
0
330
203
345
0
346
0
  0
ENDSEC
  0
EOF
