999
DXF file: DXF_937a-psfd.dxf
999
Pro/ENGINEER 2017380 by Parametric Technology Corporation
  0
SECTION
  2
HEADER
  9
$ACADVER
  1
AC1027
  9
$DWGCODEPAGE
  3
ANSI_1252
  9
$EXTMAX
 10
558.8
 20
431.8
 30
0.0
  9
$EXTMIN
 10
0.0
 20
0.0
 30
0.0
  9
$LIMMIN
 10
0.0
 20
0.0
  9
$LIMMAX
 10
558.8
 20
431.8
  9
$VIEWCTR
 10
279.4
 20
215.9
  9
$VIEWSIZE
 40
431.8
  9
$CLAYER
  8
0
  9
$LTSCALE
 40
30.734
  9
$CELTYPE
  6
BYLAYER
  9
$DIMSCALE
 40
1.0
  9
$DIMASZ
 40
3.5
  9
$DIMEXO
 40
0.0
  9
$DIMDLI
 40
21.2344
  9
$DIMEXE
 40
1.0
  9
$DIMCEN
 40
5.0292
  9
$DIMLFAC
 40
1.0
  9
$DIMBLK
  1
_FILLED
  9
$DIMALT
 70
2
  9
$DIMALTD
 70
1
  9
$DIMALTTD
 70
2
  9
$DIMALTF
 40
0.0393700787
  9
$DIMTXT
 40
3.5
  9
$DIMTOL
 70
1
  9
$DIMLIM
 70
0
  9
$DIMTFAC
 40
1.0
  9
$DIMTP
 40
0.05
  9
$DIMTM
 40
0.05
  9
$DIMGAP
 40
0.625
  9
$DIMDSEP
 70
46
  9
$AUNITS
 70
0
  9
$PDMODE
 70
3
  9
$PDSIZE
 40
8.0
  9
$HANDSEED
  5
58E
  9
$TILEMODE
 70
1
  9
$MEASUREMENT
 70
1
  9
$INSUNITS
 70
4
  0
ENDSEC
  0
SECTION
  2
CLASSES
  0
CLASS
  1
ACDBDICTIONARYWDFLT
  2
AcDbDictionaryWithDefault
  3
AutoCAD 2000
 90
0
 91
1
280
0
281
0
  0
CLASS
  1
ACDBPLACEHOLDER
  2
AcDbPlaceHolder
  3
AutoCAD 2000
 90
0
 91
1
280
0
281
0
  0
CLASS
  1
LAYOUT
  2
AcDbLayout
  3
AutoCAD 2000
 90
0
 91
0
280
0
281
0
  0
ENDSEC
  0
SECTION
  2
TABLES
  0
TABLE
  2
VPORT
  5
8
100
AcDbSymbolTable
 70
2
  0
VPORT
  5
1F4
100
AcDbSymbolTableRecord
100
AcDbViewportTableRecord
  2
*ACTIVE
 70
0
 10
0.0
 20
0.0
 11
1.0
 21
1.0
 12
279.4
 22
215.9
 13
0.0
 23
0.0
 14
1.0
 24
1.0
 15
0.0
 25
0.0
 16
0.0
 26
0.0
 36
1.0
 17
0.0
 27
0.0
 37
0.0
 40
431.8
 41
1.2941176471
 42
50.0
 43
0.0
 44
0.0
 50
0.0
 51
0.0
 71
0
 72
100
 73
1
 74
1
 75
0
 76
0
 77
0
 78
0
  0
ENDTAB
  0
TABLE
  2
LTYPE
  5
5
100
AcDbSymbolTable
 70
6
  0
LTYPE
  5
14
100
AcDbSymbolTableRecord
100
AcDbLinetypeTableRecord
  2
BYBLOCK
 70
0
  3

 72
65
 73
0
 40
0.0
  0
LTYPE
  5
15
100
AcDbSymbolTableRecord
100
AcDbLinetypeTableRecord
  2
BYLAYER
 70
0
  3

 72
65
 73
0
 40
0.0
  0
LTYPE
  5
16
100
AcDbSymbolTableRecord
100
AcDbLinetypeTableRecord
  2
CONTINUOUS
 70
64
  3
Solid line
 72
65
 73
0
 40
0.0
  0
LTYPE
  5
1F5
100
AcDbSymbolTableRecord
100
AcDbLinetypeTableRecord
  2
CENTER
 70
64
  3
____ _ ____ _ ____ _ ____ _ ____ _ ____ _ ____
 72
65
 73
4
 40
0.6
 49
0.375
 74
0
 49
-0.075
 74
0
 49
0.075
 74
0
 49
-0.075
 74
0
  0
LTYPE
  5
1F6
100
AcDbSymbolTableRecord
100
AcDbLinetypeTableRecord
  2
HIDDEN
 70
64
  3
- - - - - - - - - - - - - - - - - - - -
 72
65
 73
2
 40
0.2
 49
0.1
 74
0
 49
-0.1
 74
0
  0
LTYPE
  5
1F7
100
AcDbSymbolTableRecord
100
AcDbLinetypeTableRecord
  2
PHANTOM
 70
64
  3
_____ _ _ _____ _ _ _____ _ _ _____
 72
65
 73
6
 40
0.8
 49
0.45
 74
0
 49
-0.05
 74
0
 49
0.1
 74
0
 49
-0.05
 74
0
 49
0.1
 74
0
 49
-0.05
 74
0
  0
LTYPE
  5
1F8
100
AcDbSymbolTableRecord
100
AcDbLinetypeTableRecord
  2
DOT
 70
64
  3
. . . . . . . . . . . . . . . . . . . .
 72
65
 73
2
 40
0.2
 49
0.1
 74
0
 49
-0.1
 74
0
  0
LTYPE
  5
1F9
100
AcDbSymbolTableRecord
100
AcDbLinetypeTableRecord
  2
DASHED
 70
64
  3
- - - - - - - - - - - - - - - - - - - -
 72
65
 73
2
 40
0.2
 49
0.1
 74
0
 49
-0.1
 74
0
  0
ENDTAB
  0
TABLE
  2
LAYER
  5
2
100
AcDbSymbolTable
 70
36
  0
LAYER
  5
10
100
AcDbSymbolTableRecord
100
AcDbLayerTableRecord
  2
0
 70
0
 62
7
  6
CONTINUOUS
370
-3
390
F
  0
LAYER
  5
1FA
100
AcDbSymbolTableRecord
100
AcDbLayerTableRecord
  2
DEFAULT_1
 70
0
 62
7
  6
CENTER
370
-3
390
F
  0
LAYER
  5
1FB
100
AcDbSymbolTableRecord
100
AcDbLayerTableRecord
  2
DEFAULT_2
 70
0
 62
8
  6
HIDDEN
370
-3
390
F
  0
LAYER
  5
1FC
100
AcDbSymbolTableRecord
100
AcDbLayerTableRecord
  2
DEFAULT_3
 70
0
 62
7
  6
PHANTOM
370
-3
390
F
  0
LAYER
  5
1FD
100
AcDbSymbolTableRecord
100
AcDbLayerTableRecord
  2
CSYS_PART
 70
0
 62
7
  6
CONTINUOUS
370
-3
390
F
  0
LAYER
  5
1FE
100
AcDbSymbolTableRecord
100
AcDbLayerTableRecord
  2
INTFCLR_14
 70
0
 62
7
  6
CONTINUOUS
370
-3
390
F
  0
ENDTAB
  0
TABLE
  2
STYLE
  5
3
100
AcDbSymbolTable
 70
1
  0
STYLE
  5
11
100
AcDbSymbolTableRecord
100
AcDbTextStyleTableRecord
  2
STANDARD
 70
0
 40
0.0
 41
0.7
 50
0.0
 71
0
 42
0.2
  3
txt
  4

  0
STYLE
  5
1FF
100
AcDbSymbolTableRecord
100
AcDbTextStyleTableRecord
  2
TEXTSTYLE_1
 70
0
 40
0.0
 41
0.8
 50
0.0
 71
0
 42
0.2
  3
gdt
  4

  0
ENDTAB
  0
TABLE
  2
VIEW
  5
6
100
AcDbSymbolTable
 70
0
  0
ENDTAB
  0
TABLE
  2
UCS
  5
7
100
AcDbSymbolTable
 70
0
  0
ENDTAB
  0
TABLE
  2
APPID
  5
9
100
AcDbSymbolTable
 70
1
  0
APPID
  5
200
100
AcDbSymbolTableRecord
100
AcDbRegAppTableRecord
  2
ACAD
 70
0
  0
ENDTAB
  0
TABLE
  2
BLOCK_RECORD
  5
1
100
AcDbSymbolTable
 70
0
  0
BLOCK_RECORD
  5
201
100
AcDbSymbolTableRecord
100
AcDbBlockTableRecord
  2
*Model_Space
  0
BLOCK_RECORD
  5
202
100
AcDbSymbolTableRecord
100
AcDbBlockTableRecord
  2
*Paper_Space
  0
BLOCK_RECORD
  5
203
100
AcDbSymbolTableRecord
100
AcDbBlockTableRecord
  2
_FILLED
  0
BLOCK_RECORD
  5
204
100
AcDbSymbolTableRecord
100
AcDbBlockTableRecord
  2
*D0
  0
BLOCK_RECORD
  5
205
100
AcDbSymbolTableRecord
100
AcDbBlockTableRecord
  2
*D1
  0
BLOCK_RECORD
  5
206
100
AcDbSymbolTableRecord
100
AcDbBlockTableRecord
  2
*D2
  0
BLOCK_RECORD
  5
207
100
AcDbSymbolTableRecord
100
AcDbBlockTableRecord
  2
*D3
  0
BLOCK_RECORD
  5
208
100
AcDbSymbolTableRecord
100
AcDbBlockTableRecord
  2
*D4
  0
ENDTAB
  0
TABLE
  2
DIMSTYLE
  5
A
100
AcDbSymbolTable
 70
1
100
AcDbDimStyleTable
 71
0
  0
DIMSTYLE
105
209
100
AcDbSymbolTableRecord
100
AcDbDimStyleTableRecord
  2
STANDARD
 70
0
  3

  4

 40
1.0
 41
3.5
 42
0.0
 43
0.38
 44
1.0
 45
0.0
 46
0.0
 47
0.05
 48
0.05
140
3.5
141
0.09
142
0.0
143
0.0393700787
144
1.0
145
0.0
146
1.0
147
0.625
 71
1.0
 72
0.0
 73
1
 74
1
 75
0
 76
0
 77
0
 78
8
 79
2
170
2
171
1
172
0
173
0
174
0
175
0
176
0
177
0
178
0
270
2
179
2
271
2
272
2
273
2
274
2
275
0
280
0
281
0
282
0
283
1
284
8
285
0
286
0
287
3
288
0
340
11
278
46
341
203
342
203
343
203
344
203
  0
DIMSTYLE
105
20A
100
AcDbSymbolTableRecord
100
AcDbDimStyleTableRecord
  2
DIMSTYLE_1
 70
0
  3

  4

 40
1.0
 41
3.5
 42
0.0
 43
0.38
 44
1.0
 45
0.0
 46
0.0
 47
0.2
 48
0.2
140
3.5
141
0.09
142
0.0
143
0.0393700787
144
1.0
145
0.0
146
1.0
147
1.75
 71
0.0
 72
0.0
 73
1
 74
1
 75
0
 76
0
 77
0
 78
8
 79
2
170
2
171
2
172
0
173
0
174
0
175
0
176
0
177
0
178
0
270
2
179
2
271
2
272
2
273
2
274
2
275
0
280
0
281
0
282
0
283
1
284
8
285
0
286
0
287
3
288
0
340
11
278
46
341
203
342
203
343
203
344
203
  0
DIMSTYLE
105
20B
100
AcDbSymbolTableRecord
100
AcDbDimStyleTableRecord
  2
DIMSTYLE_2
 70
0
  3

  4

 40
1.0
 41
3.5
 42
0.0
 43
0.38
 44
1.0
 45
0.0
 46
0.0
 47
0.3
 48
0.3
140
3.5
141
0.09
142
0.0
143
0.0393700787
144
1.0
145
0.0
146
1.0
147
1.75
 71
0.0
 72
0.0
 73
1
 74
1
 75
0
 76
0
 77
0
 78
8
 79
2
170
2
171
1
172
0
173
0
174
0
175
0
176
0
177
0
178
0
270
2
179
2
271
2
272
2
273
2
274
1
275
0
280
0
281
0
282
0
283
1
284
8
285
0
286
0
287
3
288
0
340
11
278
46
341
203
342
203
343
203
344
203
  0
DIMSTYLE
105
20C
100
AcDbSymbolTableRecord
100
AcDbDimStyleTableRecord
  2
DIMSTYLE_3
 70
0
  3

  4

 40
1.0
 41
3.5
 42
0.0
 43
0.38
 44
1.0
 45
0.0
 46
0.0
 47
0.2
 48
0.2
140
3.5
141
0.09
142
0.0
143
0.0393700787
144
1.0
145
0.0
146
1.0
147
1.75
 71
0.0
 72
0.0
 73
1
 74
1
 75
0
 76
0
 77
0
 78
8
 79
2
170
2
171
1
172
0
173
0
174
0
175
0
176
0
177
0
178
0
270
2
179
2
271
2
272
2
273
2
274
1
275
0
280
0
281
0
282
0
283
1
284
8
285
0
286
0
287
3
288
0
340
11
278
46
341
203
342
203
343
203
344
203
  0
ENDTAB
  0
ENDSEC
  0
SECTION
  2
BLOCKS
  0
BLOCK
  5
20
100
AcDbEntity
  8
0
100
AcDbBlockBegin
  2
*Model_Space
 70
0
 10
0.0
 20
0.0
 30
0.0
  3
*Model_Space
  1

  0
ENDBLK
  5
21
100
AcDbEntity
  8
0
100
AcDbBlockEnd
  0
BLOCK
  5
1C
100
AcDbEntity
  8
0
100
AcDbBlockBegin
  2
*Paper_Space
 70
0
 10
0.0
 20
0.0
 30
0.0
  3
*Paper_Space
  1

  0
ENDBLK
  5
1D
100
AcDbEntity
  8
0
100
AcDbBlockEnd
  0
BLOCK
  5
20D
100
AcDbEntity
  8
0
100
AcDbBlockBegin
  2
_FILLED
 70
64
 10
0.0
 20
0.0
  3
_FILLED
  1

  0
SOLID
  5
20E
100
AcDbEntity
  8
0
  6
BYBLOCK
 62
0
100
AcDbTrace
 10
0.0
 20
0.0
 11
-1.0
 21
0.1785714286
 12
-1.0
 22
-0.1785714286
 13
-1.0
 23
-0.1785714286
  0
ENDBLK
  5
20F
100
AcDbEntity
  8
0
  6
BYBLOCK
 62
0
100
AcDbBlockEnd
  0
BLOCK
  5
210
100
AcDbEntity
  8
0
100
AcDbBlockBegin
 62
2
  6
CONTINUOUS
  2
*D0
 70
65
 10
0.0
 20
0.0
  3
*D0
  1

  0
MTEXT
  5
211
100
AcDbEntity
  8
0
100
AcDbMText
 62
2
  6
CONTINUOUS
  7
STANDARD
 71
3
 72
1
 10
39.0692644467
 20
330.3073951081
 30
0.0
 11
1.0
 21
0.0
 31
0.0
 73
2
 44
0.9
  1
.79\P[20]
 40
3.5
 41
9.8
  0
LINE
  5
212
100
AcDbEntity
  8
0
100
AcDbLine
 62
2
  6
CONTINUOUS
 10
47.3673117811
 20
302.1868648282
 11
47.3673117811
 21
329.5573951081
  0
LINE
  5
213
100
AcDbEntity
  8
0
100
AcDbLine
 62
2
  6
CONTINUOUS
 10
67.3673117811
 20
302.5121217208
 11
67.3673117811
 21
329.5573951081
  0
LINE
  5
214
100
AcDbEntity
  8
0
100
AcDbLine
 62
2
  6
CONTINUOUS
 10
47.3673117811
 20
328.5573951081
 11
57.3673117811
 21
328.5573951081
  0
LINE
  5
215
100
AcDbEntity
  8
0
100
AcDbLine
 62
2
  6
CONTINUOUS
 10
57.3673117811
 20
328.5573951081
 11
43.2692644467
 21
328.5573951081
  0
LINE
  5
216
100
AcDbEntity
  8
0
100
AcDbLine
 62
2
  6
CONTINUOUS
 10
67.3673117811
 20
328.5573951081
 11
57.3673117811
 21
328.5573951081
  0
INSERT
  5
217
100
AcDbEntity
  8
0
100
AcDbBlockReference
 62
2
  6
CONTINUOUS
  2
_FILLED
 10
47.3673117811
 20
328.5573951081
 41
3.5
 42
3.5
 43
3.5
 50
180.0
  0
INSERT
  5
218
100
AcDbEntity
  8
0
100
AcDbBlockReference
 62
2
  6
CONTINUOUS
  2
_FILLED
 10
67.3673117811
 20
328.5573951081
 41
3.5
 42
3.5
 43
3.5
  0
ENDBLK
  5
219
100
AcDbEntity
  8
0
  6
BYBLOCK
 62
0
100
AcDbBlockEnd
  0
BLOCK
  5
21A
100
AcDbEntity
  8
0
100
AcDbBlockBegin
 62
2
  6
CONTINUOUS
  2
*D1
 70
65
 10
0.0
 20
0.0
  3
*D1
  1

  0
MTEXT
  5
21B
100
AcDbEntity
  8
0
100
AcDbMText
 62
2
  6
CONTINUOUS
  7
STANDARD
 71
2
 72
1
 10
195.7499748598
 20
172.6402582952
 30
0.0
 11
1.0
 21
0.0
 31
0.0
 73
2
 44
0.9
  1
 4.5\P[113,6]
 40
3.5
 41
17.15
  0
LINE
  5
21C
100
AcDbEntity
  8
0
100
AcDbLine
 62
2
  6
CONTINUOUS
 10
138.1856544253
 20
219.0968719692
 11
138.1856544253
 21
169.8902582952
  0
LINE
  5
21D
100
AcDbEntity
  8
0
100
AcDbLine
 62
2
  6
CONTINUOUS
 10
251.7856544253
 20
208.1821393376
 11
251.7856544253
 21
169.8902582952
  0
LINE
  5
21E
100
AcDbEntity
  8
0
100
AcDbLine
 62
2
  6
CONTINUOUS
 10
138.1856544253
 20
170.8902582952
 11
189.0999748598
 21
170.8902582952
  0
LINE
  5
21F
100
AcDbEntity
  8
0
100
AcDbLine
 62
2
  6
CONTINUOUS
 10
251.7856544253
 20
170.8902582952
 11
209.7499748598
 21
170.8902582952
  0
INSERT
  5
220
100
AcDbEntity
  8
0
100
AcDbBlockReference
 62
2
  6
CONTINUOUS
  2
_FILLED
 10
138.1856544253
 20
170.8902582952
 41
3.5
 42
3.5
 43
3.5
 50
180.0
  0
INSERT
  5
221
100
AcDbEntity
  8
0
100
AcDbBlockReference
 62
2
  6
CONTINUOUS
  2
_FILLED
 10
251.7856544253
 20
170.8902582952
 41
3.5
 42
3.5
 43
3.5
  0
ENDBLK
  5
222
100
AcDbEntity
  8
0
  6
BYBLOCK
 62
0
100
AcDbBlockEnd
  0
BLOCK
  5
223
100
AcDbEntity
  8
0
100
AcDbBlockBegin
 62
2
  6
CONTINUOUS
  2
*D2
 70
65
 10
0.0
 20
0.0
  3
*D2
  1

  0
MTEXT
  5
224
100
AcDbEntity
  8
0
100
AcDbMText
 62
2
  6
CONTINUOUS
  7
STANDARD
 71
2
 72
1
 10
96.6995314628
 20
250.4732088113
 30
0.0
 11
1.0
 21
0.0
 31
0.0
 73
2
 44
0.9
  1
 4.7\P[118,8]
 40
3.5
 41
17.15
  0
LINE
  5
225
100
AcDbEntity
  8
0
100
AcDbLine
 62
2
  6
CONTINUOUS
 10
166.9504780042
 20
308.1232088113
 11
99.3745314628
 21
308.1232088113
  0
LINE
  5
226
100
AcDbEntity
  8
0
100
AcDbLine
 62
2
  6
CONTINUOUS
 10
186.6963710569
 20
189.3232088113
 11
99.3745314628
 21
189.3232088113
  0
LINE
  5
227
100
AcDbEntity
  8
0
100
AcDbLine
 62
2
  6
CONTINUOUS
 10
100.3745314628
 20
308.1232088113
 11
100.3745314628
 21
252.2232088113
  0
LINE
  5
228
100
AcDbEntity
  8
0
100
AcDbLine
 62
2
  6
CONTINUOUS
 10
100.3745314628
 20
189.3232088113
 11
100.3745314628
 21
239.9732088113
  0
INSERT
  5
229
100
AcDbEntity
  8
0
100
AcDbBlockReference
 62
2
  6
CONTINUOUS
  2
_FILLED
 10
100.3745314628
 20
308.1232088113
 41
3.5
 42
3.5
 43
3.5
 50
90.0
  0
INSERT
  5
22A
100
AcDbEntity
  8
0
100
AcDbBlockReference
 62
2
  6
CONTINUOUS
  2
_FILLED
 10
100.3745314628
 20
189.3232088113
 41
3.5
 42
3.5
 43
3.5
 50
270.0
  0
ENDBLK
  5
22B
100
AcDbEntity
  8
0
  6
BYBLOCK
 62
0
100
AcDbBlockEnd
  0
BLOCK
  5
22C
100
AcDbEntity
  8
0
100
AcDbBlockBegin
 62
2
  6
CONTINUOUS
  2
*D3
 70
65
 10
0.0
 20
0.0
  3
*D3
  1

  0
MTEXT
  5
22D
100
AcDbEntity
  8
0
100
AcDbMText
 62
2
  6
CONTINUOUS
  7
STANDARD
 71
2
 72
1
 10
122.7183319916
 20
250.4732088113
 30
0.0
 11
1.0
 21
0.0
 31
0.0
 73
2
 44
0.9
  1
 4.1\P[104]
 40
3.5
 41
12.25
  0
LINE
  5
22E
100
AcDbEntity
  8
0
100
AcDbLine
 62
2
  6
CONTINUOUS
 10
152.9904780043
 20
300.7232088113
 11
122.9433319916
 21
300.7232088113
  0
LINE
  5
22F
100
AcDbEntity
  8
0
100
AcDbLine
 62
2
  6
CONTINUOUS
 10
173.2445849516
 20
196.7232088113
 11
122.9433319916
 21
196.7232088113
  0
LINE
  5
230
100
AcDbEntity
  8
0
100
AcDbLine
 62
2
  6
CONTINUOUS
 10
123.9433319916
 20
300.7232088113
 11
123.9433319916
 21
252.2232088113
  0
LINE
  5
231
100
AcDbEntity
  8
0
100
AcDbLine
 62
2
  6
CONTINUOUS
 10
123.9433319916
 20
196.7232088113
 11
123.9433319916
 21
239.9732088113
  0
INSERT
  5
232
100
AcDbEntity
  8
0
100
AcDbBlockReference
 62
2
  6
CONTINUOUS
  2
_FILLED
 10
123.9433319916
 20
300.7232088113
 41
3.5
 42
3.5
 43
3.5
 50
90.0
  0
INSERT
  5
233
100
AcDbEntity
  8
0
100
AcDbBlockReference
 62
2
  6
CONTINUOUS
  2
_FILLED
 10
123.9433319916
 20
196.7232088113
 41
3.5
 42
3.5
 43
3.5
 50
270.0
  0
ENDBLK
  5
234
100
AcDbEntity
  8
0
  6
BYBLOCK
 62
0
100
AcDbBlockEnd
  0
BLOCK
  5
235
100
AcDbEntity
  8
0
100
AcDbBlockBegin
 62
2
  6
CONTINUOUS
  2
*D4
 70
65
 10
0.0
 20
0.0
  3
*D4
  1

  0
MTEXT
  5
236
100
AcDbEntity
  8
0
100
AcDbMText
 62
2
  6
CONTINUOUS
  7
STANDARD
 71
3
 72
1
 10
32.2036750366
 20
172.9325592019
 30
0.0
 11
1.0
 21
0.0
 31
0.0
 73
2
 44
0.9
  1
 .6\P[15,24]
 40
3.5
 41
17.15
  0
LINE
  5
237
100
AcDbEntity
  8
0
100
AcDbLine
 62
2
  6
CONTINUOUS
 10
49.7473117811
 20
188.104830463
 11
49.7473117811
 21
170.1825592019
  0
LINE
  5
238
100
AcDbEntity
  8
0
100
AcDbLine
 62
2
  6
CONTINUOUS
 10
64.9873117811
 20
187.7717674049
 11
64.9873117811
 21
170.1825592019
  0
LINE
  5
239
100
AcDbEntity
  8
0
100
AcDbLine
 62
2
  6
CONTINUOUS
 10
49.7473117811
 20
171.1825592019
 11
57.3673117811
 21
171.1825592019
  0
LINE
  5
23A
100
AcDbEntity
  8
0
100
AcDbLine
 62
2
  6
CONTINUOUS
 10
57.3673117811
 20
171.1825592019
 11
43.7536750366
 21
171.1825592019
  0
LINE
  5
23B
100
AcDbEntity
  8
0
100
AcDbLine
 62
2
  6
CONTINUOUS
 10
64.9873117811
 20
171.1825592019
 11
57.3673117811
 21
171.1825592019
  0
INSERT
  5
23C
100
AcDbEntity
  8
0
100
AcDbBlockReference
 62
2
  6
CONTINUOUS
  2
_FILLED
 10
49.7473117811
 20
171.1825592019
 41
3.5
 42
3.5
 43
3.5
 50
180.0
  0
INSERT
  5
23D
100
AcDbEntity
  8
0
100
AcDbBlockReference
 62
2
  6
CONTINUOUS
  2
_FILLED
 10
64.9873117811
 20
171.1825592019
 41
3.5
 42
3.5
 43
3.5
  0
ENDBLK
  5
23E
100
AcDbEntity
  8
0
  6
BYBLOCK
 62
0
100
AcDbBlockEnd
  0
ENDSEC
  0
SECTION
  2
ENTITIES
  0
DIMENSION
  5
23F
100
AcDbEntity
  8
0
100
AcDbDimension
 62
2
  6
CONTINUOUS
  2
*D0
 10
67.3673117811
 20
328.5573951081
 11
36.6192644467
 21
325.9323951081
 70
160
 71
3
 42
20.0
  1
<>\P[]
  3
DIMSTYLE_1
100
AcDbAlignedDimension
 13
47.3673117811
 23
302.1868648282
 14
67.3673117811
 24
302.5121217208
100
AcDbRotatedDimension
  0
DIMENSION
  5
240
100
AcDbEntity
  8
0
100
AcDbDimension
 62
2
  6
CONTINUOUS
  2
*D1
 10
251.7856544253
 20
170.8902582952
 11
199.4249748598
 21
168.2652582952
 70
160
 71
2
 42
113.6
  1
<>\P[]
  3
DIMSTYLE_2
100
AcDbAlignedDimension
 13
138.1856544253
 23
219.0968719692
 14
251.7856544253
 24
208.1821393376
100
AcDbRotatedDimension
  0
DIMENSION
  5
241
100
AcDbEntity
  8
0
100
AcDbDimension
 62
2
  6
CONTINUOUS
  2
*D2
 10
100.3745314628
 20
189.3232088113
 11
100.3745314628
 21
246.0982088113
 70
160
 71
2
 42
118.8
  1
<>\P[]
  3
DIMSTYLE_2
100
AcDbAlignedDimension
 13
166.9504780042
 23
308.1232088113
 14
186.6963710569
 24
189.3232088113
 50
270.0
100
AcDbRotatedDimension
  0
DIMENSION
  5
242
100
AcDbEntity
  8
0
100
AcDbDimension
 62
2
  6
CONTINUOUS
  2
*D3
 10
123.9433319916
 20
196.7232088113
 11
123.9433319916
 21
246.0982088113
 70
160
 71
2
 42
104.0
  1
<>\P[]
  3
DIMSTYLE_2
100
AcDbAlignedDimension
 13
152.9904780043
 23
300.7232088113
 14
173.2445849516
 24
196.7232088113
 50
270.0
100
AcDbRotatedDimension
  0
DIMENSION
  5
243
100
AcDbEntity
  8
0
100
AcDbDimension
 62
2
  6
CONTINUOUS
  2
*D4
 10
64.9873117811
 20
171.1825592019
 11
33.4286750366
 21
168.5575592019
 70
160
 71
3
 42
15.24
  1
<>\P[]
  3
DIMSTYLE_3
100
AcDbAlignedDimension
 13
49.7473117811
 23
188.104830463
 14
64.9873117811
 24
187.7717674049
100
AcDbRotatedDimension
  0
MTEXT
  5
244
100
AcDbEntity
  8
0
100
AcDbMText
 62
2
  6
CONTINUOUS
  7
STANDARD
 71
1
 72
1
 10
385.536272203
 20
36.9853861933
 30
0.0
 11
1.0
 21
0.0
 31
0.0
 73
2
 44
0.9
  1
APPROXIMATE DIMENSIONS.\PDIMENSIONS IN INCHES [MILLIMETERS].
 40
3.5
 41
85.75
  0
LINE
  5
245
100
AcDbEntity
  8
0
100
AcDbLine
 62
7
  6
CONTINUOUS
 10
0.0
 20
0.0
 11
0.0
 21
431.8
  0
LINE
  5
246
100
AcDbEntity
  8
0
100
AcDbLine
 62
7
  6
CONTINUOUS
 10
0.0
 20
0.0
 11
558.8
 21
0.0
  0
LINE
  5
247
100
AcDbEntity
  8
0
100
AcDbLine
 62
7
  6
CONTINUOUS
 10
0.0
 20
431.8
 11
558.8
 21
431.8
  0
LINE
  5
248
100
AcDbEntity
  8
0
100
AcDbLine
 62
7
  6
CONTINUOUS
 10
558.8
 20
0.0
 11
558.8
 21
431.8
  0
LINE
  5
249
100
AcDbEntity
  8
0
100
AcDbLine
 62
6
  6
CONTINUOUS
 10
49.7473117811
 20
189.3232088113
 11
64.9873117811
 21
189.3232088113
  0
LINE
  5
24A
100
AcDbEntity
  8
0
100
AcDbLine
 62
6
  6
CONTINUOUS
 10
49.7473117811
 20
190.1032088113
 11
64.9873117811
 21
190.1032088113
  0
LINE
  5
24B
100
AcDbEntity
  8
0
100
AcDbLine
 62
6
  6
CONTINUOUS
 10
47.3673117811
 20
196.7232088113
 11
48.8673117811
 21
196.7232088113
  0
LINE
  5
24C
100
AcDbEntity
  8
0
100
AcDbLine
 62
6
  6
CONTINUOUS
 10
65.8673117811
 20
196.7232088113
 11
67.3673117811
 21
196.7232088113
  0
LINE
  5
24D
100
AcDbEntity
  8
0
100
AcDbLine
 62
6
  6
CONTINUOUS
 10
48.8673117811
 20
199.2232088113
 11
65.8673117811
 21
199.2232088113
  0
LINE
  5
24E
100
AcDbEntity
  8
0
100
AcDbLine
 62
6
  6
CONTINUOUS
 10
49.7473117811
 20
200.8232088113
 11
64.9873117811
 21
200.8232088113
  0
LINE
  5
24F
100
AcDbEntity
  8
0
100
AcDbLine
 62
6
  6
CONTINUOUS
 10
49.7473117811
 20
201.6032088113
 11
64.9873117811
 21
201.6032088113
  0
LINE
  5
250
100
AcDbEntity
  8
0
100
AcDbLine
 62
7
  6
CONTINUOUS
 10
50.350820108
 20
205.2232088113
 11
54.2238034542
 21
205.2232088113
  0
LINE
  5
251
100
AcDbEntity
  8
0
100
AcDbLine
 62
7
  6
CONTINUOUS
 10
55.430820108
 20
205.2232088113
 11
59.3038034542
 21
205.2232088113
  0
LINE
  5
252
100
AcDbEntity
  8
0
100
AcDbLine
 62
7
  6
CONTINUOUS
 10
60.510820108
 20
205.2232088113
 11
64.3838034542
 21
205.2232088113
  0
LINE
  5
253
100
AcDbEntity
  8
0
100
AcDbLine
 62
7
  6
CONTINUOUS
 10
64.3838034542
 20
206.2232088113
 11
60.510820108
 21
206.2232088113
  0
LINE
  5
254
100
AcDbEntity
  8
0
100
AcDbLine
 62
7
  6
CONTINUOUS
 10
59.3038034542
 20
206.2232088113
 11
55.430820108
 21
206.2232088113
  0
LINE
  5
255
100
AcDbEntity
  8
0
100
AcDbLine
 62
7
  6
CONTINUOUS
 10
54.2238034542
 20
206.2232088113
 11
50.350820108
 21
206.2232088113
  0
LINE
  5
256
100
AcDbEntity
  8
0
100
AcDbLine
 62
6
  6
CONTINUOUS
 10
47.3673117811
 20
208.2232088113
 11
48.8673117811
 21
208.2232088113
  0
LINE
  5
257
100
AcDbEntity
  8
0
100
AcDbLine
 62
6
  6
CONTINUOUS
 10
65.8673117811
 20
208.2232088113
 11
67.3673117811
 21
208.2232088113
  0
LINE
  5
258
100
AcDbEntity
  8
0
100
AcDbLine
 62
6
  6
CONTINUOUS
 10
48.8673117811
 20
210.7232088113
 11
65.8673117811
 21
210.7232088113
  0
LINE
  5
259
100
AcDbEntity
  8
0
100
AcDbLine
 62
6
  6
CONTINUOUS
 10
49.7473117811
 20
212.3232088113
 11
64.9873117811
 21
212.3232088113
  0
LINE
  5
25A
100
AcDbEntity
  8
0
100
AcDbLine
 62
6
  6
CONTINUOUS
 10
49.7473117811
 20
213.1032088113
 11
64.9873117811
 21
213.1032088113
  0
LINE
  5
25B
100
AcDbEntity
  8
0
100
AcDbLine
 62
7
  6
CONTINUOUS
 10
50.350820108
 20
216.7232088113
 11
54.2238034542
 21
216.7232088113
  0
LINE
  5
25C
100
AcDbEntity
  8
0
100
AcDbLine
 62
7
  6
CONTINUOUS
 10
55.430820108
 20
216.7232088113
 11
59.3038034542
 21
216.7232088113
  0
LINE
  5
25D
100
AcDbEntity
  8
0
100
AcDbLine
 62
7
  6
CONTINUOUS
 10
60.510820108
 20
216.7232088113
 11
64.3838034542
 21
216.7232088113
  0
LINE
  5
25E
100
AcDbEntity
  8
0
100
AcDbLine
 62
7
  6
CONTINUOUS
 10
64.3838034542
 20
217.7232088113
 11
60.510820108
 21
217.7232088113
  0
LINE
  5
25F
100
AcDbEntity
  8
0
100
AcDbLine
 62
7
  6
CONTINUOUS
 10
59.3038034542
 20
217.7232088113
 11
55.430820108
 21
217.7232088113
  0
LINE
  5
260
100
AcDbEntity
  8
0
100
AcDbLine
 62
7
  6
CONTINUOUS
 10
54.2238034542
 20
217.7232088113
 11
50.350820108
 21
217.7232088113
  0
LINE
  5
261
100
AcDbEntity
  8
0
100
AcDbLine
 62
6
  6
CONTINUOUS
 10
48.8673117811
 20
222.2232088113
 11
65.8673117811
 21
222.2232088113
  0
LINE
  5
262
100
AcDbEntity
  8
0
100
AcDbLine
 62
7
  6
CONTINUOUS
 10
47.3673117811
 20
222.2732088113
 11
47.5673117811
 21
222.2732088113
  0
LINE
  5
263
100
AcDbEntity
  8
0
100
AcDbLine
 62
6
  6
CONTINUOUS
 10
47.5673117811
 20
222.2732088113
 11
67.1673117811
 21
222.2732088113
  0
LINE
  5
264
100
AcDbEntity
  8
0
100
AcDbLine
 62
7
  6
CONTINUOUS
 10
67.1673117811
 20
222.2732088113
 11
67.3673117811
 21
222.2732088113
  0
LINE
  5
265
100
AcDbEntity
  8
0
100
AcDbLine
 62
6
  6
CONTINUOUS
 10
47.3673117811
 20
235.8032088113
 11
47.5673117811
 21
235.8032088113
  0
LINE
  5
266
100
AcDbEntity
  8
0
100
AcDbLine
 62
6
  6
CONTINUOUS
 10
67.1673117811
 20
235.8032088113
 11
67.3673117811
 21
235.8032088113
  0
LINE
  5
267
100
AcDbEntity
  8
0
100
AcDbLine
 62
6
  6
CONTINUOUS
 10
47.3673117811
 20
300.7232088113
 11
47.3673117811
 21
286.6732088113
  0
LINE
  5
268
100
AcDbEntity
  8
0
100
AcDbLine
 62
7
  6
CONTINUOUS
 10
47.3673117811
 20
286.6732088113
 11
47.3673117811
 21
222.2732088113
  0
LINE
  5
269
100
AcDbEntity
  8
0
100
AcDbLine
 62
6
  6
CONTINUOUS
 10
47.3673117811
 20
222.2732088113
 11
47.3673117811
 21
196.7232088113
  0
LINE
  5
26A
100
AcDbEntity
  8
0
100
AcDbLine
 62
6
  6
CONTINUOUS
 10
47.5673117811
 20
286.6732088113
 11
47.5673117811
 21
222.2732088113
  0
LINE
  5
26B
100
AcDbEntity
  8
0
100
AcDbLine
 62
6
  6
CONTINUOUS
 10
48.8673117811
 20
196.7232088113
 11
48.8673117811
 21
222.2232088113
  0
LINE
  5
26C
100
AcDbEntity
  8
0
100
AcDbLine
 62
6
  6
CONTINUOUS
 10
48.8673117811
 20
286.7232088113
 11
48.8673117811
 21
300.7232088113
  0
LINE
  5
26D
100
AcDbEntity
  8
0
100
AcDbLine
 62
6
  6
CONTINUOUS
 10
49.7473117811
 20
222.2232088113
 11
49.7473117811
 21
212.3232088113
  0
LINE
  5
26E
100
AcDbEntity
  8
0
100
AcDbLine
 62
6
  6
CONTINUOUS
 10
49.7473117811
 20
210.7232088113
 11
49.7473117811
 21
200.8232088113
  0
LINE
  5
26F
100
AcDbEntity
  8
0
100
AcDbLine
 62
6
  6
CONTINUOUS
 10
49.7473117811
 20
199.2232088113
 11
49.7473117811
 21
189.3232088113
  0
LINE
  5
270
100
AcDbEntity
  8
0
100
AcDbLine
 62
6
  6
CONTINUOUS
 10
49.7473117811
 20
286.7232088113
 11
49.7473117811
 21
296.6232088113
  0
LINE
  5
271
100
AcDbEntity
  8
0
100
AcDbLine
 62
6
  6
CONTINUOUS
 10
49.7473117811
 20
298.2232088113
 11
49.7473117811
 21
308.1232088113
  0
LINE
  5
272
100
AcDbEntity
  8
0
100
AcDbLine
 62
7
  6
CONTINUOUS
 10
47.3673117811
 20
237.2232088113
 11
47.5673117811
 21
237.2232088113
  0
LINE
  5
273
100
AcDbEntity
  8
0
100
AcDbLine
 62
7
  6
CONTINUOUS
 10
67.1673117811
 20
237.2232088113
 11
67.3673117811
 21
237.2232088113
  0
LINE
  5
274
100
AcDbEntity
  8
0
100
AcDbLine
 62
6
  6
CONTINUOUS
 10
64.9873117811
 20
189.3232088113
 11
64.9873117811
 21
199.2232088113
  0
LINE
  5
275
100
AcDbEntity
  8
0
100
AcDbLine
 62
6
  6
CONTINUOUS
 10
64.9873117811
 20
200.8232088113
 11
64.9873117811
 21
210.7232088113
  0
LINE
  5
276
100
AcDbEntity
  8
0
100
AcDbLine
 62
6
  6
CONTINUOUS
 10
64.9873117811
 20
212.3232088113
 11
64.9873117811
 21
222.2232088113
  0
LINE
  5
277
100
AcDbEntity
  8
0
100
AcDbLine
 62
6
  6
CONTINUOUS
 10
64.9873117811
 20
286.7232088113
 11
64.9873117811
 21
296.6232088113
  0
LINE
  5
278
100
AcDbEntity
  8
0
100
AcDbLine
 62
6
  6
CONTINUOUS
 10
64.9873117811
 20
298.2232088113
 11
64.9873117811
 21
308.1232088113
  0
LINE
  5
279
100
AcDbEntity
  8
0
100
AcDbLine
 62
6
  6
CONTINUOUS
 10
65.8673117811
 20
300.7232088113
 11
65.8673117811
 21
286.7232088113
  0
LINE
  5
27A
100
AcDbEntity
  8
0
100
AcDbLine
 62
6
  6
CONTINUOUS
 10
65.8673117811
 20
222.2232088113
 11
65.8673117811
 21
196.7232088113
  0
LINE
  5
27B
100
AcDbEntity
  8
0
100
AcDbLine
 62
6
  6
CONTINUOUS
 10
67.1673117811
 20
286.6732088113
 11
67.1673117811
 21
222.2732088113
  0
LINE
  5
27C
100
AcDbEntity
  8
0
100
AcDbLine
 62
6
  6
CONTINUOUS
 10
67.3673117811
 20
196.7232088113
 11
67.3673117811
 21
222.2732088113
  0
LINE
  5
27D
100
AcDbEntity
  8
0
100
AcDbLine
 62
7
  6
CONTINUOUS
 10
67.3673117811
 20
222.2732088113
 11
67.3673117811
 21
286.6732088113
  0
LINE
  5
27E
100
AcDbEntity
  8
0
100
AcDbLine
 62
6
  6
CONTINUOUS
 10
67.3673117811
 20
286.6732088113
 11
67.3673117811
 21
300.7232088113
  0
LINE
  5
27F
100
AcDbEntity
  8
0
100
AcDbLine
 62
7
  6
CONTINUOUS
 10
67.3673117811
 20
271.8132088113
 11
67.1673117811
 21
271.8132088113
  0
LINE
  5
280
100
AcDbEntity
  8
0
100
AcDbLine
 62
7
  6
CONTINUOUS
 10
47.5673117811
 20
271.8132088113
 11
47.3673117811
 21
271.8132088113
  0
LINE
  5
281
100
AcDbEntity
  8
0
100
AcDbLine
 62
6
  6
CONTINUOUS
 10
47.3673117811
 20
273.1432088113
 11
47.5673117811
 21
273.1432088113
  0
LINE
  5
282
100
AcDbEntity
  8
0
100
AcDbLine
 62
6
  6
CONTINUOUS
 10
67.1673117811
 20
273.1432088113
 11
67.3673117811
 21
273.1432088113
  0
LINE
  5
283
100
AcDbEntity
  8
0
100
AcDbLine
 62
7
  6
CONTINUOUS
 10
67.3673117811
 20
286.6732088113
 11
67.1673117811
 21
286.6732088113
  0
LINE
  5
284
100
AcDbEntity
  8
0
100
AcDbLine
 62
7
  6
CONTINUOUS
 10
47.5673117811
 20
286.6732088113
 11
47.3673117811
 21
286.6732088113
  0
LINE
  5
285
100
AcDbEntity
  8
0
100
AcDbLine
 62
6
  6
CONTINUOUS
 10
47.5673117811
 20
286.6732088113
 11
67.1673117811
 21
286.6732088113
  0
LINE
  5
286
100
AcDbEntity
  8
0
100
AcDbLine
 62
6
  6
CONTINUOUS
 10
65.8673117811
 20
286.7232088113
 11
48.8673117811
 21
286.7232088113
  0
LINE
  5
287
100
AcDbEntity
  8
0
100
AcDbLine
 62
7
  6
CONTINUOUS
 10
50.350820108
 20
291.2232088113
 11
54.2238034542
 21
291.2232088113
  0
LINE
  5
288
100
AcDbEntity
  8
0
100
AcDbLine
 62
7
  6
CONTINUOUS
 10
55.430820108
 20
291.2232088113
 11
59.3038034542
 21
291.2232088113
  0
LINE
  5
289
100
AcDbEntity
  8
0
100
AcDbLine
 62
7
  6
CONTINUOUS
 10
60.510820108
 20
291.2232088113
 11
64.3838034542
 21
291.2232088113
  0
LINE
  5
28A
100
AcDbEntity
  8
0
100
AcDbLine
 62
7
  6
CONTINUOUS
 10
64.3838034542
 20
292.2232088113
 11
60.510820108
 21
292.2232088113
  0
LINE
  5
28B
100
AcDbEntity
  8
0
100
AcDbLine
 62
7
  6
CONTINUOUS
 10
59.3038034542
 20
292.2232088113
 11
55.430820108
 21
292.2232088113
  0
LINE
  5
28C
100
AcDbEntity
  8
0
100
AcDbLine
 62
7
  6
CONTINUOUS
 10
54.2238034542
 20
292.2232088113
 11
50.350820108
 21
292.2232088113
  0
LINE
  5
28D
100
AcDbEntity
  8
0
100
AcDbLine
 62
6
  6
CONTINUOUS
 10
64.9873117811
 20
295.8432088113
 11
49.7473117811
 21
295.8432088113
  0
LINE
  5
28E
100
AcDbEntity
  8
0
100
AcDbLine
 62
6
  6
CONTINUOUS
 10
64.9873117811
 20
296.6232088113
 11
49.7473117811
 21
296.6232088113
  0
LINE
  5
28F
100
AcDbEntity
  8
0
100
AcDbLine
 62
6
  6
CONTINUOUS
 10
65.8673117811
 20
298.2232088113
 11
48.8673117811
 21
298.2232088113
  0
LINE
  5
290
100
AcDbEntity
  8
0
100
AcDbLine
 62
6
  6
CONTINUOUS
 10
47.3673117811
 20
300.7232088113
 11
48.8673117811
 21
300.7232088113
  0
LINE
  5
291
100
AcDbEntity
  8
0
100
AcDbLine
 62
6
  6
CONTINUOUS
 10
65.8673117811
 20
300.7232088113
 11
67.3673117811
 21
300.7232088113
  0
LINE
  5
292
100
AcDbEntity
  8
0
100
AcDbLine
 62
7
  6
CONTINUOUS
 10
50.350820108
 20
302.7232088113
 11
54.2238034542
 21
302.7232088113
  0
LINE
  5
293
100
AcDbEntity
  8
0
100
AcDbLine
 62
7
  6
CONTINUOUS
 10
55.430820108
 20
302.7232088113
 11
59.3038034542
 21
302.7232088113
  0
LINE
  5
294
100
AcDbEntity
  8
0
100
AcDbLine
 62
7
  6
CONTINUOUS
 10
60.510820108
 20
302.7232088113
 11
64.3838034542
 21
302.7232088113
  0
LINE
  5
295
100
AcDbEntity
  8
0
100
AcDbLine
 62
7
  6
CONTINUOUS
 10
64.3838034542
 20
303.7232088113
 11
60.510820108
 21
303.7232088113
  0
LINE
  5
296
100
AcDbEntity
  8
0
100
AcDbLine
 62
7
  6
CONTINUOUS
 10
59.3038034542
 20
303.7232088113
 11
55.430820108
 21
303.7232088113
  0
LINE
  5
297
100
AcDbEntity
  8
0
100
AcDbLine
 62
7
  6
CONTINUOUS
 10
54.2238034542
 20
303.7232088113
 11
50.350820108
 21
303.7232088113
  0
LINE
  5
298
100
AcDbEntity
  8
0
100
AcDbLine
 62
6
  6
CONTINUOUS
 10
64.9873117811
 20
307.3432088113
 11
49.7473117811
 21
307.3432088113
  0
LINE
  5
299
100
AcDbEntity
  8
0
100
AcDbLine
 62
6
  6
CONTINUOUS
 10
64.9873117811
 20
308.1232088113
 11
49.7473117811
 21
308.1232088113
  0
LINE
  5
29A
100
AcDbEntity
  8
0
100
AcDbLine
 62
6
  6
CONTINUOUS
 10
141.7356544253
 20
286.6732088113
 11
155.7856544253
 21
300.7232088113
  0
LINE
  5
29B
100
AcDbEntity
  8
0
100
AcDbLine
 62
6
  6
CONTINUOUS
 10
189.7456544253
 20
189.3232088113
 11
184.1456544253
 21
190.1032088113
  0
LINE
  5
29C
100
AcDbEntity
  8
0
100
AcDbLine
 62
6
  6
CONTINUOUS
 10
138.1856544253
 20
286.6732088113
 11
138.1856544253
 21
222.2732088113
  0
LINE
  5
29D
100
AcDbEntity
  8
0
100
AcDbLine
 62
6
  6
CONTINUOUS
 10
189.7456544253
 20
189.3232088113
 11
199.1456544253
 21
189.3232088113
  0
LINE
  5
29E
100
AcDbEntity
  8
0
100
AcDbLine
 62
6
  6
CONTINUOUS
 10
155.7856544253
 20
208.2232088113
 11
141.7356544253
 21
222.2732088113
  0
LINE
  5
29F
100
AcDbEntity
  8
0
100
AcDbLine
 62
7
  6
CONTINUOUS
 10
141.7356544253
 20
222.2732088113
 11
141.7356544253
 21
286.6732088113
  0
LINE
  5
2A0
100
AcDbEntity
  8
0
100
AcDbLine
 62
6
  6
CONTINUOUS
 10
144.1456544253
 20
219.8632088113
 11
144.1456544253
 21
213.1032088113
  0
LINE
  5
2A1
100
AcDbEntity
  8
0
100
AcDbLine
 62
6
  6
CONTINUOUS
 10
144.1456544253
 20
289.0832088113
 11
144.1456544253
 21
295.8432088113
  0
LINE
  5
2A2
100
AcDbEntity
  8
0
100
AcDbLine
 62
6
  6
CONTINUOUS
 10
175.7856544253
 20
196.7232088113
 11
206.2856544253
 21
196.7232088113
  0
LINE
  5
2A3
100
AcDbEntity
  8
0
100
AcDbLine
 62
6
  6
CONTINUOUS
 10
169.7456544253
 20
200.8232088113
 11
164.1456544253
 21
201.6032088113
  0
LINE
  5
2A4
100
AcDbEntity
  8
0
100
AcDbLine
 62
6
  6
CONTINUOUS
 10
175.7856544253
 20
196.7232088113
 11
164.2856544253
 21
208.2232088113
  0
LINE
  5
2A5
100
AcDbEntity
  8
0
100
AcDbLine
 62
6
  6
CONTINUOUS
 10
169.7456544253
 20
200.8232088113
 11
171.6856544253
 21
200.8232088113
  0
LINE
  5
2A6
100
AcDbEntity
  8
0
100
AcDbLine
 62
6
  6
CONTINUOUS
 10
155.7856544253
 20
208.2232088113
 11
164.2856544253
 21
208.2232088113
  0
LINE
  5
2A7
100
AcDbEntity
  8
0
100
AcDbLine
 62
6
  6
CONTINUOUS
 10
251.7856544253
 20
210.7232088113
 11
206.2856544253
 21
210.7232088113
  0
LINE
  5
2A8
100
AcDbEntity
  8
0
100
AcDbLine
 62
6
  6
CONTINUOUS
 10
149.7456544253
 20
212.3232088113
 11
144.1456544253
 21
213.1032088113
  0
LINE
  5
2A9
100
AcDbEntity
  8
0
100
AcDbLine
 62
6
  6
CONTINUOUS
 10
149.7456544253
 20
212.3232088113
 11
151.6856544253
 21
212.3232088113
  0
LINE
  5
2AA
100
AcDbEntity
  8
0
100
AcDbLine
 62
6
  6
CONTINUOUS
 10
164.1456544253
 20
208.2232088113
 11
164.1456544253
 21
201.6032088113
  0
LINE
  5
2AB
100
AcDbEntity
  8
0
100
AcDbLine
 62
6
  6
CONTINUOUS
 10
164.1456544253
 20
300.7232088113
 11
164.1456544253
 21
307.3432088113
  0
LINE
  5
2AC
100
AcDbEntity
  8
0
100
AcDbLine
 62
6
  6
CONTINUOUS
 10
138.1856544253
 20
222.2732088113
 11
141.7356544253
 21
222.2732088113
  0
LINE
  5
2AD
100
AcDbEntity
  8
0
100
AcDbLine
 62
6
  6
CONTINUOUS
 10
179.1456544253
 20
308.1232088113
 11
179.1456544253
 21
300.7232088113
  0
LINE
  5
2AE
100
AcDbEntity
  8
0
100
AcDbLine
 62
6
  6
CONTINUOUS
 10
184.1456544253
 20
196.7232088113
 11
184.1456544253
 21
190.1032088113
  0
LINE
  5
2AF
100
AcDbEntity
  8
0
100
AcDbLine
 62
7
  6
CONTINUOUS
 10
246.7856544253
 20
237.2232088113
 11
247.4356544253
 21
237.2232088113
  0
LINE
  5
2B0
100
AcDbEntity
  8
0
100
AcDbLine
 62
7
  6
CONTINUOUS
 10
187.2856544253
 20
300.7232088113
 11
187.2856544253
 21
298.2232088113
  0
LINE
  5
2B1
100
AcDbEntity
  8
0
100
AcDbLine
 62
7
  6
CONTINUOUS
 10
247.9756544253
 20
239.2232088113
 11
248.2856544253
 21
239.2232088113
  0
LINE
  5
2B2
100
AcDbEntity
  8
0
100
AcDbLine
 62
6
  6
CONTINUOUS
 10
246.7856544253
 20
243.7232088113
 11
251.6856544253
 21
243.7232088113
  0
LINE
  5
2B3
100
AcDbEntity
  8
0
100
AcDbLine
 62
7
  6
CONTINUOUS
 10
246.7856544253
 20
245.2732088113
 11
251.6856544253
 21
245.2732088113
  0
LINE
  5
2B4
100
AcDbEntity
  8
0
100
AcDbLine
 62
7
  6
CONTINUOUS
 10
251.6856544253
 20
246.1732088113
 11
246.7856544253
 21
246.1732088113
  0
LINE
  5
2B5
100
AcDbEntity
  8
0
100
AcDbLine
 62
7
  6
CONTINUOUS
 10
246.7856544253
 20
249.2732088113
 11
251.6856544253
 21
249.2732088113
  0
LINE
  5
2B6
100
AcDbEntity
  8
0
100
AcDbLine
 62
6
  6
CONTINUOUS
 10
199.1456544253
 20
189.3232088113
 11
199.1456544253
 21
196.7232088113
  0
LINE
  5
2B7
100
AcDbEntity
  8
0
100
AcDbLine
 62
7
  6
CONTINUOUS
 10
251.6856544253
 20
250.1732088113
 11
246.7856544253
 21
250.1732088113
  0
LINE
  5
2B8
100
AcDbEntity
  8
0
100
AcDbLine
 62
6
  6
CONTINUOUS
 10
251.6856544253
 20
251.6232088113
 11
246.7856544253
 21
251.6232088113
  0
LINE
  5
2B9
100
AcDbEntity
  8
0
100
AcDbLine
 62
6
  6
CONTINUOUS
 10
206.2856544253
 20
196.7232088113
 11
206.2856544253
 21
210.7232088113
  0
LINE
  5
2BA
100
AcDbEntity
  8
0
100
AcDbLine
 62
6
  6
CONTINUOUS
 10
246.7856544253
 20
257.6232088113
 11
251.6856544253
 21
257.6232088113
  0
LINE
  5
2BB
100
AcDbEntity
  8
0
100
AcDbLine
 62
7
  6
CONTINUOUS
 10
246.7856544253
 20
259.8732088113
 11
251.6856544253
 21
259.8732088113
  0
LINE
  5
2BC
100
AcDbEntity
  8
0
100
AcDbLine
 62
7
  6
CONTINUOUS
 10
251.6856544253
 20
260.7732088113
 11
246.7856544253
 21
260.7732088113
  0
LINE
  5
2BD
100
AcDbEntity
  8
0
100
AcDbLine
 62
7
  6
CONTINUOUS
 10
246.7856544253
 20
262.3732088113
 11
251.6856544253
 21
262.3732088113
  0
LINE
  5
2BE
100
AcDbEntity
  8
0
100
AcDbLine
 62
7
  6
CONTINUOUS
 10
251.6856544253
 20
263.2732088113
 11
246.7856544253
 21
263.2732088113
  0
LINE
  5
2BF
100
AcDbEntity
  8
0
100
AcDbLine
 62
7
  6
CONTINUOUS
 10
246.7856544253
 20
264.8732088113
 11
251.6856544253
 21
264.8732088113
  0
LINE
  5
2C0
100
AcDbEntity
  8
0
100
AcDbLine
 62
7
  6
CONTINUOUS
 10
251.6856544253
 20
265.7732088113
 11
246.7856544253
 21
265.7732088113
  0
LINE
  5
2C1
100
AcDbEntity
  8
0
100
AcDbLine
 62
6
  6
CONTINUOUS
 10
251.7856544253
 20
273.1432088113
 11
248.2856544253
 21
269.8132088113
  0
LINE
  5
2C2
100
AcDbEntity
  8
0
100
AcDbLine
 62
6
  6
CONTINUOUS
 10
251.6856544253
 20
267.2232088113
 11
246.7856544253
 21
267.2232088113
  0
LINE
  5
2C3
100
AcDbEntity
  8
0
100
AcDbLine
 62
7
  6
CONTINUOUS
 10
248.2856544253
 20
269.8132088113
 11
247.9756544253
 21
269.8132088113
  0
LINE
  5
2C4
100
AcDbEntity
  8
0
100
AcDbLine
 62
7
  6
CONTINUOUS
 10
247.4356544253
 20
271.8132088113
 11
246.7856544253
 21
271.8132088113
  0
LINE
  5
2C5
100
AcDbEntity
  8
0
100
AcDbLine
 62
6
  6
CONTINUOUS
 10
248.2856544253
 20
239.2232088113
 11
251.7856544253
 21
235.8032088113
  0
LINE
  5
2C6
100
AcDbEntity
  8
0
100
AcDbLine
 62
6
  6
CONTINUOUS
 10
141.7356544253
 20
286.6732088113
 11
138.1856544253
 21
286.6732088113
  0
LINE
  5
2C7
100
AcDbEntity
  8
0
100
AcDbLine
 62
6
  6
CONTINUOUS
 10
149.7456544253
 20
296.6232088113
 11
151.6856544253
 21
296.6232088113
  0
LINE
  5
2C8
100
AcDbEntity
  8
0
100
AcDbLine
 62
6
  6
CONTINUOUS
 10
187.2856544253
 20
298.2232088113
 11
251.7856544253
 21
298.2232088113
  0
LINE
  5
2C9
100
AcDbEntity
  8
0
100
AcDbLine
 62
6
  6
CONTINUOUS
 10
246.7856544253
 20
271.8132088113
 11
246.7856544253
 21
237.2232088113
  0
LINE
  5
2CA
100
AcDbEntity
  8
0
100
AcDbLine
 62
6
  6
CONTINUOUS
 10
247.4356544253
 20
237.2232088113
 11
247.9756544253
 21
239.2232088113
  0
LINE
  5
2CB
100
AcDbEntity
  8
0
100
AcDbLine
 62
6
  6
CONTINUOUS
 10
144.1456544253
 20
295.8432088113
 11
149.7456544253
 21
296.6232088113
  0
LINE
  5
2CC
100
AcDbEntity
  8
0
100
AcDbLine
 62
6
  6
CONTINUOUS
 10
187.2856544253
 20
300.7232088113
 11
155.7856544253
 21
300.7232088113
  0
LINE
  5
2CD
100
AcDbEntity
  8
0
100
AcDbLine
 62
6
  6
CONTINUOUS
 10
251.6856544253
 20
243.7232088113
 11
251.6856544253
 21
245.2732088113
  0
LINE
  5
2CE
100
AcDbEntity
  8
0
100
AcDbLine
 62
6
  6
CONTINUOUS
 10
251.6856544253
 20
246.1732088113
 11
251.6856544253
 21
249.2732088113
  0
LINE
  5
2CF
100
AcDbEntity
  8
0
100
AcDbLine
 62
6
  6
CONTINUOUS
 10
251.6856544253
 20
250.1732088113
 11
251.6856544253
 21
251.6232088113
  0
LINE
  5
2D0
100
AcDbEntity
  8
0
100
AcDbLine
 62
6
  6
CONTINUOUS
 10
251.6856544253
 20
257.6232088113
 11
251.6856544253
 21
259.8732088113
  0
LINE
  5
2D1
100
AcDbEntity
  8
0
100
AcDbLine
 62
6
  6
CONTINUOUS
 10
251.6856544253
 20
260.7732088113
 11
251.6856544253
 21
262.3732088113
  0
LINE
  5
2D2
100
AcDbEntity
  8
0
100
AcDbLine
 62
6
  6
CONTINUOUS
 10
251.6856544253
 20
263.2732088113
 11
251.6856544253
 21
264.8732088113
  0
LINE
  5
2D3
100
AcDbEntity
  8
0
100
AcDbLine
 62
6
  6
CONTINUOUS
 10
251.6856544253
 20
265.7732088113
 11
251.6856544253
 21
267.2232088113
  0
LINE
  5
2D4
100
AcDbEntity
  8
0
100
AcDbLine
 62
6
  6
CONTINUOUS
 10
251.7856544253
 20
210.7232088113
 11
251.7856544253
 21
235.8032088113
  0
LINE
  5
2D5
100
AcDbEntity
  8
0
100
AcDbLine
 62
6
  6
CONTINUOUS
 10
251.7856544253
 20
273.1432088113
 11
251.7856544253
 21
298.2232088113
  0
LINE
  5
2D6
100
AcDbEntity
  8
0
100
AcDbLine
 62
6
  6
CONTINUOUS
 10
169.7456544253
 20
308.1232088113
 11
179.1456544253
 21
308.1232088113
  0
LINE
  5
2D7
100
AcDbEntity
  8
0
100
AcDbLine
 62
6
  6
CONTINUOUS
 10
247.9756544253
 20
269.8132088113
 11
247.4356544253
 21
271.8132088113
  0
LINE
  5
2D8
100
AcDbEntity
  8
0
100
AcDbLine
 62
6
  6
CONTINUOUS
 10
164.1456544253
 20
307.3432088113
 11
169.7456544253
 21
308.1232088113
  0
LINE
  5
2D9
100
AcDbEntity
  8
0
100
AcDbLine
 62
6
  6
CONTINUOUS
 10
322.4537458029
 20
189.3232088113
 11
307.2137458029
 21
189.3232088113
  0
LINE
  5
2DA
100
AcDbEntity
  8
0
100
AcDbLine
 62
6
  6
CONTINUOUS
 10
324.8337458029
 20
196.7232088113
 11
323.3337458029
 21
196.7232088113
  0
LINE
  5
2DB
100
AcDbEntity
  8
0
100
AcDbLine
 62
6
  6
CONTINUOUS
 10
306.3337458029
 20
196.7232088113
 11
304.8337458029
 21
196.7232088113
  0
LINE
  5
2DC
100
AcDbEntity
  8
0
100
AcDbLine
 62
6
  6
CONTINUOUS
 10
323.3337458029
 20
199.2232088113
 11
306.3337458029
 21
199.2232088113
  0
LINE
  5
2DD
100
AcDbEntity
  8
0
100
AcDbLine
 62
6
  6
CONTINUOUS
 10
324.8337458029
 20
210.7232088113
 11
304.8337458029
 21
210.7232088113
  0
LINE
  5
2DE
100
AcDbEntity
  8
0
100
AcDbLine
 62
6
  6
CONTINUOUS
 10
324.8337458029
 20
235.8032088113
 11
304.8337458029
 21
235.8032088113
  0
LINE
  5
2DF
100
AcDbEntity
  8
0
100
AcDbLine
 62
7
  6
CONTINUOUS
 10
304.8337458029
 20
300.7232088113
 11
304.8337458029
 21
298.2232088113
  0
LINE
  5
2E0
100
AcDbEntity
  8
0
100
AcDbLine
 62
6
  6
CONTINUOUS
 10
304.8337458029
 20
196.7232088113
 11
304.8337458029
 21
298.2232088113
  0
LINE
  5
2E1
100
AcDbEntity
  8
0
100
AcDbLine
 62
6
  6
CONTINUOUS
 10
306.3337458029
 20
196.7232088113
 11
306.3337458029
 21
199.2232088113
  0
LINE
  5
2E2
100
AcDbEntity
  8
0
100
AcDbLine
 62
7
  6
CONTINUOUS
 10
306.3337458029
 20
298.2232088113
 11
306.3337458029
 21
300.7232088113
  0
LINE
  5
2E3
100
AcDbEntity
  8
0
100
AcDbLine
 62
6
  6
CONTINUOUS
 10
307.2137458029
 20
308.1232088113
 11
307.2137458029
 21
298.2232088113
  0
LINE
  5
2E4
100
AcDbEntity
  8
0
100
AcDbLine
 62
6
  6
CONTINUOUS
 10
307.2137458029
 20
189.3232088113
 11
307.2137458029
 21
199.2232088113
  0
LINE
  5
2E5
100
AcDbEntity
  8
0
100
AcDbLine
 62
7
  6
CONTINUOUS
 10
304.8337458029
 20
239.2232088113
 11
324.8337458029
 21
239.2232088113
  0
LINE
  5
2E6
100
AcDbEntity
  8
0
100
AcDbLine
 62
6
  6
CONTINUOUS
 10
316.3337458029
 20
243.7232088113
 11
313.3337458029
 21
243.7232088113
  0
LINE
  5
2E7
100
AcDbEntity
  8
0
100
AcDbLine
 62
6
  6
CONTINUOUS
 10
313.3337458029
 20
243.7232088113
 11
313.3337458029
 21
245.2732088113
  0
LINE
  5
2E8
100
AcDbEntity
  8
0
100
AcDbLine
 62
6
  6
CONTINUOUS
 10
313.3337458029
 20
246.1732088113
 11
313.3337458029
 21
249.2732088113
  0
LINE
  5
2E9
100
AcDbEntity
  8
0
100
AcDbLine
 62
6
  6
CONTINUOUS
 10
313.3337458029
 20
250.1732088113
 11
313.3337458029
 21
251.6232088113
  0
LINE
  5
2EA
100
AcDbEntity
  8
0
100
AcDbLine
 62
6
  6
CONTINUOUS
 10
313.3337458029
 20
257.6232088113
 11
313.3337458029
 21
259.8732088113
  0
LINE
  5
2EB
100
AcDbEntity
  8
0
100
AcDbLine
 62
6
  6
CONTINUOUS
 10
313.3337458029
 20
260.7732088113
 11
313.3337458029
 21
262.3732088113
  0
LINE
  5
2EC
100
AcDbEntity
  8
0
100
AcDbLine
 62
6
  6
CONTINUOUS
 10
313.3337458029
 20
263.2732088113
 11
313.3337458029
 21
264.8732088113
  0
LINE
  5
2ED
100
AcDbEntity
  8
0
100
AcDbLine
 62
6
  6
CONTINUOUS
 10
313.3337458029
 20
265.7732088113
 11
313.3337458029
 21
267.2232088113
  0
LINE
  5
2EE
100
AcDbEntity
  8
0
100
AcDbLine
 62
7
  6
CONTINUOUS
 10
313.3337458029
 20
245.2732088113
 11
316.3337458029
 21
245.2732088113
  0
LINE
  5
2EF
100
AcDbEntity
  8
0
100
AcDbLine
 62
7
  6
CONTINUOUS
 10
316.3337458029
 20
246.1732088113
 11
313.3337458029
 21
246.1732088113
  0
LINE
  5
2F0
100
AcDbEntity
  8
0
100
AcDbLine
 62
6
  6
CONTINUOUS
 10
316.3337458029
 20
243.7232088113
 11
316.3337458029
 21
245.2732088113
  0
LINE
  5
2F1
100
AcDbEntity
  8
0
100
AcDbLine
 62
6
  6
CONTINUOUS
 10
316.3337458029
 20
246.1732088113
 11
316.3337458029
 21
249.2732088113
  0
LINE
  5
2F2
100
AcDbEntity
  8
0
100
AcDbLine
 62
6
  6
CONTINUOUS
 10
316.3337458029
 20
250.1732088113
 11
316.3337458029
 21
251.6232088113
  0
LINE
  5
2F3
100
AcDbEntity
  8
0
100
AcDbLine
 62
6
  6
CONTINUOUS
 10
316.3337458029
 20
257.6232088113
 11
316.3337458029
 21
259.8732088113
  0
LINE
  5
2F4
100
AcDbEntity
  8
0
100
AcDbLine
 62
6
  6
CONTINUOUS
 10
316.3337458029
 20
260.7732088113
 11
316.3337458029
 21
262.3732088113
  0
LINE
  5
2F5
100
AcDbEntity
  8
0
100
AcDbLine
 62
6
  6
CONTINUOUS
 10
316.3337458029
 20
263.2732088113
 11
316.3337458029
 21
264.8732088113
  0
LINE
  5
2F6
100
AcDbEntity
  8
0
100
AcDbLine
 62
6
  6
CONTINUOUS
 10
316.3337458029
 20
265.7732088113
 11
316.3337458029
 21
267.2232088113
  0
LINE
  5
2F7
100
AcDbEntity
  8
0
100
AcDbLine
 62
7
  6
CONTINUOUS
 10
313.3337458029
 20
249.2732088113
 11
316.3337458029
 21
249.2732088113
  0
LINE
  5
2F8
100
AcDbEntity
  8
0
100
AcDbLine
 62
7
  6
CONTINUOUS
 10
316.3337458029
 20
250.1732088113
 11
313.3337458029
 21
250.1732088113
  0
LINE
  5
2F9
100
AcDbEntity
  8
0
100
AcDbLine
 62
6
  6
CONTINUOUS
 10
316.3337458029
 20
251.6232088113
 11
313.3337458029
 21
251.6232088113
  0
LINE
  5
2FA
100
AcDbEntity
  8
0
100
AcDbLine
 62
6
  6
CONTINUOUS
 10
322.4537458029
 20
308.1232088113
 11
322.4537458029
 21
298.2232088113
  0
LINE
  5
2FB
100
AcDbEntity
  8
0
100
AcDbLine
 62
6
  6
CONTINUOUS
 10
322.4537458029
 20
189.3232088113
 11
322.4537458029
 21
199.2232088113
  0
LINE
  5
2FC
100
AcDbEntity
  8
0
100
AcDbLine
 62
7
  6
CONTINUOUS
 10
323.3337458029
 20
300.7232088113
 11
323.3337458029
 21
298.2232088113
  0
LINE
  5
2FD
100
AcDbEntity
  8
0
100
AcDbLine
 62
6
  6
CONTINUOUS
 10
323.3337458029
 20
196.7232088113
 11
323.3337458029
 21
199.2232088113
  0
LINE
  5
2FE
100
AcDbEntity
  8
0
100
AcDbLine
 62
6
  6
CONTINUOUS
 10
324.8337458029
 20
196.7232088113
 11
324.8337458029
 21
298.2232088113
  0
LINE
  5
2FF
100
AcDbEntity
  8
0
100
AcDbLine
 62
7
  6
CONTINUOUS
 10
324.8337458029
 20
298.2232088113
 11
324.8337458029
 21
300.7232088113
  0
LINE
  5
300
100
AcDbEntity
  8
0
100
AcDbLine
 62
6
  6
CONTINUOUS
 10
316.3337458029
 20
257.6232088113
 11
313.3337458029
 21
257.6232088113
  0
LINE
  5
301
100
AcDbEntity
  8
0
100
AcDbLine
 62
7
  6
CONTINUOUS
 10
313.3337458029
 20
259.8732088113
 11
316.3337458029
 21
259.8732088113
  0
LINE
  5
302
100
AcDbEntity
  8
0
100
AcDbLine
 62
7
  6
CONTINUOUS
 10
316.3337458029
 20
260.7732088113
 11
313.3337458029
 21
260.7732088113
  0
LINE
  5
303
100
AcDbEntity
  8
0
100
AcDbLine
 62
7
  6
CONTINUOUS
 10
313.3337458029
 20
262.3732088113
 11
316.3337458029
 21
262.3732088113
  0
LINE
  5
304
100
AcDbEntity
  8
0
100
AcDbLine
 62
7
  6
CONTINUOUS
 10
316.3337458029
 20
263.2732088113
 11
313.3337458029
 21
263.2732088113
  0
LINE
  5
305
100
AcDbEntity
  8
0
100
AcDbLine
 62
7
  6
CONTINUOUS
 10
313.3337458029
 20
264.8732088113
 11
316.3337458029
 21
264.8732088113
  0
LINE
  5
306
100
AcDbEntity
  8
0
100
AcDbLine
 62
7
  6
CONTINUOUS
 10
316.3337458029
 20
265.7732088113
 11
313.3337458029
 21
265.7732088113
  0
LINE
  5
307
100
AcDbEntity
  8
0
100
AcDbLine
 62
6
  6
CONTINUOUS
 10
316.3337458029
 20
267.2232088113
 11
313.3337458029
 21
267.2232088113
  0
LINE
  5
308
100
AcDbEntity
  8
0
100
AcDbLine
 62
7
  6
CONTINUOUS
 10
324.8337458029
 20
269.8132088113
 11
304.8337458029
 21
269.8132088113
  0
LINE
  5
309
100
AcDbEntity
  8
0
100
AcDbLine
 62
6
  6
CONTINUOUS
 10
324.8337458029
 20
273.1432088113
 11
304.8337458029
 21
273.1432088113
  0
LINE
  5
30A
100
AcDbEntity
  8
0
100
AcDbLine
 62
6
  6
CONTINUOUS
 10
324.8337458029
 20
298.2232088113
 11
304.8337458029
 21
298.2232088113
  0
LINE
  5
30B
100
AcDbEntity
  8
0
100
AcDbLine
 62
7
  6
CONTINUOUS
 10
324.8337458029
 20
300.7232088113
 11
323.3337458029
 21
300.7232088113
  0
LINE
  5
30C
100
AcDbEntity
  8
0
100
AcDbLine
 62
7
  6
CONTINUOUS
 10
306.3337458029
 20
300.7232088113
 11
304.8337458029
 21
300.7232088113
  0
LINE
  5
30D
100
AcDbEntity
  8
0
100
AcDbLine
 62
6
  6
CONTINUOUS
 10
307.2137458029
 20
308.1232088113
 11
322.4537458029
 21
308.1232088113
  0
LINE
  5
30E
100
AcDbEntity
  8
0
100
AcDbLine
 62
6
  6
CONTINUOUS
 10
138.1856544253
 20
370.9218052676
 11
138.1856544253
 21
351.3218052676
  0
LINE
  5
30F
100
AcDbEntity
  8
0
100
AcDbLine
 62
7
  6
CONTINUOUS
 10
141.7356544253
 20
351.1218052676
 11
141.7356544253
 21
351.3218052676
  0
LINE
  5
310
100
AcDbEntity
  8
0
100
AcDbLine
 62
7
  6
CONTINUOUS
 10
141.7356544253
 20
370.9218052676
 11
141.7356544253
 21
371.1218052676
  0
LINE
  5
311
100
AcDbEntity
  8
0
100
AcDbLine
 62
6
  6
CONTINUOUS
 10
141.7356544253
 20
351.3218052676
 11
141.7356544253
 21
370.9218052676
  0
LINE
  5
312
100
AcDbEntity
  8
0
100
AcDbLine
 62
6
  6
CONTINUOUS
 10
141.7856544253
 20
352.6218052676
 11
141.7856544253
 21
369.6218052676
  0
LINE
  5
313
100
AcDbEntity
  8
0
100
AcDbLine
 62
6
  6
CONTINUOUS
 10
144.1456544253
 20
353.5018052676
 11
144.1456544253
 21
368.7418052676
  0
LINE
  5
314
100
AcDbEntity
  8
0
100
AcDbLine
 62
6
  6
CONTINUOUS
 10
149.7456544253
 20
353.5018052676
 11
149.7456544253
 21
368.7418052676
  0
LINE
  5
315
100
AcDbEntity
  8
0
100
AcDbLine
 62
7
  6
CONTINUOUS
 10
150.4356544253
 20
367.9718052676
 11
150.4356544253
 21
364.4318052676
  0
LINE
  5
316
100
AcDbEntity
  8
0
100
AcDbLine
 62
7
  6
CONTINUOUS
 10
150.4356544253
 20
362.8918052676
 11
150.4356544253
 21
359.3518052676
  0
LINE
  5
317
100
AcDbEntity
  8
0
100
AcDbLine
 62
7
  6
CONTINUOUS
 10
150.4356544253
 20
357.8118052676
 11
150.4356544253
 21
354.2718052676
  0
LINE
  5
318
100
AcDbEntity
  8
0
100
AcDbLine
 62
6
  6
CONTINUOUS
 10
155.7856544253
 20
371.1218052676
 11
155.7856544253
 21
369.6218052676
  0
LINE
  5
319
100
AcDbEntity
  8
0
100
AcDbLine
 62
6
  6
CONTINUOUS
 10
155.7856544253
 20
352.6218052676
 11
155.7856544253
 21
351.1218052676
  0
LINE
  5
31A
100
AcDbEntity
  8
0
100
AcDbLine
 62
7
  6
CONTINUOUS
 10
157.1356544253
 20
354.2718052676
 11
157.1356544253
 21
357.8118052676
  0
LINE
  5
31B
100
AcDbEntity
  8
0
100
AcDbLine
 62
7
  6
CONTINUOUS
 10
157.1356544253
 20
359.3518052676
 11
157.1356544253
 21
362.8918052676
  0
LINE
  5
31C
100
AcDbEntity
  8
0
100
AcDbLine
 62
7
  6
CONTINUOUS
 10
157.1356544253
 20
364.4318052676
 11
157.1356544253
 21
367.9718052676
  0
LINE
  5
31D
100
AcDbEntity
  8
0
100
AcDbLine
 62
7
  6
CONTINUOUS
 10
159.1456544253
 20
368.7418052676
 11
159.1456544253
 21
353.5018052676
  0
LINE
  5
31E
100
AcDbEntity
  8
0
100
AcDbLine
 62
6
  6
CONTINUOUS
 10
159.2856544253
 20
352.6218052676
 11
159.2856544253
 21
369.6218052676
  0
LINE
  5
31F
100
AcDbEntity
  8
0
100
AcDbLine
 62
6
  6
CONTINUOUS
 10
164.1456544253
 20
353.5018052676
 11
164.1456544253
 21
368.7418052676
  0
LINE
  5
320
100
AcDbEntity
  8
0
100
AcDbLine
 62
6
  6
CONTINUOUS
 10
169.7456544253
 20
353.5018052676
 11
169.7456544253
 21
368.7418052676
  0
LINE
  5
321
100
AcDbEntity
  8
0
100
AcDbLine
 62
7
  6
CONTINUOUS
 10
170.4356544253
 20
367.9718052676
 11
170.4356544253
 21
364.4318052676
  0
LINE
  5
322
100
AcDbEntity
  8
0
100
AcDbLine
 62
6
  6
CONTINUOUS
 10
170.4356544253
 20
362.8918052676
 11
170.4356544253
 21
359.3518052676
  0
LINE
  5
323
100
AcDbEntity
  8
0
100
AcDbLine
 62
7
  6
CONTINUOUS
 10
170.4356544253
 20
357.8118052676
 11
170.4356544253
 21
354.2718052676
  0
LINE
  5
324
100
AcDbEntity
  8
0
100
AcDbLine
 62
7
  6
CONTINUOUS
 10
177.1356544253
 20
354.2718052676
 11
177.1356544253
 21
357.8118052676
  0
LINE
  5
325
100
AcDbEntity
  8
0
100
AcDbLine
 62
6
  6
CONTINUOUS
 10
177.1356544253
 20
359.3518052676
 11
177.1356544253
 21
362.8918052676
  0
LINE
  5
326
100
AcDbEntity
  8
0
100
AcDbLine
 62
7
  6
CONTINUOUS
 10
177.1356544253
 20
364.4318052676
 11
177.1356544253
 21
367.9718052676
  0
LINE
  5
327
100
AcDbEntity
  8
0
100
AcDbLine
 62
6
  6
CONTINUOUS
 10
179.1456544253
 20
353.5018052676
 11
179.1456544253
 21
368.7418052676
  0
LINE
  5
328
100
AcDbEntity
  8
0
100
AcDbLine
 62
7
  6
CONTINUOUS
 10
187.2856544253
 20
371.1218052676
 11
187.2856544253
 21
369.6218052676
  0
LINE
  5
329
100
AcDbEntity
  8
0
100
AcDbLine
 62
7
  6
CONTINUOUS
 10
187.2856544253
 20
352.6218052676
 11
187.2856544253
 21
351.1218052676
  0
LINE
  5
32A
100
AcDbEntity
  8
0
100
AcDbLine
 62
6
  6
CONTINUOUS
 10
141.7356544253
 20
351.1218052676
 11
251.7856544253
 21
351.1218052676
  0
LINE
  5
32B
100
AcDbEntity
  8
0
100
AcDbLine
 62
6
  6
CONTINUOUS
 10
141.7356544253
 20
351.3218052676
 11
138.1856544253
 21
351.3218052676
  0
LINE
  5
32C
100
AcDbEntity
  8
0
100
AcDbLine
 62
6
  6
CONTINUOUS
 10
187.2856544253
 20
352.6218052676
 11
141.7856544253
 21
352.6218052676
  0
LINE
  5
32D
100
AcDbEntity
  8
0
100
AcDbLine
 62
6
  6
CONTINUOUS
 10
144.1456544253
 20
353.5018052676
 11
159.1456544253
 21
353.5018052676
  0
LINE
  5
32E
100
AcDbEntity
  8
0
100
AcDbLine
 62
6
  6
CONTINUOUS
 10
164.1456544253
 20
353.5018052676
 11
179.1456544253
 21
353.5018052676
  0
LINE
  5
32F
100
AcDbEntity
  8
0
100
AcDbLine
 62
7
  6
CONTINUOUS
 10
150.4356544253
 20
354.2718052676
 11
157.1356544253
 21
354.2718052676
  0
LINE
  5
330
100
AcDbEntity
  8
0
100
AcDbLine
 62
7
  6
CONTINUOUS
 10
170.4356544253
 20
354.2718052676
 11
177.1356544253
 21
354.2718052676
  0
LINE
  5
331
100
AcDbEntity
  8
0
100
AcDbLine
 62
7
  6
CONTINUOUS
 10
177.1356544253
 20
357.8118052676
 11
170.4356544253
 21
357.8118052676
  0
LINE
  5
332
100
AcDbEntity
  8
0
100
AcDbLine
 62
7
  6
CONTINUOUS
 10
157.1356544253
 20
357.8118052676
 11
150.4356544253
 21
357.8118052676
  0
LINE
  5
333
100
AcDbEntity
  8
0
100
AcDbLine
 62
7
  6
CONTINUOUS
 10
150.4356544253
 20
359.3518052676
 11
157.1356544253
 21
359.3518052676
  0
LINE
  5
334
100
AcDbEntity
  8
0
100
AcDbLine
 62
6
  6
CONTINUOUS
 10
170.4356544253
 20
359.3518052676
 11
177.1356544253
 21
359.3518052676
  0
LINE
  5
335
100
AcDbEntity
  8
0
100
AcDbLine
 62
6
  6
CONTINUOUS
 10
177.1356544253
 20
362.8918052676
 11
170.4356544253
 21
362.8918052676
  0
LINE
  5
336
100
AcDbEntity
  8
0
100
AcDbLine
 62
7
  6
CONTINUOUS
 10
157.1356544253
 20
362.8918052676
 11
150.4356544253
 21
362.8918052676
  0
LINE
  5
337
100
AcDbEntity
  8
0
100
AcDbLine
 62
7
  6
CONTINUOUS
 10
150.4356544253
 20
364.4318052676
 11
157.1356544253
 21
364.4318052676
  0
LINE
  5
338
100
AcDbEntity
  8
0
100
AcDbLine
 62
7
  6
CONTINUOUS
 10
170.4356544253
 20
364.4318052676
 11
177.1356544253
 21
364.4318052676
  0
LINE
  5
339
100
AcDbEntity
  8
0
100
AcDbLine
 62
7
  6
CONTINUOUS
 10
177.1356544253
 20
367.9718052676
 11
170.4356544253
 21
367.9718052676
  0
LINE
  5
33A
100
AcDbEntity
  8
0
100
AcDbLine
 62
7
  6
CONTINUOUS
 10
157.1356544253
 20
367.9718052676
 11
150.4356544253
 21
367.9718052676
  0
LINE
  5
33B
100
AcDbEntity
  8
0
100
AcDbLine
 62
6
  6
CONTINUOUS
 10
144.1456544253
 20
368.7418052676
 11
159.1456544253
 21
368.7418052676
  0
LINE
  5
33C
100
AcDbEntity
  8
0
100
AcDbLine
 62
6
  6
CONTINUOUS
 10
164.1456544253
 20
368.7418052676
 11
179.1456544253
 21
368.7418052676
  0
LINE
  5
33D
100
AcDbEntity
  8
0
100
AcDbLine
 62
6
  6
CONTINUOUS
 10
141.7856544253
 20
369.6218052676
 11
187.2856544253
 21
369.6218052676
  0
LINE
  5
33E
100
AcDbEntity
  8
0
100
AcDbLine
 62
6
  6
CONTINUOUS
 10
141.7356544253
 20
370.9218052676
 11
138.1856544253
 21
370.9218052676
  0
LINE
  5
33F
100
AcDbEntity
  8
0
100
AcDbLine
 62
6
  6
CONTINUOUS
 10
251.7856544253
 20
371.1218052676
 11
141.7356544253
 21
371.1218052676
  0
LINE
  5
340
100
AcDbEntity
  8
0
100
AcDbLine
 62
6
  6
CONTINUOUS
 10
251.7856544253
 20
371.1218052676
 11
251.7856544253
 21
351.1218052676
  0
LINE
  5
341
100
AcDbEntity
  8
0
100
AcDbLine
 62
6
  6
CONTINUOUS
 10
138.1856544253
 20
101.9297328992
 11
138.1856544253
 21
121.5297328992
  0
LINE
  5
342
100
AcDbEntity
  8
0
100
AcDbLine
 62
6
  6
CONTINUOUS
 10
141.7356544253
 20
121.5297328992
 11
141.7356544253
 21
101.9297328992
  0
LINE
  5
343
100
AcDbEntity
  8
0
100
AcDbLine
 62
7
  6
CONTINUOUS
 10
141.7356544253
 20
101.7297328992
 11
141.7356544253
 21
101.9297328992
  0
LINE
  5
344
100
AcDbEntity
  8
0
100
AcDbLine
 62
7
  6
CONTINUOUS
 10
141.7356544253
 20
121.5297328992
 11
141.7356544253
 21
121.7297328992
  0
LINE
  5
345
100
AcDbEntity
  8
0
100
AcDbLine
 62
6
  6
CONTINUOUS
 10
141.7856544253
 20
103.2297328992
 11
141.7856544253
 21
120.2297328992
  0
LINE
  5
346
100
AcDbEntity
  8
0
100
AcDbLine
 62
6
  6
CONTINUOUS
 10
144.1456544253
 20
104.1097328992
 11
144.1456544253
 21
119.3497328992
  0
LINE
  5
347
100
AcDbEntity
  8
0
100
AcDbLine
 62
6
  6
CONTINUOUS
 10
149.7456544253
 20
104.1097328992
 11
149.7456544253
 21
119.3497328992
  0
LINE
  5
348
100
AcDbEntity
  8
0
100
AcDbLine
 62
7
  6
CONTINUOUS
 10
150.4356544253
 20
118.5797328992
 11
150.4356544253
 21
115.0397328992
  0
LINE
  5
349
100
AcDbEntity
  8
0
100
AcDbLine
 62
7
  6
CONTINUOUS
 10
150.4356544253
 20
113.4997328992
 11
150.4356544253
 21
109.9597328992
  0
LINE
  5
34A
100
AcDbEntity
  8
0
100
AcDbLine
 62
7
  6
CONTINUOUS
 10
150.4356544253
 20
108.4197328992
 11
150.4356544253
 21
104.8797328992
  0
LINE
  5
34B
100
AcDbEntity
  8
0
100
AcDbLine
 62
6
  6
CONTINUOUS
 10
155.7856544253
 20
101.7297328992
 11
155.7856544253
 21
103.2297328992
  0
LINE
  5
34C
100
AcDbEntity
  8
0
100
AcDbLine
 62
6
  6
CONTINUOUS
 10
155.7856544253
 20
120.2297328992
 11
155.7856544253
 21
121.7297328992
  0
LINE
  5
34D
100
AcDbEntity
  8
0
100
AcDbLine
 62
7
  6
CONTINUOUS
 10
157.1356544253
 20
104.8797328992
 11
157.1356544253
 21
108.4197328992
  0
LINE
  5
34E
100
AcDbEntity
  8
0
100
AcDbLine
 62
7
  6
CONTINUOUS
 10
157.1356544253
 20
109.9597328992
 11
157.1356544253
 21
113.4997328992
  0
LINE
  5
34F
100
AcDbEntity
  8
0
100
AcDbLine
 62
7
  6
CONTINUOUS
 10
157.1356544253
 20
115.0397328992
 11
157.1356544253
 21
118.5797328992
  0
LINE
  5
350
100
AcDbEntity
  8
0
100
AcDbLine
 62
7
  6
CONTINUOUS
 10
159.1456544253
 20
119.3497328992
 11
159.1456544253
 21
104.1097328992
  0
LINE
  5
351
100
AcDbEntity
  8
0
100
AcDbLine
 62
6
  6
CONTINUOUS
 10
159.2856544253
 20
103.2297328992
 11
159.2856544253
 21
120.2297328992
  0
LINE
  5
352
100
AcDbEntity
  8
0
100
AcDbLine
 62
6
  6
CONTINUOUS
 10
164.1456544253
 20
104.1097328992
 11
164.1456544253
 21
119.3497328992
  0
LINE
  5
353
100
AcDbEntity
  8
0
100
AcDbLine
 62
6
  6
CONTINUOUS
 10
164.2856544253
 20
101.7297328992
 11
164.2856544253
 21
103.2297328992
  0
LINE
  5
354
100
AcDbEntity
  8
0
100
AcDbLine
 62
6
  6
CONTINUOUS
 10
164.2856544253
 20
120.2297328992
 11
164.2856544253
 21
121.7297328992
  0
LINE
  5
355
100
AcDbEntity
  8
0
100
AcDbLine
 62
6
  6
CONTINUOUS
 10
169.7456544253
 20
104.1097328992
 11
169.7456544253
 21
119.3497328992
  0
LINE
  5
356
100
AcDbEntity
  8
0
100
AcDbLine
 62
7
  6
CONTINUOUS
 10
170.4356544253
 20
118.5797328992
 11
170.4356544253
 21
115.0397328992
  0
LINE
  5
357
100
AcDbEntity
  8
0
100
AcDbLine
 62
7
  6
CONTINUOUS
 10
170.4356544253
 20
113.4997328992
 11
170.4356544253
 21
109.9597328992
  0
LINE
  5
358
100
AcDbEntity
  8
0
100
AcDbLine
 62
7
  6
CONTINUOUS
 10
170.4356544253
 20
108.4197328992
 11
170.4356544253
 21
104.8797328992
  0
LINE
  5
359
100
AcDbEntity
  8
0
100
AcDbLine
 62
6
  6
CONTINUOUS
 10
175.7856544253
 20
101.7297328992
 11
175.7856544253
 21
103.2297328992
  0
LINE
  5
35A
100
AcDbEntity
  8
0
100
AcDbLine
 62
6
  6
CONTINUOUS
 10
175.7856544253
 20
120.2297328992
 11
175.7856544253
 21
121.7297328992
  0
LINE
  5
35B
100
AcDbEntity
  8
0
100
AcDbLine
 62
7
  6
CONTINUOUS
 10
177.1356544253
 20
104.8797328992
 11
177.1356544253
 21
108.4197328992
  0
LINE
  5
35C
100
AcDbEntity
  8
0
100
AcDbLine
 62
7
  6
CONTINUOUS
 10
177.1356544253
 20
109.9597328992
 11
177.1356544253
 21
113.4997328992
  0
LINE
  5
35D
100
AcDbEntity
  8
0
100
AcDbLine
 62
7
  6
CONTINUOUS
 10
177.1356544253
 20
115.0397328992
 11
177.1356544253
 21
118.5797328992
  0
LINE
  5
35E
100
AcDbEntity
  8
0
100
AcDbLine
 62
7
  6
CONTINUOUS
 10
179.1456544253
 20
119.3497328992
 11
179.1456544253
 21
104.1097328992
  0
LINE
  5
35F
100
AcDbEntity
  8
0
100
AcDbLine
 62
6
  6
CONTINUOUS
 10
179.2856544253
 20
103.2297328992
 11
179.2856544253
 21
120.2297328992
  0
LINE
  5
360
100
AcDbEntity
  8
0
100
AcDbLine
 62
6
  6
CONTINUOUS
 10
184.1456544253
 20
104.1097328992
 11
184.1456544253
 21
119.3497328992
  0
LINE
  5
361
100
AcDbEntity
  8
0
100
AcDbLine
 62
6
  6
CONTINUOUS
 10
141.7356544253
 20
101.7297328992
 11
251.7856544253
 21
101.7297328992
  0
LINE
  5
362
100
AcDbEntity
  8
0
100
AcDbLine
 62
6
  6
CONTINUOUS
 10
138.1856544253
 20
101.9297328992
 11
141.7356544253
 21
101.9297328992
  0
LINE
  5
363
100
AcDbEntity
  8
0
100
AcDbLine
 62
6
  6
CONTINUOUS
 10
141.7856544253
 20
103.2297328992
 11
206.2856544253
 21
103.2297328992
  0
LINE
  5
364
100
AcDbEntity
  8
0
100
AcDbLine
 62
6
  6
CONTINUOUS
 10
144.1456544253
 20
104.1097328992
 11
159.1456544253
 21
104.1097328992
  0
LINE
  5
365
100
AcDbEntity
  8
0
100
AcDbLine
 62
6
  6
CONTINUOUS
 10
164.1456544253
 20
104.1097328992
 11
179.1456544253
 21
104.1097328992
  0
LINE
  5
366
100
AcDbEntity
  8
0
100
AcDbLine
 62
6
  6
CONTINUOUS
 10
184.1456544253
 20
104.1097328992
 11
199.1456544253
 21
104.1097328992
  0
LINE
  5
367
100
AcDbEntity
  8
0
100
AcDbLine
 62
6
  6
CONTINUOUS
 10
189.7456544253
 20
104.1097328992
 11
189.7456544253
 21
119.3497328992
  0
LINE
  5
368
100
AcDbEntity
  8
0
100
AcDbLine
 62
7
  6
CONTINUOUS
 10
190.4356544253
 20
118.5797328992
 11
190.4356544253
 21
115.0397328992
  0
LINE
  5
369
100
AcDbEntity
  8
0
100
AcDbLine
 62
6
  6
CONTINUOUS
 10
190.4356544253
 20
113.4997328992
 11
190.4356544253
 21
109.9597328992
  0
LINE
  5
36A
100
AcDbEntity
  8
0
100
AcDbLine
 62
7
  6
CONTINUOUS
 10
190.4356544253
 20
108.4197328992
 11
190.4356544253
 21
104.8797328992
  0
LINE
  5
36B
100
AcDbEntity
  8
0
100
AcDbLine
 62
7
  6
CONTINUOUS
 10
150.4356544253
 20
104.8797328992
 11
157.1356544253
 21
104.8797328992
  0
LINE
  5
36C
100
AcDbEntity
  8
0
100
AcDbLine
 62
7
  6
CONTINUOUS
 10
170.4356544253
 20
104.8797328992
 11
177.1356544253
 21
104.8797328992
  0
LINE
  5
36D
100
AcDbEntity
  8
0
100
AcDbLine
 62
7
  6
CONTINUOUS
 10
190.4356544253
 20
104.8797328992
 11
197.1356544253
 21
104.8797328992
  0
LINE
  5
36E
100
AcDbEntity
  8
0
100
AcDbLine
 62
7
  6
CONTINUOUS
 10
197.1356544253
 20
108.4197328992
 11
190.4356544253
 21
108.4197328992
  0
LINE
  5
36F
100
AcDbEntity
  8
0
100
AcDbLine
 62
7
  6
CONTINUOUS
 10
177.1356544253
 20
108.4197328992
 11
170.4356544253
 21
108.4197328992
  0
LINE
  5
370
100
AcDbEntity
  8
0
100
AcDbLine
 62
7
  6
CONTINUOUS
 10
157.1356544253
 20
108.4197328992
 11
150.4356544253
 21
108.4197328992
  0
LINE
  5
371
100
AcDbEntity
  8
0
100
AcDbLine
 62
7
  6
CONTINUOUS
 10
150.4356544253
 20
109.9597328992
 11
157.1356544253
 21
109.9597328992
  0
LINE
  5
372
100
AcDbEntity
  8
0
100
AcDbLine
 62
7
  6
CONTINUOUS
 10
170.4356544253
 20
109.9597328992
 11
177.1356544253
 21
109.9597328992
  0
LINE
  5
373
100
AcDbEntity
  8
0
100
AcDbLine
 62
6
  6
CONTINUOUS
 10
190.4356544253
 20
109.9597328992
 11
197.1356544253
 21
109.9597328992
  0
LINE
  5
374
100
AcDbEntity
  8
0
100
AcDbLine
 62
7
  6
CONTINUOUS
 10
197.1356544253
 20
104.8797328992
 11
197.1356544253
 21
108.4197328992
  0
LINE
  5
375
100
AcDbEntity
  8
0
100
AcDbLine
 62
6
  6
CONTINUOUS
 10
197.1356544253
 20
109.9597328992
 11
197.1356544253
 21
113.4997328992
  0
LINE
  5
376
100
AcDbEntity
  8
0
100
AcDbLine
 62
7
  6
CONTINUOUS
 10
197.1356544253
 20
115.0397328992
 11
197.1356544253
 21
118.5797328992
  0
LINE
  5
377
100
AcDbEntity
  8
0
100
AcDbLine
 62
6
  6
CONTINUOUS
 10
199.1456544253
 20
104.1097328992
 11
199.1456544253
 21
119.3497328992
  0
LINE
  5
378
100
AcDbEntity
  8
0
100
AcDbLine
 62
6
  6
CONTINUOUS
 10
197.1356544253
 20
113.4997328992
 11
190.4356544253
 21
113.4997328992
  0
LINE
  5
379
100
AcDbEntity
  8
0
100
AcDbLine
 62
7
  6
CONTINUOUS
 10
177.1356544253
 20
113.4997328992
 11
170.4356544253
 21
113.4997328992
  0
LINE
  5
37A
100
AcDbEntity
  8
0
100
AcDbLine
 62
7
  6
CONTINUOUS
 10
157.1356544253
 20
113.4997328992
 11
150.4356544253
 21
113.4997328992
  0
LINE
  5
37B
100
AcDbEntity
  8
0
100
AcDbLine
 62
7
  6
CONTINUOUS
 10
150.4356544253
 20
115.0397328992
 11
157.1356544253
 21
115.0397328992
  0
LINE
  5
37C
100
AcDbEntity
  8
0
100
AcDbLine
 62
7
  6
CONTINUOUS
 10
170.4356544253
 20
115.0397328992
 11
177.1356544253
 21
115.0397328992
  0
LINE
  5
37D
100
AcDbEntity
  8
0
100
AcDbLine
 62
7
  6
CONTINUOUS
 10
190.4356544253
 20
115.0397328992
 11
197.1356544253
 21
115.0397328992
  0
LINE
  5
37E
100
AcDbEntity
  8
0
100
AcDbLine
 62
7
  6
CONTINUOUS
 10
197.1356544253
 20
118.5797328992
 11
190.4356544253
 21
118.5797328992
  0
LINE
  5
37F
100
AcDbEntity
  8
0
100
AcDbLine
 62
7
  6
CONTINUOUS
 10
177.1356544253
 20
118.5797328992
 11
170.4356544253
 21
118.5797328992
  0
LINE
  5
380
100
AcDbEntity
  8
0
100
AcDbLine
 62
7
  6
CONTINUOUS
 10
157.1356544253
 20
118.5797328992
 11
150.4356544253
 21
118.5797328992
  0
LINE
  5
381
100
AcDbEntity
  8
0
100
AcDbLine
 62
6
  6
CONTINUOUS
 10
144.1456544253
 20
119.3497328992
 11
159.1456544253
 21
119.3497328992
  0
LINE
  5
382
100
AcDbEntity
  8
0
100
AcDbLine
 62
6
  6
CONTINUOUS
 10
164.1456544253
 20
119.3497328992
 11
179.1456544253
 21
119.3497328992
  0
LINE
  5
383
100
AcDbEntity
  8
0
100
AcDbLine
 62
6
  6
CONTINUOUS
 10
184.1456544253
 20
119.3497328992
 11
199.1456544253
 21
119.3497328992
  0
LINE
  5
384
100
AcDbEntity
  8
0
100
AcDbLine
 62
6
  6
CONTINUOUS
 10
206.2856544253
 20
101.7297328992
 11
206.2856544253
 21
121.7297328992
  0
LINE
  5
385
100
AcDbEntity
  8
0
100
AcDbLine
 62
6
  6
CONTINUOUS
 10
141.7856544253
 20
120.2297328992
 11
206.2856544253
 21
120.2297328992
  0
LINE
  5
386
100
AcDbEntity
  8
0
100
AcDbLine
 62
6
  6
CONTINUOUS
 10
138.1856544253
 20
121.5297328992
 11
141.7356544253
 21
121.5297328992
  0
LINE
  5
387
100
AcDbEntity
  8
0
100
AcDbLine
 62
6
  6
CONTINUOUS
 10
141.7356544253
 20
121.7297328992
 11
251.7856544253
 21
121.7297328992
  0
LINE
  5
388
100
AcDbEntity
  8
0
100
AcDbLine
 62
6
  6
CONTINUOUS
 10
251.7856544253
 20
101.7297328992
 11
251.7856544253
 21
121.7297328992
  0
LINE
  5
389
100
AcDbEntity
  8
0
100
AcDbLine
 62
6
  6
CONTINUOUS
 10
332.2206453696
 20
65.6790536514
 11
342.9969527148
 21
60.2908999787
  0
LINE
  5
38A
100
AcDbEntity
  8
0
100
AcDbLine
 62
6
  6
CONTINUOUS
 10
336.2152865409
 20
66.9660312254
 11
338.0234703725
 21
66.0619393096
  0
LINE
  5
38B
100
AcDbEntity
  8
0
100
AcDbLine
 62
6
  6
CONTINUOUS
 10
339.8073889893
 20
65.1699800012
 11
341.6155728209
 21
64.2658880854
  0
LINE
  5
38C
100
AcDbEntity
  8
0
100
AcDbLine
 62
6
  6
CONTINUOUS
 10
326.4647961707
 20
72.2840747876
 11
340.324089082
 21
65.354428332
  0
LINE
  5
38D
100
AcDbEntity
  8
0
100
AcDbLine
 62
7
  6
CONTINUOUS
 10
341.2065169183
 20
64.9583197157
 11
340.8049216932
 21
65.1591173283
  0
LINE
  5
38E
100
AcDbEntity
  8
0
100
AcDbLine
 62
6
  6
CONTINUOUS
 10
351.8499296153
 20
59.8689304911
 11
352.9105897871
 21
59.3386004052
  0
LINE
  5
38F
100
AcDbEntity
  8
0
100
AcDbLine
 62
6
  6
CONTINUOUS
 10
347.85529601
 20
62.0445718114
 11
351.0564765031
 21
60.4439815648
  0
LINE
  5
390
100
AcDbEntity
  8
0
100
AcDbLine
 62
6
  6
CONTINUOUS
 10
353.0889143047
 20
59.427762664
 11
357.1390883386
 21
57.4026756471
  0
LINE
  5
391
100
AcDbEntity
  8
0
100
AcDbLine
 62
7
  6
CONTINUOUS
 10
341.0053923536
 20
65.5954893778
 11
342.4766716818
 21
64.8598497137
  0
LINE
  5
392
100
AcDbEntity
  8
0
100
AcDbLine
 62
7
  6
CONTINUOUS
 10
342.8343181552
 20
66.6095428686
 11
342.9757395114
 21
66.5388321905
  0
LINE
  5
393
100
AcDbEntity
  8
0
100
AcDbLine
 62
6
  6
CONTINUOUS
 10
342.8343181552
 20
68.2703689411
 11
342.9757395114
 21
68.199658263
  0
LINE
  5
394
100
AcDbEntity
  8
0
100
AcDbLine
 62
6
  6
CONTINUOUS
 10
365.992065239
 20
56.9807061594
 11
367.0527254108
 21
56.4503760735
  0
LINE
  5
395
100
AcDbEntity
  8
0
100
AcDbLine
 62
6
  6
CONTINUOUS
 10
361.9974316337
 20
59.1563474797
 11
365.1986121268
 21
57.5557572332
  0
LINE
  5
396
100
AcDbEntity
  8
0
100
AcDbLine
 62
6
  6
CONTINUOUS
 10
367.2310499285
 20
56.5395383323
 11
371.2812239623
 21
54.5144513154
  0
LINE
  5
397
100
AcDbEntity
  8
0
100
AcDbLine
 62
6
  6
CONTINUOUS
 10
342.6656346896
 20
66.5252011358
 11
351.8499296153
 21
59.8689304911
  0
LINE
  5
398
100
AcDbEntity
  8
0
100
AcDbLine
 62
6
  6
CONTINUOUS
 10
352.9105897871
 20
59.3386004052
 11
342.9757395114
 21
66.5388321905
  0
LINE
  5
399
100
AcDbEntity
  8
0
100
AcDbLine
 62
7
  6
CONTINUOUS
 10
342.8343181552
 20
68.8820345312
 11
342.9757395114
 21
68.8113238531
  0
LINE
  5
39A
100
AcDbEntity
  8
0
100
AcDbLine
 62
7
  6
CONTINUOUS
 10
342.9757395114
 20
70.5780156768
 11
342.8343181552
 21
70.648726355
  0
LINE
  5
39B
100
AcDbEntity
  8
0
100
AcDbLine
 62
6
  6
CONTINUOUS
 10
370.5153480882
 20
58.1816874122
 11
370.8794351236
 21
57.9996438945
  0
LINE
  5
39C
100
AcDbEntity
  8
0
100
AcDbLine
 62
6
  6
CONTINUOUS
 10
358.7263626592
 20
62.2464868412
 11
365.992065239
 21
56.9807061594
  0
LINE
  5
39D
100
AcDbEntity
  8
0
100
AcDbLine
 62
6
  6
CONTINUOUS
 10
367.0527254108
 20
56.4503760735
 11
358.9209974272
 21
62.3438042252
  0
LINE
  5
39E
100
AcDbEntity
  8
0
100
AcDbLine
 62
6
  6
CONTINUOUS
 10
326.4647961707
 20
128.0561107914
 11
326.4647961707
 21
72.2840747876
  0
LINE
  5
39F
100
AcDbEntity
  8
0
100
AcDbLine
 62
6
  6
CONTINUOUS
 10
350.3225789679
 20
157.0197543182
 11
346.3627809933
 21
154.3643555159
  0
LINE
  5
3A0
100
AcDbEntity
  8
0
100
AcDbLine
 62
6
  6
CONTINUOUS
 10
350.3225789679
 20
157.0197543182
 11
356.9693827111
 21
160.3431561897
  0
LINE
  5
3A1
100
AcDbEntity
  8
0
100
AcDbLine
 62
7
  6
CONTINUOUS
 10
356.0925703024
 20
159.3602777639
 11
351.3549548685
 21
156.9914700469
  0
LINE
  5
3A2
100
AcDbEntity
  8
0
100
AcDbLine
 62
7
  6
CONTINUOUS
 10
342.8272470874
 20
78.8805061928
 11
342.9757395114
 21
78.8062599808
  0
LINE
  5
3A3
100
AcDbEntity
  8
0
100
AcDbLine
 62
6
  6
CONTINUOUS
 10
342.8343181552
 20
78.9759656083
 11
342.9757395114
 21
78.9052549301
  0
LINE
  5
3A4
100
AcDbEntity
  8
0
100
AcDbLine
 62
7
  6
CONTINUOUS
 10
328.8336038877
 20
129.3819360061
 11
328.8336038877
 21
129.2405146499
  0
LINE
  5
3A5
100
AcDbEntity
  8
0
100
AcDbLine
 62
6
  6
CONTINUOUS
 10
332.2206453696
 20
69.4061501882
 11
332.2206453696
 21
65.6790536514
  0
LINE
  5
3A6
100
AcDbEntity
  8
0
100
AcDbLine
 62
6
  6
CONTINUOUS
 10
332.2206453696
 20
129.435843878
 11
332.2206453696
 21
137.3339955605
  0
LINE
  5
3A7
100
AcDbEntity
  8
0
100
AcDbLine
 62
6
  6
CONTINUOUS
 10
338.7684541633
 20
146.5170180671
 11
334.2225106686
 21
138.6764253388
  0
LINE
  5
3A8
100
AcDbEntity
  8
0
100
AcDbLine
 62
6
  6
CONTINUOUS
 10
332.2206453696
 20
135.2237184312
 11
328.8336038877
 21
129.3819360061
  0
LINE
  5
3A9
100
AcDbEntity
  8
0
100
AcDbLine
 62
6
  6
CONTINUOUS
 10
329.9296193985
 20
128.9125848599
 11
332.2206453696
 21
132.8640201537
  0
LINE
  5
3AA
100
AcDbEntity
  8
0
100
AcDbLine
 62
6
  6
CONTINUOUS
 10
336.4219082954
 20
140.1101268384
 11
339.8291143351
 21
145.9866879812
  0
LINE
  5
3AB
100
AcDbEntity
  8
0
100
AcDbLine
 62
7
  6
CONTINUOUS
 10
353.8581128739
 20
155.7398910442
 11
358.5957283078
 21
158.1086987612
  0
LINE
  5
3AC
100
AcDbEntity
  8
0
100
AcDbLine
 62
6
  6
CONTINUOUS
 10
359.6846727508
 20
157.5642265397
 11
354.9470573169
 21
155.1954188227
  0
LINE
  5
3AD
100
AcDbEntity
  8
0
100
AcDbLine
 62
6
  6
CONTINUOUS
 10
346.3627809933
 20
150.3141814821
 11
338.7684541633
 21
146.5170180671
  0
LINE
  5
3AE
100
AcDbEntity
  8
0
100
AcDbLine
 62
6
  6
CONTINUOUS
 10
346.3627809933
 20
149.2535213103
 11
339.8291143351
 21
145.9866879812
  0
LINE
  5
3AF
100
AcDbEntity
  8
0
100
AcDbLine
 62
7
  6
CONTINUOUS
 10
359.6846727508
 20
155.797534716
 11
356.7137491406
 21
154.3120729108
  0
LINE
  5
3B0
100
AcDbEntity
  8
0
100
AcDbLine
 62
6
  6
CONTINUOUS
 10
357.4502153223
 20
153.94383982
 11
362.1878307562
 21
156.312647537
  0
LINE
  5
3B1
100
AcDbEntity
  8
0
100
AcDbLine
 62
6
  6
CONTINUOUS
 10
336.1804433442
 20
139.9893943628
 11
332.2206453696
 21
137.3339955605
  0
LINE
  5
3B2
100
AcDbEntity
  8
0
100
AcDbLine
 62
6
  6
CONTINUOUS
 10
357.1390883386
 20
148.9762018433
 11
361.0988863132
 21
151.6316006455
  0
LINE
  5
3B3
100
AcDbEntity
  8
0
100
AcDbLine
 62
6
  6
CONTINUOUS
 10
406.6507051573
 20
178.2930800546
 11
363.8601200693
 21
156.8977875106
  0
LINE
  5
3B4
100
AcDbEntity
  8
0
100
AcDbLine
 62
7
  6
CONTINUOUS
 10
363.2767751993
 20
155.7681753155
 11
358.5391597653
 21
153.3993675985
  0
LINE
  5
3B5
100
AcDbEntity
  8
0
100
AcDbLine
 62
6
  6
CONTINUOUS
 10
346.3627809933
 20
147.0884578008
 11
342.3039880693
 21
145.0590613388
  0
LINE
  5
3B6
100
AcDbEntity
  8
0
100
AcDbLine
 62
7
  6
CONTINUOUS
 10
359.216907146
 20
153.0604939081
 11
362.1878307562
 21
154.5459557133
  0
LINE
  5
3B7
100
AcDbEntity
  8
0
100
AcDbLine
 62
6
  6
CONTINUOUS
 10
352.288672313
 20
149.4291494932
 11
350.3657129834
 21
148.4676698284
  0
LINE
  5
3B8
100
AcDbEntity
  8
0
100
AcDbLine
 62
6
  6
CONTINUOUS
 10
336.1804433442
 20
139.9893943628
 11
342.8272470874
 21
143.3127962344
  0
LINE
  5
3B9
100
AcDbEntity
  8
0
100
AcDbLine
 62
7
  6
CONTINUOUS
 10
361.0423177707
 20
152.1477885958
 11
365.7799332047
 21
154.5165963128
  0
LINE
  5
3BA
100
AcDbEntity
  8
0
100
AcDbLine
 62
7
  6
CONTINUOUS
 10
341.9504346787
 20
142.3299178085
 11
337.2128192447
 21
139.9611100915
  0
LINE
  5
3BB
100
AcDbEntity
  8
0
100
AcDbLine
 62
6
  6
CONTINUOUS
 10
361.0988863132
 20
151.6316006455
 11
367.7456900564
 21
154.9550025171
  0
LINE
  5
3BC
100
AcDbEntity
  8
0
100
AcDbLine
 62
7
  6
CONTINUOUS
 10
338.9795110685
 20
139.0777641797
 11
341.9504346787
 21
140.5632259848
  0
LINE
  5
3BD
100
AcDbEntity
  8
0
100
AcDbLine
 62
6
  6
CONTINUOUS
 10
340.324089082
 20
121.1264643357
 11
340.324089082
 21
65.354428332
  0
LINE
  5
3BE
100
AcDbEntity
  8
0
100
AcDbLine
 62
6
  6
CONTINUOUS
 10
342.3039880693
 20
143.0511667253
 11
342.3039880693
 21
145.0590613388
  0
LINE
  5
3BF
100
AcDbEntity
  8
0
100
AcDbLine
 62
7
  6
CONTINUOUS
 10
342.8272470874
 20
137.4095297407
 11
342.8272470874
 21
138.4984741837
  0
LINE
  5
3C0
100
AcDbEntity
  8
0
100
AcDbLine
 62
7
  6
CONTINUOUS
 10
342.8272470874
 20
140.2651660074
 11
342.8272470874
 21
141.8915116042
  0
LINE
  5
3C1
100
AcDbEntity
  8
0
100
AcDbLine
 62
7
  6
CONTINUOUS
 10
342.8343181552
 20
122.3815788723
 11
342.8343181552
 21
66.6095428686
  0
LINE
  5
3C2
100
AcDbEntity
  8
0
100
AcDbLine
 62
7
  6
CONTINUOUS
 10
342.9757395114
 20
66.5388321905
 11
342.9757395114
 21
122.3108681942
  0
LINE
  5
3C3
100
AcDbEntity
  8
0
100
AcDbLine
 62
6
  6
CONTINUOUS
 10
342.9969527148
 20
66.2850800962
 11
342.9969527148
 21
60.2908999787
  0
LINE
  5
3C4
100
AcDbEntity
  8
0
100
AcDbLine
 62
6
  6
CONTINUOUS
 10
342.9969527148
 20
124.7071538355
 11
342.9969527148
 21
131.9458418879
  0
LINE
  5
3C5
100
AcDbEntity
  8
0
100
AcDbLine
 62
6
  6
CONTINUOUS
 10
351.8499296153
 20
139.9762803411
 11
341.9504346787
 21
122.9021772198
  0
LINE
  5
3C6
100
AcDbEntity
  8
0
100
AcDbLine
 62
7
  6
CONTINUOUS
 10
339.7159772501
 20
138.7095310888
 11
344.4535926841
 21
141.0783388058
  0
LINE
  5
3C7
100
AcDbEntity
  8
0
100
AcDbLine
 62
7
  6
CONTINUOUS
 10
345.5425371271
 20
140.5338665843
 11
340.8049216932
 21
138.1650588673
  0
LINE
  5
3C8
100
AcDbEntity
  8
0
100
AcDbLine
 62
7
  6
CONTINUOUS
 10
344.4535926841
 20
139.3116469821
 11
341.4826690739
 21
137.826185177
  0
LINE
  5
3C9
100
AcDbEntity
  8
0
100
AcDbLine
 62
7
  6
CONTINUOUS
 10
342.5716135169
 20
137.2817129555
 11
345.5425371271
 21
138.7671747606
  0
LINE
  5
3CA
100
AcDbEntity
  8
0
100
AcDbLine
 62
7
  6
CONTINUOUS
 10
343.3080796986
 20
136.9134798646
 11
348.0456951325
 21
139.2822875816
  0
LINE
  5
3CB
100
AcDbEntity
  8
0
100
AcDbLine
 62
6
  6
CONTINUOUS
 10
328.9750252439
 20
129.311225328
 11
326.4647961707
 21
128.0561107914
  0
LINE
  5
3CC
100
AcDbEntity
  8
0
100
AcDbLine
 62
7
  6
CONTINUOUS
 10
349.1346395755
 20
138.7378153601
 11
344.3970241416
 21
136.3690076431
  0
LINE
  5
3CD
100
AcDbEntity
  8
0
100
AcDbLine
 62
6
  6
CONTINUOUS
 10
374.1237932227
 20
151.1132121448
 11
351.8499296153
 21
139.9762803411
  0
LINE
  5
3CE
100
AcDbEntity
  8
0
100
AcDbLine
 62
6
  6
CONTINUOUS
 10
329.9296193985
 20
128.9125848599
 11
332.2206453696
 21
130.0580978454
  0
LINE
  5
3CF
100
AcDbEntity
  8
0
100
AcDbLine
 62
6
  6
CONTINUOUS
 10
346.3627809933
 20
146.4662038334
 11
346.3627809933
 21
154.3643555159
  0
LINE
  5
3D0
100
AcDbEntity
  8
0
100
AcDbLine
 62
6
  6
CONTINUOUS
 10
342.9757395114
 20
122.3108681942
 11
352.9105897871
 21
139.4459502552
  0
LINE
  5
3D1
100
AcDbEntity
  8
0
100
AcDbLine
 62
6
  6
CONTINUOUS
 10
342.9969527148
 20
131.9458418879
 11
346.9567506895
 21
134.6012406901
  0
LINE
  5
3D2
100
AcDbEntity
  8
0
100
AcDbLine
 62
7
  6
CONTINUOUS
 10
348.0456951325
 20
137.5155957579
 11
345.0747715223
 21
136.0301339528
  0
LINE
  5
3D3
100
AcDbEntity
  8
0
100
AcDbLine
 62
6
  6
CONTINUOUS
 10
338.1465366893
 20
132.3987895378
 11
336.2235773596
 21
131.437309873
  0
LINE
  5
3D4
100
AcDbEntity
  8
0
100
AcDbLine
 62
6
  6
CONTINUOUS
 10
375.1844533945
 20
150.5828820589
 11
352.9105897871
 21
139.4459502552
  0
LINE
  5
3D5
100
AcDbEntity
  8
0
100
AcDbLine
 62
7
  6
CONTINUOUS
 10
346.1637159653
 20
135.4856617312
 11
349.1346395755
 21
136.9711235364
  0
LINE
  5
3D6
100
AcDbEntity
  8
0
100
AcDbLine
 62
7
  6
CONTINUOUS
 10
346.900182147
 20
135.1174286404
 11
349.9034197566
 21
136.6190474452
  0
LINE
  5
3D7
100
AcDbEntity
  8
0
100
AcDbLine
 62
6
  6
CONTINUOUS
 10
346.9567506895
 20
134.6012406901
 11
349.4588600493
 21
135.8522953701
  0
LINE
  5
3D8
100
AcDbEntity
  8
0
100
AcDbLine
 62
6
  6
CONTINUOUS
 10
375.1844533945
 20
148.4178185495
 11
420.792840781
 21
171.2220122427
  0
LINE
  5
3D9
100
AcDbEntity
  8
0
100
AcDbLine
 62
6
  6
CONTINUOUS
 10
356.9693827111
 20
158.9218715596
 11
356.9693827111
 21
157.2955259628
  0
LINE
  5
3DA
100
AcDbEntity
  8
0
100
AcDbLine
 62
6
  6
CONTINUOUS
 10
356.9693827111
 20
154.4398896961
 11
356.9693827111
 21
154.1842561256
  0
LINE
  5
3DB
100
AcDbEntity
  8
0
100
AcDbLine
 62
6
  6
CONTINUOUS
 10
357.1390883386
 20
61.4528496809
 11
357.1390883386
 21
57.4026756471
  0
LINE
  5
3DC
100
AcDbEntity
  8
0
100
AcDbLine
 62
6
  6
CONTINUOUS
 10
357.1390883386
 20
142.6208597028
 11
357.1390883386
 21
148.9762018433
  0
LINE
  5
3DD
100
AcDbEntity
  8
0
100
AcDbLine
 62
6
  6
CONTINUOUS
 10
342.8343181552
 20
122.3815788723
 11
340.324089082
 21
121.1264643357
  0
LINE
  5
3DE
100
AcDbEntity
  8
0
100
AcDbLine
 62
6
  6
CONTINUOUS
 10
359.6846727508
 20
157.5642265397
 11
359.6846727508
 21
155.797534716
  0
LINE
  5
3DF
100
AcDbEntity
  8
0
100
AcDbLine
 62
6
  6
CONTINUOUS
 10
362.1878307562
 20
155.223703094
 11
362.1878307562
 21
154.5459557133
  0
LINE
  5
3E0
100
AcDbEntity
  8
0
100
AcDbLine
 62
6
  6
CONTINUOUS
 10
326.4647961707
 20
128.0561107914
 11
340.324089082
 21
121.1264643357
  0
LINE
  5
3E1
100
AcDbEntity
  8
0
100
AcDbLine
 62
6
  6
CONTINUOUS
 10
367.7456900564
 20
154.9550025171
 11
367.7456900564
 21
147.9241605617
  0
LINE
  5
3E2
100
AcDbEntity
  8
0
100
AcDbLine
 62
7
  6
CONTINUOUS
 10
417.7169262828
 20
146.8123240797
 11
417.2573068751
 21
146.5825143758
  0
LINE
  5
3E3
100
AcDbEntity
  8
0
100
AcDbLine
 62
7
  6
CONTINUOUS
 10
418.3179670468
 20
145.3807936541
 11
418.0987639447
 21
145.271192103
  0
LINE
  5
3E4
100
AcDbEntity
  8
0
100
AcDbLine
 62
7
  6
CONTINUOUS
 10
342.9757395114
 20
122.3108681942
 11
342.8343181552
 21
122.3815788723
  0
LINE
  5
3E5
100
AcDbEntity
  8
0
100
AcDbLine
 62
6
  6
CONTINUOUS
 10
342.8343181552
 20
122.3815788723
 11
328.9750252439
 21
129.311225328
  0
LINE
  5
3E6
100
AcDbEntity
  8
0
100
AcDbLine
 62
7
  6
CONTINUOUS
 10
328.9750252439
 20
129.311225328
 11
328.8336038877
 21
129.3819360061
  0
LINE
  5
3E7
100
AcDbEntity
  8
0
100
AcDbLine
 62
6
  6
CONTINUOUS
 10
341.9504346787
 20
122.9021772198
 11
329.9296193985
 21
128.9125848599
  0
LINE
  5
3E8
100
AcDbEntity
  8
0
100
AcDbLine
 62
6
  6
CONTINUOUS
 10
342.7005305773
 20
124.1959012741
 11
332.2206453696
 21
129.435843878
  0
LINE
  5
3E9
100
AcDbEntity
  8
0
100
AcDbLine
 62
6
  6
CONTINUOUS
 10
371.2812239623
 20
58.5646253493
 11
371.2812239623
 21
54.5144513154
  0
LINE
  5
3EA
100
AcDbEntity
  8
0
100
AcDbLine
 62
7
  6
CONTINUOUS
 10
333.8211874568
 20
133.7064844082
 11
335.292466785
 21
132.9708447441
  0
LINE
  5
3EB
100
AcDbEntity
  8
0
100
AcDbLine
 62
7
  6
CONTINUOUS
 10
336.3336645626
 20
132.4502458553
 11
336.5598002443
 21
132.3371780144
  0
LINE
  5
3EC
100
AcDbEntity
  8
0
100
AcDbLine
 62
7
  6
CONTINUOUS
 10
337.4132899052
 20
131.910433184
 11
338.8845692334
 21
131.1747935199
  0
LINE
  5
3ED
100
AcDbEntity
  8
0
100
AcDbLine
 62
7
  6
CONTINUOUS
 10
339.925767011
 20
130.6541946311
 11
340.1519026927
 21
130.5411267902
  0
LINE
  5
3EE
100
AcDbEntity
  8
0
100
AcDbLine
 62
7
  6
CONTINUOUS
 10
341.0053923536
 20
130.1143819598
 11
342.4766716818
 21
129.3787422957
  0
LINE
  5
3EF
100
AcDbEntity
  8
0
100
AcDbLine
 62
7
  6
CONTINUOUS
 10
341.7173188951
 20
130.6244440928
 11
341.0053923536
 21
130.9804073635
  0
LINE
  5
3F0
100
AcDbEntity
  8
0
100
AcDbLine
 62
7
  6
CONTINUOUS
 10
338.1252164467
 20
132.420495317
 11
337.4132899052
 21
132.7764585878
  0
LINE
  5
3F1
100
AcDbEntity
  8
0
100
AcDbLine
 62
7
  6
CONTINUOUS
 10
334.5331139983
 20
134.2165465412
 11
333.8211874568
 21
134.572509812
  0
LINE
  5
3F2
100
AcDbEntity
  8
0
100
AcDbLine
 62
6
  6
CONTINUOUS
 10
342.9969527148
 20
131.9458418879
 11
332.2206453696
 21
137.3339955605
  0
LINE
  5
3F3
100
AcDbEntity
  8
0
100
AcDbLine
 62
7
  6
CONTINUOUS
 10
375.1844533945
 20
150.5828820589
 11
375.1844533945
 21
148.4178185495
  0
LINE
  5
3F4
100
AcDbEntity
  8
0
100
AcDbLine
 62
6
  6
CONTINUOUS
 10
346.9567506895
 20
134.6012406901
 11
336.1804433442
 21
139.9893943628
  0
LINE
  5
3F5
100
AcDbEntity
  8
0
100
AcDbLine
 62
7
  6
CONTINUOUS
 10
337.2128192447
 20
139.9611100915
 11
339.7159772501
 21
138.7095310888
  0
LINE
  5
3F6
100
AcDbEntity
  8
0
100
AcDbLine
 62
7
  6
CONTINUOUS
 10
340.8049216932
 20
138.1650588673
 11
343.3080796986
 21
136.9134798646
  0
LINE
  5
3F7
100
AcDbEntity
  8
0
100
AcDbLine
 62
7
  6
CONTINUOUS
 10
344.3970241416
 20
136.3690076431
 11
346.900182147
 21
135.1174286404
  0
LINE
  5
3F8
100
AcDbEntity
  8
0
100
AcDbLine
 62
6
  6
CONTINUOUS
 10
381.8878256801
 20
59.1422523594
 11
381.8878256801
 21
63.8679262082
  0
LINE
  5
3F9
100
AcDbEntity
  8
0
100
AcDbLine
 62
7
  6
CONTINUOUS
 10
341.9504346787
 20
140.5632259848
 11
342.6869008604
 21
140.194992894
  0
LINE
  5
3FA
100
AcDbEntity
  8
0
100
AcDbLine
 62
7
  6
CONTINUOUS
 10
343.7758453034
 20
139.6505206724
 11
344.4535926841
 21
139.3116469821
  0
LINE
  5
3FB
100
AcDbEntity
  8
0
100
AcDbLine
 62
7
  6
CONTINUOUS
 10
345.5425371271
 20
138.7671747606
 11
346.2790033088
 21
138.3989416697
  0
LINE
  5
3FC
100
AcDbEntity
  8
0
100
AcDbLine
 62
7
  6
CONTINUOUS
 10
347.3679477518
 20
137.8544694482
 11
348.0456951325
 21
137.5155957579
  0
LINE
  5
3FD
100
AcDbEntity
  8
0
100
AcDbLine
 62
7
  6
CONTINUOUS
 10
349.1346395755
 20
136.9711235364
 11
349.8711057572
 21
136.6028904455
  0
LINE
  5
3FE
100
AcDbEntity
  8
0
100
AcDbLine
 62
7
  6
CONTINUOUS
 10
350.6830047987
 20
137.9636327485
 11
349.1346395755
 21
138.7378153601
  0
LINE
  5
3FF
100
AcDbEntity
  8
0
100
AcDbLine
 62
7
  6
CONTINUOUS
 10
348.0456951325
 20
139.2822875816
 11
345.5425371271
 21
140.5338665843
  0
LINE
  5
400
100
AcDbEntity
  8
0
100
AcDbLine
 62
7
  6
CONTINUOUS
 10
344.4535926841
 20
141.0783388058
 11
341.9504346787
 21
142.3299178085
  0
LINE
  5
401
100
AcDbEntity
  8
0
100
AcDbLine
 62
7
  6
CONTINUOUS
 10
342.8272470874
 20
143.3127962344
 11
351.3218576616
 21
139.0654909472
  0
LINE
  5
402
100
AcDbEntity
  8
0
100
AcDbLine
 62
6
  6
CONTINUOUS
 10
388.619482237
 20
67.2337544866
 11
388.619482237
 21
79.3581101396
  0
LINE
  5
403
100
AcDbEntity
  8
0
100
AcDbLine
 62
6
  6
CONTINUOUS
 10
338.7684541633
 20
146.5170180671
 11
339.8291143351
 21
145.9866879812
  0
LINE
  5
404
100
AcDbEntity
  8
0
100
AcDbLine
 62
6
  6
CONTINUOUS
 10
351.8499296153
 20
139.9762803411
 11
352.9105897871
 21
139.4459502552
  0
LINE
  5
405
100
AcDbEntity
  8
0
100
AcDbLine
 62
6
  6
CONTINUOUS
 10
352.15973984
 20
140.1311854535
 11
342.3039880693
 21
145.0590613388
  0
LINE
  5
406
100
AcDbEntity
  8
0
100
AcDbLine
 62
6
  6
CONTINUOUS
 10
355.5962787966
 20
141.8494549317
 11
346.3627809933
 21
146.4662038334
  0
LINE
  5
407
100
AcDbEntity
  8
0
100
AcDbLine
 62
7
  6
CONTINUOUS
 10
418.0987639447
 20
118.7794750013
 11
418.3179670468
 21
118.8890765524
  0
LINE
  5
408
100
AcDbEntity
  8
0
100
AcDbLine
 62
7
  6
CONTINUOUS
 10
417.2573068751
 20
116.6266956589
 11
417.7169262828
 21
116.8565053628
  0
LINE
  5
409
100
AcDbEntity
  8
0
100
AcDbLine
 62
7
  6
CONTINUOUS
 10
347.9633230805
 20
150.7368443636
 11
349.4346024087
 21
150.0012046995
  0
LINE
  5
40A
100
AcDbEntity
  8
0
100
AcDbLine
 62
7
  6
CONTINUOUS
 10
350.4758001863
 20
149.4806058107
 11
350.701935868
 21
149.3675379698
  0
LINE
  5
40B
100
AcDbEntity
  8
0
100
AcDbLine
 62
7
  6
CONTINUOUS
 10
351.5554255289
 20
148.9407931394
 11
353.0267048571
 21
148.2051534753
  0
LINE
  5
40C
100
AcDbEntity
  8
0
100
AcDbLine
 62
7
  6
CONTINUOUS
 10
354.0679026347
 20
147.6845545865
 11
354.2940383165
 21
147.5714867456
  0
LINE
  5
40D
100
AcDbEntity
  8
0
100
AcDbLine
 62
7
  6
CONTINUOUS
 10
355.1475279774
 20
147.1447419151
 11
356.6188073056
 21
146.409102251
  0
LINE
  5
40E
100
AcDbEntity
  8
0
100
AcDbLine
 62
7
  6
CONTINUOUS
 10
355.8594545189
 20
147.6548040482
 11
355.1475279774
 21
148.0107673189
  0
LINE
  5
40F
100
AcDbEntity
  8
0
100
AcDbLine
 62
7
  6
CONTINUOUS
 10
352.2673520704
 20
149.4508552724
 11
351.5554255289
 21
149.8068185431
  0
LINE
  5
410
100
AcDbEntity
  8
0
100
AcDbLine
 62
7
  6
CONTINUOUS
 10
348.675249622
 20
151.2469064966
 11
347.9633230805
 21
151.6028697674
  0
LINE
  5
411
100
AcDbEntity
  8
0
100
AcDbLine
 62
7
  6
CONTINUOUS
 10
417.7169262828
 20
116.8565053628
 11
417.2573068751
 21
117.0863150667
  0
LINE
  5
412
100
AcDbEntity
  8
0
100
AcDbLine
 62
6
  6
CONTINUOUS
 10
420.792840781
 20
149.5020951158
 11
418.3179670468
 21
145.3807936541
  0
LINE
  5
413
100
AcDbEntity
  8
0
100
AcDbLine
 62
6
  6
CONTINUOUS
 10
357.1390883386
 20
148.9762018433
 11
346.3627809933
 21
154.3643555159
  0
LINE
  5
414
100
AcDbEntity
  8
0
100
AcDbLine
 62
7
  6
CONTINUOUS
 10
417.2573068751
 20
119.2002035361
 11
418.0987639447
 21
118.7794750013
  0
LINE
  5
415
100
AcDbEntity
  8
0
100
AcDbLine
 62
7
  6
CONTINUOUS
 10
418.3179670468
 20
118.8890765524
 11
417.2573068751
 21
119.4194066383
  0
LINE
  5
416
100
AcDbEntity
  8
0
100
AcDbLine
 62
6
  6
CONTINUOUS
 10
361.0988863132
 20
151.6316006455
 11
350.3225789679
 21
157.0197543182
  0
LINE
  5
417
100
AcDbEntity
  8
0
100
AcDbLine
 62
7
  6
CONTINUOUS
 10
351.3549548685
 20
156.9914700469
 11
353.8581128739
 21
155.7398910442
  0
LINE
  5
418
100
AcDbEntity
  8
0
100
AcDbLine
 62
6
  6
CONTINUOUS
 10
354.9470573169
 20
155.1954188227
 11
357.4502153223
 21
153.94383982
  0
LINE
  5
419
100
AcDbEntity
  8
0
100
AcDbLine
 62
7
  6
CONTINUOUS
 10
358.5391597653
 20
153.3993675985
 11
361.0423177707
 21
152.1477885958
  0
LINE
  5
41A
100
AcDbEntity
  8
0
100
AcDbLine
 62
6
  6
CONTINUOUS
 10
336.2108145738
 20
66.9986384386
 11
336.6232417213
 21
67.2048520123
  0
LINE
  5
41B
100
AcDbEntity
  8
0
100
AcDbLine
 62
7
  6
CONTINUOUS
 10
342.8343181552
 20
69.029451826
 11
342.9757395114
 21
69.1001625042
  0
LINE
  5
41C
100
AcDbEntity
  8
0
100
AcDbLine
 62
6
  6
CONTINUOUS
 10
342.9757395114
 20
67.5561910921
 11
342.8343181552
 21
67.485480414
  0
LINE
  5
41D
100
AcDbEntity
  8
0
100
AcDbLine
 62
6
  6
CONTINUOUS
 10
340.324089082
 20
65.354428332
 11
342.8343181552
 21
66.6095428686
  0
LINE
  5
41E
100
AcDbEntity
  8
0
100
AcDbLine
 62
7
  6
CONTINUOUS
 10
340.8049216932
 20
65.1591173283
 11
341.0811023107
 21
65.2972076371
  0
LINE
  5
41F
100
AcDbEntity
  8
0
100
AcDbLine
 62
7
  6
CONTINUOUS
 10
341.3415290729
 20
65.4274210182
 11
342.0143000664
 21
65.7638065149
  0
LINE
  5
420
100
AcDbEntity
  8
0
100
AcDbLine
 62
7
  6
CONTINUOUS
 10
360.4211389325
 20
155.4293016251
 11
359.6846727508
 21
155.797534716
  0
LINE
  5
421
100
AcDbEntity
  8
0
100
AcDbLine
 62
7
  6
CONTINUOUS
 10
365.7799332047
 20
154.5165963128
 11
363.2767751993
 21
155.7681753155
  0
LINE
  5
422
100
AcDbEntity
  8
0
100
AcDbLine
 62
6
  6
CONTINUOUS
 10
362.1878307562
 20
156.312647537
 11
359.6846727508
 21
157.5642265397
  0
LINE
  5
423
100
AcDbEntity
  8
0
100
AcDbLine
 62
7
  6
CONTINUOUS
 10
358.5957283078
 20
158.1086987612
 11
356.0925703024
 21
159.3602777639
  0
LINE
  5
424
100
AcDbEntity
  8
0
100
AcDbLine
 62
7
  6
CONTINUOUS
 10
374.1237932227
 20
151.1132121448
 11
375.1844533945
 21
150.5828820589
  0
LINE
  5
425
100
AcDbEntity
  8
0
100
AcDbLine
 62
6
  6
CONTINUOUS
 10
418.3179670468
 20
118.8890765524
 11
420.792840781
 21
117.1647065385
  0
LINE
  5
426
100
AcDbEntity
  8
0
100
AcDbLine
 62
6
  6
CONTINUOUS
 10
367.7456900564
 20
154.9550025171
 11
356.9693827111
 21
160.3431561897
  0
LINE
  5
427
100
AcDbEntity
  8
0
100
AcDbLine
 62
6
  6
CONTINUOUS
 10
346.9567506895
 20
61.5952991511
 11
348.4427235755
 21
62.3382855941
  0
LINE
  5
428
100
AcDbEntity
  8
0
100
AcDbLine
 62
6
  6
CONTINUOUS
 10
420.792840781
 20
95.4447894116
 11
388.619482237
 21
79.3581101396
  0
LINE
  5
429
100
AcDbEntity
  8
0
100
AcDbLine
 62
6
  6
CONTINUOUS
 10
352.9105897871
 20
59.3386004052
 11
358.9209974272
 21
62.3438042252
  0
LINE
  5
42A
100
AcDbEntity
  8
0
100
AcDbLine
 62
6
  6
CONTINUOUS
 10
417.2573068751
 20
146.5825143758
 11
417.2573068751
 21
116.6266956589
  0
LINE
  5
42B
100
AcDbEntity
  8
0
100
AcDbLine
 62
6
  6
CONTINUOUS
 10
420.792840781
 20
95.4447894116
 11
420.792840781
 21
117.1647065385
  0
LINE
  5
42C
100
AcDbEntity
  8
0
100
AcDbLine
 62
6
  6
CONTINUOUS
 10
420.792840781
 20
149.5020951158
 11
420.792840781
 21
171.2220122427
  0
LINE
  5
42D
100
AcDbEntity
  8
0
100
AcDbLine
 62
6
  6
CONTINUOUS
 10
417.7169262828
 20
116.8565053628
 11
418.0987639447
 21
118.7794750013
  0
LINE
  5
42E
100
AcDbEntity
  8
0
100
AcDbLine
 62
6
  6
CONTINUOUS
 10
361.0988863132
 20
58.7070748195
 11
362.5848591993
 21
59.4500612625
  0
LINE
  5
42F
100
AcDbEntity
  8
0
100
AcDbLine
 62
6
  6
CONTINUOUS
 10
346.9567506895
 20
61.5952991511
 11
342.9969527148
 21
60.2908999787
  0
LINE
  5
430
100
AcDbEntity
  8
0
100
AcDbLine
 62
7
  6
CONTINUOUS
 10
418.0987639447
 20
145.271192103
 11
417.2573068751
 21
145.6919206379
  0
LINE
  5
431
100
AcDbEntity
  8
0
100
AcDbLine
 62
6
  6
CONTINUOUS
 10
367.0527254108
 20
56.4503760735
 11
388.619482237
 21
67.2337544866
  0
LINE
  5
432
100
AcDbEntity
  8
0
100
AcDbLine
 62
6
  6
CONTINUOUS
 10
361.0988863132
 20
58.7070748195
 11
357.1390883386
 21
57.4026756471
  0
LINE
  5
433
100
AcDbEntity
  8
0
100
AcDbLine
 62
6
  6
CONTINUOUS
 10
418.0987639447
 20
145.271192103
 11
417.7169262828
 21
146.8123240797
  0
LINE
  5
434
100
AcDbEntity
  8
0
100
AcDbLine
 62
6
  6
CONTINUOUS
 10
375.2410219369
 20
55.8188504878
 11
381.8878256801
 21
59.1422523594
  0
LINE
  5
435
100
AcDbEntity
  8
0
100
AcDbLine
 62
6
  6
CONTINUOUS
 10
375.2410219369
 20
55.8188504878
 11
371.2812239623
 21
54.5144513154
  0
LINE
  5
436
100
AcDbEntity
  8
0
100
AcDbLine
 62
6
  6
CONTINUOUS
 10
406.6507051573
 20
178.2930800546
 11
420.792840781
 21
171.2220122427
  0
LINE
  5
437
100
AcDbEntity
  8
0
100
AcDbLine
 62
6
  6
CONTINUOUS
 10
453.5157804786
 20
55.9585634813
 11
439.3736448549
 21
63.0296312931
  0
LINE
  5
438
100
AcDbEntity
  8
0
100
AcDbLine
 62
6
  6
CONTINUOUS
 10
503.0273972973
 20
176.8489678888
 11
499.0675993227
 21
175.5445687164
  0
LINE
  5
439
100
AcDbEntity
  8
0
100
AcDbLine
 62
6
  6
CONTINUOUS
 10
489.0549673011
 20
56.8781273907
 11
478.2786599558
 21
62.2662810634
  0
LINE
  5
43A
100
AcDbEntity
  8
0
100
AcDbLine
 62
6
  6
CONTINUOUS
 10
485.6891390226
 20
59.9208871003
 11
484.6284788508
 21
60.4512171862
  0
LINE
  5
43B
100
AcDbEntity
  8
0
100
AcDbLine
 62
6
  6
CONTINUOUS
 10
439.3736448549
 20
63.0296312931
 11
439.3736448549
 21
84.74954842
  0
LINE
  5
43C
100
AcDbEntity
  8
0
100
AcDbLine
 62
6
  6
CONTINUOUS
 10
439.3736448549
 20
117.0869369973
 11
439.3736448549
 21
138.8068541243
  0
LINE
  5
43D
100
AcDbEntity
  8
0
100
AcDbLine
 62
6
  6
CONTINUOUS
 10
499.0675993227
 20
175.5445687164
 11
492.4207955795
 21
172.2211668448
  0
LINE
  5
43E
100
AcDbEntity
  8
0
100
AcDbLine
 62
7
  6
CONTINUOUS
 10
499.1241678652
 20
175.0283807661
 11
494.3865524312
 21
172.6595730491
  0
LINE
  5
43F
100
AcDbEntity
  8
0
100
AcDbLine
 62
6
  6
CONTINUOUS
 10
453.5157804786
 20
77.6784806082
 11
439.3736448549
 21
84.74954842
  0
LINE
  5
440
100
AcDbEntity
  8
0
100
AcDbLine
 62
6
  6
CONTINUOUS
 10
484.6284788508
 20
62.6162806956
 11
475.7298468791
 21
67.0655966815
  0
LINE
  5
441
100
AcDbEntity
  8
0
100
AcDbLine
 62
6
  6
CONTINUOUS
 10
442.1297119039
 20
88.8081955107
 11
442.0677216912
 21
89.0583937191
  0
LINE
  5
442
100
AcDbEntity
  8
0
100
AcDbLine
 62
6
  6
CONTINUOUS
 10
442.9091787608
 20
114.9101791839
 11
442.9091787608
 21
88.6376651843
  0
LINE
  5
443
100
AcDbEntity
  8
0
100
AcDbLine
 62
6
  6
CONTINUOUS
 10
445.4547631731
 20
88.638621137
 11
445.4547631731
 21
89.9809605129
  0
LINE
  5
444
100
AcDbEntity
  8
0
100
AcDbLine
 62
6
  6
CONTINUOUS
 10
445.4547631731
 20
90.7603833763
 11
445.4547631731
 21
93.445062128
  0
LINE
  5
445
100
AcDbEntity
  8
0
100
AcDbLine
 62
6
  6
CONTINUOUS
 10
445.4547631731
 20
94.2244849914
 11
445.4547631731
 21
95.4802218269
  0
LINE
  5
446
100
AcDbEntity
  8
0
100
AcDbLine
 62
6
  6
CONTINUOUS
 10
445.4547631731
 20
100.6763742496
 11
445.4547631731
 21
102.6249314081
  0
LINE
  5
447
100
AcDbEntity
  8
0
100
AcDbLine
 62
6
  6
CONTINUOUS
 10
445.4547631731
 20
103.4043542716
 11
445.4547631731
 21
104.7899949176
  0
LINE
  5
448
100
AcDbEntity
  8
0
100
AcDbLine
 62
6
  6
CONTINUOUS
 10
445.4547631731
 20
105.569417781
 11
445.4547631731
 21
106.9550584271
  0
LINE
  5
449
100
AcDbEntity
  8
0
100
AcDbLine
 62
6
  6
CONTINUOUS
 10
445.4547631731
 20
107.7344812905
 11
445.4547631731
 21
108.990218126
  0
LINE
  5
44A
100
AcDbEntity
  8
0
100
AcDbLine
 62
7
  6
CONTINUOUS
 10
496.8897104366
 20
171.4079940464
 11
501.6273258706
 21
173.7768017634
  0
LINE
  5
44B
100
AcDbEntity
  8
0
100
AcDbLine
 62
6
  6
CONTINUOUS
 10
502.7162703136
 20
173.2323295419
 11
497.9786548797
 21
170.8635218249
  0
LINE
  5
44C
100
AcDbEntity
  8
0
100
AcDbLine
 62
6
  6
CONTINUOUS
 10
484.9820322414
 20
163.776111327
 11
492.4207955795
 21
167.495492996
  0
LINE
  5
44D
100
AcDbEntity
  8
0
100
AcDbLine
 62
6
  6
CONTINUOUS
 10
507.0775713312
 20
174.8238808718
 11
507.2558958488
 21
174.9130431307
  0
LINE
  5
44E
100
AcDbEntity
  8
0
100
AcDbLine
 62
6
  6
CONTINUOUS
 10
486.0426924132
 20
163.2457812411
 11
492.4207955795
 21
166.4348328243
  0
LINE
  5
44F
100
AcDbEntity
  8
0
100
AcDbLine
 62
6
  6
CONTINUOUS
 10
508.1382315029
 20
174.293550786
 11
508.3165560206
 21
174.3827130448
  0
LINE
  5
450
100
AcDbEntity
  8
0
100
AcDbLine
 62
7
  6
CONTINUOUS
 10
502.7162703136
 20
171.4656377182
 11
499.7453467034
 21
169.9801759131
  0
LINE
  5
451
100
AcDbEntity
  8
0
100
AcDbLine
 62
6
  6
CONTINUOUS
 10
500.4818128851
 20
169.6119428222
 11
505.219428319
 21
171.9807505392
  0
LINE
  5
452
100
AcDbEntity
  8
0
100
AcDbLine
 62
6
  6
CONTINUOUS
 10
484.9820322414
 20
161.6110478175
 11
439.3736448549
 21
138.8068541243
  0
LINE
  5
453
100
AcDbEntity
  8
0
100
AcDbLine
 62
7
  6
CONTINUOUS
 10
506.308372762
 20
171.4362783177
 11
501.5707573281
 21
169.0674706007
  0
LINE
  5
454
100
AcDbEntity
  8
0
100
AcDbLine
 62
6
  6
CONTINUOUS
 10
517.1695329211
 20
173.9607435571
 11
513.2097349464
 21
172.6563443847
  0
LINE
  5
455
100
AcDbEntity
  8
0
100
AcDbLine
 62
6
  6
CONTINUOUS
 10
509.843906668
 20
170.1564150437
 11
513.8037046426
 21
171.4608142161
  0
LINE
  5
456
100
AcDbEntity
  8
0
100
AcDbLine
 62
7
  6
CONTINUOUS
 10
457.0513143846
 20
80.6760036345
 11
456.4617154987
 21
80.9708030774
  0
LINE
  5
457
100
AcDbEntity
  8
0
100
AcDbLine
 62
7
  6
CONTINUOUS
 10
441.8485185891
 20
88.9487921681
 11
455.9906542128
 21
81.8777243562
  0
LINE
  5
458
100
AcDbEntity
  8
0
100
AcDbLine
 62
7
  6
CONTINUOUS
 10
456.209857315
 20
81.9873259073
 11
442.0677216912
 21
89.0583937191
  0
LINE
  5
459
100
AcDbEntity
  8
0
100
AcDbLine
 62
6
  6
CONTINUOUS
 10
447.5760835167
 20
87.5779609652
 11
445.4547631731
 21
88.638621137
  0
LINE
  5
45A
100
AcDbEntity
  8
0
100
AcDbLine
 62
7
  6
CONTINUOUS
 10
445.4547631731
 20
89.9809605129
 11
447.5760835167
 21
88.9203003411
  0
LINE
  5
45B
100
AcDbEntity
  8
0
100
AcDbLine
 62
7
  6
CONTINUOUS
 10
447.5760835167
 20
89.6997232045
 11
445.4547631731
 21
90.7603833763
  0
LINE
  5
45C
100
AcDbEntity
  8
0
100
AcDbLine
 62
6
  6
CONTINUOUS
 10
447.5760835167
 20
87.5779609652
 11
447.5760835167
 21
88.9203003411
  0
LINE
  5
45D
100
AcDbEntity
  8
0
100
AcDbLine
 62
6
  6
CONTINUOUS
 10
447.5760835167
 20
89.6997232045
 11
447.5760835167
 21
92.3844019563
  0
LINE
  5
45E
100
AcDbEntity
  8
0
100
AcDbLine
 62
6
  6
CONTINUOUS
 10
447.5760835167
 20
93.1638248197
 11
447.5760835167
 21
94.4195616551
  0
LINE
  5
45F
100
AcDbEntity
  8
0
100
AcDbLine
 62
6
  6
CONTINUOUS
 10
447.5760835167
 20
99.6157140779
 11
447.5760835167
 21
101.5642712364
  0
LINE
  5
460
100
AcDbEntity
  8
0
100
AcDbLine
 62
6
  6
CONTINUOUS
 10
447.5760835167
 20
102.3436940998
 11
447.5760835167
 21
103.7293347458
  0
LINE
  5
461
100
AcDbEntity
  8
0
100
AcDbLine
 62
6
  6
CONTINUOUS
 10
447.5760835167
 20
104.5087576092
 11
447.5760835167
 21
105.8943982553
  0
LINE
  5
462
100
AcDbEntity
  8
0
100
AcDbLine
 62
6
  6
CONTINUOUS
 10
447.5760835167
 20
106.6738211187
 11
447.5760835167
 21
107.9295579542
  0
LINE
  5
463
100
AcDbEntity
  8
0
100
AcDbLine
 62
6
  6
CONTINUOUS
 10
448.9195864009
 20
93.0561533984
 11
448.9195864009
 21
93.8355762618
  0
LINE
  5
464
100
AcDbEntity
  8
0
100
AcDbLine
 62
6
  6
CONTINUOUS
 10
448.9195864009
 20
102.4087858635
 11
448.9195864009
 21
103.0154455419
  0
LINE
  5
465
100
AcDbEntity
  8
0
100
AcDbLine
 62
6
  6
CONTINUOUS
 10
448.9195864009
 20
105.1367658855
 11
448.9195864009
 21
105.1805090514
  0
LINE
  5
466
100
AcDbEntity
  8
0
100
AcDbLine
 62
6
  6
CONTINUOUS
 10
448.9195864009
 20
107.3018293949
 11
448.9195864009
 21
107.3455725608
  0
LINE
  5
467
100
AcDbEntity
  8
0
100
AcDbLine
 62
6
  6
CONTINUOUS
 10
451.0409067445
 20
89.3103725792
 11
451.0409067445
 21
90.652711955
  0
LINE
  5
468
100
AcDbEntity
  8
0
100
AcDbLine
 62
6
  6
CONTINUOUS
 10
451.0409067445
 20
91.4321348184
 11
451.0409067445
 21
94.1168135702
  0
LINE
  5
469
100
AcDbEntity
  8
0
100
AcDbLine
 62
6
  6
CONTINUOUS
 10
451.0409067445
 20
94.8962364336
 11
451.0409067445
 21
96.1519732691
  0
LINE
  5
46A
100
AcDbEntity
  8
0
100
AcDbLine
 62
6
  6
CONTINUOUS
 10
451.0409067445
 20
101.3481256918
 11
451.0409067445
 21
103.2966828503
  0
LINE
  5
46B
100
AcDbEntity
  8
0
100
AcDbLine
 62
6
  6
CONTINUOUS
 10
451.0409067445
 20
104.0761057137
 11
451.0409067445
 21
105.4617463597
  0
LINE
  5
46C
100
AcDbEntity
  8
0
100
AcDbLine
 62
6
  6
CONTINUOUS
 10
451.0409067445
 20
106.2411692231
 11
451.0409067445
 21
107.6268098692
  0
LINE
  5
46D
100
AcDbEntity
  8
0
100
AcDbLine
 62
6
  6
CONTINUOUS
 10
451.0409067445
 20
108.4062327326
 11
451.0409067445
 21
109.6619695681
  0
LINE
  5
46E
100
AcDbEntity
  8
0
100
AcDbLine
 62
6
  6
CONTINUOUS
 10
486.0426924132
 20
161.0807177316
 11
492.4207955795
 21
164.2697693148
  0
LINE
  5
46F
100
AcDbEntity
  8
0
100
AcDbLine
 62
6
  6
CONTINUOUS
 10
505.219428319
 20
170.6690856845
 11
505.8416822864
 21
170.9802126683
  0
LINE
  5
470
100
AcDbEntity
  8
0
100
AcDbLine
 62
7
  6
CONTINUOUS
 10
502.2485047088
 20
168.7285969104
 11
505.219428319
 21
170.2140587155
  0
LINE
  5
471
100
AcDbEntity
  8
0
100
AcDbLine
 62
6
  6
CONTINUOUS
 10
502.4157317072
 20
168.6449834112
 11
503.0273972973
 21
168.9508162062
  0
LINE
  5
472
100
AcDbEntity
  8
0
100
AcDbLine
 62
6
  6
CONTINUOUS
 10
513.2097349464
 20
172.6563443847
 11
512.3111896259
 21
172.2070717245
  0
LINE
  5
473
100
AcDbEntity
  8
0
100
AcDbLine
 62
6
  6
CONTINUOUS
 10
508.5389877872
 20
170.3209708051
 11
508.4551363789
 21
170.279045101
  0
LINE
  5
474
100
AcDbEntity
  8
0
100
AcDbLine
 62
6
  6
CONTINUOUS
 10
508.0023804074
 20
170.0526671152
 11
507.8495768999
 21
169.9762653615
  0
LINE
  5
475
100
AcDbEntity
  8
0
100
AcDbLine
 62
7
  6
CONTINUOUS
 10
504.0739153335
 20
167.815891598
 11
508.8115307674
 21
170.184699315
  0
LINE
  5
476
100
AcDbEntity
  8
0
100
AcDbLine
 62
7
  6
CONTINUOUS
 10
513.2663034889
 20
172.1401564345
 11
512.8556618474
 21
171.9348356137
  0
LINE
  5
477
100
AcDbEntity
  8
0
100
AcDbLine
 62
6
  6
CONTINUOUS
 10
509.843906668
 20
170.1564150437
 11
503.1971029248
 21
166.8330131722
  0
LINE
  5
478
100
AcDbEntity
  8
0
100
AcDbLine
 62
7
  6
CONTINUOUS
 10
513.8037046426
 20
169.9056990059
 11
515.7694614943
 21
170.8885774318
  0
LINE
  5
479
100
AcDbEntity
  8
0
100
AcDbLine
 62
6
  6
CONTINUOUS
 10
523.9860422917
 20
167.2681907121
 11
527.9458402663
 21
168.5725898845
  0
LINE
  5
47A
100
AcDbEntity
  8
0
100
AcDbLine
 62
6
  6
CONTINUOUS
 10
449.6985673686
 20
89.9815422671
 11
448.9195864009
 21
90.3710327509
  0
LINE
  5
47B
100
AcDbEntity
  8
0
100
AcDbLine
 62
7
  6
CONTINUOUS
 10
445.4547631731
 20
93.445062128
 11
447.5760835167
 21
92.3844019563
  0
LINE
  5
47C
100
AcDbEntity
  8
0
100
AcDbLine
 62
7
  6
CONTINUOUS
 10
451.0409067445
 20
90.652711955
 11
450.2614838811
 21
91.0424233867
  0
LINE
  5
47D
100
AcDbEntity
  8
0
100
AcDbLine
 62
7
  6
CONTINUOUS
 10
447.5760835167
 20
93.1638248197
 11
445.4547631731
 21
94.2244849914
  0
LINE
  5
47E
100
AcDbEntity
  8
0
100
AcDbLine
 62
6
  6
CONTINUOUS
 10
447.5760835167
 20
94.4195616551
 11
445.4547631731
 21
95.4802218269
  0
LINE
  5
47F
100
AcDbEntity
  8
0
100
AcDbLine
 62
7
  6
CONTINUOUS
 10
451.0409067445
 20
94.1168135702
 11
450.2614838811
 21
94.5065250019
  0
LINE
  5
480
100
AcDbEntity
  8
0
100
AcDbLine
 62
6
  6
CONTINUOUS
 10
456.209857315
 20
81.9873259073
 11
456.5916949768
 21
80.4461939306
  0
LINE
  5
481
100
AcDbEntity
  8
0
100
AcDbLine
 62
6
  6
CONTINUOUS
 10
453.5157804786
 20
55.9585634813
 11
453.5157804786
 21
77.6784806082
  0
LINE
  5
482
100
AcDbEntity
  8
0
100
AcDbLine
 62
6
  6
CONTINUOUS
 10
453.5157804786
 20
110.0158691855
 11
453.5157804786
 21
131.7357863124
  0
LINE
  5
483
100
AcDbEntity
  8
0
100
AcDbLine
 62
7
  6
CONTINUOUS
 10
516.8584059373
 20
170.3441052103
 11
513.8037046426
 21
168.8167545629
  0
LINE
  5
484
100
AcDbEntity
  8
0
100
AcDbLine
 62
7
  6
CONTINUOUS
 10
515.7694614943
 20
169.121885608
 11
513.8037046426
 21
168.1390071822
  0
LINE
  5
485
100
AcDbEntity
  8
0
100
AcDbLine
 62
7
  6
CONTINUOUS
 10
513.8874823271
 20
167.0919515814
 11
516.8584059373
 21
168.5774133865
  0
LINE
  5
486
100
AcDbEntity
  8
0
100
AcDbLine
 62
7
  6
CONTINUOUS
 10
514.6239485088
 20
166.7237184906
 11
519.3615639427
 21
169.0925262076
  0
LINE
  5
487
100
AcDbEntity
  8
0
100
AcDbLine
 62
7
  6
CONTINUOUS
 10
520.4505083858
 20
168.548053986
 11
515.7128929518
 21
166.1792462691
  0
LINE
  5
488
100
AcDbEntity
  8
0
100
AcDbLine
 62
6
  6
CONTINUOUS
 10
498.0635076934
 20
157.235373601
 11
520.3373713008
 21
168.3723054047
  0
LINE
  5
489
100
AcDbEntity
  8
0
100
AcDbLine
 62
6
  6
CONTINUOUS
 10
499.1241678652
 20
156.7050435151
 11
521.3980314725
 21
167.8419753188
  0
LINE
  5
48A
100
AcDbEntity
  8
0
100
AcDbLine
 62
6
  6
CONTINUOUS
 10
451.0409067445
 20
96.1519732691
 11
448.9195864009
 21
97.2126334408
  0
LINE
  5
48B
100
AcDbEntity
  8
0
100
AcDbLine
 62
6
  6
CONTINUOUS
 10
447.5760835167
 20
99.6157140779
 11
445.4547631731
 21
100.6763742496
  0
LINE
  5
48C
100
AcDbEntity
  8
0
100
AcDbLine
 62
7
  6
CONTINUOUS
 10
445.4547631731
 20
102.6249314081
 11
447.5760835167
 21
101.5642712364
  0
LINE
  5
48D
100
AcDbEntity
  8
0
100
AcDbLine
 62
7
  6
CONTINUOUS
 10
447.5760835167
 20
102.3436940998
 11
445.4547631731
 21
103.4043542716
  0
LINE
  5
48E
100
AcDbEntity
  8
0
100
AcDbLine
 62
6
  6
CONTINUOUS
 10
457.0513143846
 20
110.6318223514
 11
457.0513143846
 21
80.6760036345
  0
LINE
  5
48F
100
AcDbEntity
  8
0
100
AcDbLine
 62
6
  6
CONTINUOUS
 10
456.5916949768
 20
110.4020126475
 11
456.209857315
 21
108.479043009
  0
LINE
  5
490
100
AcDbEntity
  8
0
100
AcDbLine
 62
6
  6
CONTINUOUS
 10
498.0635076934
 20
155.0703100916
 11
499.1241678652
 21
155.6006401774
  0
LINE
  5
491
100
AcDbEntity
  8
0
100
AcDbLine
 62
7
  6
CONTINUOUS
 10
522.4785159275
 20
167.0588997515
 11
522.9536663912
 21
167.2964749833
  0
LINE
  5
492
100
AcDbEntity
  8
0
100
AcDbLine
 62
6
  6
CONTINUOUS
 10
523.9860422917
 20
167.2681907121
 11
522.9230756347
 21
166.7367073836
  0
LINE
  5
493
100
AcDbEntity
  8
0
100
AcDbLine
 62
6
  6
CONTINUOUS
 10
453.5157804786
 20
131.7357863124
 11
499.1241678652
 21
154.5399800057
  0
LINE
  5
494
100
AcDbEntity
  8
0
100
AcDbLine
 62
6
  6
CONTINUOUS
 10
449.092349586
 20
102.322404271
 11
448.9195864009
 21
102.4087858635
  0
LINE
  5
495
100
AcDbEntity
  8
0
100
AcDbLine
 62
7
  6
CONTINUOUS
 10
445.4547631731
 20
104.7899949176
 11
447.5760835167
 21
103.7293347458
  0
LINE
  5
496
100
AcDbEntity
  8
0
100
AcDbLine
 62
7
  6
CONTINUOUS
 10
447.5760835167
 20
104.5087576092
 11
445.4547631731
 21
105.569417781
  0
LINE
  5
497
100
AcDbEntity
  8
0
100
AcDbLine
 62
7
  6
CONTINUOUS
 10
451.0409067445
 20
103.2966828503
 11
450.2614838811
 21
103.686394282
  0
LINE
  5
498
100
AcDbEntity
  8
0
100
AcDbLine
 62
7
  6
CONTINUOUS
 10
448.9195864009
 20
105.1367658855
 11
449.6552660984
 21
104.7689260367
  0
LINE
  5
499
100
AcDbEntity
  8
0
100
AcDbLine
 62
7
  6
CONTINUOUS
 10
445.4547631731
 20
106.9550584271
 11
447.5760835167
 21
105.8943982553
  0
LINE
  5
49A
100
AcDbEntity
  8
0
100
AcDbLine
 62
7
  6
CONTINUOUS
 10
447.5760835167
 20
106.6738211187
 11
445.4547631731
 21
107.7344812905
  0
LINE
  5
49B
100
AcDbEntity
  8
0
100
AcDbLine
 62
7
  6
CONTINUOUS
 10
451.0409067445
 20
105.4617463597
 11
450.2614838811
 21
105.8514577914
  0
LINE
  5
49C
100
AcDbEntity
  8
0
100
AcDbLine
 62
6
  6
CONTINUOUS
 10
447.5760835167
 20
107.9295579542
 11
445.4547631731
 21
108.990218126
  0
LINE
  5
49D
100
AcDbEntity
  8
0
100
AcDbLine
 62
7
  6
CONTINUOUS
 10
448.9195864009
 20
107.3018293949
 11
449.6552660984
 21
106.9339895462
  0
LINE
  5
49E
100
AcDbEntity
  8
0
100
AcDbLine
 62
6
  6
CONTINUOUS
 10
439.3736448549
 20
117.0869369973
 11
441.8485185891
 21
115.4405092698
  0
LINE
  5
49F
100
AcDbEntity
  8
0
100
AcDbLine
 62
6
  6
CONTINUOUS
 10
441.8485185891
 20
88.9487921681
 11
439.3736448549
 21
84.74954842
  0
LINE
  5
4A0
100
AcDbEntity
  8
0
100
AcDbLine
 62
7
  6
CONTINUOUS
 10
451.0409067445
 20
107.6268098692
 11
450.2614838811
 21
108.0165213009
  0
LINE
  5
4A1
100
AcDbEntity
  8
0
100
AcDbLine
 62
6
  6
CONTINUOUS
 10
451.0409067445
 20
109.6619695681
 11
448.9195864009
 21
110.7226297399
  0
LINE
  5
4A2
100
AcDbEntity
  8
0
100
AcDbLine
 62
7
  6
CONTINUOUS
 10
455.9906542128
 20
108.369441458
 11
441.8485185891
 21
115.4405092698
  0
LINE
  5
4A3
100
AcDbEntity
  8
0
100
AcDbLine
 62
6
  6
CONTINUOUS
 10
453.5157804786
 20
110.0158691855
 11
439.3736448549
 21
117.0869369973
  0
LINE
  5
4A4
100
AcDbEntity
  8
0
100
AcDbLine
 62
6
  6
CONTINUOUS
 10
455.9906542128
 20
108.369441458
 11
453.5157804786
 21
110.0158691855
  0
LINE
  5
4A5
100
AcDbEntity
  8
0
100
AcDbLine
 62
6
  6
CONTINUOUS
 10
531.2174116944
 20
160.7254298628
 11
533.7016894652
 21
161.9675687482
  0
LINE
  5
4A6
100
AcDbEntity
  8
0
100
AcDbLine
 62
6
  6
CONTINUOUS
 10
445.4547631731
 20
108.990218126
 11
448.9195864009
 21
110.7226297399
  0
LINE
  5
4A7
100
AcDbEntity
  8
0
100
AcDbLine
 62
7
  6
CONTINUOUS
 10
446.2341860365
 20
107.3447698588
 11
445.4547631731
 21
106.9550584271
  0
LINE
  5
4A8
100
AcDbEntity
  8
0
100
AcDbLine
 62
6
  6
CONTINUOUS
 10
447.5760835167
 20
107.9295579542
 11
451.0409067445
 21
109.6619695681
  0
LINE
  5
4A9
100
AcDbEntity
  8
0
100
AcDbLine
 62
6
  6
CONTINUOUS
 10
478.2786599558
 20
62.2662810634
 11
478.2786599558
 21
65.7911901432
  0
LINE
  5
4AA
100
AcDbEntity
  8
0
100
AcDbLine
 62
6
  6
CONTINUOUS
 10
453.5157804786
 20
77.6784806082
 11
455.9906542128
 21
81.8777243562
  0
LINE
  5
4AB
100
AcDbEntity
  8
0
100
AcDbLine
 62
7
  6
CONTINUOUS
 10
451.0409067445
 20
108.4062327326
 11
447.5760835167
 21
106.6738211187
  0
LINE
  5
4AC
100
AcDbEntity
  8
0
100
AcDbLine
 62
7
  6
CONTINUOUS
 10
446.8404038192
 20
106.262238104
 11
448.9195864009
 21
107.3018293949
  0
LINE
  5
4AD
100
AcDbEntity
  8
0
100
AcDbLine
 62
7
  6
CONTINUOUS
 10
447.5760835167
 20
105.8943982553
 11
451.0409067445
 21
107.6268098692
  0
LINE
  5
4AE
100
AcDbEntity
  8
0
100
AcDbLine
 62
7
  6
CONTINUOUS
 10
457.0513143846
 20
110.6318223514
 11
456.5916949768
 21
110.4020126475
  0
LINE
  5
4AF
100
AcDbEntity
  8
0
100
AcDbLine
 62
7
  6
CONTINUOUS
 10
446.2341860365
 20
105.1797063493
 11
445.4547631731
 21
104.7899949176
  0
LINE
  5
4B0
100
AcDbEntity
  8
0
100
AcDbLine
 62
7
  6
CONTINUOUS
 10
451.0409067445
 20
106.2411692231
 11
447.5760835167
 21
104.5087576092
  0
LINE
  5
4B1
100
AcDbEntity
  8
0
100
AcDbLine
 62
7
  6
CONTINUOUS
 10
446.8404038192
 20
104.0971745946
 11
448.9195864009
 21
105.1367658855
  0
LINE
  5
4B2
100
AcDbEntity
  8
0
100
AcDbLine
 62
7
  6
CONTINUOUS
 10
456.209857315
 20
108.479043009
 11
455.9906542128
 21
108.369441458
  0
LINE
  5
4B3
100
AcDbEntity
  8
0
100
AcDbLine
 62
7
  6
CONTINUOUS
 10
447.5760835167
 20
103.7293347458
 11
451.0409067445
 21
105.4617463597
  0
LINE
  5
4B4
100
AcDbEntity
  8
0
100
AcDbLine
 62
7
  6
CONTINUOUS
 10
446.2341860365
 20
103.0146428398
 11
445.4547631731
 21
102.6249314081
  0
LINE
  5
4B5
100
AcDbEntity
  8
0
100
AcDbLine
 62
7
  6
CONTINUOUS
 10
451.0409067445
 20
104.0761057137
 11
447.5760835167
 21
102.3436940998
  0
LINE
  5
4B6
100
AcDbEntity
  8
0
100
AcDbLine
 62
6
  6
CONTINUOUS
 10
484.6284788508
 20
60.4512171862
 11
484.6284788508
 21
62.6162806956
  0
LINE
  5
4B7
100
AcDbEntity
  8
0
100
AcDbLine
 62
7
  6
CONTINUOUS
 10
484.9820322414
 20
163.776111327
 11
484.9820322414
 21
161.6110478175
  0
LINE
  5
4B8
100
AcDbEntity
  8
0
100
AcDbLine
 62
6
  6
CONTINUOUS
 10
485.6891390226
 20
59.9208871003
 11
485.6891390226
 21
72.0452427533
  0
LINE
  5
4B9
100
AcDbEntity
  8
0
100
AcDbLine
 62
7
  6
CONTINUOUS
 10
486.0426924132
 20
161.0807177316
 11
486.0426924132
 21
163.2457812411
  0
LINE
  5
4BA
100
AcDbEntity
  8
0
100
AcDbLine
 62
6
  6
CONTINUOUS
 10
448.9195864009
 20
102.4087858635
 11
447.4033203316
 21
101.6506528289
  0
LINE
  5
4BB
100
AcDbEntity
  8
0
100
AcDbLine
 62
7
  6
CONTINUOUS
 10
447.5760835167
 20
101.5642712364
 11
451.0409067445
 21
103.2966828503
  0
LINE
  5
4BC
100
AcDbEntity
  8
0
100
AcDbLine
 62
6
  6
CONTINUOUS
 10
451.0409067445
 20
101.3481256918
 11
447.5760835167
 21
99.6157140779
  0
LINE
  5
4BD
100
AcDbEntity
  8
0
100
AcDbLine
 62
6
  6
CONTINUOUS
 10
445.4547631731
 20
95.4802218269
 11
448.9195864009
 21
97.2126334408
  0
LINE
  5
4BE
100
AcDbEntity
  8
0
100
AcDbLine
 62
6
  6
CONTINUOUS
 10
453.5157804786
 20
131.7357863124
 11
439.3736448549
 21
138.8068541243
  0
LINE
  5
4BF
100
AcDbEntity
  8
0
100
AcDbLine
 62
6
  6
CONTINUOUS
 10
489.0549673011
 20
56.8781273907
 11
489.0549673011
 21
61.6038012395
  0
LINE
  5
4C0
100
AcDbEntity
  8
0
100
AcDbLine
 62
7
  6
CONTINUOUS
 10
446.2341860365
 20
93.8347735597
 11
445.4547631731
 21
93.445062128
  0
LINE
  5
4C1
100
AcDbEntity
  8
0
100
AcDbLine
 62
6
  6
CONTINUOUS
 10
447.5760835167
 20
94.4195616551
 11
451.0409067445
 21
96.1519732691
  0
LINE
  5
4C2
100
AcDbEntity
  8
0
100
AcDbLine
 62
7
  6
CONTINUOUS
 10
451.0409067445
 20
94.8962364336
 11
447.5760835167
 21
93.1638248197
  0
LINE
  5
4C3
100
AcDbEntity
  8
0
100
AcDbLine
 62
7
  6
CONTINUOUS
 10
447.5760835167
 20
92.3844019563
 11
451.0409067445
 21
94.1168135702
  0
LINE
  5
4C4
100
AcDbEntity
  8
0
100
AcDbLine
 62
7
  6
CONTINUOUS
 10
442.0677216912
 20
89.0583937191
 11
441.8485185891
 21
88.9487921681
  0
LINE
  5
4C5
100
AcDbEntity
  8
0
100
AcDbLine
 62
7
  6
CONTINUOUS
 10
446.2341860365
 20
90.3706719446
 11
445.4547631731
 21
89.9809605129
  0
LINE
  5
4C6
100
AcDbEntity
  8
0
100
AcDbLine
 62
6
  6
CONTINUOUS
 10
492.4207955795
 20
172.2211668448
 11
492.4207955795
 21
163.6475153473
  0
LINE
  5
4C7
100
AcDbEntity
  8
0
100
AcDbLine
 62
7
  6
CONTINUOUS
 10
451.0409067445
 20
91.4321348184
 11
447.5760835167
 21
89.6997232045
  0
LINE
  5
4C8
100
AcDbEntity
  8
0
100
AcDbLine
 62
6
  6
CONTINUOUS
 10
447.576260275
 20
89.699369688
 11
446.797102549
 21
89.309790825
  0
LINE
  5
4C9
100
AcDbEntity
  8
0
100
AcDbLine
 62
7
  6
CONTINUOUS
 10
447.5760835167
 20
88.9203003411
 11
451.0409067445
 21
90.652711955
  0
LINE
  5
4CA
100
AcDbEntity
  8
0
100
AcDbLine
 62
6
  6
CONTINUOUS
 10
451.0409067445
 20
89.3103725792
 11
447.5760835167
 21
87.5779609652
  0
LINE
  5
4CB
100
AcDbEntity
  8
0
100
AcDbLine
 62
7
  6
CONTINUOUS
 10
498.0635076934
 20
157.235373601
 11
498.0635076934
 21
155.0703100916
  0
LINE
  5
4CC
100
AcDbEntity
  8
0
100
AcDbLine
 62
7
  6
CONTINUOUS
 10
499.1241678652
 20
154.5399800057
 11
499.1241678652
 21
156.7050435151
  0
LINE
  5
4CD
100
AcDbEntity
  8
0
100
AcDbLine
 62
6
  6
CONTINUOUS
 10
499.6615690189
 20
66.9071020984
 11
499.6615690189
 21
62.8569280646
  0
LINE
  5
4CE
100
AcDbEntity
  8
0
100
AcDbLine
 62
6
  6
CONTINUOUS
 10
502.7162703136
 20
173.2323295419
 11
502.7162703136
 21
171.4656377182
  0
LINE
  5
4CF
100
AcDbEntity
  8
0
100
AcDbLine
 62
6
  6
CONTINUOUS
 10
503.0273972973
 20
168.9508162062
 11
503.0273972973
 21
169.1180432047
  0
LINE
  5
4D0
100
AcDbEntity
  8
0
100
AcDbLine
 62
6
  6
CONTINUOUS
 10
503.1971029248
 20
166.8330131722
 11
503.1971029248
 21
159.8021712167
  0
LINE
  5
4D1
100
AcDbEntity
  8
0
100
AcDbLine
 62
6
  6
CONTINUOUS
 10
505.219428319
 20
170.8918060962
 11
505.219428319
 21
170.2140587155
  0
LINE
  5
4D2
100
AcDbEntity
  8
0
100
AcDbLine
 62
7
  6
CONTINUOUS
 10
455.9906542128
 20
81.8777243562
 11
456.209857315
 21
81.9873259073
  0
LINE
  5
4D3
100
AcDbEntity
  8
0
100
AcDbLine
 62
7
  6
CONTINUOUS
 10
456.5916949768
 20
80.4461939306
 11
457.0513143846
 21
80.6760036345
  0
LINE
  5
4D4
100
AcDbEntity
  8
0
100
AcDbLine
 62
6
  6
CONTINUOUS
 10
513.8037046426
 20
81.9975651493
 11
513.8037046426
 21
79.88728802
  0
LINE
  5
4D5
100
AcDbEntity
  8
0
100
AcDbLine
 62
6
  6
CONTINUOUS
 10
513.8037046426
 20
165.1054720756
 11
513.8037046426
 21
171.4608142161
  0
LINE
  5
4D6
100
AcDbEntity
  8
0
100
AcDbLine
 62
6
  6
CONTINUOUS
 10
517.1695329211
 20
168.7859089349
 11
517.1695329211
 21
169.6519343386
  0
LINE
  5
4D7
100
AcDbEntity
  8
0
100
AcDbLine
 62
6
  6
CONTINUOUS
 10
533.7016894652
 20
106.1955327445
 11
531.3328817482
 21
105.011128886
  0
LINE
  5
4D8
100
AcDbEntity
  8
0
100
AcDbLine
 62
6
  6
CONTINUOUS
 10
527.9458402663
 20
99.0279251047
 11
527.9458402663
 21
96.9176479753
  0
LINE
  5
4D9
100
AcDbEntity
  8
0
100
AcDbLine
 62
6
  6
CONTINUOUS
 10
527.9458402663
 20
163.0964844767
 11
527.9458402663
 21
168.5725898845
  0
LINE
  5
4DA
100
AcDbEntity
  8
0
100
AcDbLine
 62
6
  6
CONTINUOUS
 10
515.3876238325
 20
84.7294216487
 11
507.2558958488
 21
70.7042655134
  0
LINE
  5
4DB
100
AcDbEntity
  8
0
100
AcDbLine
 62
6
  6
CONTINUOUS
 10
527.9458402663
 20
96.9176479753
 11
525.9439749673
 21
95.575218197
  0
LINE
  5
4DC
100
AcDbEntity
  8
0
100
AcDbLine
 62
6
  6
CONTINUOUS
 10
485.6891390226
 20
72.0452427533
 11
453.5157804786
 21
55.9585634813
  0
LINE
  5
4DD
100
AcDbEntity
  8
0
100
AcDbLine
 62
6
  6
CONTINUOUS
 10
521.3980314725
 20
87.7346254688
 11
515.3876238325
 21
84.7294216487
  0
LINE
  5
4DE
100
AcDbEntity
  8
0
100
AcDbLine
 62
7
  6
CONTINUOUS
 10
484.9820322414
 20
161.6110478175
 11
486.0426924132
 21
161.0807177316
  0
LINE
  5
4DF
100
AcDbEntity
  8
0
100
AcDbLine
 62
7
  6
CONTINUOUS
 10
498.0635076934
 20
155.0703100916
 11
499.1241678652
 21
154.5399800057
  0
LINE
  5
4E0
100
AcDbEntity
  8
0
100
AcDbLine
 62
7
  6
CONTINUOUS
 10
531.3328817482
 20
160.6417435335
 11
531.3328817482
 21
104.8697075298
  0
LINE
  5
4E1
100
AcDbEntity
  8
0
100
AcDbLine
 62
6
  6
CONTINUOUS
 10
531.3328817482
 20
104.8697075298
 11
521.3980314725
 21
87.7346254688
  0
LINE
  5
4E2
100
AcDbEntity
  8
0
100
AcDbLine
 62
6
  6
CONTINUOUS
 10
513.8037046426
 20
79.88728802
 11
511.8018393436
 21
78.5448582416
  0
LINE
  5
4E3
100
AcDbEntity
  8
0
100
AcDbLine
 62
7
  6
CONTINUOUS
 10
499.1241678652
 20
156.7050435151
 11
498.0635076934
 21
157.235373601
  0
LINE
  5
4E4
100
AcDbEntity
  8
0
100
AcDbLine
 62
7
  6
CONTINUOUS
 10
486.0426924132
 20
163.2457812411
 11
484.9820322414
 21
163.776111327
  0
LINE
  5
4E5
100
AcDbEntity
  8
0
100
AcDbLine
 62
6
  6
CONTINUOUS
 10
492.4207955795
 20
163.6475153473
 11
501.6542933828
 21
159.0307664457
  0
LINE
  5
4E6
100
AcDbEntity
  8
0
100
AcDbLine
 62
6
  6
CONTINUOUS
 10
533.7016894652
 20
161.9675687482
 11
533.7016894652
 21
106.1955327445
  0
LINE
  5
4E7
100
AcDbEntity
  8
0
100
AcDbLine
 62
6
  6
CONTINUOUS
 10
499.6615690189
 20
62.8569280646
 11
495.7017710442
 21
60.2015292623
  0
LINE
  5
4E8
100
AcDbEntity
  8
0
100
AcDbLine
 62
6
  6
CONTINUOUS
 10
507.2558958488
 20
70.7042655134
 11
485.6891390226
 21
59.9208871003
  0
LINE
  5
4E9
100
AcDbEntity
  8
0
100
AcDbLine
 62
6
  6
CONTINUOUS
 10
495.7017710442
 20
60.2015292623
 11
489.0549673011
 21
56.8781273907
  0
LINE
  5
4EA
100
AcDbEntity
  8
0
100
AcDbLine
 62
6
  6
CONTINUOUS
 10
492.4207955795
 20
172.2211668448
 11
503.1971029248
 21
166.8330131722
  0
LINE
  5
4EB
100
AcDbEntity
  8
0
100
AcDbLine
 62
7
  6
CONTINUOUS
 10
494.3865524312
 20
172.6595730491
 11
496.8897104366
 21
171.4079940464
  0
LINE
  5
4EC
100
AcDbEntity
  8
0
100
AcDbLine
 62
6
  6
CONTINUOUS
 10
497.9786548797
 20
170.8635218249
 11
500.4818128851
 21
169.6119428222
  0
LINE
  5
4ED
100
AcDbEntity
  8
0
100
AcDbLine
 62
7
  6
CONTINUOUS
 10
501.5707573281
 20
169.0674706007
 11
504.0739153335
 21
167.815891598
  0
LINE
  5
4EE
100
AcDbEntity
  8
0
100
AcDbLine
 62
6
  6
CONTINUOUS
 10
503.0273972973
 20
168.9508162062
 11
504.6855809236
 21
168.1217243931
  0
LINE
  5
4EF
100
AcDbEntity
  8
0
100
AcDbLine
 62
7
  6
CONTINUOUS
 10
503.4527364953
 20
171.0974046273
 11
502.7162703136
 21
171.4656377182
  0
LINE
  5
4F0
100
AcDbEntity
  8
0
100
AcDbLine
 62
7
  6
CONTINUOUS
 10
507.4088979839
 20
169.4833829232
 11
505.8724473194
 21
170.2516082555
  0
LINE
  5
4F1
100
AcDbEntity
  8
0
100
AcDbLine
 62
6
  6
CONTINUOUS
 10
505.8416822864
 20
170.9802126683
 11
506.02977215
 21
170.8861677365
  0
LINE
  5
4F2
100
AcDbEntity
  8
0
100
AcDbLine
 62
6
  6
CONTINUOUS
 10
507.2091869979
 20
170.2964603125
 11
508.1221198802
 21
169.8399938714
  0
LINE
  5
4F3
100
AcDbEntity
  8
0
100
AcDbLine
 62
6
  6
CONTINUOUS
 10
513.8037046426
 20
166.9992014902
 11
515.6974340572
 21
166.0523367829
  0
LINE
  5
4F4
100
AcDbEntity
  8
0
100
AcDbLine
 62
7
  6
CONTINUOUS
 10
513.8037046426
 20
167.1338404237
 11
514.6239485088
 21
166.7237184906
  0
LINE
  5
4F5
100
AcDbEntity
  8
0
100
AcDbLine
 62
7
  6
CONTINUOUS
 10
515.7128929518
 20
166.1792462691
 11
515.8320729907
 21
166.1196562496
  0
LINE
  5
4F6
100
AcDbEntity
  8
0
100
AcDbLine
 62
7
  6
CONTINUOUS
 10
505.8724473194
 20
171.1176336592
 11
508.2749233877
 21
169.9163956251
  0
LINE
  5
4F7
100
AcDbEntity
  8
0
100
AcDbLine
 62
7
  6
CONTINUOUS
 10
508.8115307674
 20
170.184699315
 11
506.308372762
 21
171.4362783177
  0
LINE
  5
4F8
100
AcDbEntity
  8
0
100
AcDbLine
 62
6
  6
CONTINUOUS
 10
505.219428319
 20
171.9807505392
 11
502.7162703136
 21
173.2323295419
  0
LINE
  5
4F9
100
AcDbEntity
  8
0
100
AcDbLine
 62
7
  6
CONTINUOUS
 10
501.6273258706
 20
173.7768017634
 11
499.1241678652
 21
175.0283807661
  0
LINE
  5
4FA
100
AcDbEntity
  8
0
100
AcDbLine
 62
6
  6
CONTINUOUS
 10
499.0675993227
 20
175.5445687164
 11
509.843906668
 21
170.1564150437
  0
LINE
  5
4FB
100
AcDbEntity
  8
0
100
AcDbLine
 62
7
  6
CONTINUOUS
 10
513.8037046426
 20
170.1047640339
 11
514.0027696706
 21
170.0052315199
  0
LINE
  5
4FC
100
AcDbEntity
  8
0
100
AcDbLine
 62
7
  6
CONTINUOUS
 10
515.0917141136
 20
169.4607592984
 11
515.7694614943
 21
169.121885608
  0
LINE
  5
4FD
100
AcDbEntity
  8
0
100
AcDbLine
 62
7
  6
CONTINUOUS
 10
516.8584059373
 20
168.5774133865
 11
517.594872119
 21
168.2091802957
  0
LINE
  5
4FE
100
AcDbEntity
  8
0
100
AcDbLine
 62
7
  6
CONTINUOUS
 10
518.683816562
 20
167.6647080742
 11
518.8029966009
 21
167.6051180548
  0
LINE
  5
4FF
100
AcDbEntity
  8
0
100
AcDbLine
 62
7
  6
CONTINUOUS
 10
519.1610932823
 20
167.7901287542
 11
519.0478756022
 21
167.8467375943
  0
LINE
  5
500
100
AcDbEntity
  8
0
100
AcDbLine
 62
7
  6
CONTINUOUS
 10
517.9589311592
 20
168.3912098158
 11
516.4224804947
 21
169.159435148
  0
LINE
  5
501
100
AcDbEntity
  8
0
100
AcDbLine
 62
7
  6
CONTINUOUS
 10
516.4224804947
 20
170.0254605518
 11
518.824956563
 21
168.8242225177
  0
LINE
  5
502
100
AcDbEntity
  8
0
100
AcDbLine
 62
6
  6
CONTINUOUS
 10
503.0273972973
 20
176.8489678888
 11
513.8037046426
 21
171.4608142161
  0
LINE
  5
503
100
AcDbEntity
  8
0
100
AcDbLine
 62
6
  6
CONTINUOUS
 10
521.3980314725
 20
167.8419753188
 11
520.3373713008
 21
168.3723054047
  0
LINE
  5
504
100
AcDbEntity
  8
0
100
AcDbLine
 62
6
  6
CONTINUOUS
 10
508.3165560206
 20
174.3827130448
 11
507.2558958488
 21
174.9130431307
  0
LINE
  5
505
100
AcDbEntity
  8
0
100
AcDbLine
 62
7
  6
CONTINUOUS
 10
522.9536663912
 20
167.2964749833
 11
520.4505083858
 21
168.548053986
  0
LINE
  5
506
100
AcDbEntity
  8
0
100
AcDbLine
 62
7
  6
CONTINUOUS
 10
519.3615639427
 20
169.0925262076
 11
516.8584059373
 21
170.3441052103
  0
LINE
  5
507
100
AcDbEntity
  8
0
100
AcDbLine
 62
7
  6
CONTINUOUS
 10
515.7694614943
 20
170.8885774318
 11
513.2663034889
 21
172.1401564345
  0
LINE
  5
508
100
AcDbEntity
  8
0
100
AcDbLine
 62
6
  6
CONTINUOUS
 10
533.7016894652
 20
161.9675687482
 11
527.9458402663
 21
164.8454933476
  0
LINE
  5
509
100
AcDbEntity
  8
0
100
AcDbLine
 62
6
  6
CONTINUOUS
 10
508.3165560206
 20
174.3827130448
 11
509.1100091328
 21
173.807661971
  0
LINE
  5
50A
100
AcDbEntity
  8
0
100
AcDbLine
 62
6
  6
CONTINUOUS
 10
513.2097349464
 20
172.6563443847
 11
523.9860422917
 21
167.2681907121
  0
LINE
  5
50B
100
AcDbEntity
  8
0
100
AcDbLine
 62
6
  6
CONTINUOUS
 10
517.1695329211
 20
173.9607435571
 11
527.9458402663
 21
168.5725898845
  0
LINE
  5
50C
100
AcDbEntity
  8
0
100
AcDbLine
 62
6
  6
CONTINUOUS
 10
521.3980314725
 20
167.8419753188
 11
531.3328817482
 21
160.6417435335
  0
ARC
  5
50D
100
AcDbEntity
  8
0
100
AcDbCircle
 62
7
  6
CONTINUOUS
 10
338.8670601473
 20
132.4263123004
 40
1.4953428835
100
AcDbArc
 50
162.6325447761
 51
166.4580133732
  0
ARC
  5
50E
100
AcDbEntity
  8
0
100
AcDbCircle
 62
7
  6
CONTINUOUS
 10
342.4591625958
 20
130.6302610761
 40
1.4953428836
100
AcDbArc
 50
162.6325447762
 51
166.4580133731
  0
ARC
  5
50F
100
AcDbEntity
  8
0
100
AcDbCircle
 62
7
  6
CONTINUOUS
 10
335.2749576988
 20
134.2223635246
 40
1.4953428835
100
AcDbArc
 50
162.6325447761
 51
166.4580133732
  0
ARC
  5
510
100
AcDbEntity
  8
0
100
AcDbCircle
 62
7
  6
CONTINUOUS
 10
353.009195771
 20
149.4566722558
 40
1.4953428835
100
AcDbArc
 50
162.6325447761
 51
166.4580133733
  0
ARC
  5
511
100
AcDbEntity
  8
0
100
AcDbCircle
 62
7
  6
CONTINUOUS
 10
356.6012982195
 20
147.6606210315
 40
1.4953428836
100
AcDbArc
 50
162.6325447762
 51
166.4580133731
  0
ARC
  5
512
100
AcDbEntity
  8
0
100
AcDbCircle
 62
7
  6
CONTINUOUS
 10
349.4170933226
 20
151.25272348
 40
1.4953428836
100
AcDbArc
 50
162.6325447762
 51
166.4580133731
  0
ARC
  5
513
100
AcDbEntity
  8
0
100
AcDbCircle
 62
7
  6
CONTINUOUS
 10
505.4492374031
 20
172.6971241849
 40
3.2373787987
100
AcDbArc
 50
204.4243975139
 51
205.3091763569
  0
ARC
  5
514
100
AcDbEntity
  8
0
100
AcDbCircle
 62
7
  6
CONTINUOUS
 10
519.5327881752
 20
169.7830283505
 40
3.1733392482
100
AcDbArc
 50
200.5997371107
 51
204.436461675
  0
ARC
  5
515
100
AcDbEntity
  8
0
100
AcDbCircle
 62
7
  6
CONTINUOUS
 10
519.6784924667
 20
166.2511889323
 40
3.1348289259
100
AcDbArc
 50
16.8226632778
 51
23.4387462241
  0
ARC
  5
516
100
AcDbEntity
  8
0
100
AcDbCircle
 62
7
  6
CONTINUOUS
 10
516.0863900182
 20
168.0472401565
 40
3.1348289259
100
AcDbArc
 50
16.8226632779
 51
23.438746224
  0
ARC
  5
517
100
AcDbEntity
  8
0
100
AcDbCircle
 62
7
  6
CONTINUOUS
 10
505.536356843
 20
169.1394132639
 40
3.1348289259
100
AcDbArc
 50
16.8226632778
 51
23.438746224
  0
ARC
  5
518
100
AcDbEntity
  8
0
100
AcDbCircle
 62
7
  6
CONTINUOUS
 10
519.4299151363
 20
169.7465336224
 40
3.0642042592
100
AcDbArc
 50
191.0461147821
 51
200.6377562479
  0
ARC
  5
519
100
AcDbEntity
  8
0
100
AcDbCircle
 62
7
  6
CONTINUOUS
 10
521.4469987936
 20
167.8849986687
 40
1.4732392441
100
AcDbArc
 50
161.5522524835
 51
166.4804095971
  0
ARC
  5
51A
100
AcDbEntity
  8
0
100
AcDbCircle
 62
7
  6
CONTINUOUS
 10
517.8548963451
 20
169.6810498929
 40
1.4732392441
100
AcDbArc
 50
161.5522524834
 51
166.4804095972
  0
ARC
  5
51B
100
AcDbEntity
  8
0
100
AcDbCircle
 62
7
  6
CONTINUOUS
 10
507.3048631698
 20
170.7732230004
 40
1.4732392441
100
AcDbArc
 50
161.5522524835
 51
166.4804095973
  0
SPLINE
  5
51C
100
AcDbEntity
  8
0
100
AcDbSpline
 62
7
  6
CONTINUOUS
 70
0
 71
3
 72
15
 73
11
 74
0
 42
0.0000001
 43
0.0000001
 44
0.0000000001
 40
0.0
 40
0.0
 40
0.0
 40
0.0
 40
0.125014308
 40
0.2500172771
 40
0.374995217
 40
0.4999907141
 40
0.6249857213
 40
0.7499697371
 40
0.8749791079
 40
1.0
 40
1.0
 40
1.0
 40
1.0
 10
57.3673117811
 20
289.7232088113
 30
0.0
 10
57.627450667
 20
289.7257437832
 30
0.0
 10
58.1535937489
 20
289.8257333775
 30
0.0
 10
58.817931763
 20
290.2727436362
 30
0.0
 10
59.2632278076
 20
290.9377864351
 30
0.0
 10
59.4193116891
 20
291.7231441444
 30
0.0
 10
59.2632674073
 20
292.5084935024
 30
0.0
 10
58.8180168369
 20
293.173672681
 30
0.0
 10
58.153615636
 20
293.6204361462
 30
0.0
 10
57.6274677532
 20
293.7210489141
 30
0.0
 10
57.3673117811
 20
293.7232088113
 30
0.0
  0
SPLINE
  5
51D
100
AcDbEntity
  8
0
100
AcDbSpline
 62
7
  6
CONTINUOUS
 70
0
 71
3
 72
15
 73
11
 74
0
 42
0.0000001
 43
0.0000001
 44
0.0000000001
 40
0.0
 40
0.0
 40
0.0
 40
0.0
 40
0.125014308
 40
0.2500172771
 40
0.374995217
 40
0.4999907141
 40
0.6249857213
 40
0.7499697371
 40
0.8749791079
 40
1.0
 40
1.0
 40
1.0
 40
1.0
 10
57.3673117811
 20
293.7232088113
 30
0.0
 10
57.1071728952
 20
293.7206738395
 30
0.0
 10
56.5810298133
 20
293.6206842451
 30
0.0
 10
55.9166917992
 20
293.1736739865
 30
0.0
 10
55.4713957546
 20
292.5086311876
 30
0.0
 10
55.3153118731
 20
291.7232734782
 30
0.0
 10
55.4713561549
 20
290.9379241202
 30
0.0
 10
55.9166067253
 20
290.2727449416
 30
0.0
 10
56.5810079263
 20
289.8259814765
 30
0.0
 10
57.107155809
 20
289.7253687086
 30
0.0
 10
57.3673117811
 20
289.7232088113
 30
0.0
  0
SPLINE
  5
51E
100
AcDbEntity
  8
0
100
AcDbSpline
 62
7
  6
CONTINUOUS
 70
0
 71
3
 72
15
 73
11
 74
0
 42
0.0000001
 43
0.0000001
 44
0.0000000001
 40
0.0
 40
0.0
 40
0.0
 40
0.0
 40
0.125014308
 40
0.2500172771
 40
0.374995217
 40
0.4999907141
 40
0.6249857213
 40
0.7499697371
 40
0.8749791079
 40
1.0
 40
1.0
 40
1.0
 40
1.0
 10
62.4473117811
 20
289.7232088113
 30
0.0
 10
62.707450667
 20
289.7257437832
 30
0.0
 10
63.2335937489
 20
289.8257333775
 30
0.0
 10
63.897931763
 20
290.2727436362
 30
0.0
 10
64.3432278076
 20
290.9377864351
 30
0.0
 10
64.4993116891
 20
291.7231441444
 30
0.0
 10
64.3432674073
 20
292.5084935024
 30
0.0
 10
63.8980168369
 20
293.173672681
 30
0.0
 10
63.233615636
 20
293.6204361462
 30
0.0
 10
62.7074677532
 20
293.7210489141
 30
0.0
 10
62.4473117811
 20
293.7232088113
 30
0.0
  0
SPLINE
  5
51F
100
AcDbEntity
  8
0
100
AcDbSpline
 62
7
  6
CONTINUOUS
 70
0
 71
3
 72
15
 73
11
 74
0
 42
0.0000001
 43
0.0000001
 44
0.0000000001
 40
0.0
 40
0.0
 40
0.0
 40
0.0
 40
0.125014308
 40
0.2500172771
 40
0.374995217
 40
0.4999907141
 40
0.6249857213
 40
0.7499697371
 40
0.8749791079
 40
1.0
 40
1.0
 40
1.0
 40
1.0
 10
62.4473117811
 20
293.7232088113
 30
0.0
 10
62.1871728952
 20
293.7206738395
 30
0.0
 10
61.6610298133
 20
293.6206842451
 30
0.0
 10
60.9966917992
 20
293.1736739865
 30
0.0
 10
60.5513957546
 20
292.5086311876
 30
0.0
 10
60.3953118731
 20
291.7232734782
 30
0.0
 10
60.5513561549
 20
290.9379241202
 30
0.0
 10
60.9966067253
 20
290.2727449416
 30
0.0
 10
61.6610079263
 20
289.8259814765
 30
0.0
 10
62.187155809
 20
289.7253687086
 30
0.0
 10
62.4473117811
 20
289.7232088113
 30
0.0
  0
SPLINE
  5
520
100
AcDbEntity
  8
0
100
AcDbSpline
 62
7
  6
CONTINUOUS
 70
0
 71
3
 72
15
 73
11
 74
0
 42
0.0000001
 43
0.0000001
 44
0.0000000001
 40
0.0
 40
0.0
 40
0.0
 40
0.0
 40
0.125014308
 40
0.2500172771
 40
0.374995217
 40
0.4999907141
 40
0.6249857213
 40
0.7499697371
 40
0.8749791079
 40
1.0
 40
1.0
 40
1.0
 40
1.0
 10
52.2873117811
 20
289.7232088113
 30
0.0
 10
52.547450667
 20
289.7257437832
 30
0.0
 10
53.0735937489
 20
289.8257333775
 30
0.0
 10
53.737931763
 20
290.2727436362
 30
0.0
 10
54.1832278076
 20
290.9377864351
 30
0.0
 10
54.3393116891
 20
291.7231441444
 30
0.0
 10
54.1832674073
 20
292.5084935024
 30
0.0
 10
53.7380168369
 20
293.173672681
 30
0.0
 10
53.073615636
 20
293.6204361462
 30
0.0
 10
52.5474677532
 20
293.7210489141
 30
0.0
 10
52.2873117811
 20
293.7232088113
 30
0.0
  0
SPLINE
  5
521
100
AcDbEntity
  8
0
100
AcDbSpline
 62
7
  6
CONTINUOUS
 70
0
 71
3
 72
15
 73
11
 74
0
 42
0.0000001
 43
0.0000001
 44
0.0000000001
 40
0.0
 40
0.0
 40
0.0
 40
0.0
 40
0.125014308
 40
0.2500172771
 40
0.374995217
 40
0.4999907141
 40
0.6249857213
 40
0.7499697371
 40
0.8749791079
 40
1.0
 40
1.0
 40
1.0
 40
1.0
 10
52.2873117811
 20
293.7232088113
 30
0.0
 10
52.0271728952
 20
293.7206738395
 30
0.0
 10
51.5010298133
 20
293.6206842451
 30
0.0
 10
50.8366917992
 20
293.1736739865
 30
0.0
 10
50.3913957546
 20
292.5086311876
 30
0.0
 10
50.2353118731
 20
291.7232734782
 30
0.0
 10
50.3913561549
 20
290.9379241202
 30
0.0
 10
50.8366067253
 20
290.2727449416
 30
0.0
 10
51.5010079263
 20
289.8259814765
 30
0.0
 10
52.027155809
 20
289.7253687086
 30
0.0
 10
52.2873117811
 20
289.7232088113
 30
0.0
  0
SPLINE
  5
522
100
AcDbEntity
  8
0
100
AcDbSpline
 62
7
  6
CONTINUOUS
 70
0
 71
3
 72
15
 73
11
 74
0
 42
0.0000001
 43
0.0000001
 44
0.0000000001
 40
0.0
 40
0.0
 40
0.0
 40
0.0
 40
0.125014308
 40
0.2500172771
 40
0.374995217
 40
0.4999907141
 40
0.6249857213
 40
0.7499697371
 40
0.8749791079
 40
1.0
 40
1.0
 40
1.0
 40
1.0
 10
57.3673117811
 20
301.2232088113
 30
0.0
 10
57.627450667
 20
301.2257437832
 30
0.0
 10
58.1535937489
 20
301.3257333775
 30
0.0
 10
58.817931763
 20
301.7727436362
 30
0.0
 10
59.2632278076
 20
302.4377864351
 30
0.0
 10
59.4193116891
 20
303.2231441444
 30
0.0
 10
59.2632674073
 20
304.0084935024
 30
0.0
 10
58.8180168369
 20
304.673672681
 30
0.0
 10
58.153615636
 20
305.1204361462
 30
0.0
 10
57.6274677532
 20
305.2210489141
 30
0.0
 10
57.3673117811
 20
305.2232088113
 30
0.0
  0
SPLINE
  5
523
100
AcDbEntity
  8
0
100
AcDbSpline
 62
7
  6
CONTINUOUS
 70
0
 71
3
 72
15
 73
11
 74
0
 42
0.0000001
 43
0.0000001
 44
0.0000000001
 40
0.0
 40
0.0
 40
0.0
 40
0.0
 40
0.125014308
 40
0.2500172771
 40
0.374995217
 40
0.4999907141
 40
0.6249857213
 40
0.7499697371
 40
0.8749791079
 40
1.0
 40
1.0
 40
1.0
 40
1.0
 10
57.3673117811
 20
305.2232088113
 30
0.0
 10
57.1071728952
 20
305.2206738395
 30
0.0
 10
56.5810298133
 20
305.1206842451
 30
0.0
 10
55.9166917992
 20
304.6736739865
 30
0.0
 10
55.4713957546
 20
304.0086311876
 30
0.0
 10
55.3153118731
 20
303.2232734782
 30
0.0
 10
55.4713561549
 20
302.4379241202
 30
0.0
 10
55.9166067253
 20
301.7727449416
 30
0.0
 10
56.5810079263
 20
301.3259814765
 30
0.0
 10
57.107155809
 20
301.2253687086
 30
0.0
 10
57.3673117811
 20
301.2232088113
 30
0.0
  0
SPLINE
  5
524
100
AcDbEntity
  8
0
100
AcDbSpline
 62
7
  6
CONTINUOUS
 70
0
 71
3
 72
15
 73
11
 74
0
 42
0.0000001
 43
0.0000001
 44
0.0000000001
 40
0.0
 40
0.0
 40
0.0
 40
0.0
 40
0.125014308
 40
0.2500172771
 40
0.374995217
 40
0.4999907141
 40
0.6249857213
 40
0.7499697371
 40
0.8749791079
 40
1.0
 40
1.0
 40
1.0
 40
1.0
 10
62.4473117811
 20
301.2232088113
 30
0.0
 10
62.707450667
 20
301.2257437832
 30
0.0
 10
63.2335937489
 20
301.3257333775
 30
0.0
 10
63.897931763
 20
301.7727436362
 30
0.0
 10
64.3432278076
 20
302.4377864351
 30
0.0
 10
64.4993116891
 20
303.2231441444
 30
0.0
 10
64.3432674073
 20
304.0084935024
 30
0.0
 10
63.8980168369
 20
304.673672681
 30
0.0
 10
63.233615636
 20
305.1204361462
 30
0.0
 10
62.7074677532
 20
305.2210489141
 30
0.0
 10
62.4473117811
 20
305.2232088113
 30
0.0
  0
SPLINE
  5
525
100
AcDbEntity
  8
0
100
AcDbSpline
 62
7
  6
CONTINUOUS
 70
0
 71
3
 72
15
 73
11
 74
0
 42
0.0000001
 43
0.0000001
 44
0.0000000001
 40
0.0
 40
0.0
 40
0.0
 40
0.0
 40
0.125014308
 40
0.2500172771
 40
0.374995217
 40
0.4999907141
 40
0.6249857213
 40
0.7499697371
 40
0.8749791079
 40
1.0
 40
1.0
 40
1.0
 40
1.0
 10
62.4473117811
 20
305.2232088113
 30
0.0
 10
62.1871728952
 20
305.2206738395
 30
0.0
 10
61.6610298133
 20
305.1206842451
 30
0.0
 10
60.9966917992
 20
304.6736739865
 30
0.0
 10
60.5513957546
 20
304.0086311876
 30
0.0
 10
60.3953118731
 20
303.2232734782
 30
0.0
 10
60.5513561549
 20
302.4379241202
 30
0.0
 10
60.9966067253
 20
301.7727449416
 30
0.0
 10
61.6610079263
 20
301.3259814765
 30
0.0
 10
62.187155809
 20
301.2253687086
 30
0.0
 10
62.4473117811
 20
301.2232088113
 30
0.0
  0
SPLINE
  5
526
100
AcDbEntity
  8
0
100
AcDbSpline
 62
7
  6
CONTINUOUS
 70
0
 71
3
 72
15
 73
11
 74
0
 42
0.0000001
 43
0.0000001
 44
0.0000000001
 40
0.0
 40
0.0
 40
0.0
 40
0.0
 40
0.125014308
 40
0.2500172771
 40
0.374995217
 40
0.4999907141
 40
0.6249857213
 40
0.7499697371
 40
0.8749791079
 40
1.0
 40
1.0
 40
1.0
 40
1.0
 10
52.2873117811
 20
301.2232088113
 30
0.0
 10
52.547450667
 20
301.2257437832
 30
0.0
 10
53.0735937489
 20
301.3257333775
 30
0.0
 10
53.737931763
 20
301.7727436362
 30
0.0
 10
54.1832278076
 20
302.4377864351
 30
0.0
 10
54.3393116891
 20
303.2231441444
 30
0.0
 10
54.1832674073
 20
304.0084935024
 30
0.0
 10
53.7380168369
 20
304.673672681
 30
0.0
 10
53.073615636
 20
305.1204361462
 30
0.0
 10
52.5474677532
 20
305.2210489141
 30
0.0
 10
52.2873117811
 20
305.2232088113
 30
0.0
  0
SPLINE
  5
527
100
AcDbEntity
  8
0
100
AcDbSpline
 62
7
  6
CONTINUOUS
 70
0
 71
3
 72
15
 73
11
 74
0
 42
0.0000001
 43
0.0000001
 44
0.0000000001
 40
0.0
 40
0.0
 40
0.0
 40
0.0
 40
0.125014308
 40
0.2500172771
 40
0.374995217
 40
0.4999907141
 40
0.6249857213
 40
0.7499697371
 40
0.8749791079
 40
1.0
 40
1.0
 40
1.0
 40
1.0
 10
52.2873117811
 20
305.2232088113
 30
0.0
 10
52.0271728952
 20
305.2206738395
 30
0.0
 10
51.5010298133
 20
305.1206842451
 30
0.0
 10
50.8366917992
 20
304.6736739865
 30
0.0
 10
50.3913957546
 20
304.0086311876
 30
0.0
 10
50.2353118731
 20
303.2232734782
 30
0.0
 10
50.3913561549
 20
302.4379241202
 30
0.0
 10
50.8366067253
 20
301.7727449416
 30
0.0
 10
51.5010079263
 20
301.3259814765
 30
0.0
 10
52.027155809
 20
301.2253687086
 30
0.0
 10
52.2873117811
 20
301.2232088113
 30
0.0
  0
SPLINE
  5
528
100
AcDbEntity
  8
0
100
AcDbSpline
 62
7
  6
CONTINUOUS
 70
0
 71
3
 72
15
 73
11
 74
0
 42
0.0000001
 43
0.0000001
 44
0.0000000001
 40
0.0
 40
0.0
 40
0.0
 40
0.0
 40
0.125014308
 40
0.2500172771
 40
0.374995217
 40
0.4999907141
 40
0.6249857213
 40
0.7499697371
 40
0.8749791079
 40
1.0
 40
1.0
 40
1.0
 40
1.0
 10
57.3673117811
 20
219.2232088113
 30
0.0
 10
57.1071728952
 20
219.2206738395
 30
0.0
 10
56.5810298133
 20
219.1206842451
 30
0.0
 10
55.9166917992
 20
218.6736739865
 30
0.0
 10
55.4713957546
 20
218.0086311876
 30
0.0
 10
55.3153118731
 20
217.2232734782
 30
0.0
 10
55.4713561549
 20
216.4379241202
 30
0.0
 10
55.9166067253
 20
215.7727449416
 30
0.0
 10
56.5810079263
 20
215.3259814765
 30
0.0
 10
57.107155809
 20
215.2253687086
 30
0.0
 10
57.3673117811
 20
215.2232088113
 30
0.0
  0
SPLINE
  5
529
100
AcDbEntity
  8
0
100
AcDbSpline
 62
7
  6
CONTINUOUS
 70
0
 71
3
 72
15
 73
11
 74
0
 42
0.0000001
 43
0.0000001
 44
0.0000000001
 40
0.0
 40
0.0
 40
0.0
 40
0.0
 40
0.125014308
 40
0.2500172771
 40
0.374995217
 40
0.4999907141
 40
0.6249857213
 40
0.7499697371
 40
0.8749791079
 40
1.0
 40
1.0
 40
1.0
 40
1.0
 10
57.3673117811
 20
215.2232088113
 30
0.0
 10
57.627450667
 20
215.2257437832
 30
0.0
 10
58.1535937489
 20
215.3257333775
 30
0.0
 10
58.817931763
 20
215.7727436362
 30
0.0
 10
59.2632278076
 20
216.4377864351
 30
0.0
 10
59.4193116891
 20
217.2231441444
 30
0.0
 10
59.2632674073
 20
218.0084935024
 30
0.0
 10
58.8180168369
 20
218.673672681
 30
0.0
 10
58.153615636
 20
219.1204361462
 30
0.0
 10
57.6274677532
 20
219.2210489141
 30
0.0
 10
57.3673117811
 20
219.2232088113
 30
0.0
  0
SPLINE
  5
52A
100
AcDbEntity
  8
0
100
AcDbSpline
 62
7
  6
CONTINUOUS
 70
0
 71
3
 72
15
 73
11
 74
0
 42
0.0000001
 43
0.0000001
 44
0.0000000001
 40
0.0
 40
0.0
 40
0.0
 40
0.0
 40
0.125014308
 40
0.2500172771
 40
0.374995217
 40
0.4999907141
 40
0.6249857213
 40
0.7499697371
 40
0.8749791079
 40
1.0
 40
1.0
 40
1.0
 40
1.0
 10
52.2873117811
 20
219.2232088113
 30
0.0
 10
52.0271728952
 20
219.2206738395
 30
0.0
 10
51.5010298133
 20
219.1206842451
 30
0.0
 10
50.8366917992
 20
218.6736739865
 30
0.0
 10
50.3913957546
 20
218.0086311876
 30
0.0
 10
50.2353118731
 20
217.2232734782
 30
0.0
 10
50.3913561549
 20
216.4379241202
 30
0.0
 10
50.8366067253
 20
215.7727449416
 30
0.0
 10
51.5010079263
 20
215.3259814765
 30
0.0
 10
52.027155809
 20
215.2253687086
 30
0.0
 10
52.2873117811
 20
215.2232088113
 30
0.0
  0
SPLINE
  5
52B
100
AcDbEntity
  8
0
100
AcDbSpline
 62
7
  6
CONTINUOUS
 70
0
 71
3
 72
15
 73
11
 74
0
 42
0.0000001
 43
0.0000001
 44
0.0000000001
 40
0.0
 40
0.0
 40
0.0
 40
0.0
 40
0.125014308
 40
0.2500172771
 40
0.374995217
 40
0.4999907141
 40
0.6249857213
 40
0.7499697371
 40
0.8749791079
 40
1.0
 40
1.0
 40
1.0
 40
1.0
 10
52.2873117811
 20
215.2232088113
 30
0.0
 10
52.547450667
 20
215.2257437832
 30
0.0
 10
53.0735937489
 20
215.3257333775
 30
0.0
 10
53.737931763
 20
215.7727436362
 30
0.0
 10
54.1832278076
 20
216.4377864351
 30
0.0
 10
54.3393116891
 20
217.2231441444
 30
0.0
 10
54.1832674073
 20
218.0084935024
 30
0.0
 10
53.7380168369
 20
218.673672681
 30
0.0
 10
53.073615636
 20
219.1204361462
 30
0.0
 10
52.5474677532
 20
219.2210489141
 30
0.0
 10
52.2873117811
 20
219.2232088113
 30
0.0
  0
SPLINE
  5
52C
100
AcDbEntity
  8
0
100
AcDbSpline
 62
7
  6
CONTINUOUS
 70
0
 71
3
 72
15
 73
11
 74
0
 42
0.0000001
 43
0.0000001
 44
0.0000000001
 40
0.0
 40
0.0
 40
0.0
 40
0.0
 40
0.125014308
 40
0.2500172771
 40
0.374995217
 40
0.4999907141
 40
0.6249857213
 40
0.7499697371
 40
0.8749791079
 40
1.0
 40
1.0
 40
1.0
 40
1.0
 10
62.4473117811
 20
219.2232088113
 30
0.0
 10
62.1871728952
 20
219.2206738395
 30
0.0
 10
61.6610298133
 20
219.1206842451
 30
0.0
 10
60.9966917992
 20
218.6736739865
 30
0.0
 10
60.5513957546
 20
218.0086311876
 30
0.0
 10
60.3953118731
 20
217.2232734782
 30
0.0
 10
60.5513561549
 20
216.4379241202
 30
0.0
 10
60.9966067253
 20
215.7727449416
 30
0.0
 10
61.6610079263
 20
215.3259814765
 30
0.0
 10
62.187155809
 20
215.2253687086
 30
0.0
 10
62.4473117811
 20
215.2232088113
 30
0.0
  0
SPLINE
  5
52D
100
AcDbEntity
  8
0
100
AcDbSpline
 62
7
  6
CONTINUOUS
 70
0
 71
3
 72
15
 73
11
 74
0
 42
0.0000001
 43
0.0000001
 44
0.0000000001
 40
0.0
 40
0.0
 40
0.0
 40
0.0
 40
0.125014308
 40
0.2500172771
 40
0.374995217
 40
0.4999907141
 40
0.6249857213
 40
0.7499697371
 40
0.8749791079
 40
1.0
 40
1.0
 40
1.0
 40
1.0
 10
62.4473117811
 20
215.2232088113
 30
0.0
 10
62.707450667
 20
215.2257437832
 30
0.0
 10
63.2335937489
 20
215.3257333775
 30
0.0
 10
63.897931763
 20
215.7727436362
 30
0.0
 10
64.3432278076
 20
216.4377864351
 30
0.0
 10
64.4993116891
 20
217.2231441444
 30
0.0
 10
64.3432674073
 20
218.0084935024
 30
0.0
 10
63.8980168369
 20
218.673672681
 30
0.0
 10
63.233615636
 20
219.1204361462
 30
0.0
 10
62.7074677532
 20
219.2210489141
 30
0.0
 10
62.4473117811
 20
219.2232088113
 30
0.0
  0
SPLINE
  5
52E
100
AcDbEntity
  8
0
100
AcDbSpline
 62
7
  6
CONTINUOUS
 70
0
 71
3
 72
15
 73
11
 74
0
 42
0.0000001
 43
0.0000001
 44
0.0000000001
 40
0.0
 40
0.0
 40
0.0
 40
0.0
 40
0.125014308
 40
0.2500172771
 40
0.374995217
 40
0.4999907141
 40
0.6249857213
 40
0.7499697371
 40
0.8749791079
 40
1.0
 40
1.0
 40
1.0
 40
1.0
 10
57.3673117811
 20
196.2232088113
 30
0.0
 10
57.1071728952
 20
196.2206738395
 30
0.0
 10
56.5810298133
 20
196.1206842451
 30
0.0
 10
55.9166917992
 20
195.6736739865
 30
0.0
 10
55.4713957546
 20
195.0086311876
 30
0.0
 10
55.3153118731
 20
194.2232734782
 30
0.0
 10
55.4713561549
 20
193.4379241202
 30
0.0
 10
55.9166067253
 20
192.7727449416
 30
0.0
 10
56.5810079263
 20
192.3259814765
 30
0.0
 10
57.107155809
 20
192.2253687086
 30
0.0
 10
57.3673117811
 20
192.2232088113
 30
0.0
  0
SPLINE
  5
52F
100
AcDbEntity
  8
0
100
AcDbSpline
 62
7
  6
CONTINUOUS
 70
0
 71
3
 72
15
 73
11
 74
0
 42
0.0000001
 43
0.0000001
 44
0.0000000001
 40
0.0
 40
0.0
 40
0.0
 40
0.0
 40
0.125014308
 40
0.2500172771
 40
0.374995217
 40
0.4999907141
 40
0.6249857213
 40
0.7499697371
 40
0.8749791079
 40
1.0
 40
1.0
 40
1.0
 40
1.0
 10
57.3673117811
 20
192.2232088113
 30
0.0
 10
57.627450667
 20
192.2257437832
 30
0.0
 10
58.1535937489
 20
192.3257333775
 30
0.0
 10
58.817931763
 20
192.7727436362
 30
0.0
 10
59.2632278076
 20
193.4377864351
 30
0.0
 10
59.4193116891
 20
194.2231441444
 30
0.0
 10
59.2632674073
 20
195.0084935024
 30
0.0
 10
58.8180168369
 20
195.673672681
 30
0.0
 10
58.153615636
 20
196.1204361462
 30
0.0
 10
57.6274677532
 20
196.2210489141
 30
0.0
 10
57.3673117811
 20
196.2232088113
 30
0.0
  0
SPLINE
  5
530
100
AcDbEntity
  8
0
100
AcDbSpline
 62
7
  6
CONTINUOUS
 70
0
 71
3
 72
15
 73
11
 74
0
 42
0.0000001
 43
0.0000001
 44
0.0000000001
 40
0.0
 40
0.0
 40
0.0
 40
0.0
 40
0.125014308
 40
0.2500172771
 40
0.374995217
 40
0.4999907141
 40
0.6249857213
 40
0.7499697371
 40
0.8749791079
 40
1.0
 40
1.0
 40
1.0
 40
1.0
 10
52.2873117811
 20
196.2232088113
 30
0.0
 10
52.0271728952
 20
196.2206738395
 30
0.0
 10
51.5010298133
 20
196.1206842451
 30
0.0
 10
50.8366917992
 20
195.6736739865
 30
0.0
 10
50.3913957546
 20
195.0086311876
 30
0.0
 10
50.2353118731
 20
194.2232734782
 30
0.0
 10
50.3913561549
 20
193.4379241202
 30
0.0
 10
50.8366067253
 20
192.7727449416
 30
0.0
 10
51.5010079263
 20
192.3259814765
 30
0.0
 10
52.027155809
 20
192.2253687086
 30
0.0
 10
52.2873117811
 20
192.2232088113
 30
0.0
  0
SPLINE
  5
531
100
AcDbEntity
  8
0
100
AcDbSpline
 62
7
  6
CONTINUOUS
 70
0
 71
3
 72
15
 73
11
 74
0
 42
0.0000001
 43
0.0000001
 44
0.0000000001
 40
0.0
 40
0.0
 40
0.0
 40
0.0
 40
0.125014308
 40
0.2500172771
 40
0.374995217
 40
0.4999907141
 40
0.6249857213
 40
0.7499697371
 40
0.8749791079
 40
1.0
 40
1.0
 40
1.0
 40
1.0
 10
52.2873117811
 20
192.2232088113
 30
0.0
 10
52.547450667
 20
192.2257437832
 30
0.0
 10
53.0735937489
 20
192.3257333775
 30
0.0
 10
53.737931763
 20
192.7727436362
 30
0.0
 10
54.1832278076
 20
193.4377864351
 30
0.0
 10
54.3393116891
 20
194.2231441444
 30
0.0
 10
54.1832674073
 20
195.0084935024
 30
0.0
 10
53.7380168369
 20
195.673672681
 30
0.0
 10
53.073615636
 20
196.1204361462
 30
0.0
 10
52.5474677532
 20
196.2210489141
 30
0.0
 10
52.2873117811
 20
196.2232088113
 30
0.0
  0
SPLINE
  5
532
100
AcDbEntity
  8
0
100
AcDbSpline
 62
7
  6
CONTINUOUS
 70
0
 71
3
 72
15
 73
11
 74
0
 42
0.0000001
 43
0.0000001
 44
0.0000000001
 40
0.0
 40
0.0
 40
0.0
 40
0.0
 40
0.125014308
 40
0.2500172771
 40
0.374995217
 40
0.4999907141
 40
0.6249857213
 40
0.7499697371
 40
0.8749791079
 40
1.0
 40
1.0
 40
1.0
 40
1.0
 10
62.4473117811
 20
196.2232088113
 30
0.0
 10
62.1871728952
 20
196.2206738395
 30
0.0
 10
61.6610298133
 20
196.1206842451
 30
0.0
 10
60.9966917992
 20
195.6736739865
 30
0.0
 10
60.5513957546
 20
195.0086311876
 30
0.0
 10
60.3953118731
 20
194.2232734782
 30
0.0
 10
60.5513561549
 20
193.4379241202
 30
0.0
 10
60.9966067253
 20
192.7727449416
 30
0.0
 10
61.6610079263
 20
192.3259814765
 30
0.0
 10
62.187155809
 20
192.2253687086
 30
0.0
 10
62.4473117811
 20
192.2232088113
 30
0.0
  0
SPLINE
  5
533
100
AcDbEntity
  8
0
100
AcDbSpline
 62
7
  6
CONTINUOUS
 70
0
 71
3
 72
15
 73
11
 74
0
 42
0.0000001
 43
0.0000001
 44
0.0000000001
 40
0.0
 40
0.0
 40
0.0
 40
0.0
 40
0.125014308
 40
0.2500172771
 40
0.374995217
 40
0.4999907141
 40
0.6249857213
 40
0.7499697371
 40
0.8749791079
 40
1.0
 40
1.0
 40
1.0
 40
1.0
 10
62.4473117811
 20
192.2232088113
 30
0.0
 10
62.707450667
 20
192.2257437832
 30
0.0
 10
63.2335937489
 20
192.3257333775
 30
0.0
 10
63.897931763
 20
192.7727436362
 30
0.0
 10
64.3432278076
 20
193.4377864351
 30
0.0
 10
64.4993116891
 20
194.2231441444
 30
0.0
 10
64.3432674073
 20
195.0084935024
 30
0.0
 10
63.8980168369
 20
195.673672681
 30
0.0
 10
63.233615636
 20
196.1204361462
 30
0.0
 10
62.7074677532
 20
196.2210489141
 30
0.0
 10
62.4473117811
 20
196.2232088113
 30
0.0
  0
SPLINE
  5
534
100
AcDbEntity
  8
0
100
AcDbSpline
 62
7
  6
CONTINUOUS
 70
0
 71
3
 72
15
 73
11
 74
0
 42
0.0000001
 43
0.0000001
 44
0.0000000001
 40
0.0
 40
0.0
 40
0.0
 40
0.0
 40
0.125014308
 40
0.2500172771
 40
0.374995217
 40
0.4999907141
 40
0.6249857213
 40
0.7499697371
 40
0.8749791079
 40
1.0
 40
1.0
 40
1.0
 40
1.0
 10
62.4473117811
 20
203.7232088113
 30
0.0
 10
62.707450667
 20
203.7257437832
 30
0.0
 10
63.2335937489
 20
203.8257333775
 30
0.0
 10
63.897931763
 20
204.2727436362
 30
0.0
 10
64.3432278076
 20
204.9377864351
 30
0.0
 10
64.4993116891
 20
205.7231441444
 30
0.0
 10
64.3432674073
 20
206.5084935024
 30
0.0
 10
63.8980168369
 20
207.173672681
 30
0.0
 10
63.233615636
 20
207.6204361462
 30
0.0
 10
62.7074677532
 20
207.7210489141
 30
0.0
 10
62.4473117811
 20
207.7232088113
 30
0.0
  0
SPLINE
  5
535
100
AcDbEntity
  8
0
100
AcDbSpline
 62
7
  6
CONTINUOUS
 70
0
 71
3
 72
15
 73
11
 74
0
 42
0.0000001
 43
0.0000001
 44
0.0000000001
 40
0.0
 40
0.0
 40
0.0
 40
0.0
 40
0.125014308
 40
0.2500172771
 40
0.374995217
 40
0.4999907141
 40
0.6249857213
 40
0.7499697371
 40
0.8749791079
 40
1.0
 40
1.0
 40
1.0
 40
1.0
 10
62.4473117811
 20
207.7232088113
 30
0.0
 10
62.1871728952
 20
207.7206738395
 30
0.0
 10
61.6610298133
 20
207.6206842451
 30
0.0
 10
60.9966917992
 20
207.1736739865
 30
0.0
 10
60.5513957546
 20
206.5086311876
 30
0.0
 10
60.3953118731
 20
205.7232734782
 30
0.0
 10
60.5513561549
 20
204.9379241202
 30
0.0
 10
60.9966067253
 20
204.2727449416
 30
0.0
 10
61.6610079263
 20
203.8259814765
 30
0.0
 10
62.187155809
 20
203.7253687086
 30
0.0
 10
62.4473117811
 20
203.7232088113
 30
0.0
  0
SPLINE
  5
536
100
AcDbEntity
  8
0
100
AcDbSpline
 62
7
  6
CONTINUOUS
 70
0
 71
3
 72
15
 73
11
 74
0
 42
0.0000001
 43
0.0000001
 44
0.0000000001
 40
0.0
 40
0.0
 40
0.0
 40
0.0
 40
0.125014308
 40
0.2500172771
 40
0.374995217
 40
0.4999907141
 40
0.6249857213
 40
0.7499697371
 40
0.8749791079
 40
1.0
 40
1.0
 40
1.0
 40
1.0
 10
52.2873117811
 20
203.7232088113
 30
0.0
 10
52.547450667
 20
203.7257437832
 30
0.0
 10
53.0735937489
 20
203.8257333775
 30
0.0
 10
53.737931763
 20
204.2727436362
 30
0.0
 10
54.1832278076
 20
204.9377864351
 30
0.0
 10
54.3393116891
 20
205.7231441444
 30
0.0
 10
54.1832674073
 20
206.5084935024
 30
0.0
 10
53.7380168369
 20
207.173672681
 30
0.0
 10
53.073615636
 20
207.6204361462
 30
0.0
 10
52.5474677532
 20
207.7210489141
 30
0.0
 10
52.2873117811
 20
207.7232088113
 30
0.0
  0
SPLINE
  5
537
100
AcDbEntity
  8
0
100
AcDbSpline
 62
7
  6
CONTINUOUS
 70
0
 71
3
 72
15
 73
11
 74
0
 42
0.0000001
 43
0.0000001
 44
0.0000000001
 40
0.0
 40
0.0
 40
0.0
 40
0.0
 40
0.125014308
 40
0.2500172771
 40
0.374995217
 40
0.4999907141
 40
0.6249857213
 40
0.7499697371
 40
0.8749791079
 40
1.0
 40
1.0
 40
1.0
 40
1.0
 10
52.2873117811
 20
207.7232088113
 30
0.0
 10
52.0271728952
 20
207.7206738395
 30
0.0
 10
51.5010298133
 20
207.6206842451
 30
0.0
 10
50.8366917992
 20
207.1736739865
 30
0.0
 10
50.3913957546
 20
206.5086311876
 30
0.0
 10
50.2353118731
 20
205.7232734782
 30
0.0
 10
50.3913561549
 20
204.9379241202
 30
0.0
 10
50.8366067253
 20
204.2727449416
 30
0.0
 10
51.5010079263
 20
203.8259814765
 30
0.0
 10
52.027155809
 20
203.7253687086
 30
0.0
 10
52.2873117811
 20
203.7232088113
 30
0.0
  0
SPLINE
  5
538
100
AcDbEntity
  8
0
100
AcDbSpline
 62
7
  6
CONTINUOUS
 70
0
 71
3
 72
15
 73
11
 74
0
 42
0.0000001
 43
0.0000001
 44
0.0000000001
 40
0.0
 40
0.0
 40
0.0
 40
0.0
 40
0.125014308
 40
0.2500172771
 40
0.374995217
 40
0.4999907141
 40
0.6249857213
 40
0.7499697371
 40
0.8749791079
 40
1.0
 40
1.0
 40
1.0
 40
1.0
 10
57.3673117811
 20
203.7232088113
 30
0.0
 10
57.627450667
 20
203.7257437832
 30
0.0
 10
58.1535937489
 20
203.8257333775
 30
0.0
 10
58.817931763
 20
204.2727436362
 30
0.0
 10
59.2632278076
 20
204.9377864351
 30
0.0
 10
59.4193116891
 20
205.7231441444
 30
0.0
 10
59.2632674073
 20
206.5084935024
 30
0.0
 10
58.8180168369
 20
207.173672681
 30
0.0
 10
58.153615636
 20
207.6204361462
 30
0.0
 10
57.6274677532
 20
207.7210489141
 30
0.0
 10
57.3673117811
 20
207.7232088113
 30
0.0
  0
SPLINE
  5
539
100
AcDbEntity
  8
0
100
AcDbSpline
 62
7
  6
CONTINUOUS
 70
0
 71
3
 72
15
 73
11
 74
0
 42
0.0000001
 43
0.0000001
 44
0.0000000001
 40
0.0
 40
0.0
 40
0.0
 40
0.0
 40
0.125014308
 40
0.2500172771
 40
0.374995217
 40
0.4999907141
 40
0.6249857213
 40
0.7499697371
 40
0.8749791079
 40
1.0
 40
1.0
 40
1.0
 40
1.0
 10
57.3673117811
 20
207.7232088113
 30
0.0
 10
57.1071728952
 20
207.7206738395
 30
0.0
 10
56.5810298133
 20
207.6206842451
 30
0.0
 10
55.9166917992
 20
207.1736739865
 30
0.0
 10
55.4713957546
 20
206.5086311876
 30
0.0
 10
55.3153118731
 20
205.7232734782
 30
0.0
 10
55.4713561549
 20
204.9379241202
 30
0.0
 10
55.9166067253
 20
204.2727449416
 30
0.0
 10
56.5810079263
 20
203.8259814765
 30
0.0
 10
57.107155809
 20
203.7253687086
 30
0.0
 10
57.3673117811
 20
203.7232088113
 30
0.0
  0
SPLINE
  5
53A
100
AcDbEntity
  8
0
100
AcDbSpline
 62
7
  6
CONTINUOUS
 70
0
 71
3
 72
11
 73
7
 74
0
 42
0.0000001
 43
0.0000001
 44
0.0000000001
 40
0.0
 40
0.0
 40
0.0
 40
0.0
 40
0.2785915915
 40
0.5235923123
 40
0.7548989177
 40
1.0
 40
1.0
 40
1.0
 40
1.0
 10
337.6087990422
 20
129.339843253
 30
0.0
 10
337.7296659707
 20
129.2808523059
 30
0.0
 10
337.9711992985
 20
129.1933433175
 30
0.0
 10
338.346100343
 20
129.1974899843
 30
0.0
 10
338.6680994958
 20
129.3597057522
 30
0.0
 10
338.812221351
 20
129.5484441963
 30
0.0
 10
338.8675186219
 20
129.6530545986
 30
0.0
  0
SPLINE
  5
53B
100
AcDbEntity
  8
0
100
AcDbSpline
 62
7
  6
CONTINUOUS
 70
0
 71
3
 72
9
 73
5
 74
0
 42
0.0000001
 43
0.0000001
 44
0.0000000001
 40
0.0
 40
0.0
 40
0.0
 40
0.0
 40
0.2357986435
 40
1.0
 40
1.0
 40
1.0
 40
1.0
 10
338.8675186219
 20
129.6530545986
 30
0.0
 10
338.8846190237
 20
129.6854048372
 30
0.0
 10
338.9501508051
 20
129.8262917397
 30
0.0
 10
338.9880382399
 20
129.9791085942
 30
0.0
 10
339.004699151
 20
130.0965230929
 30
0.0
  0
SPLINE
  5
53C
100
AcDbEntity
  8
0
100
AcDbSpline
 62
7
  6
CONTINUOUS
 70
0
 71
3
 72
11
 73
7
 74
0
 42
0.0000001
 43
0.0000001
 44
0.0000000001
 40
0.0
 40
0.0
 40
0.0
 40
0.0
 40
0.237477284
 40
0.5025355744
 40
0.7662115882
 40
1.0
 40
1.0
 40
1.0
 40
1.0
 10
339.004699151
 20
130.0965230929
 30
0.0
 10
339.0403091673
 20
130.3474776892
 30
0.0
 10
339.0018601399
 20
130.8949207663
 30
0.0
 10
338.7180152739
 20
131.6702408668
 30
0.0
 10
338.25428506
 20
132.3497579604
 30
0.0
 10
337.8310751752
 20
132.6905466491
 30
0.0
 10
337.6087990422
 20
132.8039448682
 30
0.0
  0
SPLINE
  5
53D
100
AcDbEntity
  8
0
100
AcDbSpline
 62
7
  6
CONTINUOUS
 70
0
 71
3
 72
9
 73
5
 74
0
 42
0.0000001
 43
0.0000001
 44
0.0000000001
 40
0.0
 40
0.0
 40
0.0
 40
0.0
 40
0.2566629437
 40
1.0
 40
1.0
 40
1.0
 40
1.0
 10
337.6087990422
 20
132.8039448682
 30
0.0
 10
337.590073896
 20
132.8130839612
 30
0.0
 10
337.5164935892
 20
132.8473813006
 30
0.0
 10
337.4403287136
 20
132.8762667879
 30
0.0
 10
337.3825882165
 20
132.8938055762
 30
0.0
  0
SPLINE
  5
53E
100
AcDbEntity
  8
0
100
AcDbSpline
 62
7
  6
CONTINUOUS
 70
0
 71
3
 72
16
 73
12
 74
0
 42
0.0000001
 43
0.0000001
 44
0.0000000001
 40
0.0
 40
0.0
 40
0.0
 40
0.0
 40
0.1013648329
 40
0.1482601446
 40
0.1956473682
 40
0.3002445084
 40
0.4260312212
 40
0.5700508105
 40
0.7220035164
 40
0.86910763
 40
1.0
 40
1.0
 40
1.0
 40
1.0
 10
337.3825882165
 20
132.8938055762
 30
0.0
 10
337.2250778492
 20
132.9416496565
 30
0.0
 10
336.9706229565
 20
132.9668003198
 30
0.0
 10
336.6700235217
 20
132.8502078359
 30
0.0
 10
336.4140215244
 20
132.6451950345
 30
0.0
 10
336.2083331845
 20
132.2212645018
 30
0.0
 10
336.1717503495
 20
131.6052462646
 30
0.0
 10
336.3150867312
 20
130.9283781803
 30
0.0
 10
336.6228245181
 20
130.2714243133
 30
0.0
 10
337.0528759407
 20
129.7137497534
 30
0.0
 10
337.419447805
 20
129.4364442366
 30
0.0
 10
337.6087990422
 20
129.339843253
 30
0.0
  0
SPLINE
  5
53F
100
AcDbEntity
  8
0
100
AcDbSpline
 62
7
  6
CONTINUOUS
 70
0
 71
3
 72
11
 73
7
 74
0
 42
0.0000001
 43
0.0000001
 44
0.0000000001
 40
0.0
 40
0.0
 40
0.0
 40
0.0
 40
0.2785915915
 40
0.5235923123
 40
0.7548989177
 40
1.0
 40
1.0
 40
1.0
 40
1.0
 10
341.2009014906
 20
127.5437920288
 30
0.0
 10
341.3217684191
 20
127.4848010817
 30
0.0
 10
341.5633017469
 20
127.3972920933
 30
0.0
 10
341.9382027914
 20
127.4014387601
 30
0.0
 10
342.2602019442
 20
127.563654528
 30
0.0
 10
342.4043237994
 20
127.7523929721
 30
0.0
 10
342.4596210703
 20
127.8570033744
 30
0.0
  0
SPLINE
  5
540
100
AcDbEntity
  8
0
100
AcDbSpline
 62
7
  6
CONTINUOUS
 70
0
 71
3
 72
9
 73
5
 74
0
 42
0.0000001
 43
0.0000001
 44
0.0000000001
 40
0.0
 40
0.0
 40
0.0
 40
0.0
 40
0.2357986435
 40
1.0
 40
1.0
 40
1.0
 40
1.0
 10
342.4596210703
 20
127.8570033744
 30
0.0
 10
342.4767214721
 20
127.889353613
 30
0.0
 10
342.5422532535
 20
128.0302405155
 30
0.0
 10
342.5801406883
 20
128.18305737
 30
0.0
 10
342.5968015994
 20
128.3004718686
 30
0.0
  0
SPLINE
  5
541
100
AcDbEntity
  8
0
100
AcDbSpline
 62
7
  6
CONTINUOUS
 70
0
 71
3
 72
11
 73
7
 74
0
 42
0.0000001
 43
0.0000001
 44
0.0000000001
 40
0.0
 40
0.0
 40
0.0
 40
0.0
 40
0.237477284
 40
0.5025355744
 40
0.7662115882
 40
1.0
 40
1.0
 40
1.0
 40
1.0
 10
342.5968015994
 20
128.3004718686
 30
0.0
 10
342.6324116157
 20
128.551426465
 30
0.0
 10
342.5939625884
 20
129.0988695421
 30
0.0
 10
342.3101177223
 20
129.8741896426
 30
0.0
 10
341.8463875084
 20
130.5537067362
 30
0.0
 10
341.4231776236
 20
130.8944954249
 30
0.0
 10
341.2009014906
 20
131.007893644
 30
0.0
  0
SPLINE
  5
542
100
AcDbEntity
  8
0
100
AcDbSpline
 62
7
  6
CONTINUOUS
 70
0
 71
3
 72
9
 73
5
 74
0
 42
0.0000001
 43
0.0000001
 44
0.0000000001
 40
0.0
 40
0.0
 40
0.0
 40
0.0
 40
0.2566629437
 40
1.0
 40
1.0
 40
1.0
 40
1.0
 10
341.2009014906
 20
131.007893644
 30
0.0
 10
341.1821763445
 20
131.017032737
 30
0.0
 10
341.1085960376
 20
131.0513300764
 30
0.0
 10
341.0324311621
 20
131.0802155636
 30
0.0
 10
340.9746906649
 20
131.0977543519
 30
0.0
  0
SPLINE
  5
543
100
AcDbEntity
  8
0
100
AcDbSpline
 62
7
  6
CONTINUOUS
 70
0
 71
3
 72
16
 73
12
 74
0
 42
0.0000001
 43
0.0000001
 44
0.0000000001
 40
0.0
 40
0.0
 40
0.0
 40
0.0
 40
0.1013648329
 40
0.1482601446
 40
0.1956473682
 40
0.3002445084
 40
0.4260312212
 40
0.5700508105
 40
0.7220035164
 40
0.86910763
 40
1.0
 40
1.0
 40
1.0
 40
1.0
 10
340.9746906649
 20
131.0977543519
 30
0.0
 10
340.8171802976
 20
131.1455984323
 30
0.0
 10
340.562725405
 20
131.1707490956
 30
0.0
 10
340.2621259702
 20
131.0541566117
 30
0.0
 10
340.0061239728
 20
130.8491438103
 30
0.0
 10
339.8004356329
 20
130.4252132775
 30
0.0
 10
339.7638527979
 20
129.8091950404
 30
0.0
 10
339.9071891796
 20
129.1323269561
 30
0.0
 10
340.2149269666
 20
128.4753730891
 30
0.0
 10
340.6449783891
 20
127.9176985292
 30
0.0
 10
341.0115502534
 20
127.6403930124
 30
0.0
 10
341.2009014906
 20
127.5437920288
 30
0.0
  0
SPLINE
  5
544
100
AcDbEntity
  8
0
100
AcDbSpline
 62
7
  6
CONTINUOUS
 70
0
 71
3
 72
11
 73
7
 74
0
 42
0.0000001
 43
0.0000001
 44
0.0000000001
 40
0.0
 40
0.0
 40
0.0
 40
0.0
 40
0.2785915915
 40
0.5235923123
 40
0.7548989177
 40
1.0
 40
1.0
 40
1.0
 40
1.0
 10
334.0166965938
 20
131.1358944772
 30
0.0
 10
334.1375635223
 20
131.0769035301
 30
0.0
 10
334.37909685
 20
130.9893945417
 30
0.0
 10
334.7539978946
 20
130.9935412085
 30
0.0
 10
335.0759970473
 20
131.1557569765
 30
0.0
 10
335.2201189025
 20
131.3444954205
 30
0.0
 10
335.2754161735
 20
131.4491058228
 30
0.0
  0
SPLINE
  5
545
100
AcDbEntity
  8
0
100
AcDbSpline
 62
7
  6
CONTINUOUS
 70
0
 71
3
 72
9
 73
5
 74
0
 42
0.0000001
 43
0.0000001
 44
0.0000000001
 40
0.0
 40
0.0
 40
0.0
 40
0.0
 40
0.2357986435
 40
1.0
 40
1.0
 40
1.0
 40
1.0
 10
335.2754161735
 20
131.4491058228
 30
0.0
 10
335.2925165752
 20
131.4814560614
 30
0.0
 10
335.3580483567
 20
131.6223429639
 30
0.0
 10
335.3959357915
 20
131.7751598184
 30
0.0
 10
335.4125967026
 20
131.8925743171
 30
0.0
  0
SPLINE
  5
546
100
AcDbEntity
  8
0
100
AcDbSpline
 62
7
  6
CONTINUOUS
 70
0
 71
3
 72
11
 73
7
 74
0
 42
0.0000001
 43
0.0000001
 44
0.0000000001
 40
0.0
 40
0.0
 40
0.0
 40
0.0
 40
0.237477284
 40
0.5025355744
 40
0.7662115882
 40
1.0
 40
1.0
 40
1.0
 40
1.0
 10
335.4125967026
 20
131.8925743171
 30
0.0
 10
335.4482067188
 20
132.1435289134
 30
0.0
 10
335.4097576915
 20
132.6909719905
 30
0.0
 10
335.1259128255
 20
133.4662920911
 30
0.0
 10
334.6621826116
 20
134.1458091846
 30
0.0
 10
334.2389727268
 20
134.4865978733
 30
0.0
 10
334.0166965938
 20
134.5999960924
 30
0.0
  0
SPLINE
  5
547
100
AcDbEntity
  8
0
100
AcDbSpline
 62
7
  6
CONTINUOUS
 70
0
 71
3
 72
9
 73
5
 74
0
 42
0.0000001
 43
0.0000001
 44
0.0000000001
 40
0.0
 40
0.0
 40
0.0
 40
0.0
 40
0.2566629437
 40
1.0
 40
1.0
 40
1.0
 40
1.0
 10
334.0166965938
 20
134.5999960924
 30
0.0
 10
333.9979714476
 20
134.6091351854
 30
0.0
 10
333.9243911407
 20
134.6434325248
 30
0.0
 10
333.8482262652
 20
134.6723180121
 30
0.0
 10
333.790485768
 20
134.6898568004
 30
0.0
  0
SPLINE
  5
548
100
AcDbEntity
  8
0
100
AcDbSpline
 62
7
  6
CONTINUOUS
 70
0
 71
3
 72
16
 73
12
 74
0
 42
0.0000001
 43
0.0000001
 44
0.0000000001
 40
0.0
 40
0.0
 40
0.0
 40
0.0
 40
0.1013648329
 40
0.1482601446
 40
0.1956473682
 40
0.3002445084
 40
0.4260312212
 40
0.5700508105
 40
0.7220035164
 40
0.86910763
 40
1.0
 40
1.0
 40
1.0
 40
1.0
 10
333.790485768
 20
134.6898568004
 30
0.0
 10
333.6329754008
 20
134.7377008808
 30
0.0
 10
333.3785205081
 20
134.762851544
 30
0.0
 10
333.0779210733
 20
134.6462590601
 30
0.0
 10
332.8219190759
 20
134.4412462587
 30
0.0
 10
332.6162307361
 20
134.017315726
 30
0.0
 10
332.5796479011
 20
133.4012974888
 30
0.0
 10
332.7229842827
 20
132.7244294045
 30
0.0
 10
333.0307220697
 20
132.0674755375
 30
0.0
 10
333.4607734922
 20
131.5098009776
 30
0.0
 10
333.8273453566
 20
131.2324954608
 30
0.0
 10
334.0166965938
 20
131.1358944772
 30
0.0
  0
SPLINE
  5
549
100
AcDbEntity
  8
0
100
AcDbSpline
 62
7
  6
CONTINUOUS
 70
0
 71
3
 72
11
 73
7
 74
0
 42
0.0000001
 43
0.0000001
 44
0.0000000001
 40
0.0
 40
0.0
 40
0.0
 40
0.0
 40
0.2785915915
 40
0.5235923123
 40
0.7548989177
 40
1.0
 40
1.0
 40
1.0
 40
1.0
 10
351.7509346659
 20
146.3702032084
 30
0.0
 10
351.8718015944
 20
146.3112122613
 30
0.0
 10
352.1133349222
 20
146.2237032729
 30
0.0
 10
352.4882359667
 20
146.2278499397
 30
0.0
 10
352.8102351195
 20
146.3900657076
 30
0.0
 10
352.9543569747
 20
146.5788041517
 30
0.0
 10
353.0096542456
 20
146.683414554
 30
0.0
  0
SPLINE
  5
54A
100
AcDbEntity
  8
0
100
AcDbSpline
 62
7
  6
CONTINUOUS
 70
0
 71
3
 72
9
 73
5
 74
0
 42
0.0000001
 43
0.0000001
 44
0.0000000001
 40
0.0
 40
0.0
 40
0.0
 40
0.0
 40
0.2357986435
 40
1.0
 40
1.0
 40
1.0
 40
1.0
 10
353.0096542456
 20
146.683414554
 30
0.0
 10
353.0267546474
 20
146.7157647926
 30
0.0
 10
353.0922864288
 20
146.8566516951
 30
0.0
 10
353.1301738637
 20
147.0094685496
 30
0.0
 10
353.1468347747
 20
147.1268830482
 30
0.0
  0
SPLINE
  5
54B
100
AcDbEntity
  8
0
100
AcDbSpline
 62
7
  6
CONTINUOUS
 70
0
 71
3
 72
11
 73
7
 74
0
 42
0.0000001
 43
0.0000001
 44
0.0000000001
 40
0.0
 40
0.0
 40
0.0
 40
0.0
 40
0.237477284
 40
0.5025355744
 40
0.7662115882
 40
1.0
 40
1.0
 40
1.0
 40
1.0
 10
353.1468347747
 20
147.1268830482
 30
0.0
 10
353.182444791
 20
147.3778376446
 30
0.0
 10
353.1439957637
 20
147.9252807217
 30
0.0
 10
352.8601508976
 20
148.7006008222
 30
0.0
 10
352.3964206837
 20
149.3801179158
 30
0.0
 10
351.9732107989
 20
149.7209066045
 30
0.0
 10
351.7509346659
 20
149.8343048236
 30
0.0
  0
SPLINE
  5
54C
100
AcDbEntity
  8
0
100
AcDbSpline
 62
7
  6
CONTINUOUS
 70
0
 71
3
 72
9
 73
5
 74
0
 42
0.0000001
 43
0.0000001
 44
0.0000000001
 40
0.0
 40
0.0
 40
0.0
 40
0.0
 40
0.2566629437
 40
1.0
 40
1.0
 40
1.0
 40
1.0
 10
351.7509346659
 20
149.8343048236
 30
0.0
 10
351.7322095198
 20
149.8434439166
 30
0.0
 10
351.6586292129
 20
149.877741256
 30
0.0
 10
351.5824643374
 20
149.9066267432
 30
0.0
 10
351.5247238402
 20
149.9241655315
 30
0.0
  0
SPLINE
  5
54D
100
AcDbEntity
  8
0
100
AcDbSpline
 62
7
  6
CONTINUOUS
 70
0
 71
3
 72
16
 73
12
 74
0
 42
0.0000001
 43
0.0000001
 44
0.0000000001
 40
0.0
 40
0.0
 40
0.0
 40
0.0
 40
0.1013648329
 40
0.1482601446
 40
0.1956473682
 40
0.3002445084
 40
0.4260312212
 40
0.5700508105
 40
0.7220035164
 40
0.86910763
 40
1.0
 40
1.0
 40
1.0
 40
1.0
 10
351.5247238402
 20
149.9241655315
 30
0.0
 10
351.3672134729
 20
149.9720096119
 30
0.0
 10
351.1127585803
 20
149.9971602752
 30
0.0
 10
350.8121591455
 20
149.8805677913
 30
0.0
 10
350.5561571481
 20
149.6755549899
 30
0.0
 10
350.3504688082
 20
149.2516244571
 30
0.0
 10
350.3138859732
 20
148.63560622
 30
0.0
 10
350.4572223549
 20
147.9587381357
 30
0.0
 10
350.7649601419
 20
147.3017842687
 30
0.0
 10
351.1950115644
 20
146.7441097088
 30
0.0
 10
351.5615834288
 20
146.466804192
 30
0.0
 10
351.7509346659
 20
146.3702032084
 30
0.0
  0
SPLINE
  5
54E
100
AcDbEntity
  8
0
100
AcDbSpline
 62
7
  6
CONTINUOUS
 70
0
 71
3
 72
11
 73
7
 74
0
 42
0.0000001
 43
0.0000001
 44
0.0000000001
 40
0.0
 40
0.0
 40
0.0
 40
0.0
 40
0.2785915915
 40
0.5235923123
 40
0.7548989177
 40
1.0
 40
1.0
 40
1.0
 40
1.0
 10
355.3430371144
 20
144.5741519842
 30
0.0
 10
355.4639040429
 20
144.5151610371
 30
0.0
 10
355.7054373706
 20
144.4276520486
 30
0.0
 10
356.0803384152
 20
144.4317987155
 30
0.0
 10
356.4023375679
 20
144.5940144834
 30
0.0
 10
356.5464594231
 20
144.7827529274
 30
0.0
 10
356.601756694
 20
144.8873633298
 30
0.0
  0
SPLINE
  5
54F
100
AcDbEntity
  8
0
100
AcDbSpline
 62
7
  6
CONTINUOUS
 70
0
 71
3
 72
9
 73
5
 74
0
 42
0.0000001
 43
0.0000001
 44
0.0000000001
 40
0.0
 40
0.0
 40
0.0
 40
0.0
 40
0.2357986435
 40
1.0
 40
1.0
 40
1.0
 40
1.0
 10
356.601756694
 20
144.8873633298
 30
0.0
 10
356.6188570958
 20
144.9197135684
 30
0.0
 10
356.6843888773
 20
145.0606004709
 30
0.0
 10
356.7222763121
 20
145.2134173254
 30
0.0
 10
356.7389372231
 20
145.330831824
 30
0.0
  0
SPLINE
  5
550
100
AcDbEntity
  8
0
100
AcDbSpline
 62
7
  6
CONTINUOUS
 70
0
 71
3
 72
11
 73
7
 74
0
 42
0.0000001
 43
0.0000001
 44
0.0000000001
 40
0.0
 40
0.0
 40
0.0
 40
0.0
 40
0.237477284
 40
0.5025355744
 40
0.7662115882
 40
1.0
 40
1.0
 40
1.0
 40
1.0
 10
356.7389372231
 20
145.330831824
 30
0.0
 10
356.7745472394
 20
145.5817864204
 30
0.0
 10
356.7360982121
 20
146.1292294974
 30
0.0
 10
356.4522533461
 20
146.904549598
 30
0.0
 10
355.9885231322
 20
147.5840666916
 30
0.0
 10
355.5653132473
 20
147.9248553803
 30
0.0
 10
355.3430371144
 20
148.0382535993
 30
0.0
  0
SPLINE
  5
551
100
AcDbEntity
  8
0
100
AcDbSpline
 62
7
  6
CONTINUOUS
 70
0
 71
3
 72
9
 73
5
 74
0
 42
0.0000001
 43
0.0000001
 44
0.0000000001
 40
0.0
 40
0.0
 40
0.0
 40
0.0
 40
0.2566629437
 40
1.0
 40
1.0
 40
1.0
 40
1.0
 10
355.3430371144
 20
148.0382535993
 30
0.0
 10
355.3243119682
 20
148.0473926924
 30
0.0
 10
355.2507316613
 20
148.0816900318
 30
0.0
 10
355.1745667858
 20
148.110575519
 30
0.0
 10
355.1168262886
 20
148.1281143073
 30
0.0
  0
SPLINE
  5
552
100
AcDbEntity
  8
0
100
AcDbSpline
 62
7
  6
CONTINUOUS
 70
0
 71
3
 72
16
 73
12
 74
0
 42
0.0000001
 43
0.0000001
 44
0.0000000001
 40
0.0
 40
0.0
 40
0.0
 40
0.0
 40
0.1013648329
 40
0.1482601446
 40
0.1956473682
 40
0.3002445084
 40
0.4260312212
 40
0.5700508105
 40
0.7220035164
 40
0.86910763
 40
1.0
 40
1.0
 40
1.0
 40
1.0
 10
355.1168262886
 20
148.1281143073
 30
0.0
 10
354.9593159213
 20
148.1759583877
 30
0.0
 10
354.7048610287
 20
148.201109051
 30
0.0
 10
354.4042615939
 20
148.084516567
 30
0.0
 10
354.1482595965
 20
147.8795037656
 30
0.0
 10
353.9425712567
 20
147.4555732329
 30
0.0
 10
353.9059884217
 20
146.8395549958
 30
0.0
 10
354.0493248033
 20
146.1626869115
 30
0.0
 10
354.3570625903
 20
145.5057330445
 30
0.0
 10
354.7871140128
 20
144.9480584846
 30
0.0
 10
355.1536858772
 20
144.6707529678
 30
0.0
 10
355.3430371144
 20
144.5741519842
 30
0.0
  0
SPLINE
  5
553
100
AcDbEntity
  8
0
100
AcDbSpline
 62
7
  6
CONTINUOUS
 70
0
 71
3
 72
11
 73
7
 74
0
 42
0.0000001
 43
0.0000001
 44
0.0000000001
 40
0.0
 40
0.0
 40
0.0
 40
0.0
 40
0.2785915915
 40
0.5235923123
 40
0.7548989177
 40
1.0
 40
1.0
 40
1.0
 40
1.0
 10
348.1588322175
 20
148.1662544326
 30
0.0
 10
348.279699146
 20
148.1072634855
 30
0.0
 10
348.5212324738
 20
148.0197544971
 30
0.0
 10
348.8961335183
 20
148.0239011639
 30
0.0
 10
349.2181326711
 20
148.1861169318
 30
0.0
 10
349.3622545263
 20
148.3748553759
 30
0.0
 10
349.4175517972
 20
148.4794657782
 30
0.0
  0
SPLINE
  5
554
100
AcDbEntity
  8
0
100
AcDbSpline
 62
7
  6
CONTINUOUS
 70
0
 71
3
 72
9
 73
5
 74
0
 42
0.0000001
 43
0.0000001
 44
0.0000000001
 40
0.0
 40
0.0
 40
0.0
 40
0.0
 40
0.2357986435
 40
1.0
 40
1.0
 40
1.0
 40
1.0
 10
349.4175517972
 20
148.4794657782
 30
0.0
 10
349.434652199
 20
148.5118160168
 30
0.0
 10
349.5001839804
 20
148.6527029193
 30
0.0
 10
349.5380714152
 20
148.8055197738
 30
0.0
 10
349.5547323263
 20
148.9229342725
 30
0.0
  0
SPLINE
  5
555
100
AcDbEntity
  8
0
100
AcDbSpline
 62
7
  6
CONTINUOUS
 70
0
 71
3
 72
11
 73
7
 74
0
 42
0.0000001
 43
0.0000001
 44
0.0000000001
 40
0.0
 40
0.0
 40
0.0
 40
0.0
 40
0.237477284
 40
0.5025355744
 40
0.7662115882
 40
1.0
 40
1.0
 40
1.0
 40
1.0
 10
349.5547323263
 20
148.9229342725
 30
0.0
 10
349.5903423426
 20
149.1738888688
 30
0.0
 10
349.5518933152
 20
149.7213319459
 30
0.0
 10
349.2680484492
 20
150.4966520464
 30
0.0
 10
348.8043182353
 20
151.17616914
 30
0.0
 10
348.3811083505
 20
151.5169578287
 30
0.0
 10
348.1588322175
 20
151.6303560478
 30
0.0
  0
SPLINE
  5
556
100
AcDbEntity
  8
0
100
AcDbSpline
 62
7
  6
CONTINUOUS
 70
0
 71
3
 72
9
 73
5
 74
0
 42
0.0000001
 43
0.0000001
 44
0.0000000001
 40
0.0
 40
0.0
 40
0.0
 40
0.0
 40
0.2566629437
 40
1.0
 40
1.0
 40
1.0
 40
1.0
 10
348.1588322175
 20
151.6303560478
 30
0.0
 10
348.1401070713
 20
151.6394951408
 30
0.0
 10
348.0665267645
 20
151.6737924802
 30
0.0
 10
347.9903618889
 20
151.7026779675
 30
0.0
 10
347.9326213918
 20
151.7202167558
 30
0.0
  0
SPLINE
  5
557
100
AcDbEntity
  8
0
100
AcDbSpline
 62
7
  6
CONTINUOUS
 70
0
 71
3
 72
16
 73
12
 74
0
 42
0.0000001
 43
0.0000001
 44
0.0000000001
 40
0.0
 40
0.0
 40
0.0
 40
0.0
 40
0.1013648329
 40
0.1482601446
 40
0.1956473682
 40
0.3002445084
 40
0.4260312212
 40
0.5700508105
 40
0.7220035164
 40
0.86910763
 40
1.0
 40
1.0
 40
1.0
 40
1.0
 10
347.9326213918
 20
151.7202167558
 30
0.0
 10
347.7751110245
 20
151.7680608361
 30
0.0
 10
347.5206561319
 20
151.7932114994
 30
0.0
 10
347.220056697
 20
151.6766190155
 30
0.0
 10
346.9640546997
 20
151.4716062141
 30
0.0
 10
346.7583663598
 20
151.0476756814
 30
0.0
 10
346.7217835248
 20
150.4316574442
 30
0.0
 10
346.8651199065
 20
149.7547893599
 30
0.0
 10
347.1728576934
 20
149.0978354929
 30
0.0
 10
347.602909116
 20
148.540160933
 30
0.0
 10
347.9694809803
 20
148.2628554162
 30
0.0
 10
348.1588322175
 20
148.1662544326
 30
0.0
  0
SPLINE
  5
558
100
AcDbEntity
  8
0
100
AcDbSpline
 62
7
  6
CONTINUOUS
 70
0
 71
3
 72
9
 73
5
 74
0
 42
0.0000001
 43
0.0000001
 44
0.0000000001
 40
0.0
 40
0.0
 40
0.0
 40
0.0
 40
0.2366527327
 40
1.0
 40
1.0
 40
1.0
 40
1.0
 10
336.2006419793
 20
67.4166602736
 30
0.0
 10
336.1961726628
 20
67.3598947193
 30
0.0
 10
336.1881935119
 20
67.1191931446
 30
0.0
 10
336.2204572082
 20
66.8779984251
 30
0.0
 10
336.2617771556
 20
66.6990369581
 30
0.0
  0
SPLINE
  5
559
100
AcDbEntity
  8
0
100
AcDbSpline
 62
7
  6
CONTINUOUS
 70
0
 71
3
 72
10
 73
6
 74
0
 42
0.0000001
 43
0.0000001
 44
0.0000000001
 40
0.0
 40
0.0
 40
0.0
 40
0.0
 40
0.2614522341
 40
0.5260193577
 40
1.0
 40
1.0
 40
1.0
 40
1.0
 10
336.2617771556
 20
66.6990369581
 30
0.0
 10
336.3081794718
 20
66.4980631641
 30
0.0
 10
336.4454351205
 20
66.1023023482
 30
0.0
 10
336.838095443
 20
65.4177128402
 30
0.0
 10
337.2757152522
 20
64.9908794352
 30
0.0
 10
337.6087990422
 20
64.8209506711
 30
0.0
  0
SPLINE
  5
55A
100
AcDbEntity
  8
0
100
AcDbSpline
 62
7
  6
CONTINUOUS
 70
0
 71
3
 72
11
 73
7
 74
0
 42
0.0000001
 43
0.0000001
 44
0.0000000001
 40
0.0
 40
0.0
 40
0.0
 40
0.0
 40
0.2785915915
 40
0.5235923123
 40
0.7548989177
 40
1.0
 40
1.0
 40
1.0
 40
1.0
 10
337.6087990422
 20
64.8209506711
 30
0.0
 10
337.7296659707
 20
64.761959724
 30
0.0
 10
337.9711992985
 20
64.6744507355
 30
0.0
 10
338.346100343
 20
64.6785974024
 30
0.0
 10
338.6680994958
 20
64.8408131703
 30
0.0
 10
338.812221351
 20
65.0295516143
 30
0.0
 10
338.8675186219
 20
65.1341620167
 30
0.0
  0
SPLINE
  5
55B
100
AcDbEntity
  8
0
100
AcDbSpline
 62
7
  6
CONTINUOUS
 70
0
 71
3
 72
9
 73
5
 74
0
 42
0.0000001
 43
0.0000001
 44
0.0000000001
 40
0.0
 40
0.0
 40
0.0
 40
0.0
 40
0.2357986435
 40
1.0
 40
1.0
 40
1.0
 40
1.0
 10
338.8675186219
 20
65.1341620167
 30
0.0
 10
338.8846190237
 20
65.1665122553
 30
0.0
 10
338.9501508051
 20
65.3073991577
 30
0.0
 10
338.9880382399
 20
65.4602160123
 30
0.0
 10
339.004699151
 20
65.5776305109
 30
0.0
  0
SPLINE
  5
55C
100
AcDbEntity
  8
0
100
AcDbSpline
 62
7
  6
CONTINUOUS
 70
0
 71
3
 72
9
 73
5
 74
0
 42
0.0000001
 43
0.0000001
 44
0.0000000001
 40
0.0
 40
0.0
 40
0.0
 40
0.0
 40
0.2399727658
 40
1.0
 40
1.0
 40
1.0
 40
1.0
 10
339.004699151
 20
65.5776305109
 30
0.0
 10
339.0095483411
 20
65.6118042262
 30
0.0
 10
339.0254725767
 20
65.754808936
 30
0.0
 10
339.0249102304
 20
65.8994566569
 30
0.0
 10
339.0169549292
 20
66.0084839435
 30
0.0
  0
SPLINE
  5
55D
100
AcDbEntity
  8
0
100
AcDbSpline
 62
7
  6
CONTINUOUS
 70
0
 71
3
 72
11
 73
7
 74
0
 42
0.0000001
 43
0.0000001
 44
0.0000000001
 40
0.0
 40
0.0
 40
0.0
 40
0.0
 40
0.241595233
 40
0.5066700994
 40
0.7680895946
 40
1.0
 40
1.0
 40
1.0
 40
1.0
 10
332.6085395309
 20
69.2127114978
 30
0.0
 10
332.588999907
 20
68.9645353877
 30
0.0
 10
332.6480915165
 20
68.4355456488
 30
0.0
 10
332.9409887779
 20
67.692685587
 30
0.0
 10
333.3964878063
 20
67.0478821654
 30
0.0
 10
333.8038328565
 20
66.7255982092
 30
0.0
 10
334.0166965938
 20
66.6170018953
 30
0.0
  0
SPLINE
  5
55E
100
AcDbEntity
  8
0
100
AcDbSpline
 62
7
  6
CONTINUOUS
 70
0
 71
3
 72
11
 73
7
 74
0
 42
0.0000001
 43
0.0000001
 44
0.0000000001
 40
0.0
 40
0.0
 40
0.0
 40
0.0
 40
0.2785915915
 40
0.5235923123
 40
0.7548989177
 40
1.0
 40
1.0
 40
1.0
 40
1.0
 10
334.0166965938
 20
66.6170018953
 30
0.0
 10
334.1375635223
 20
66.5580109482
 30
0.0
 10
334.37909685
 20
66.4705019598
 30
0.0
 10
334.7539978946
 20
66.4746486266
 30
0.0
 10
335.0759970473
 20
66.6368643945
 30
0.0
 10
335.2201189025
 20
66.8256028385
 30
0.0
 10
335.2754161735
 20
66.9302132409
 30
0.0
  0
SPLINE
  5
55F
100
AcDbEntity
  8
0
100
AcDbSpline
 62
7
  6
CONTINUOUS
 70
0
 71
3
 72
9
 73
5
 74
0
 42
0.0000001
 43
0.0000001
 44
0.0000000001
 40
0.0
 40
0.0
 40
0.0
 40
0.0
 40
0.2357986435
 40
1.0
 40
1.0
 40
1.0
 40
1.0
 10
335.2754161735
 20
66.9302132409
 30
0.0
 10
335.2925165752
 20
66.9625634795
 30
0.0
 10
335.3580483567
 20
67.103450382
 30
0.0
 10
335.3959357915
 20
67.2562672365
 30
0.0
 10
335.4125967026
 20
67.3736817351
 30
0.0
  0
SPLINE
  5
560
100
AcDbEntity
  8
0
100
AcDbSpline
 62
7
  6
CONTINUOUS
 70
0
 71
3
 72
9
 73
5
 74
0
 42
0.0000001
 43
0.0000001
 44
0.0000000001
 40
0.0
 40
0.0
 40
0.0
 40
0.0
 40
0.2399727658
 40
1.0
 40
1.0
 40
1.0
 40
1.0
 10
335.4125967026
 20
67.3736817351
 30
0.0
 10
335.4174458927
 20
67.4078554504
 30
0.0
 10
335.4333701282
 20
67.5508601602
 30
0.0
 10
335.4328077819
 20
67.6955078811
 30
0.0
 10
335.4248524807
 20
67.8045351677
 30
0.0
  0
SPLINE
  5
561
100
AcDbEntity
  8
0
100
AcDbSpline
 62
7
  6
CONTINUOUS
 70
0
 71
3
 72
11
 73
7
 74
0
 42
0.0000001
 43
0.0000001
 44
0.0000000001
 40
0.0
 40
0.0
 40
0.0
 40
0.0
 40
0.241595233
 40
0.5066700994
 40
0.7680895946
 40
1.0
 40
1.0
 40
1.0
 40
1.0
 10
339.7927444278
 20
65.6206090494
 30
0.0
 10
339.7732048039
 20
65.3724329393
 30
0.0
 10
339.8322964133
 20
64.8434432004
 30
0.0
 10
340.1251936748
 20
64.1005831386
 30
0.0
 10
340.5806927032
 20
63.455779717
 30
0.0
 10
340.9880377533
 20
63.1334957608
 30
0.0
 10
341.2009014906
 20
63.0248994469
 30
0.0
  0
SPLINE
  5
562
100
AcDbEntity
  8
0
100
AcDbSpline
 62
7
  6
CONTINUOUS
 70
0
 71
3
 72
11
 73
7
 74
0
 42
0.0000001
 43
0.0000001
 44
0.0000000001
 40
0.0
 40
0.0
 40
0.0
 40
0.0
 40
0.2785915915
 40
0.5235923123
 40
0.7548989177
 40
1.0
 40
1.0
 40
1.0
 40
1.0
 10
341.2009014906
 20
63.0248994469
 30
0.0
 10
341.3217684191
 20
62.9659084998
 30
0.0
 10
341.5633017469
 20
62.8783995113
 30
0.0
 10
341.9382027914
 20
62.8825461782
 30
0.0
 10
342.2602019442
 20
63.0447619461
 30
0.0
 10
342.4043237994
 20
63.2335003901
 30
0.0
 10
342.4596210703
 20
63.3381107924
 30
0.0
  0
SPLINE
  5
563
100
AcDbEntity
  8
0
100
AcDbSpline
 62
7
  6
CONTINUOUS
 70
0
 71
3
 72
9
 73
5
 74
0
 42
0.0000001
 43
0.0000001
 44
0.0000000001
 40
0.0
 40
0.0
 40
0.0
 40
0.0
 40
0.2357986435
 40
1.0
 40
1.0
 40
1.0
 40
1.0
 10
342.4596210703
 20
63.3381107924
 30
0.0
 10
342.4767214721
 20
63.3704610311
 30
0.0
 10
342.5422532535
 20
63.5113479335
 30
0.0
 10
342.5801406883
 20
63.664164788
 30
0.0
 10
342.5968015994
 20
63.7815792867
 30
0.0
  0
SPLINE
  5
564
100
AcDbEntity
  8
0
100
AcDbSpline
 62
7
  6
CONTINUOUS
 70
0
 71
3
 72
11
 73
7
 74
0
 42
0.0000001
 43
0.0000001
 44
0.0000000001
 40
0.0
 40
0.0
 40
0.0
 40
0.0
 40
0.2283764115
 40
0.4818196443
 40
0.7449256609
 40
1.0
 40
1.0
 40
1.0
 40
1.0
 10
342.5968015994
 20
63.7815792867
 30
0.0
 10
342.6236839515
 20
63.9710273837
 30
0.0
 10
342.6147771439
 20
64.3805253512
 30
0.0
 10
342.4571985154
 20
64.9887976967
 30
0.0
 10
342.171382381
 20
65.5732020796
 30
0.0
 10
341.9046581773
 20
65.9208347442
 30
0.0
 10
341.7551311926
 20
66.0735295416
 30
0.0
  0
SPLINE
  5
565
100
AcDbEntity
  8
0
100
AcDbSpline
 62
7
  6
CONTINUOUS
 70
0
 71
3
 72
9
 73
5
 74
0
 42
0.0000001
 43
0.0000001
 44
0.0000000001
 40
0.0
 40
0.0
 40
0.0
 40
0.0
 40
0.2605237247
 40
1.0
 40
1.0
 40
1.0
 40
1.0
 10
369.1274957299
 20
57.4839592887
 30
0.0
 10
369.1563447866
 20
57.4604289905
 30
0.0
 10
369.2692893664
 20
57.3728832414
 30
0.0
 10
369.3910450103
 20
57.2964717589
 30
0.0
 10
369.4851727381
 20
57.2484507836
 30
0.0
  0
SPLINE
  5
566
100
AcDbEntity
  8
0
100
AcDbSpline
 62
7
  6
CONTINUOUS
 70
0
 71
3
 72
15
 73
11
 74
0
 42
0.0000001
 43
0.0000001
 44
0.0000000001
 40
0.0
 40
0.0
 40
0.0
 40
0.0
 40
0.1333434444
 40
0.2542178809
 40
0.3658309732
 40
0.4747450573
 40
0.5881581988
 40
0.7119269696
 40
0.8490898882
 40
1.0
 40
1.0
 40
1.0
 40
1.0
 10
369.4851727381
 20
57.2484507836
 30
0.0
 10
369.5763230395
 20
57.2039634893
 30
0.0
 10
369.7580006536
 20
57.1334332346
 30
0.0
 10
370.0371805914
 20
57.0959093859
 30
0.0
 10
370.2975528587
 20
57.1413657433
 30
0.0
 10
370.5236076368
 20
57.2674323241
 30
0.0
 10
370.702408643
 20
57.4663870574
 30
0.0
 10
370.8270025106
 20
57.7258897784
 30
0.0
 10
370.8952256692
 20
58.0338193827
 30
0.0
 10
370.9022760551
 20
58.2540639667
 30
0.0
 10
370.8972591064
 20
58.3687436115
 30
0.0
  0
SPLINE
  5
567
100
AcDbEntity
  8
0
100
AcDbSpline
 62
7
  6
CONTINUOUS
 70
0
 71
3
 72
9
 73
5
 74
0
 42
0.0000001
 43
0.0000001
 44
0.0000000001
 40
0.0
 40
0.0
 40
0.0
 40
0.0
 40
0.2605237247
 40
1.0
 40
1.0
 40
1.0
 40
1.0
 10
354.9853601062
 20
60.3721836203
 30
0.0
 10
355.0142091629
 20
60.3486533221
 30
0.0
 10
355.1271537427
 20
60.2611075731
 30
0.0
 10
355.2489093866
 20
60.1846960905
 30
0.0
 10
355.3430371144
 20
60.1366751152
 30
0.0
  0
SPLINE
  5
568
100
AcDbEntity
  8
0
100
AcDbSpline
 62
7
  6
CONTINUOUS
 70
0
 71
3
 72
11
 73
7
 74
0
 42
0.0000001
 43
0.0000001
 44
0.0000000001
 40
0.0
 40
0.0
 40
0.0
 40
0.0
 40
0.2785915915
 40
0.5235923123
 40
0.7548989177
 40
1.0
 40
1.0
 40
1.0
 40
1.0
 10
355.3430371144
 20
60.1366751152
 30
0.0
 10
355.4639040429
 20
60.0776841681
 30
0.0
 10
355.7054373706
 20
59.9901751797
 30
0.0
 10
356.0803384152
 20
59.9943218465
 30
0.0
 10
356.4023375679
 20
60.1565376144
 30
0.0
 10
356.5464594231
 20
60.3452760585
 30
0.0
 10
356.601756694
 20
60.4498864608
 30
0.0
  0
SPLINE
  5
569
100
AcDbEntity
  8
0
100
AcDbSpline
 62
7
  6
CONTINUOUS
 70
0
 71
3
 72
9
 73
5
 74
0
 42
0.0000001
 43
0.0000001
 44
0.0000000001
 40
0.0
 40
0.0
 40
0.0
 40
0.0
 40
0.2357986435
 40
1.0
 40
1.0
 40
1.0
 40
1.0
 10
356.601756694
 20
60.4498864608
 30
0.0
 10
356.6188570958
 20
60.4822366994
 30
0.0
 10
356.6843888773
 20
60.6231236019
 30
0.0
 10
356.7222763121
 20
60.7759404564
 30
0.0
 10
356.7389372231
 20
60.893354955
 30
0.0
  0
SPLINE
  5
56A
100
AcDbEntity
  8
0
100
AcDbSpline
 62
7
  6
CONTINUOUS
 70
0
 71
3
 72
9
 73
5
 74
0
 42
0.0000001
 43
0.0000001
 44
0.0000000001
 40
0.0
 40
0.0
 40
0.0
 40
0.0
 40
0.241302448
 40
1.0
 40
1.0
 40
1.0
 40
1.0
 10
356.7389372231
 20
60.893354955
 30
0.0
 10
356.7430535626
 20
60.9223640491
 30
0.0
 10
356.7570407479
 20
61.0430111196
 30
0.0
 10
356.7591498009
 20
61.1649325695
 30
0.0
 10
356.7551234826
 20
61.2569679431
 30
0.0
  0
SPLINE
  5
56B
100
AcDbEntity
  8
0
100
AcDbSpline
 62
7
  6
CONTINUOUS
 70
0
 71
3
 72
8
 73
4
 74
0
 42
0.0000001
 43
0.0000001
 44
0.0000000001
 40
0.0
 40
0.0
 40
0.0
 40
0.0
 40
1.0
 40
1.0
 40
1.0
 40
1.0
 10
339.9279991858
 20
65.5511094689
 30
0.0
 10
339.8872451927
 20
65.5025951028
 30
0.0
 10
339.840782601
 20
65.4582495464
 30
0.0
 10
339.789886309
 20
65.4205123085
 30
0.0
  0
SPLINE
  5
56C
100
AcDbEntity
  8
0
100
AcDbSpline
 62
7
  6
CONTINUOUS
 70
0
 71
3
 72
9
 73
5
 74
0
 42
0.0000001
 43
0.0000001
 44
0.0000000001
 40
0.0
 40
0.0
 40
0.0
 40
0.0
 40
0.7449105294
 40
1.0
 40
1.0
 40
1.0
 40
1.0
 10
338.9512419631
 20
65.336337343
 30
0.0
 10
338.9083441388
 20
65.3515015788
 30
0.0
 10
338.8517088096
 20
65.3746784438
 30
0.0
 10
338.7965683673
 20
65.4009539844
 30
0.0
 10
338.782596299
 20
65.4078492995
 30
0.0
  0
SPLINE
  5
56D
100
AcDbEntity
  8
0
100
AcDbSpline
 62
7
  6
CONTINUOUS
 70
0
 71
3
 72
9
 73
5
 74
0
 42
0.0000001
 43
0.0000001
 44
0.0000000001
 40
0.0
 40
0.0
 40
0.0
 40
0.0
 40
0.4700134056
 40
1.0
 40
1.0
 40
1.0
 40
1.0
 10
338.782596299
 20
65.4078492995
 30
0.0
 10
338.5383993137
 20
65.5315368253
 30
0.0
 10
338.0807063468
 20
65.9165360304
 30
0.0
 10
337.765380715
 20
66.4157282201
 30
0.0
 10
337.6371927425
 20
66.6965141983
 30
0.0
  0
SPLINE
  5
56E
100
AcDbEntity
  8
0
100
AcDbSpline
 62
7
  6
CONTINUOUS
 70
0
 71
3
 72
8
 73
4
 74
0
 42
0.0000001
 43
0.0000001
 44
0.0000000001
 40
0.0
 40
0.0
 40
0.0
 40
0.0
 40
1.0
 40
1.0
 40
1.0
 40
1.0
 10
336.3358967374
 20
67.3471606931
 30
0.0
 10
336.2951427443
 20
67.298646327
 30
0.0
 10
336.2486801526
 20
67.2543007706
 30
0.0
 10
336.1977838605
 20
67.2165635327
 30
0.0
  0
SPLINE
  5
56F
100
AcDbEntity
  8
0
100
AcDbSpline
 62
7
  6
CONTINUOUS
 70
0
 71
3
 72
9
 73
5
 74
0
 42
0.0000001
 43
0.0000001
 44
0.0000000001
 40
0.0
 40
0.0
 40
0.0
 40
0.0
 40
0.7449105294
 40
1.0
 40
1.0
 40
1.0
 40
1.0
 10
335.3591395146
 20
67.1323885672
 30
0.0
 10
335.3162416903
 20
67.1475528031
 30
0.0
 10
335.2596063612
 20
67.170729668
 30
0.0
 10
335.2044659189
 20
67.1970052087
 30
0.0
 10
335.1904938505
 20
67.2039005237
 30
0.0
  0
SPLINE
  5
570
100
AcDbEntity
  8
0
100
AcDbSpline
 62
7
  6
CONTINUOUS
 70
0
 71
3
 72
9
 73
5
 74
0
 42
0.0000001
 43
0.0000001
 44
0.0000000001
 40
0.0
 40
0.0
 40
0.0
 40
0.0
 40
0.4700134056
 40
1.0
 40
1.0
 40
1.0
 40
1.0
 10
335.1904938505
 20
67.2039005237
 30
0.0
 10
334.9462968653
 20
67.3275880495
 30
0.0
 10
334.4886038984
 20
67.7125872546
 30
0.0
 10
334.1732782665
 20
68.2117794443
 30
0.0
 10
334.0450902941
 20
68.4925654225
 30
0.0
  0
SPLINE
  5
571
100
AcDbEntity
  8
0
100
AcDbSpline
 62
7
  6
CONTINUOUS
 70
0
 71
3
 72
9
 73
5
 74
0
 42
0.0000001
 43
0.0000001
 44
0.0000000001
 40
0.0
 40
0.0
 40
0.0
 40
0.0
 40
0.7449105294
 40
1.0
 40
1.0
 40
1.0
 40
1.0
 10
342.5433444115
 20
63.5402861188
 30
0.0
 10
342.5004465872
 20
63.5554503546
 30
0.0
 10
342.4438112581
 20
63.5786272195
 30
0.0
 10
342.3886708157
 20
63.6049027602
 30
0.0
 10
342.3746987474
 20
63.6117980753
 30
0.0
  0
SPLINE
  5
572
100
AcDbEntity
  8
0
100
AcDbSpline
 62
7
  6
CONTINUOUS
 70
0
 71
3
 72
9
 73
5
 74
0
 42
0.0000001
 43
0.0000001
 44
0.0000000001
 40
0.0
 40
0.0
 40
0.0
 40
0.0
 40
0.4768854925
 40
1.0
 40
1.0
 40
1.0
 40
1.0
 10
342.3746987474
 20
63.6117980753
 30
0.0
 10
342.0249662002
 20
63.7889401207
 30
0.0
 10
341.41757399
 20
64.3978827351
 30
0.0
 10
341.087492902
 20
65.1733595299
 30
0.0
 10
341.0053923536
 20
65.5954893778
 30
0.0
  0
SPLINE
  5
573
100
AcDbEntity
  8
0
100
AcDbSpline
 62
7
  6
CONTINUOUS
 70
0
 71
3
 72
9
 73
5
 74
0
 42
0.0000001
 43
0.0000001
 44
0.0000000001
 40
0.0
 40
0.0
 40
0.0
 40
0.0
 40
0.7449105294
 40
1.0
 40
1.0
 40
1.0
 40
1.0
 10
356.6854800352
 20
60.6520617871
 30
0.0
 10
356.6425822109
 20
60.667226023
 30
0.0
 10
356.5859468818
 20
60.6904028879
 30
0.0
 10
356.5308064395
 20
60.7166784286
 30
0.0
 10
356.5168343711
 20
60.7235737436
 30
0.0
  0
SPLINE
  5
574
100
AcDbEntity
  8
0
100
AcDbSpline
 62
7
  6
CONTINUOUS
 70
0
 71
3
 72
9
 73
5
 74
0
 42
0.0000001
 43
0.0000001
 44
0.0000000001
 40
0.0
 40
0.0
 40
0.0
 40
0.0
 40
0.2394195791
 40
1.0
 40
1.0
 40
1.0
 40
1.0
 10
356.5168343711
 20
60.7235737436
 30
0.0
 10
356.4860739539
 20
60.7391541157
 30
0.0
 10
356.3595573323
 20
60.8080704211
 30
0.0
 10
356.2411119729
 20
60.8915060396
 30
0.0
 10
356.1564301264
 20
60.9609877453
 30
0.0
  0
SPLINE
  5
575
100
AcDbEntity
  8
0
100
AcDbSpline
 62
7
  6
CONTINUOUS
 70
0
 71
3
 72
9
 73
5
 74
0
 42
0.0000001
 43
0.0000001
 44
0.0000000001
 40
0.0
 40
0.0
 40
0.0
 40
0.0
 40
0.5295729377
 40
1.0
 40
1.0
 40
1.0
 40
1.0
 10
340.1519026927
 20
130.5411267902
 30
0.0
 10
340.1223529917
 20
130.4187496326
 30
0.0
 10
340.0396594222
 20
130.1917036493
 30
0.0
 10
339.8797203612
 20
130.0060126699
 30
0.0
 10
339.789886309
 20
129.9394048904
 30
0.0
  0
SPLINE
  5
576
100
AcDbEntity
  8
0
100
AcDbSpline
 62
7
  6
CONTINUOUS
 70
0
 71
3
 72
9
 73
5
 74
0
 42
0.0000001
 43
0.0000001
 44
0.0000000001
 40
0.0
 40
0.0
 40
0.0
 40
0.0
 40
0.7449105294
 40
1.0
 40
1.0
 40
1.0
 40
1.0
 10
338.9512419631
 20
129.8552299249
 30
0.0
 10
338.9083441388
 20
129.8703941608
 30
0.0
 10
338.8517088096
 20
129.8935710257
 30
0.0
 10
338.7965683673
 20
129.9198465664
 30
0.0
 10
338.782596299
 20
129.9267418814
 30
0.0
  0
SPLINE
  5
577
100
AcDbEntity
  8
0
100
AcDbSpline
 62
7
  6
CONTINUOUS
 70
0
 71
3
 72
9
 73
5
 74
0
 42
0.0000001
 43
0.0000001
 44
0.0000000001
 40
0.0
 40
0.0
 40
0.0
 40
0.0
 40
0.4768854925
 40
1.0
 40
1.0
 40
1.0
 40
1.0
 10
338.782596299
 20
129.9267418814
 30
0.0
 10
338.4328637518
 20
130.1038839269
 30
0.0
 10
337.8254715415
 20
130.7128265413
 30
0.0
 10
337.4953904535
 20
131.488303336
 30
0.0
 10
337.4132899052
 20
131.910433184
 30
0.0
  0
SPLINE
  5
578
100
AcDbEntity
  8
0
100
AcDbSpline
 62
7
  6
CONTINUOUS
 70
0
 71
3
 72
9
 73
5
 74
0
 42
0.0000001
 43
0.0000001
 44
0.0000000001
 40
0.0
 40
0.0
 40
0.0
 40
0.0
 40
0.7449105294
 40
1.0
 40
1.0
 40
1.0
 40
1.0
 10
342.5433444115
 20
128.0591787007
 30
0.0
 10
342.5004465872
 20
128.0743429366
 30
0.0
 10
342.4438112581
 20
128.0975198015
 30
0.0
 10
342.3886708157
 20
128.1237953422
 30
0.0
 10
342.3746987474
 20
128.1306906572
 30
0.0
  0
SPLINE
  5
579
100
AcDbEntity
  8
0
100
AcDbSpline
 62
7
  6
CONTINUOUS
 70
0
 71
3
 72
9
 73
5
 74
0
 42
0.0000001
 43
0.0000001
 44
0.0000000001
 40
0.0
 40
0.0
 40
0.0
 40
0.0
 40
0.4768854925
 40
1.0
 40
1.0
 40
1.0
 40
1.0
 10
342.3746987474
 20
128.1306906572
 30
0.0
 10
342.0249662002
 20
128.3078327027
 30
0.0
 10
341.41757399
 20
128.9167753171
 30
0.0
 10
341.087492902
 20
129.6922521118
 30
0.0
 10
341.0053923536
 20
130.1143819598
 30
0.0
  0
SPLINE
  5
57A
100
AcDbEntity
  8
0
100
AcDbSpline
 62
7
  6
CONTINUOUS
 70
0
 71
3
 72
9
 73
5
 74
0
 42
0.0000001
 43
0.0000001
 44
0.0000000001
 40
0.0
 40
0.0
 40
0.0
 40
0.0
 40
0.5295729377
 40
1.0
 40
1.0
 40
1.0
 40
1.0
 10
336.5598002443
 20
132.3371780144
 30
0.0
 10
336.5302505433
 20
132.2148008568
 30
0.0
 10
336.4475569737
 20
131.9877548736
 30
0.0
 10
336.2876179127
 20
131.8020638942
 30
0.0
 10
336.1977838605
 20
131.7354561146
 30
0.0
  0
SPLINE
  5
57B
100
AcDbEntity
  8
0
100
AcDbSpline
 62
7
  6
CONTINUOUS
 70
0
 71
3
 72
9
 73
5
 74
0
 42
0.0000001
 43
0.0000001
 44
0.0000000001
 40
0.0
 40
0.0
 40
0.0
 40
0.0
 40
0.7449105294
 40
1.0
 40
1.0
 40
1.0
 40
1.0
 10
335.3591395146
 20
131.6512811491
 30
0.0
 10
335.3162416903
 20
131.666445385
 30
0.0
 10
335.2596063612
 20
131.6896222499
 30
0.0
 10
335.2044659189
 20
131.7158977906
 30
0.0
 10
335.1904938505
 20
131.7227931056
 30
0.0
  0
SPLINE
  5
57C
100
AcDbEntity
  8
0
100
AcDbSpline
 62
7
  6
CONTINUOUS
 70
0
 71
3
 72
9
 73
5
 74
0
 42
0.0000001
 43
0.0000001
 44
0.0000000001
 40
0.0
 40
0.0
 40
0.0
 40
0.0
 40
0.4768854925
 40
1.0
 40
1.0
 40
1.0
 40
1.0
 10
335.1904938505
 20
131.7227931056
 30
0.0
 10
334.8407613034
 20
131.8999351511
 30
0.0
 10
334.2333690931
 20
132.5088777655
 30
0.0
 10
333.9032880051
 20
133.2843545602
 30
0.0
 10
333.8211874568
 20
133.7064844082
 30
0.0
  0
SPLINE
  5
57D
100
AcDbEntity
  8
0
100
AcDbSpline
 62
7
  6
CONTINUOUS
 70
0
 71
3
 72
9
 73
5
 74
0
 42
0.0000001
 43
0.0000001
 44
0.0000000001
 40
0.0
 40
0.0
 40
0.0
 40
0.0
 40
0.5295729377
 40
1.0
 40
1.0
 40
1.0
 40
1.0
 10
354.2940383165
 20
147.5714867456
 30
0.0
 10
354.2644886154
 20
147.4491095879
 30
0.0
 10
354.1817950459
 20
147.2220636047
 30
0.0
 10
354.0218559849
 20
147.0363726253
 30
0.0
 10
353.9320219327
 20
146.9697648458
 30
0.0
  0
SPLINE
  5
57E
100
AcDbEntity
  8
0
100
AcDbSpline
 62
7
  6
CONTINUOUS
 70
0
 71
3
 72
9
 73
5
 74
0
 42
0.0000001
 43
0.0000001
 44
0.0000000001
 40
0.0
 40
0.0
 40
0.0
 40
0.0
 40
0.7449105294
 40
1.0
 40
1.0
 40
1.0
 40
1.0
 10
353.0933775868
 20
146.8855898803
 30
0.0
 10
353.0504797625
 20
146.9007541162
 30
0.0
 10
352.9938444334
 20
146.9239309811
 30
0.0
 10
352.938703991
 20
146.9502065218
 30
0.0
 10
352.9247319227
 20
146.9571018368
 30
0.0
  0
SPLINE
  5
57F
100
AcDbEntity
  8
0
100
AcDbSpline
 62
7
  6
CONTINUOUS
 70
0
 71
3
 72
9
 73
5
 74
0
 42
0.0000001
 43
0.0000001
 44
0.0000000001
 40
0.0
 40
0.0
 40
0.0
 40
0.0
 40
0.4768854925
 40
1.0
 40
1.0
 40
1.0
 40
1.0
 10
352.9247319227
 20
146.9571018368
 30
0.0
 10
352.5749993755
 20
147.1342438823
 30
0.0
 10
351.9676071653
 20
147.7431864967
 30
0.0
 10
351.6375260773
 20
148.5186632914
 30
0.0
 10
351.5554255289
 20
148.9407931394
 30
0.0
  0
SPLINE
  5
580
100
AcDbEntity
  8
0
100
AcDbSpline
 62
7
  6
CONTINUOUS
 70
0
 71
3
 72
9
 73
5
 74
0
 42
0.0000001
 43
0.0000001
 44
0.0000000001
 40
0.0
 40
0.0
 40
0.0
 40
0.0
 40
0.7449105294
 40
1.0
 40
1.0
 40
1.0
 40
1.0
 10
356.6854800352
 20
145.0895386561
 30
0.0
 10
356.6425822109
 20
145.104702892
 30
0.0
 10
356.5859468818
 20
145.1278797569
 30
0.0
 10
356.5308064395
 20
145.1541552976
 30
0.0
 10
356.5168343711
 20
145.1610506126
 30
0.0
  0
SPLINE
  5
581
100
AcDbEntity
  8
0
100
AcDbSpline
 62
7
  6
CONTINUOUS
 70
0
 71
3
 72
9
 73
5
 74
0
 42
0.0000001
 43
0.0000001
 44
0.0000000001
 40
0.0
 40
0.0
 40
0.0
 40
0.0
 40
0.4768854925
 40
1.0
 40
1.0
 40
1.0
 40
1.0
 10
356.5168343711
 20
145.1610506126
 30
0.0
 10
356.167101824
 20
145.3381926581
 30
0.0
 10
355.5597096137
 20
145.9471352724
 30
0.0
 10
355.2296285257
 20
146.7226120672
 30
0.0
 10
355.1475279774
 20
147.1447419151
 30
0.0
  0
SPLINE
  5
582
100
AcDbEntity
  8
0
100
AcDbSpline
 62
7
  6
CONTINUOUS
 70
0
 71
3
 72
9
 73
5
 74
0
 42
0.0000001
 43
0.0000001
 44
0.0000000001
 40
0.0
 40
0.0
 40
0.0
 40
0.0
 40
0.5295729377
 40
1.0
 40
1.0
 40
1.0
 40
1.0
 10
350.701935868
 20
149.3675379698
 30
0.0
 10
350.672386167
 20
149.2451608122
 30
0.0
 10
350.5896925975
 20
149.0181148289
 30
0.0
 10
350.4297535365
 20
148.8324238495
 30
0.0
 10
350.3399194843
 20
148.76581607
 30
0.0
  0
SPLINE
  5
583
100
AcDbEntity
  8
0
100
AcDbSpline
 62
7
  6
CONTINUOUS
 70
0
 71
3
 72
9
 73
5
 74
0
 42
0.0000001
 43
0.0000001
 44
0.0000000001
 40
0.0
 40
0.0
 40
0.0
 40
0.0
 40
0.7449105294
 40
1.0
 40
1.0
 40
1.0
 40
1.0
 10
349.5012751384
 20
148.6816411045
 30
0.0
 10
349.4583773141
 20
148.6968053404
 30
0.0
 10
349.4017419849
 20
148.7199822053
 30
0.0
 10
349.3466015426
 20
148.746257746
 30
0.0
 10
349.3326294743
 20
148.753153061
 30
0.0
  0
SPLINE
  5
584
100
AcDbEntity
  8
0
100
AcDbSpline
 62
7
  6
CONTINUOUS
 70
0
 71
3
 72
9
 73
5
 74
0
 42
0.0000001
 43
0.0000001
 44
0.0000000001
 40
0.0
 40
0.0
 40
0.0
 40
0.0
 40
0.4768854925
 40
1.0
 40
1.0
 40
1.0
 40
1.0
 10
349.3326294743
 20
148.753153061
 30
0.0
 10
348.9828969271
 20
148.9302951065
 30
0.0
 10
348.3755047168
 20
149.5392377209
 30
0.0
 10
348.0454236288
 20
150.3147145156
 30
0.0
 10
347.9633230805
 20
150.7368443636
 30
0.0
  0
SPLINE
  5
585
100
AcDbEntity
  8
0
100
AcDbSpline
 62
7
  6
CONTINUOUS
 70
0
 71
3
 72
9
 73
5
 74
0
 42
0.0000001
 43
0.0000001
 44
0.0000000001
 40
0.0
 40
0.0
 40
0.0
 40
0.0
 40
0.248695688
 40
1.0
 40
1.0
 40
1.0
 40
1.0
 10
518.1507957628
 20
168.4863814339
 30
0.0
 10
518.1008750708
 20
168.5545060858
 30
0.0
 10
517.9115874341
 20
168.8366245572
 30
0.0
 10
517.7666183083
 20
169.1485811612
 30
0.0
 10
517.687863966
 20
169.3912664035
 30
0.0
  0
SPLINE
  5
586
100
AcDbEntity
  8
0
100
AcDbSpline
 62
7
  6
CONTINUOUS
 70
0
 71
3
 72
9
 73
5
 74
0
 42
0.0000001
 43
0.0000001
 44
0.0000000001
 40
0.0
 40
0.0
 40
0.0
 40
0.0
 40
0.248695688
 40
1.0
 40
1.0
 40
1.0
 40
1.0
 10
507.6007625875
 20
169.5785545414
 30
0.0
 10
507.5508418955
 20
169.6466791933
 30
0.0
 10
507.3615542588
 20
169.9287976646
 30
0.0
 10
507.216585133
 20
170.2407542687
 30
0.0
 10
507.1378307907
 20
170.483439511
 30
0.0
  0
SPLINE
  5
587
100
AcDbEntity
  8
0
100
AcDbSpline
 62
7
  6
CONTINUOUS
 70
0
 71
3
 72
9
 73
5
 74
0
 42
0.0000001
 43
0.0000001
 44
0.0000000001
 40
0.0
 40
0.0
 40
0.0
 40
0.0
 40
0.2579847884
 40
1.0
 40
1.0
 40
1.0
 40
1.0
 10
506.1012827477
 20
171.0020173057
 30
0.0
 10
506.0923605993
 20
170.9834327167
 30
0.0
 10
506.0558152001
 20
170.9123688728
 30
0.0
 10
506.0110832324
 20
170.8453941305
 30
0.0
 10
505.9733115011
 20
170.7996880567
 30
0.0
  0
SPLINE
  5
588
100
AcDbEntity
  8
0
100
AcDbSpline
 62
7
  6
CONTINUOUS
 70
0
 71
3
 72
8
 73
4
 74
0
 42
0.0000001
 43
0.0000001
 44
0.0000000001
 40
0.0
 40
0.0
 40
0.0
 40
0.0
 40
1.0
 40
1.0
 40
1.0
 40
1.0
 10
505.9733115011
 20
170.7996880567
 30
0.0
 10
505.9315614286
 20
170.74916795
 30
0.0
 10
505.8836753485
 20
170.7030409028
 30
0.0
 10
505.8310815349
 20
170.6639353981
 30
0.0
  0
SPLINE
  5
589
100
AcDbEntity
  8
0
100
AcDbSpline
 62
7
  6
CONTINUOUS
 70
0
 71
3
 72
9
 73
5
 74
0
 42
0.0000001
 43
0.0000001
 44
0.0000000001
 40
0.0
 40
0.0
 40
0.0
 40
0.0
 40
0.4856922695
 40
1.0
 40
1.0
 40
1.0
 40
1.0
 10
505.8310815349
 20
170.6639353981
 30
0.0
 10
505.7479569193
 20
170.6021290785
 30
0.0
 10
505.5478689462
 20
170.5096351415
 30
0.0
 10
505.3287661056
 20
170.506347087
 30
0.0
 10
505.2202344853
 20
170.5222272086
 30
0.0
  0
SPLINE
  5
58A
100
AcDbEntity
  8
0
100
AcDbSpline
 62
7
  6
CONTINUOUS
 70
0
 71
3
 72
9
 73
5
 74
0
 42
0.0000001
 43
0.0000001
 44
0.0000000001
 40
0.0
 40
0.0
 40
0.0
 40
0.0
 40
0.2450337165
 40
1.0
 40
1.0
 40
1.0
 40
1.0
 10
505.8724473194
 20
170.2516082555
 30
0.0
 10
505.8940161256
 20
170.1407143766
 30
0.0
 10
506.0077663722
 20
169.6934872587
 30
0.0
 10
506.2213993514
 20
169.2720523916
 30
0.0
 10
506.4272541884
 20
168.991375077
 30
0.0
  0
SPLINE
  5
58B
100
AcDbEntity
  8
0
100
AcDbSpline
 62
7
  6
CONTINUOUS
 70
0
 71
3
 72
9
 73
5
 74
0
 42
0.0000001
 43
0.0000001
 44
0.0000000001
 40
0.0
 40
0.0
 40
0.0
 40
0.0
 40
0.2518157426
 40
1.0
 40
1.0
 40
1.0
 40
1.0
 10
502.5226013433
 20
171.3131361576
 30
0.0
 10
502.5445664166
 20
171.2666872
 30
0.0
 10
502.6361546559
 20
171.0843314749
 30
0.0
 10
502.7448671018
 20
170.9105268811
 30
0.0
 10
502.83515174
 20
170.7874263012
 30
0.0
  0
ENDSEC
  0
SECTION
  2
OBJECTS
  0
DICTIONARY
  5
C
100
AcDbDictionary
280
0
281
1
  3
ACAD_GROUP
350
D
  3
ACAD_MLINESTYLE
350
17
  3
ACAD_LAYOUT
350
1A
  3
ACAD_PLOTSETTINGS
350
19
  3
ACAD_PLOTSTYLENAME
350
E
  0
DICTIONARY
  5
D
102
{ACAD_REACTORS
330
C
102
}
100
AcDbDictionary
280
0
281
1
  0
ACDBDICTIONARYWDFLT
  5
E
102
{ACAD_REACTORS
330
C
102
}
100
AcDbDictionary
281
1
  3
Normal
350
F
100
AcDbDictionaryWithDefault
340
F
  0
DICTIONARY
  5
17
102
{ACAD_REACTORS
330
C
102
}
100
AcDbDictionary
280
0
281
1
  3
Standard
350
18
  0
DICTIONARY
  5
19
102
{ACAD_REACTORS
330
C
102
}
100
AcDbDictionary
281
1
  0
DICTIONARY
  5
1A
102
{ACAD_REACTORS
330
C
102
}
100
AcDbDictionary
281
1
  3
Model
350
58C
  3
Layout1
350
58D
  0
ACDBPLACEHOLDER
  5
F
102
{ACAD_REACTORS
330
E
102
}
  0
MLINESTYLE
  5
18
102
{ACAD_REACTORS
330
17
102
}
100
AcDbMlineStyle
  2
STANDARD
 70
0
  3

 62
256
 51
90.0
 52
90.0
 71
2
 49
0.5
 62
256
  6
BYLAYER
 49
-0.5
 62
256
  6
BYLAYER
  0
LAYOUT
  5
58C
102
{ACAD_REACTORS
330
1A
102
}
100
AcDbPlotSettings
  1

  2
none_device
  4
ANSI_C_(22.00_x_17.00_Inches)
  6

 40
0.0
 41
0.0
 42
0.0
 43
0.0
 44
558.8
 45
431.8
 46
0.0
 47
0.0
 48
0.0
 49
0.0
140
0.0
141
0.0
142
1.0
143
1.0
 70
1024
 72
1
 73
0
 74
0
  7

 75
0
147
1.0
148
0.0
149
0.0
100
AcDbLayout
  1
Model
 70
0
 71
0
 10
0.0
 20
0.0
 11
558.8
 21
431.8
 12
0.0
 22
0.0
 32
0.0
 14
0.0
 24
0.0
 34
0.0
 15
0.0
 25
0.0
 35
0.0
146
0.0
 13
0.0
 23
0.0
 33
0.0
 16
1.0
 26
0.0
 36
0.0
 17
0.0
 27
1.0
 37
0.0
 76
0
330
201
345
0
346
0
  0
LAYOUT
  5
58D
102
{ACAD_REACTORS
330
1A
102
}
100
AcDbPlotSettings
  1

  2
none_device
  4
ANSI_C_(22.00_x_17.00_Inches)
  6

 40
0.0
 41
0.0
 42
0.0
 43
0.0
 44
558.8
 45
431.8
 46
0.0
 47
0.0
 48
0.0
 49
0.0
140
0.0
141
0.0
142
1.0
143
1.0
 70
0
 72
1
 73
0
 74
0
  7

 75
0
147
1.0
148
0.0
149
0.0
100
AcDbLayout
  1
Layout1
 70
0
 71
1
 10
0.0
 20
0.0
 11
558.8
 21
431.8
 12
0.0
 22
0.0
 32
0.0
 14
0.0
 24
0.0
 34
0.0
 15
0.0
 25
0.0
 35
0.0
146
0.0
 13
0.0
 23
0.0
 33
0.0
 16
1.0
 26
0.0
 36
0.0
 17
0.0
 27
1.0
 37
0.0
 76
0
330
202
345
0
346
0
  0
ENDSEC
  0
EOF
